<?xml version="1.0" standalone="no"?>
<!DOCTYPE svg PUBLIC "-//W3C//DTD SVG 1.1//EN" "http://www.w3.org/Graphics/SVG/1.1/DTD/svg11.dtd" >
<svg xmlns="http://www.w3.org/2000/svg">
<metadata></metadata>
<defs>
<font id="vinqueregular" horiz-adv-x="1556" >
<font-face units-per-em="2048" ascent="1642" descent="-406" />
<missing-glyph horiz-adv-x="614" />
<glyph horiz-adv-x="0" />
<glyph unicode="&#xd;" horiz-adv-x="743" />
<glyph horiz-adv-x="614" />
<glyph unicode=" "  horiz-adv-x="614" />
<glyph unicode="&#x09;" horiz-adv-x="614" />
<glyph unicode="&#xa0;" horiz-adv-x="614" />
<glyph unicode="!" horiz-adv-x="550" d="M106 162l170 194l166 -172l-176 -211zM106 1526h338q-39 -283 -69.5 -561.5t-52.5 -585.5h-95q-16 307 -46.5 585.5t-74.5 561.5z" />
<glyph unicode="&#x22;" horiz-adv-x="681" d="M55 1376v23l144 125l125 -113l-119 -440l-68 22l-10 301q-2 78 -72 82zM358 1376v23l144 125l125 -113l-119 -440l-68 22l-10 301q-2 78 -72 82z" />
<glyph unicode="#" horiz-adv-x="1165" d="M27 518l24 92h197l69 254h-198l28 107h199l55 209q2 10 3.5 17t1.5 13q0 37 -44 43l7 23l243 113l-110 -418h268l55 209q2 10 3 17t1 13q0 37 -43 43l7 23l243 113l-112 -418h184l-29 -107h-182l-70 -254h185l-25 -92h-184l-62 -231q-4 -16 -4 -21q0 -27 11.5 -40 t46.5 -13l-9 -29l-124 -67l-95 90l82 311h-268l-62 -231q-4 -16 -4 -21q0 -27 11.5 -40t46.5 -13l-8 -29l-125 -67l-99 90l84 311h-198zM406 610h268l67 254h-268z" />
<glyph unicode="$" horiz-adv-x="1042" d="M70 387q129 47 235 148q29 -55 60.5 -96.5t66.5 -67.5v286q-160 0 -250 -39q-102 170 -102 304q0 61 19.5 107t59.5 86t97 77t135 80l41 24v211h51v-182l97 53l47 -24v153h45v-178q74 -43 138 -92t122 -102q-98 -31 -221 -154q-12 51 -39 78v-260q111 14 221 65 q29 -88 50.5 -173t21.5 -177t-76 -170t-217 -135v-209h-45v190q-41 -14 -76 -24t-68 -16v-150h-51v164q-45 16 -97 39.5t-102.5 52.5t-93.5 62.5t-69 68.5zM295 1014q0 -70 39 -118t98 -75v350h-26q-56 0 -74 -8q-37 -86 -37 -149zM483 338q29 -16 67 -25.5t77 -11.5v307 q-33 16 -68 28.5t-76 16.5v-315zM483 805q18 -4 38.5 -6t43.5 -4q2 -2 29 -2h15t18 2v305q-29 23 -71 39t-73 24v-358zM672 301q12 0 26.5 1t27.5 4t22.5 10.5t9.5 19.5q0 70 -11.5 124t-56.5 101l-18 14v-274z" />
<glyph unicode="%" d="M78 1096q0 74 21.5 129t65.5 104t109.5 96.5t155.5 102.5q172 -100 239.5 -209t67.5 -238q0 -63 -28.5 -120.5t-76.5 -102.5t-108.5 -75.5t-124.5 -41.5q-66 23 -123 59t-102 82t-70.5 100t-25.5 114zM207 1217q0 -70 33.5 -129.5t84 -102.5t110 -67.5t112.5 -24.5 q55 0 66.5 26.5t11.5 61.5q0 63 -26 124.5t-70 111t-104 79t-128 29.5q-18 0 -35 -3t-35 -7q-20 -41 -20 -98zM250 0l997 1573h133l-983 -1573h-147zM819 350q0 72 22.5 127t66.5 103.5t111 94.5t155 99q172 -98 238.5 -207.5t66.5 -236.5q0 -63 -29 -120.5t-76 -103 t-108.5 -76t-124.5 -40.5q-66 23 -124.5 58.5t-102.5 82.5t-69.5 102.5t-25.5 116.5zM948 465q0 -68 34 -128.5t84 -104.5t109.5 -69.5t112.5 -25.5q31 0 46.5 9.5t23.5 24.5t9 34.5t1 38.5q0 61 -27.5 119.5t-73.5 105.5t-104.5 75.5t-122.5 28.5q-18 0 -35.5 -3t-35.5 -7 q-20 -41 -21 -98z" />
<glyph unicode="&#x26;" horiz-adv-x="1544" d="M74 547q31 59 81 119.5t106 112.5t113.5 93t102.5 62q-37 18 -78 45t-74.5 60.5t-56 75.5t-22.5 93q0 70 38 133.5t103.5 111.5t153.5 75.5t190 27.5q262 -188 604 -188h33.5t34.5 2l-225 -231q-354 92 -549 299q-113 -94 -113 -189q0 -61 45 -121.5t107.5 -110.5 t127 -89t105.5 -60l-22 -77l-109 -13q-59 -25 -116.5 -55.5t-102.5 -68.5t-71.5 -86t-26.5 -109t28.5 -117.5t74.5 -101.5t106.5 -72t123.5 -27q90 0 139.5 33t73 77t27.5 91t4 78v184h301v-170q0 -217 160 -330l-68 -94q-121 61 -268 62q-193 0 -434 -99q-98 8 -203.5 59.5 t-197 131.5t-158 179t-88.5 204z" />
<glyph unicode="'" horiz-adv-x="382" d="M55 1376v23l144 125l125 -113l-119 -440l-68 22l-10 301q-2 78 -72 82z" />
<glyph unicode="(" horiz-adv-x="876" d="M88 760q0 362 160 595.5t500 358.5l24 -33q-420 -199 -420 -753q0 -190 30 -352t83 -289t127 -220.5t164 -146.5l-25 -80q-324 111 -483.5 336t-159.5 584z" />
<glyph unicode=")" horiz-adv-x="876" d="M82 -127q418 197 418 743q0 195 -30 358t-83 291t-128 221t-163 146l27 82q319 -111 480 -336t161 -587q0 -360 -161 -595t-499 -356z" />
<glyph unicode="*" horiz-adv-x="1013" d="M84 1098l315 37l-233 213l211 151l135 -293l125 293l207 -151l-230 -228l314 -22l-84 -248l-273 154l66 -306h-260l61 310l-272 -158z" />
<glyph unicode="+" horiz-adv-x="976" d="M53 432l97 291q66 -33 198 -33h62v234l174 106v-340h176q72 0 145 55l43 -24l-98 -264q-66 31 -113 30h-153v-348h-174v348h-172q-90 0 -148 -73z" />
<glyph unicode="," horiz-adv-x="477" d="M86 174l180 199l156 -176l-285 -355l-41 27l111 168z" />
<glyph unicode="-" horiz-adv-x="753" d="M61 432l97 291q66 -33 198 -33h152q68 0 145 55l43 -24l-100 -264q-66 31 -113 30h-237q-90 0 -148 -73z" />
<glyph unicode="." horiz-adv-x="481" d="M72 170l178 197l158 -172l-179 -211z" />
<glyph unicode="/" horiz-adv-x="864" d="M14 -246l695 1940h131l-680 -1940h-146z" />
<glyph unicode="0" horiz-adv-x="1349" d="M104 721q0 147 41 260t119 210t193 186.5t262 187.5q266 -166 396 -379t130 -508q0 -125 -46 -239.5t-126 -209t-186.5 -160t-224.5 -92.5q-109 49 -209.5 123t-178 168t-124 209t-46.5 244zM274 946q0 -88 26 -176t70 -170t103 -153.5t128 -125t142.5 -84t147.5 -30.5 q82 0 151 39q23 49 31 107.5t8 123.5q0 127 -36.5 263.5t-105.5 248t-166 183t-216 71.5q-110 0 -223 -63q-59 -109 -60 -234z" />
<glyph unicode="1" horiz-adv-x="593" d="M80 1311v37l369 194v-1542h-269v1182q0 121 -100 129z" />
<glyph unicode="2" horiz-adv-x="1460" d="M25 39q98 260 209.5 468t240.5 394q125 -135 291 -135q106 0 163.5 65.5t57.5 194.5q0 133 -90 285q-25 4 -48.5 7t-45.5 3q-61 0 -116.5 -17.5t-103.5 -47t-84 -71.5t-57 -91q-137 113 -284 153q104 94 228 175t278 149q152 -72 261 -137.5t180 -136t104.5 -149.5 t33.5 -177q0 -176 -139 -365q-127 86 -273 86q-74 0 -139 -23.5t-126.5 -77.5t-120 -145.5t-119.5 -226.5q164 96 288 96q72 0 154 -16t168 -39q43 -12 82 -12q57 0 105 32.5t85 77.5t60.5 91.5t29.5 74.5l66 -14q-18 -145 -62.5 -246.5t-103.5 -164t-130 -91t-142 -28.5 q-156 0 -252 20q-57 8 -98 14t-80 10.5t-80 8.5t-99 8h-22q-96 0 -201 -68z" />
<glyph unicode="3" horiz-adv-x="1384" d="M92 291q150 25 297 67q30 -216 399 -292q39 23 76 58.5t64.5 78.5t45 91t17.5 95q0 68 -19.5 126t-64.5 102.5t-118.5 74t-182.5 41.5l2 137q160 49 221.5 124t61.5 188q0 147 -54.5 203.5t-183.5 56.5q-86 0 -148.5 -48t-105.5 -173q-25 -6 -59 -7q-84 0 -238 41v78 q51 14 88 30.5t58 31.5q16 12 59 36.5t107.5 50t146.5 44t178 18.5q211 0 316.5 -75.5t105.5 -219.5q0 -190 -274 -329q88 -8 164.5 -35t133 -72t88.5 -107.5t32 -142.5q0 -88 -26 -168t-90.5 -154.5t-173 -147.5t-272.5 -146q-510 51 -651 344z" />
<glyph unicode="4" horiz-adv-x="1361" d="M49 446q336 264 418 740q2 0 28.5 -19.5t58.5 -63.5t62.5 -117t42.5 -177q-221 -57 -315 -330l424 15v452q-4 193 -86 287l508 307q-68 -135 -98.5 -227t-30.5 -158v-647l301 14l-162 -293h-37q-10 109 -102 109q0 -500 -377 -715v58q84 102 84 407v246h-690z" />
<glyph unicode="5" horiz-adv-x="1478" d="M84 250q94 33 174 71.5t148 84.5q98 -166 202.5 -234t233.5 -68q106 0 227 50q39 96 39 200q0 88 -34 162t-96.5 126t-150.5 81t-194 29q-147 0 -254 -10.5t-184 -36.5q-29 92 -41.5 177t-12.5 171q0 246 113 463q168 -12 358 -13q297 0 652 31q-78 -299 -228 -385 q-78 117 -225.5 169t-376.5 52q-57 -106 -57 -203q0 -141 95 -223t276 -82q125 0 240.5 20.5t238.5 67.5q45 -96 80.5 -227t64.5 -299q-27 -96 -96.5 -178t-164.5 -144.5t-209 -104.5t-230 -60q-86 25 -175 62.5t-168 80.5t-143.5 87t-101.5 83z" />
<glyph unicode="6" horiz-adv-x="1286" d="M111 573q0 733 745 981l37 -61q-448 -280 -479 -651q166 35 272 194q127 0 221 -41t156.5 -107.5t93.5 -153.5t31 -179q0 -102 -35 -202.5t-102.5 -183.5t-168 -139.5t-229.5 -70.5q-92 123 -216 193.5t-290 76.5q-37 180 -36 344zM365 573q0 -84 35.5 -152.5t96 -117.5 t139.5 -75.5t163 -26.5q90 0 184 35q2 20 3 43.5t1 46.5q0 100 -20.5 186t-64.5 149.5t-111.5 98.5t-159.5 35q-111 0 -225 -45q-41 -94 -41 -177z" />
<glyph unicode="7" horiz-adv-x="1259" d="M59 1069l48 120t82.5 147.5t132 126t198.5 53.5q66 0 124 -11.5t112.5 -25t105.5 -24.5t105 -11q47 0 88 19.5t82 68.5l84 -74q-606 -606 -607 -1167q0 -123 20.5 -186.5t80.5 -63.5v-41h-389q-4 45 -6.5 87t-2.5 83q0 211 52.5 378t165.5 296q135 154 215.5 240.5 t117.5 115.5q-98 -31 -174 -31q-37 0 -70.5 9.5t-67.5 19.5t-67.5 19.5t-72.5 9.5q-35 0 -64.5 -4t-62.5 -23.5t-73 -60.5t-95 -113z" />
<glyph unicode="8" horiz-adv-x="1253" d="M90 449q0 88 26.5 148t67.5 100t89.5 64.5t88.5 41.5q-23 8 -62.5 28.5t-77.5 54.5t-65.5 81t-27.5 108q0 82 35 142.5t102.5 112.5t168 102.5t231.5 109.5q129 -55 218 -111.5t142 -116t76.5 -120.5t23.5 -129q0 -137 -198 -268q37 -12 79 -41t75.5 -77t56 -113.5 t22.5 -151.5q0 -82 -46 -157t-121.5 -133t-176 -98t-207.5 -53q-100 31 -194 77t-166 106.5t-116 133t-44 159.5zM299 594q0 -90 53.5 -168t135 -134t178 -89t182.5 -33q41 0 100 16q33 57 33 121q0 76 -45 153t-120 136t-171 97t-201 38q-71 0 -116 -14 q-14 -33 -21.5 -62.5t-7.5 -60.5zM328 1217q0 -80 49 -145.5t125 -114t166 -74t170 -25.5q41 0 65.5 9.5t36.5 24.5t16.5 35.5t4.5 45.5q0 94 -57.5 161.5t-142.5 108.5t-181.5 60.5t-173.5 19.5h-52q-27 -51 -26 -106z" />
<glyph unicode="9" horiz-adv-x="1271" d="M90 958q0 100 35 199.5t102.5 182.5t167 140.5t230.5 73.5q92 -123 216 -193.5t289 -76.5q16 -92 25.5 -177t9.5 -167q0 -739 -743 -981l-35 61q446 281 477 652q-166 -35 -272 -195q-127 0 -221.5 41t-156.5 107.5t-93 153.5t-31 179zM291 1188q0 -102 21.5 -188.5 t65.5 -149t111.5 -97t159.5 -34.5q102 0 225 43q37 88 37 176q0 84 -34.5 153.5t-95 119t-138.5 76t-164 26.5q-80 0 -184 -35q-2 -23 -3 -45.5t-1 -44.5z" />
<glyph unicode=":" horiz-adv-x="481" d="M72 170l178 197l158 -172l-179 -211zM72 858l157 197l179 -172l-179 -211z" />
<glyph unicode=";" horiz-adv-x="481" d="M68 174l178 199l157 -176l-286 -355l-39 27l108 168zM72 858l178 197l158 -172l-179 -211z" />
<glyph unicode="&#x3c;" horiz-adv-x="1085" d="M61 596l781 440l162 -121l-41 -30q-49 18 -107 18q-33 0 -63.5 -5t-57.5 -21l-360 -195l598 -344l-135 -217z" />
<glyph unicode="=" horiz-adv-x="909" d="M41 250l96 291q66 -33 199 -33h285q76 0 145 57l43 -26l-98 -265q-66 31 -115 31h-371q-90 0 -145 -72zM100 614l99 289q70 -31 198 -31h285q68 0 145 56l43 -27l-100 -262q-66 31 -113 31h-372q-88 0 -146 -74z" />
<glyph unicode="&#x3e;" horiz-adv-x="1085" d="M61 242l39 30q43 -20 109 -20q31 0 60.5 6t60.5 23l360 194l-600 344l137 217l777 -475l-781 -440z" />
<glyph unicode="?" horiz-adv-x="1208" d="M37 1247q104 94 228 175t278 149q152 -72 261 -138.5t180 -137t104.5 -149.5t33.5 -175q0 -176 -139 -365q-180 72 -274 72q-76 0 -117 -33t-41 -86q0 -51 31 -119h-213q-102 121 -103 230q0 102 90 204q115 -109 289 -108q104 0 162.5 63.5t58.5 198.5q0 131 -92 283 q-25 4 -47 7t-45 3q-61 0 -117.5 -17.5t-103.5 -47t-83 -71.5t-56 -91q-137 113 -285 153zM309 170l180 197l156 -172l-178 -211z" />
<glyph unicode="@" horiz-adv-x="1804" d="M90 696q4 172 62.5 318.5t166 255t259 170t342.5 61.5q313 0 479 -160.5t166 -494.5q0 -373 -402 -527l-133 99q-129 -16 -233 -103q-129 47 -209 147.5t-80 248.5q0 96 21.5 162.5t63.5 117.5t102.5 95t140.5 98q43 -14 90 -54t71 -102l220 127v-631q172 111 172 328 q0 133 -36 238.5t-100.5 178t-154.5 110.5t-201 38q-127 0 -231.5 -59.5t-178 -156.5t-114.5 -219t-41 -245q0 -141 45 -258t129 -198.5t201.5 -126.5t263.5 -45q123 0 202.5 28.5t135.5 75.5l14 -29q-104 -86 -257 -140t-318 -54q-74 0 -150 21.5t-162 68.5 q-178 96 -260 251.5t-86 364.5zM696 829q0 -78 18.5 -133t46 -96t62.5 -71.5t66 -55.5q82 16 108 16v283q-4 41 -19 83t-43 76t-68 54.5t-95 20.5q-12 0 -23.5 -1.5t-25.5 -3.5q-27 -80 -27 -172z" />
<glyph unicode="A" horiz-adv-x="1536" d="M-76 203l41 43q20 -12 43 -13q47 0 122 70t148.5 216.5t133 372.5t75.5 540h-401l20 96h1186v-90q-84 0 -86 -168l103 -951q25 -231 147 -231v-88h-794v84q370 2 370 194q0 7 -1 13t-1 14l-35 324h-487q-104 -379 -332 -654q-57 53 -119.5 109.5t-132.5 118.5zM553 883 h418l-43 391q0 86 -39 122t-125 36h-164q0 -371 -47 -549z" />
<glyph unicode="B" horiz-adv-x="1538" d="M70 57q139 92 139 213v813q0 166 -127 172v78q88 2 181 36t189.5 73t197 70.5t202.5 31.5q223 0 331.5 -76.5t108.5 -218.5q0 -190 -274 -329q92 -10 169 -38t132 -73t86 -107.5t31 -144.5q0 -88 -28 -167t-92.5 -152.5t-172 -145.5t-266.5 -145q-117 51 -241 82.5 t-228 31.5q-98 0 -172 -30.5t-111 -57.5zM516 715l301 209q113 82 157 156.5t44 156.5q0 111 -58.5 161t-136.5 50q-39 0 -88 -12.5t-94 -46t-80 -94t-45 -154.5v-426zM518 408q1 -262 402 -342q39 23 75.5 58.5t64 78.5t45 91t17.5 95q0 133 -79.5 230.5t-272.5 134.5 l-252 -179v-167z" />
<glyph unicode="C" horiz-adv-x="1628" d="M113 758q0 164 62.5 307t171 249.5t255 168t316.5 61.5t294.5 -56t237.5 -165l-266 -225l-49 61q2 8 3 14.5t1 14.5q0 33 -18.5 64.5t-53.5 58t-84 43t-113 16.5q-96 0 -180 -37t-145.5 -105.5t-97 -165.5t-35.5 -216q0 -158 46 -280t118.5 -206t165 -127t184.5 -43 q123 0 208 31t146 79t105.5 103.5t87.5 104.5l67 -72q-70 -92 -143.5 -177t-160.5 -148.5t-192.5 -101.5t-238.5 -38q-139 0 -265 59.5t-221.5 165t-150.5 250t-55 312.5z" />
<glyph unicode="D" horiz-adv-x="1622" d="M76 1321l37 70q135 0 289.5 44t347.5 142q102 -25 198 -75t180 -117.5t155 -146.5t123 -160t85 -159t41 -141q-92 -289 -287.5 -495.5t-519.5 -313.5q-41 12 -91 24.5t-102.5 22t-101.5 15.5t-88 6q-59 0 -106.5 -17.5t-94.5 -52.5l-59 78q147 135 147 315v687 q0 135 -153 274zM526 408q0 -252 191 -252q76 0 152.5 44t139 129t101.5 209t39 283q0 162 -44 275.5t-105.5 185.5t-129 104.5t-116.5 32.5q-98 0 -160 -56t-66 -167z" />
<glyph unicode="E" horiz-adv-x="1587" d="M72 758q0 166 58 303t151 229q72 72 137 120t135 78t148.5 43t175.5 13q166 0 292.5 -55t237.5 -166l-266 -225l-49 61q2 8 3 14.5t1 14.5q0 33 -17.5 64.5t-52.5 58t-85 43t-114 16.5q-100 0 -184 -39t-145.5 -109.5t-95 -171t-33.5 -223.5l1015 119l-194 -371h-37 q-10 100 -129 103l-641 20q20 -127 71.5 -222t120 -158.5t149.5 -95.5t161 -32q111 0 196.5 31t150 78t113 102.5t85.5 106.5l67 -72q-70 -92 -143.5 -177t-160.5 -148.5t-192.5 -101.5t-238.5 -38q-147 0 -273.5 61.5t-218.5 168t-145 250t-53 307.5z" />
<glyph unicode="F" horiz-adv-x="1187" d="M72 698v129l174 15v30q0 188 -86 287l645 402q104 -248 354 -363l-266 -182q-152 82 -211 321q-78 -66 -110.5 -129t-32.5 -129v-211l512 45l-172 -338h-37q-4 41 -37 70t-92 33l-174 6v-362q0 -483 -377 -699v58q84 102 84 407v604z" />
<glyph unicode="G" horiz-adv-x="1685" d="M90 758q0 164 62.5 307t171 249.5t256 168t317.5 61.5q166 0 293 -55t237 -166l-458 -432h487q84 0 146 61l43 -51q-29 -72 -74 -92q-25 -213 -103.5 -369.5t-188.5 -260t-238 -155t-250 -53.5q-154 0 -282 64.5t-221 174t-145.5 252t-52.5 296.5zM391 846 q0 -158 45 -280t118 -206t165 -127t184 -43q90 0 177 31t156 89.5t111 144.5t42 196h-574q-139 0 -211 -71l-29 43l529 532q10 10 10 31q0 31 -17.5 63.5t-51 59t-84 44t-113.5 17.5q-96 0 -180 -37t-145.5 -105.5t-96.5 -165.5t-35 -216z" />
<glyph unicode="H" horiz-adv-x="1456" d="M82 0v68q119 74 119 198v996q0 45 -95 112l33 43q25 -6 58 -6q154 0 280 117h717v-90h-334q-365 0 -364 -176v-111q238 37 391 166q109 -16 193.5 -67.5t143 -130.5t89 -178t30.5 -210q0 -127 -54 -248t-145 -226t-208 -192.5t-242 -146.5l-53 49q86 51 162 122t133 155 t91 178t34 192q0 100 -23.5 183.5t-65.5 140.5t-98.5 89t-119.5 32q-115 0 -258 -92v-631q0 -211 67 -268v-68h-481z" />
<glyph unicode="I" horiz-adv-x="1095" d="M-20 1559q0 79 119 79h3q117 0 148 -110h647v-86q-223 0 -223 -137v-1057q0 -152 268 -187q129 0 129 -94q0 -78 -123 -78q-115 0 -147 111h-645v84q223 0 223 141v1055q0 150 -270 186q-129 0 -129 93z" />
<glyph unicode="J" horiz-adv-x="1120" d="M-63 1229q49 80 94 136t89 93t89 59.5t94 36.5q155 -118 393 -118h4q184 0 287 92l43 -37q-80 -139 -80 -313v-838q-88 -504 -633 -717v82q57 23 120 83t114 147.5t84 195t33 223.5q0 102 -22.5 206t-56.5 195t-76 165.5t-81 121.5q232 44 371 269q-86 -45 -154.5 -65.5 t-148.5 -20.5q-74 0 -139.5 17.5t-135.5 17.5q-72 0 -132 -15.5t-107 -50.5z" />
<glyph unicode="K" horiz-adv-x="1505" d="M86 0v66q111 31 111 167v1078q0 133 -95 135v82h510v-82q-115 -23 -114 -168v-385q250 137 639 661l235 -186l-172 -182q-47 53 -100 53q-104 0 -248 -199q100 -92 196.5 -202.5t174 -239.5t130 -278.5t64.5 -319.5h-442v66q29 25 41 56.5t12 67.5q0 51 -15.5 113 t-43 123t-66.5 120.5t-88 108.5q-86 86 -137 117t-86 31q-59 0 -96 -51v-523q0 -135 108 -163v-66h-518z" />
<glyph unicode="L" horiz-adv-x="1366" d="M82 51q68 63 99.5 136t31.5 165v617q0 160 -102 213l8 57q98 25 192.5 76t182.5 102t167.5 90t151.5 39q63 0 125.5 -33.5t117 -85t93.5 -113t55 -118.5q-76 -14 -148.5 -43t-144.5 -70q0 78 -34.5 129.5t-90 81t-122 42t-129.5 12.5q-10 -66 -16.5 -134.5t-6.5 -140.5 v-608q0 -90 -113 -240q127 72 240 72q31 0 66.5 -8t74.5 -17.5t80 -17.5t78 -8q127 0 297 178l59 -45q-35 -76 -72.5 -147.5t-89 -127t-120 -88t-164.5 -32.5q-92 0 -195.5 12t-208.5 12q-84 0 -153.5 -7t-161.5 -28z" />
<glyph unicode="M" horiz-adv-x="1783" d="M57 -354q131 217 131 573v1002q0 170 -88 194v113h428l373 -793l279 565q18 39 18 66q0 35 -30.5 48t-77.5 13v101h596v-90q-113 -2 -113 -140v-981q0 -236 143 -237v-80h-567v94q123 0 123 205v864l-451 -987l-463 940v-870q0 -362 -258 -627z" />
<glyph unicode="N" horiz-adv-x="1589" d="M72 1421v62l360 78l793 -979v761q0 102 -140 103v82h431v-82q-72 -2 -103 -21.5t-31 -58.5v-1366h-157v100l-850 1065v-923q0 -295 -254 -623l-43 27q131 287 131 573v1049q0 129 -137 153z" />
<glyph unicode="O" d="M106 719q0 141 45.5 253.5t135.5 211t227.5 190t319.5 191.5q178 -94 297.5 -196.5t192.5 -213.5t104.5 -230.5t31.5 -246.5t-56 -244t-152.5 -210t-222.5 -157.5t-263 -89.5q-129 47 -248 120t-210 168t-146.5 210t-55.5 244zM303 909q0 -100 34 -190t91 -168 t132 -140.5t156 -107.5t163 -68.5t155 -23.5q100 0 178 49q31 61 49.5 138t18.5 175q0 119 -46 240t-128 219t-195.5 160.5t-248.5 62.5q-125 0 -277 -90q-82 -131 -82 -256z" />
<glyph unicode="P" horiz-adv-x="1597" d="M72 1321l37 70q135 0 289.5 44t346.5 142q102 -25 198.5 -75t180.5 -117.5t155 -146.5t123 -160t85 -159t41 -141q-92 -289 -288 -495.5t-519 -313.5q-35 8 -78 19.5t-88 19.5l-37 6v-200q0 -37 12.5 -61.5t28.5 -41t35.5 -25t34.5 -12.5v-51h-404v1424q0 135 -153 274z M522 408q0 -252 191 -252q76 0 152.5 44t139 129t101.5 209t39 283q0 160 -43 273.5t-104.5 186.5t-129 105.5t-116.5 32.5q-43 0 -83 -13t-71 -41t-51.5 -70t-22.5 -99z" />
<glyph unicode="Q" horiz-adv-x="1572" d="M94 719q0 143 46 257t137.5 211t227.5 187.5t316 188.5q156 -78 278 -161t203.5 -180.5t124.5 -213t43 -258.5q0 -360 -245 -541q-4 -27 -6 -52.5t-2 -47.5q0 -84 28.5 -155t76.5 -125t108.5 -91t121.5 -51l-26 -64q-31 -6 -62 -6q-72 0 -148.5 29.5t-145 85t-126 133.5 t-90.5 172q-47 -20 -97 -34.5t-103 -25.5q-129 47 -248 120t-210 168t-146.5 210t-55.5 244zM283 915q0 -102 34.5 -195t92 -173t133 -145.5t158.5 -111.5t167 -70.5t158 -24.5q49 0 95 12t85 39q33 63 51.5 144t18.5 173q0 248 -143 434q-37 47 -86.5 96.5t-111 89.5 t-134 64.5t-154.5 24.5q-124 0 -280 -92q-84 -145 -84 -265z" />
<glyph unicode="R" horiz-adv-x="1525" d="M86 57q74 45 107.5 98.5t33.5 114.5v813q0 166 -129 172v78q106 0 271 64q70 33 128 60.5t115.5 47t120 29.5t139.5 10q223 0 331 -75.5t108 -217.5q0 -94 -76 -170.5t-199 -160.5l-176 -121q43 -86 104.5 -180.5t129 -171t134 -127t118.5 -50.5q68 0 151 68l43 -49 q-63 -51 -152.5 -137t-205.5 -205q-147 217 -281.5 389t-257.5 313l-106 -74v-167q0 -88 42 -156t136 -115v-125q-72 20 -147.5 34.5t-141.5 14.5q-98 0 -171 -29.5t-112 -58.5zM535 715l301 209q115 80 157.5 156.5t42.5 156.5q0 111 -58 161t-136 50q-41 0 -90.5 -12.5 t-94.5 -46t-78.5 -94t-43.5 -154.5v-426z" />
<glyph unicode="S" horiz-adv-x="1452" d="M78 250q92 33 172 71.5t147 84.5q98 -168 206 -234t239 -66q98 0 221 48q20 80 20 147q0 94 -43 161.5t-114.5 108.5t-164.5 60.5t-194 19.5q-215 0 -336 -45q-143 199 -143 367q0 98 57.5 177t155.5 149.5t230.5 136t281.5 135.5q154 -68 277.5 -149t228.5 -175 q-147 -41 -285 -153q-18 41 -55 83t-87 75.5t-111.5 54t-129.5 20.5q-87 0 -198 -41q-55 -115 -56 -215q0 -147 102.5 -226t282.5 -79q135 0 252 20.5t228 67.5q45 -100 73.5 -205.5t28.5 -224.5q0 -92 -67.5 -172t-170 -143.5t-226.5 -108.5t-236 -63q-74 20 -157 51.5 t-164 72.5t-150.5 89.5t-114.5 99.5z" />
<glyph unicode="T" horiz-adv-x="1609" d="M47 1196q53 98 123 162.5t161 103.5t205.5 55.5t256.5 16.5q238 0 581 -37l-155 -319q-156 51 -293.5 78.5t-257.5 35.5q-166 -147 -166 -426q0 -98 19.5 -177t60.5 -152q53 -100 115.5 -166t130 -105t137 -55t135.5 -16q61 0 107 11t86 38.5t79 72.5t86 115l68 -45 q-49 -78 -105.5 -151.5t-130 -133t-167 -95.5t-214.5 -36q-115 0 -229.5 57.5t-207.5 163t-151.5 252t-58.5 324.5q0 174 62.5 306t173.5 224q-72 0 -125.5 -1t-98.5 -13t-84.5 -41t-85.5 -84z" />
<glyph unicode="U" horiz-adv-x="1583" d="M129 662q0 213 71.5 398t192.5 367h-250v101h654v-84q-106 -29 -177 -93.5t-114 -152.5t-60.5 -191.5t-17.5 -207.5q0 -121 30.5 -224.5t84 -179.5t128 -117.5t163.5 -41.5q57 0 102 20t75.5 55t46 82t15.5 103v829q0 68 -42 98.5t-99 30.5v74h561v-74q-129 -6 -129 -151 v-951q0 -129 135 -159l-2 -58l-225 -166q-66 27 -125.5 87.5t-69.5 146.5q-49 -104 -141 -158.5t-246 -54.5q-80 0 -177 39t-182 120.5t-143.5 208.5t-58.5 304z" />
<glyph unicode="V" d="M61 1466v62h328q92 -82 142.5 -231.5t60.5 -360.5q23 -414 344 -711q164 139 237.5 278.5t73.5 297.5q0 88 -26.5 171t-76.5 147.5t-123 104.5t-165 40q-80 0 -143 -21l-8 41q172 98 243 244q10 0 22.5 1t22.5 1q96 0 182.5 -31t151 -92t102 -152.5t37.5 -212.5 q0 -152 -31.5 -282.5t-109.5 -257.5t-208 -257t-326 -280h-29q-469 463 -469 893q0 217 -57.5 369.5t-174.5 238.5z" />
<glyph unicode="W" horiz-adv-x="2320" d="M66 1466v62h327q92 -82 149.5 -231.5t67.5 -360.5q23 -414 344 -711q268 225 269 492q0 113 -31 212t-87 174t-138 118t-183 43q-86 0 -155 -21l-8 41q174 100 245 244q10 0 22.5 1t20.5 1q106 0 196.5 -38t157 -101.5t107.5 -146.5t51 -171q8 -68 11.5 -123t3.5 -96 q0 -23 -1 -39t-3 -31q63 -317 325 -559q268 225 268 492q0 113 -30.5 212t-87 174t-138 118t-182.5 43q-86 0 -155 -21l-9 41q174 100 246 244q12 0 24.5 1t24.5 1q113 0 208 -42t165 -125t110 -205t40 -284q0 -127 -36 -237.5t-113 -218t-195.5 -218t-284.5 -235.5h-29 q-238 242 -319 432q-150 -195 -455 -432h-29q-469 463 -469 893q0 217 -64.5 369.5t-180.5 238.5z" />
<glyph unicode="X" horiz-adv-x="1544" d="M84 49q276 104 547 696l-244 369q-70 139 -262 150l-23 41l185 225l325 -195l172 -286q240 365 498 485q41 -113 111 -225q-326 -129 -506 -488l336 -567q70 -92 219 -94l28 -58l-217 -131l-329 179l-215 419q-274 -508 -598 -569z" />
<glyph unicode="Y" horiz-adv-x="1552" d="M53 1466v62h328q92 -82 142 -231.5t61 -360.5q23 -414 344 -711q164 139 237.5 278.5t73.5 297.5q0 88 -26.5 171t-77 147.5t-123 104.5t-164.5 40q-80 0 -143 -21l-9 41q172 98 244 244q10 0 22.5 1t22.5 1q96 0 182 -31t150.5 -92t102.5 -152.5t38 -212.5 q0 -152 -34.5 -281.5t-106.5 -250.5t-182.5 -236.5t-262.5 -236.5q-20 -27 -20 -66q0 -53 29.5 -77.5t99.5 -24.5q102 0 270 137l58 -35q-86 -154 -205 -241.5t-266 -87.5q-49 0 -89 19.5t-68 50t-43 67.5t-15 71q0 86 84 164q-422 440 -422 844q0 217 -57.5 369.5 t-174.5 238.5z" />
<glyph unicode="Z" horiz-adv-x="1513" d="M94 39q106 174 188.5 306t151 235.5t128 184.5t120.5 150.5t129 134t152 136.5q-70 -20 -158 -21q-43 0 -85 9.5t-85 20.5t-87 20.5t-89 9.5q-41 0 -73 -4t-64.5 -24.5t-69.5 -60.5t-88 -110l-64 43q33 82 72 162t93 142.5t127 100t173 37.5q57 0 112.5 -11t113 -23.5 t115 -23.5t118.5 -11q127 0 229 90l84 -74q-588 -600 -831 -1106l4 2q45 12 100 13q45 0 101.5 -12.5t119 -27t128 -26.5t126.5 -12t110.5 25.5t86.5 61.5t59.5 77t28.5 71l64 -14q-18 -145 -61.5 -246.5t-103 -164t-130 -91t-142.5 -28.5q-78 0 -152.5 9t-149 20 t-150.5 20.5t-154 9.5q-129 0 -225 -66z" />
<glyph unicode="[" horiz-adv-x="876" d="M186 -156v1882q154 -57 306 -57q141 0 256 45l24 -33q-104 -53 -196.5 -78.5t-172.5 -25.5h-21t-22 2v-1618q27 4 49.5 7t45.5 3q143 0 297 -86l-21 -45q-100 51 -242 51q-68 0 -142.5 -11t-160.5 -36z" />
<glyph unicode="\" horiz-adv-x="864" d="M25 1694h131l694 -1940h-145z" />
<glyph unicode="]" horiz-adv-x="876" d="M145 -115q215 102 371 103q10 0 21.5 -1t21.5 -1v1618q-25 -4 -48.5 -7.5t-47.5 -3.5q-154 0 -297 88l22 43q100 -51 240 -51q129 0 305 47v-1882q-166 59 -307 60q-135 0 -256 -45z" />
<glyph unicode="^" horiz-adv-x="737" d="M61 915l316 517l293 -555l-37 -46l-201 394l-227 -400z" />
<glyph unicode="_" horiz-adv-x="890" d="M41 -252h809v-117h-809v117z" />
<glyph unicode="`" horiz-adv-x="573" d="M55 1274l111 125l313 -234l-55 -51z" />
<glyph unicode="a" horiz-adv-x="1077" d="M248 483l381 146v65q-14 92 -101 129q-135 -86 -338 -123l-51 74q258 102 387 281q92 -76 183.5 -137.5t189.5 -108.5v-530q0 -133 125 -134v-49l-186 -114l-207 153l-283 -178q-235 49 -235 277q0 152 135 249zM375 287q0 -106 127 -123l127 53v326l-123 -56 q-131 -88 -131 -200z" />
<glyph unicode="b" horiz-adv-x="1138" d="M61 1311v37l369 194v-700q45 18 79 37.5t61.5 42t53 50t58.5 64.5q98 0 169 -31.5t118 -87t69.5 -130t22.5 -160.5q0 -109 -35 -219.5t-99.5 -204.5t-156.5 -161t-205 -85q-39 55 -79 99t-87 79t-105 58.5t-132 35.5v953q0 121 -101 129zM414 590q0 -59 12 -119.5 t52 -111t112 -82t192 -31.5q18 0 36 1t38 3q35 86 35 158t-27.5 137t-76 114.5t-113 79t-137.5 29.5q-57 0 -115 -18q0 -27 -4 -70t-4 -90z" />
<glyph unicode="c" horiz-adv-x="880" d="M80 475q0 98 27.5 174t80 142.5t129 130t175.5 137.5q172 -102 245 -221l-174 -158q-112 104 -274 143q-10 -55 -15.5 -103t-5.5 -93q0 -104 31 -180t77 -123.5t102.5 -70t107.5 -22.5q84 0 176 50l39 -39q-45 -88 -128 -158t-218 -111q-74 33 -141.5 83t-120 115 t-83 141.5t-30.5 162.5z" />
<glyph unicode="d" horiz-adv-x="1132" d="M76 469q0 121 28.5 203t81 145.5t127 118.5t168.5 123q55 -20 114.5 -69.5t88.5 -129.5v322q0 119 -102 129v37l370 194v-1263q4 -133 125 -134v-49l-184 -114l-168 122q-160 -27 -289 -131q-80 31 -145.5 78t-113.5 109.5t-74.5 139.5t-26.5 169zM307 612 q0 -94 23.5 -163.5t59.5 -122t79 -89t84 -67.5q61 23 131 25v350q-4 49 -22.5 101t-53.5 94t-84 69t-114 27q-35 -1 -68 -7q-16 -59 -25.5 -111t-9.5 -106z" />
<glyph unicode="e" horiz-adv-x="903" d="M94 475q0 98 28 174t80 141.5t130 130t176 138.5q166 -104 278 -277l-446 -446q61 -68 126.5 -97.5t139.5 -29.5q96 0 185 45l26 -12q-139 -236 -346 -269q-74 33 -142.5 83t-120.5 115t-83 141.5t-31 162.5zM258 567q0 -78 35 -164l237 236q-43 164 -217 178 q-55 -139 -55 -250z" />
<glyph unicode="f" horiz-adv-x="806" d="M70 860v37q113 63 112 131q0 90 -112 96v37q301 289 559 373q49 -113 180 -137l-197 -162l-10 4q-25 55 -78 55q-35 0 -102 -28q18 -35 29.5 -79t11.5 -100v-45h246l-82 -182h-164v-860h-268v860h-125z" />
<glyph unicode="g" horiz-adv-x="1101" d="M82 -342q158 201 305 201q98 0 207 -103q61 76 94 165t33 200v49q-47 -18 -80 -36.5t-60.5 -42t-53 -51.5t-58.5 -65q-98 0 -170 32t-119 87.5t-69.5 129t-22.5 157.5q0 106 35 218t99.5 207t156.5 162.5t207 86.5q39 -55 79 -100.5t87 -79t105 -57t132 -36.5v-604 q0 -459 -493 -584q-72 133 -172 134q-88 0 -215 -109zM260 604q0 -72 27.5 -137.5t75 -114.5t112 -78.5t137.5 -29.5q51 0 117 16q0 29 4 72t4 88q0 57 -13 118.5t-53 110.5t-116 81t-199 32h-30.5t-30.5 -2q-35 -82 -35 -156z" />
<glyph unicode="h" horiz-adv-x="1128" d="M53 1311v37l369 194v-633q51 23 93 57.5t77 80.5q233 -23 341.5 -145t108.5 -329q0 -102 -37.5 -198t-102 -181t-148.5 -155t-174 -115l-37 39q129 92 201.5 209t72.5 270q0 166 -65.5 261.5t-182.5 95.5q-70 0 -147 -47v-752h-268v1182q0 121 -101 129z" />
<glyph unicode="i" horiz-adv-x="614" d="M57 823v37l197 195l172 -176v-600q0 -133 127 -134v-49l-186 -114l-209 155v557q0 121 -101 129zM129 1145v211l297 149v-207z" />
<glyph unicode="j" horiz-adv-x="571" d="M39 -319q141 63 141 364v649q0 121 -100 129v37l369 195v-682q0 -715 -410 -750v58zM152 1145v211l297 149v-207z" />
<glyph unicode="k" horiz-adv-x="1097" d="M49 1311v37l369 194v-717q104 104 200 238q10 2 21.5 2h22.5q68 0 125 -26.5t99 -73.5t66.5 -109.5t24.5 -136.5q0 -43 -6 -94q-90 -41 -228 -62q129 -59 199 -194.5t80 -368.5h-279q0 143 -27.5 237.5t-73.5 148.5t-104.5 75.5t-119.5 21.5v-483h-268v1182 q0 121 -101 129zM418 598q57 10 86 10q37 0 81 -5t95 -15q6 31 6 61q0 142 -139 197q-66 -72 -129 -123v-125z" />
<glyph unicode="l" horiz-adv-x="604" d="M51 1311v37l369 194v-1263q0 -133 127 -134v-49l-187 -114l-208 155v1045q0 121 -101 129z" />
<glyph unicode="m" horiz-adv-x="1789" d="M55 815v37l226 195q123 -35 143 -138q213 43 344 138q158 -41 229 -150q104 20 200.5 58t188.5 92q166 -41 231.5 -155t65.5 -312q0 -117 -17 -258.5t-54 -321.5h-348q166 406 166 598q0 68 -26 106.5t-63.5 58t-79.5 24t-75 4.5q-80 0 -131 -33q4 -41 7 -87t3 -98 q0 -119 -17.5 -262t-52.5 -311h-348q172 408 172 594q0 66 -25.5 104.5t-63.5 59t-82 27t-81 6.5q-80 0 -143 -39v-752h-268v686q0 121 -101 129z" />
<glyph unicode="n" horiz-adv-x="1169" d="M51 815v37l225 195q123 -35 144 -138q213 43 344 138q166 -41 232.5 -155t66.5 -312q0 -117 -17.5 -258.5t-54.5 -321.5h-348q172 399 172 592q0 68 -25.5 106.5t-63.5 59t-82 27t-81 6.5q-80 0 -143 -39v-752h-268v686q0 121 -101 129z" />
<glyph unicode="o" horiz-adv-x="1056" d="M68 471q0 98 29.5 175t91 143.5t153.5 131t215 138.5q117 -70 198 -141.5t130 -146.5t71.5 -155.5t22.5 -171.5q0 -84 -38 -161.5t-101.5 -141t-148.5 -107.5t-179 -61q-92 33 -173 83t-141.5 115t-95 140.5t-34.5 159.5zM246 633q0 -94 46 -176t115.5 -143.5 t152.5 -97.5t157 -36q39 0 61.5 13.5t32.5 35t13 47t3 50.5q0 84 -38.5 165.5t-102 145t-145.5 102.5t-168 39q-25 0 -50.5 -3t-50.5 -11q-26 -51 -26 -125v-6z" />
<glyph unicode="p" horiz-adv-x="1116" d="M57 807v37l369 194v-112q68 16 129 48t119 77q160 -61 261 -186.5t101 -309.5q0 -123 -26.5 -207t-78.5 -148.5t-128 -118.5t-174 -116q-55 20 -114.5 68.5t-88.5 130.5v-549h-268v1063q0 121 -101 129zM426 479q0 -51 18.5 -102t54.5 -93t87 -69t119 -27q28 1 63 7 q33 98 33 213q0 92 -23.5 162.5t-59.5 122.5t-78 91t-81 70q-63 -20 -133 -25v-350z" />
<glyph unicode="q" horiz-adv-x="1107" d="M82 381q0 106 34 218t98.5 207t156.5 162.5t207 86.5q39 -55 78.5 -100.5t87 -79t105.5 -57t132 -36.5v-1167h-268v555q-47 -18 -80 -36.5t-60.5 -42t-53 -51.5t-58.5 -65q-98 0 -170 32t-118 87.5t-68.5 129t-22.5 157.5zM252 604q0 -72 27.5 -137.5t75.5 -114.5 t111.5 -78.5t137.5 -29.5q51 0 117 16q0 29 4 72t4 88q0 57 -13.5 118.5t-53 110.5t-115.5 81t-199 32h-30.5t-30.5 -2q-35 -82 -35 -156z" />
<glyph unicode="r" horiz-adv-x="849" d="M51 815v37l225 195q123 -35 144 -138q57 102 196 138q49 -113 181 -138l-197 -161l-10 4q-18 57 -64 57q-43 0 -106 -57v-752h-268v686q0 121 -101 129z" />
<glyph unicode="s" horiz-adv-x="1105" d="M88 180q137 41 248 125q41 -61 84 -101t90 -61.5t101.5 -30t117.5 -8.5q29 0 53.5 7.5t24.5 35.5q0 113 -81 188t-247 75q-92 0 -157.5 -6.5t-112.5 -24.5q-111 143 -111 260q0 63 40 115.5t109.5 98.5t165 88t208.5 85q111 -45 202.5 -96t163.5 -111q-109 -29 -231 -131 q-12 35 -44 64.5t-76 51t-96.5 34t-103.5 12.5q-37 0 -74 -6q-38 -68 -38 -124q0 -46 21.5 -81t58 -59.5t88 -38t112.5 -13.5q94 0 178 13.5t162 44.5q35 -70 56.5 -144.5t21.5 -152.5q0 -53 -45 -103.5t-118 -92.5t-164 -72.5t-183 -43.5q-53 14 -112.5 35t-118 46.5 t-108.5 56t-85 65.5z" />
<glyph unicode="t" horiz-adv-x="677" d="M41 858v37l369 360v-243h204v-162h-204v-571q0 -133 127 -134v-49l-187 -114l-209 155v592q0 121 -100 129z" />
<glyph unicode="u" horiz-adv-x="1169" d="M96 446q0 55 9.5 110.5t21.5 109t21.5 103.5t9.5 93q0 94 -41 172h286q41 -53 41 -147q0 -45 -14 -109.5t-32.5 -132t-33 -129t-14.5 -100.5q0 -49 17.5 -84t47 -55.5t70.5 -29.5t88 -9q104 0 185 61v735h270v-686q0 -121 100 -129v-37l-227 -194q-121 33 -137 172 q-182 -53 -350 -172q-176 45 -247 158.5t-71 299.5z" />
<glyph unicode="v" horiz-adv-x="1116" d="M45 956v78h287q66 -57 97.5 -152.5t35.5 -248.5q6 -301 215 -451q168 156 168 365q0 55 -17.5 111.5t-49 101.5t-75.5 73.5t-100 28.5q-31 0 -96 -16l-16 45q121 66 172 168q10 0 17 1t17 1q68 0 127.5 -22.5t103.5 -65.5t70.5 -107.5t26.5 -148.5q0 -111 -23.5 -203 t-79 -179t-146.5 -176t-224 -194h-18q-328 322 -328 625q0 154 -39 241t-125 125z" />
<glyph unicode="w" horiz-adv-x="1689" d="M53 956v78h287q61 -57 95 -152.5t38 -248.5q6 -301 215 -451q168 156 168 365q0 55 -17.5 111.5t-49 101.5t-75.5 73.5t-100 28.5q-31 0 -96 -16l-16 45q117 70 170 168h30q57 0 118 -24.5t110 -69.5t80.5 -108.5t31.5 -141.5q0 -80 -20 -142q59 -276 219 -391 q168 156 168 365q0 55 -16.5 111.5t-48 101.5t-75.5 73.5t-100 28.5q-33 0 -98 -16l-14 45q57 33 101 75t71 93q8 0 15 1t18 1q68 0 127 -22.5t104 -65.5t70.5 -107.5t25.5 -148.5q0 -111 -23.5 -203t-78.5 -180t-145.5 -176t-225.5 -193h-18q-160 158 -230 281 q-53 -66 -129.5 -135.5t-175.5 -145.5h-18q-328 322 -328 625q0 154 -39 241t-125 125z" />
<glyph unicode="x" horiz-adv-x="1138" d="M68 860l159 195l283 -168l68 -148q195 256 352 316q16 -45 39.5 -94.5t56.5 -100.5q-233 -119 -358 -315l188 -316q57 -80 193 -84l22 -49l-186 -114l-289 155l-84 187q-137 -285 -422 -338l-20 43q238 92 374 450l-131 215q-63 119 -229 129z" />
<glyph unicode="y" horiz-adv-x="1122" d="M53 956v78h287q66 -57 97.5 -152.5t35.5 -248.5q6 -301 215 -451q168 156 168 365q0 55 -17.5 111.5t-49 101.5t-75.5 73.5t-100 28.5q-31 0 -96 -16l-16 45q121 66 172 168q10 0 17 1t18 1q68 0 127 -22.5t103 -65.5t70.5 -107.5t26.5 -148.5q0 -209 -100 -375 t-270 -299q-78 -61 -130.5 -115.5t-85 -104.5t-46 -101.5t-13.5 -106.5h-248q43 147 128.5 250.5t226.5 152.5q-281 293 -281 572q0 154 -39 241t-125 125z" />
<glyph unicode="z" horiz-adv-x="1052" d="M82 -2v88l575 723h-241q-125 0 -289 -90l-27 26l64 297h790v-71l-532 -725h229q188 0 307 112l33 -41l-133 -319h-776z" />
<glyph unicode="{" horiz-adv-x="782" d="M92 705v137q215 39 215 393q0 31 -2 64.5t-2 64.5q0 94 20.5 157.5t60.5 102.5t100.5 55.5t142.5 16.5q16 0 28 -4l-4 -64q-213 -25 -213 -319q0 -43 4 -92.5t4 -92.5q0 -266 -116 -348q117 -72 116 -340q0 -39 -4 -89t-4 -95q0 -297 213 -340l4 -41v-23q-12 -4 -24 -4 q-84 0 -145.5 17.5t-102.5 57.5t-60.5 106.5t-19.5 162.5q0 31 2 65t2 62q0 365 -215 390z" />
<glyph unicode="|" horiz-adv-x="452" d="M160 -383v2001h137v-2001h-137z" />
<glyph unicode="}" horiz-adv-x="782" d="M92 -150l4 64q209 20 209 315q0 43 -3 92.5t-3 88.5q0 272 119 354q-119 76 -119 344q0 41 3 90t3 92q0 293 -209 340l-4 64q12 4 25 4q162 0 244.5 -77t82.5 -269q0 -31 -2 -65t-2 -62q0 -362 215 -387v-138q-215 -43 -215 -395q0 -31 2 -63.5t2 -63.5q0 -334 -278 -334 q-37 0 -74 6z" />
<glyph unicode="~" horiz-adv-x="1177" d="M61 633q57 127 133 197.5t173 70.5q66 0 137 -29.5t143 -91.5q39 -35 68.5 -56.5t56.5 -21.5q51 0 85 50.5t56 158.5l166 -55q-92 -279 -342 -278q-31 0 -57.5 8t-56 26.5t-65.5 46t-83 66.5q-31 25 -61.5 37t-48.5 12q-102 0 -175 -188z" />
<glyph unicode="&#xa1;" horiz-adv-x="550" d="M100 -387q41 283 72 561.5t53 585.5h94q16 -307 47 -585.5t72 -561.5h-338zM102 954l177 211l159 -188l-170 -195z" />
<glyph unicode="&#xa2;" horiz-adv-x="903" d="M96 721q0 88 24.5 160.5t72 137t115 124t153.5 123.5v262h57v-232q164 -96 238 -215l-176 -157q-14 14 -29.5 27.5t-32.5 23.5v-486q31 -14 86 -14q88 0 176 51l39 -41q-41 -78 -112.5 -144.5t-188.5 -107.5v-233h-57v225q-72 33 -138.5 83t-116.5 113.5t-80 139.5 t-30 160zM287 872q0 -141 52 -228t122 -128v494q-35 20 -74 34.5t-80 22.5q-10 -53 -15 -102.5t-5 -92.5z" />
<glyph unicode="&#xa3;" horiz-adv-x="1304" d="M37 51q190 68 321 795h-151v59h55q55 0 87 31t32 96q0 86 -92 92l8 37q362 289 717 373q27 -113 151 -137l-166 -183q-74 92 -229 93q-25 0 -49.5 -2t-52.5 -7q12 -49 12 -110q0 -55 -10.5 -125t-30.5 -158h250l4 -59h-266q-80 -403 -221 -615q109 59 225 60 q59 0 119.5 -17.5t119.5 -17.5q158 0 320 168l57 -45q-55 -129 -111.5 -205t-120 -115t-137 -50t-163.5 -11q-74 0 -161 10t-167 10q-170 0 -305 -45z" />
<glyph unicode="&#xa5;" horiz-adv-x="1142" d="M80 1450v78h287q55 -57 92 -148.5t41 -220.5q6 -256 198 -409q98 86 140.5 163.5t42.5 155.5q0 45 -16.5 93t-47.5 88t-74 66.5t-98 26.5q-49 0 -100 -18l-17 45q57 33 101.5 75t70.5 93q10 0 17.5 1t17.5 1q66 0 125.5 -23.5t104.5 -64.5t71.5 -97.5t26.5 -119.5 q0 -160 -90 -300t-232 -269v-117h107q66 0 156 33l45 -15l-107 -159q-35 8 -64.5 12t-54.5 4h-82v-96h82q61 0 156 34l45 -16l-106 -160q-72 18 -119 19h-58v-205h-268v205h-108q-98 0 -156 -43l-41 10l102 174q82 -18 203 -18v96h-86q-98 0 -154 -43l-40 12l102 174 q61 -12 178 -18v94q-229 266 -229 498q0 231 -164 309z" />
<glyph unicode="&#xa6;" horiz-adv-x="354" d="M104 272h140v-655h-140v655zM104 985v633h140v-633h-140z" />
<glyph unicode="&#xa7;" horiz-adv-x="1105" d="M96 188q129 43 240 129q43 -70 86 -111.5t90 -63t99.5 -27.5t113.5 -6q27 0 46.5 11t19.5 52q0 59 -24 106.5t-67 81t-101 51t-128 17.5q-92 0 -154.5 -7t-105.5 -26q-106 150 -107 267q0 108 164 210q-162 131 -162 252q0 127 115 199q53 33 101.5 59.5t93.5 51t91 47 t97 47.5q209 -102 350 -221q-102 -31 -219 -142q-10 37 -39.5 69t-71.5 55.5t-92.5 37.5t-99.5 14q-43 0 -74 -8q-37 -78 -36 -137q0 -98 82.5 -149.5t218.5 -51.5q162 0 288 64q33 -78 51.5 -145.5t18.5 -129.5q0 -127 -92 -209q47 -57 74.5 -121.5t27.5 -134.5 q0 -82 -50 -141t-125 -99t-159 -64.5t-151 -37.5q-78 25 -149.5 58t-127 63.5t-91.5 55t-42 34.5zM326 750q0 -68 31.5 -107t81.5 -58.5t111.5 -25.5t123.5 -6q49 0 78.5 8t29.5 45q0 63 -26.5 112.5t-71.5 82.5t-104.5 50t-122.5 17h-60t-43 -2q-29 -76 -28 -116z" />
<glyph unicode="&#xa8;" horiz-adv-x="714" d="M47 1268l148 155l129 -131l-146 -164zM391 1268l148 155l129 -131l-146 -164z" />
<glyph unicode="&#xa9;" horiz-adv-x="1763" d="M123 762q0 158 59.5 297t163 242.5t242.5 163t297 59.5q156 0 294 -59.5t242.5 -163t165 -242.5t60.5 -297t-60.5 -296t-165 -241.5t-243 -164t-293.5 -60.5q-158 0 -297 60.5t-242.5 164t-163 241.5t-59.5 296zM231 762q0 -135 51.5 -254t140.5 -208t208 -140t254 -51 q133 0 252.5 51t210 140t142.5 208t52 254t-52 256t-142.5 212t-210 144t-252.5 53q-135 0 -254 -53t-208 -144t-140.5 -212t-51.5 -256zM559 719q0 76 39 151.5t93 140t111.5 115t94.5 74.5q70 -41 119 -87t82 -93l-144 -129q-90 84 -223 117q-8 -47 -12 -86t-4 -76 q0 -88 24.5 -149.5t62.5 -100.5t84 -56.5t89 -17.5q72 0 143 41l33 -35q-37 -72 -105.5 -129t-179.5 -90q-61 27 -116.5 69t-98.5 94t-67.5 114.5t-24.5 132.5z" />
<glyph unicode="&#xaa;" horiz-adv-x="911" d="M80 811q0 150 145 246l299 117v38q-10 59 -71 105q-156 -113 -275 -125l-67 98q227 90 344 250q82 -92 282 -221v-453q0 -94 103 -94v-70l-109 -110l-188 131l-226 -148q-238 43 -237 236zM274 874q0 -61 31 -92.5t68 -36.5l151 80v226l-147 -58q-102 -47 -103 -119z" />
<glyph unicode="&#xab;" horiz-adv-x="970" d="M61 596l498 496v-86l-369 -369l369 -369v-172zM385 596l498 496v-86l-369 -369l369 -369v-172z" />
<glyph unicode="&#xac;" horiz-adv-x="976" d="M53 432l97 291q66 -33 198 -33h412q72 0 145 55l43 -24l-59 -160v-561h-174v487h-477q-90 0 -148 -73z" />
<glyph unicode="&#xad;" horiz-adv-x="753" d="M61 432l97 291q66 -33 198 -33h152q68 0 145 55l43 -24l-100 -264q-66 31 -113 30h-237q-90 0 -148 -73z" />
<glyph unicode="&#xae;" horiz-adv-x="1626" d="M166 860q0 135 51 256t141.5 211t210 143.5t258.5 53.5q137 0 258 -53.5t211 -143.5t142.5 -211t52.5 -256q0 -139 -52.5 -259t-142.5 -210t-210.5 -141t-258.5 -51q-139 0 -258.5 51t-210 141t-141.5 210t-51 259zM285 860q0 -111 43 -209t115.5 -171.5t171 -115.5 t208.5 -42q111 0 209 42t172 115.5t117 172t43 208.5q0 111 -43 209t-117 172t-172 116t-209 42t-209 -42t-170.5 -116t-115.5 -172t-43 -209zM494 573q100 63 100 299q0 217 -78 218h-10v65q37 0 79 15.5t88 34t95 33.5t102 15q111 0 170.5 -34.5t59.5 -98.5 q0 -141 -221 -248q68 -203 297 -202h23t24 2l-152 -164q-178 96 -274 330l-60 -45q-2 -14 -3 -26.5t-1 -23.5q0 -106 84 -131v-82q-72 18 -129 19q-88 0 -151 -37zM725 1008q0 -25 3 -53.5t7 -61.5q213 115 213 203q0 86 -96 86q-66 0 -96.5 -38t-30.5 -136z" />
<glyph unicode="&#xaf;" horiz-adv-x="632" d="M63 1178l39 108h463l-41 -108h-461z" />
<glyph unicode="&#xb0;" horiz-adv-x="952" d="M72 1126q0 82 30.5 155t85 126t126 85t153.5 32t153.5 -32t126 -85t86 -126t31.5 -155t-31.5 -153.5t-86 -125.5t-126 -85t-153.5 -31t-153.5 31t-126 85t-85 125.5t-30.5 153.5zM178 1126q0 -59 22.5 -111t61.5 -90t90 -60.5t111 -22.5q59 0 111.5 22.5t91.5 60.5 t61.5 90t22.5 111t-22.5 111.5t-61.5 92.5t-91.5 62.5t-111.5 22.5t-110.5 -22.5t-90.5 -62.5t-61.5 -92.5t-22.5 -111.5z" />
<glyph unicode="&#xb1;" horiz-adv-x="1052" d="M80 35zM80 770l97 291q66 -33 198 -33h62v234l174 106v-340h176q72 0 145 55l43 -24l-98 -264q-66 31 -113 30h-153v-348h-174v348h-172q-90 0 -148 -73zM208 53l97 291q66 -33 198 -33h152q68 0 145 55l43 -24l-100 -264q-66 31 -113 30h-237q-90 0 -148 -73z" />
<glyph unicode="&#xb2;" horiz-adv-x="991" d="M74 641q59 154 132 285t161 254q41 -39 75.5 -61.5t89.5 -22.5q57 0 90 28.5t33 114.5q0 76 -39 152q-111 -4 -170 -52.5t-88 -109.5q-106 78 -221 114q78 63 163 118t177 98q180 -78 275.5 -163t95.5 -204q0 -125 -100 -244q-55 37 -94.5 47.5t-75.5 10.5 q-31 0 -63 -8.5t-63.5 -31t-64.5 -65.5t-65 -110q51 27 133 26q76 0 134 -12t101 -12q31 0 57.5 20.5t47 47t34 52t17.5 37.5l74 -35q-6 -51 -23.5 -108t-49.5 -105.5t-83 -80t-125 -31.5q-41 0 -93 6t-105.5 12t-102.5 12.5t-80 6.5q-55 0 -119 -45z" />
<glyph unicode="&#xb3;" horiz-adv-x="1007" d="M131 807l227 41q18 -123 215 -170q53 20 86 66.5t33 107.5q0 70 -51 117t-190 59v115q45 14 77.5 29.5t52 36t28.5 49t9 69.5q0 66 -25.5 90.5t-94.5 24.5q-45 0 -77 -28t-59 -95l-212 20v74q66 23 107.5 47.5t77.5 44t76 31.5t99 12q92 0 155.5 -15t101.5 -42 t55.5 -60.5t17.5 -70.5q0 -49 -35 -99.5t-107 -91.5q39 -8 74 -28.5t62.5 -52t44 -74.5t16.5 -94q0 -123 -79 -217.5t-255 -131.5q-328 33 -430 236z" />
<glyph unicode="&#xb4;" horiz-adv-x="573" d="M88 1165l315 234l111 -125l-371 -160z" />
<glyph unicode="&#xb6;" horiz-adv-x="1185" d="M59 1354q0 35 11.5 65.5t37 54t68.5 37t109 13.5h813v-86q-162 0 -162 -160v-1030q0 -154 160 -166v-82h-293v1305h-187v-1305h-294v84q162 0 161 141v989q0 94 -37 95q-14 0 -55 -35q-100 -88 -164 -88q-72 0 -120 48t-48 120z" />
<glyph unicode="&#xb7;" horiz-adv-x="493" d="M92 393zM92 580l178 197l158 -172l-179 -211z" />
<glyph unicode="&#xb8;" horiz-adv-x="423" d="M82 -313l74 57q40 -49 116 -51q8 27 9 74q0 70 -38 101.5t-130 35.5q0 74 49 116h49q-20 -20 -21 -51v-8h19q70 0 111.5 -43t41.5 -102q0 -33 -17 -67t-44 -63.5t-57.5 -51t-57.5 -29.5q-78 23 -104 82z" />
<glyph unicode="&#xb9;" horiz-adv-x="530" d="M121 1366v49l264 137v-950h-201v711q0 47 -63 53z" />
<glyph unicode="&#xba;" horiz-adv-x="892" d="M86 1016q0 117 28.5 189.5t73.5 125.5q47 55 114.5 110.5t178.5 112.5q166 -104 248 -229t82 -297q0 -86 -29.5 -158.5t-81 -130t-120 -96.5t-146.5 -55q-41 16 -100.5 52t-114.5 89t-94 125t-39 162zM231 1155q0 -68 33 -137.5t83 -125.5t108.5 -93t109.5 -37 q33 0 53.5 4t30.5 20.5t14.5 47t4.5 86.5q0 70 -21.5 143.5t-59.5 132.5t-92.5 97t-119.5 38q-49 0 -123 -37q-20 -59 -21 -139z" />
<glyph unicode="&#xbb;" horiz-adv-x="970" d="M82 96v88l367 369l-367 367v172l496 -500zM406 96v88l366 369l-366 367v172l495 -500z" />
<glyph unicode="&#xbc;" horiz-adv-x="2017" d="M209 1366v49l262 137v-950h-201v711q0 47 -61 53zM322 0l997 1573h131l-983 -1573h-145zM1036 408q104 86 148.5 192.5t44.5 253.5q150 -39 188 -180q-135 -117 -149 -236l207 8v246q-2 51 -16.5 94t-49.5 78l385 226q-106 -186 -106 -269v-366l196 8q-92 -70 -140 -110 t-56 -44q-12 -279 -265 -420v72q25 31 38.5 82t13.5 131v139h-412z" />
<glyph unicode="&#xbd;" horiz-adv-x="1783" d="M68 1366v49l262 137v-950h-201v711q0 47 -61 53zM168 0l997 1573h131l-983 -1573h-145zM879 717q76 63 160.5 117.5t179.5 97.5q186 -78 277 -164t91 -203q0 -121 -98 -243q-57 37 -95 47t-75 10q-31 0 -62.5 -8.5t-63.5 -31t-64.5 -65.5t-65.5 -110q51 27 133 26 q74 0 133.5 -12t100.5 -12q33 0 59.5 21.5t46.5 48t32.5 52t16.5 36.5l76 -35q-6 -51 -23.5 -108.5t-50.5 -105.5t-84 -80t-123 -32q-41 0 -94 4t-105.5 10.5t-98.5 12.5t-72 10h-11q-61 0 -118 -45q0 111 18.5 194.5t50 152.5t72.5 128t84 123q39 -39 78 -61.5t92 -22.5 q59 0 89 34t30 109q0 76 -37 150q-115 -4 -173.5 -50t-86.5 -110q-106 82 -219 115z" />
<glyph unicode="&#xbe;" horiz-adv-x="2056" d="M96 807l228 41q18 -125 217 -170q53 20 84.5 67.5t31.5 108.5q0 70 -51 116t-190 58v115q45 14 77.5 29.5t52 36t29 49t9.5 69.5q0 66 -26 90.5t-95 24.5q-45 0 -77 -28t-58 -95l-213 20v74q70 23 111.5 46.5t77.5 44t73 32.5t98 12q92 0 154.5 -15t100.5 -41t55.5 -59.5 t17.5 -70.5q0 -113 -139 -193q39 -8 73.5 -28.5t62 -52t44 -74.5t16.5 -94q0 -123 -79 -217.5t-255 -131.5q-330 31 -430 236zM485 0l998 1573h131l-983 -1573h-146zM1100 375q104 86 148 192.5t44 253.5q150 -39 191 -180q-133 -113 -150 -233l207 6v245q0 53 -15.5 95.5 t-49.5 76.5l385 228q-109 -195 -109 -271v-366l197 8q-92 -70 -140.5 -109.5t-56.5 -44.5q-12 -279 -262 -419v71q25 31 38 83t13 130v140h-414z" />
<glyph unicode="&#xbf;" horiz-adv-x="1208" d="M61 205q0 178 140 366q180 -72 274 -71q74 0 115 32.5t41 85.5q0 47 -31 119h215q100 -119 100 -229q0 -104 -88 -205q-113 106 -288 107q-104 0 -163 -62.5t-59 -197.5q1 -140 93 -283q57 -10 92 -10q125 0 220 63.5t140 161.5q137 -113 285 -154q-104 -92 -228 -173 t-278 -150q-154 74 -263.5 140.5t-180 136t-103.5 147t-33 176.5zM539 983l178 211l157 -186l-180 -197z" />
<glyph unicode="&#xc0;" horiz-adv-x="1536" d="M-76 203l41 43q20 -12 43 -13q47 0 122 70t148.5 216.5t133 372.5t75.5 540h-401l20 96h1186v-90q-84 0 -86 -168l103 -951q25 -231 147 -231v-88h-794v84q371 2 370 195q0 6 -1 12t-1 14l-35 324h-487q-104 -379 -332 -654q-57 53 -119.5 109.5t-132.5 118.5zM0 0z M473 1874l111 125l313 -234l-55 -51zM553 883h418l-43 391q0 86 -39 122t-125 36h-164q0 -371 -47 -549z" />
<glyph unicode="&#xc1;" horiz-adv-x="1536" d="M-76 203l41 43q20 -12 43 -13q47 0 122 70t148.5 216.5t133 372.5t75.5 540h-401l20 96h1186v-90q-84 0 -86 -168l103 -951q25 -231 147 -231v-88h-794v84q371 2 370 195q0 6 -1 12t-1 14l-35 324h-487q-104 -379 -332 -654q-57 53 -119.5 109.5t-132.5 118.5zM0 0z M553 883h418l-43 391q0 86 -39 122t-125 36h-164q0 -371 -47 -549zM635 1765l315 234l111 -125l-371 -160z" />
<glyph unicode="&#xc2;" horiz-adv-x="1536" d="M-76 203l41 43q20 -12 43 -13q47 0 122 70t148.5 216.5t133 372.5t75.5 540h-401l20 96h1186v-90q-84 0 -86 -168l103 -951q25 -231 147 -231v-88h-794v84q371 2 370 195q0 6 -1 12t-1 14l-35 324h-487q-104 -379 -332 -654q-57 53 -119.5 109.5t-132.5 118.5zM0 0z M490 1714l227 285h107l221 -285h-123l-149 223l-144 -223h-139zM553 883h418l-43 391q0 86 -39 122t-125 36h-164q0 -371 -47 -549z" />
<glyph unicode="&#xc3;" horiz-adv-x="1536" d="M-76 203l41 43q20 -12 43 -13q47 0 122 70t148.5 216.5t133 372.5t75.5 540h-401l20 96h1186v-90q-84 0 -86 -168l103 -951q25 -231 147 -231v-88h-794v84q371 2 370 195q0 6 -1 12t-1 14l-35 324h-487q-104 -379 -332 -654q-57 53 -119.5 109.5t-132.5 118.5zM0 0z M440 1860q74 166 201 172q41 -4 86 -21.5t88 -56.5q25 -23 44 -36t36 -13q63 0 90 133l106 -35q-59 -178 -219 -178q-37 0 -72.5 21.5t-95.5 72.5q-20 16 -40.5 23.5t-28.5 7.5q-66 0 -113 -121zM553 883h418l-43 391q0 86 -39 122t-125 36h-164q0 -371 -47 -549z" />
<glyph unicode="&#xc4;" horiz-adv-x="1536" d="M-76 203l41 43q20 -12 43 -13q47 0 122 70t148.5 216.5t133 372.5t75.5 540h-401l20 96h1186v-90q-84 0 -86 -168l103 -951q25 -231 147 -231v-88h-794v84q371 2 370 195q0 6 -1 12t-1 14l-35 324h-487q-104 -379 -332 -654q-57 53 -119.5 109.5t-132.5 118.5zM0 0z M457 1868l148 155l129 -131l-146 -164zM553 883h418l-43 391q0 86 -39 122t-125 36h-164q0 -371 -47 -549zM801 1868l148 155l129 -131l-146 -164z" />
<glyph unicode="&#xc5;" horiz-adv-x="1536" d="M-76 203l41 43q20 -12 43 -13q47 0 122 70t148.5 216.5t133 372.5t75.5 540h-401l20 96h1186v-90q-84 0 -86 -168l103 -951q25 -231 147 -231v-88h-794v84q371 2 370 195q0 6 -1 12t-1 14l-35 324h-487q-104 -379 -332 -654q-57 53 -119.5 109.5t-132.5 118.5zM0 0z M553 883h418l-43 391q0 86 -39 122t-125 36h-164q0 -371 -47 -549zM580 1862q0 39 14 73.5t38.5 60t58.5 41t75 15.5q37 0 71.5 -15.5t61.5 -41t42 -60.5t15 -73q0 -39 -15 -73t-42 -59.5t-61.5 -40t-71.5 -14.5q-80 0 -133 54.5t-53 132.5zM662 1862q0 -43 29.5 -73 t74.5 -30q43 0 72.5 30t29.5 73q0 45 -29.5 74.5t-72.5 29.5q-45 0 -74.5 -29.5t-29.5 -74.5z" />
<glyph unicode="&#xc6;" horiz-adv-x="2508" d="M-76 203l41 43q20 -12 43 -13q47 0 122 70t148.5 216.5t133 372.5t75.5 540h-401l20 96h1186v-90q-78 0 -86 -144q70 70 134.5 118t134 77t147.5 42t174 13q170 0 295 -56t238 -165l-269 -225l-47 61q2 8 3 14.5t1 14.5q0 33 -18.5 64.5t-53 58t-85 43t-113.5 16.5 q-100 0 -184 -39t-145.5 -109.5t-95.5 -171t-34 -223.5l1016 119l-195 -371h-36q-10 100 -129 103l-641 20q20 -127 71 -222t120 -158.5t149.5 -95.5t160.5 -32q111 0 197 31t151.5 78t113.5 102.5t85 106.5l66 -72q-68 -92 -140.5 -175t-158.5 -146.5t-190.5 -102.5 t-235.5 -41q-137 0 -254 50.5t-207 137.5t-149.5 205.5t-82.5 256.5l-4 8h-487q-104 -379 -332 -654q-57 53 -119.5 109.5t-132.5 118.5zM553 883h418l-43 391q0 86 -39 122t-125 36h-164q0 -371 -47 -549z" />
<glyph unicode="&#xc7;" horiz-adv-x="1628" d="M113 758q0 164 62.5 307t171 249.5t255 168t316.5 61.5t294.5 -56t237.5 -165l-266 -225l-49 61q2 8 3 14.5t1 14.5q0 33 -18.5 64.5t-53.5 58t-84 43t-113 16.5q-96 0 -180 -37t-145.5 -105.5t-97 -165.5t-35.5 -216q0 -158 46 -280t118.5 -206t165 -127t184.5 -43 q123 0 208 31t146 79t105.5 103.5t87.5 104.5l67 -72q-70 -90 -141.5 -172t-155.5 -145.5t-184.5 -102.5t-227.5 -43v-12h19q70 0 112 -43t42 -102q0 -33 -17.5 -67t-44.5 -63.5t-57.5 -51t-57.5 -29.5q-78 23 -102 82l72 57q40 -49 116 -51q8 27 9 74q0 70 -38 101.5 t-130 35.5q0 39 12 69q-137 6 -256 69.5t-207 170t-139 247t-51 298.5z" />
<glyph unicode="&#xc8;" horiz-adv-x="1587" d="M72 0zM72 758q0 166 58 303t151 229q72 72 137 120t135 78t148.5 43t175.5 13q166 0 292.5 -55t237.5 -166l-266 -225l-49 61q2 8 3 14.5t1 14.5q0 33 -17.5 64.5t-52.5 58t-85 43t-114 16.5q-100 0 -184 -39t-145.5 -109.5t-95 -171t-33.5 -223.5l1015 119l-194 -371 h-37q-10 100 -129 103l-641 20q20 -127 71.5 -222t120 -158.5t149.5 -95.5t161 -32q111 0 196.5 31t150 78t113 102.5t85.5 106.5l67 -72q-70 -92 -143.5 -177t-160.5 -148.5t-192.5 -101.5t-238.5 -38q-147 0 -273.5 61.5t-218.5 168t-145 250t-53 307.5zM499 1874l111 125 l313 -234l-55 -51z" />
<glyph unicode="&#xc9;" horiz-adv-x="1587" d="M72 0zM72 758q0 166 58 303t151 229q72 72 137 120t135 78t148.5 43t175.5 13q166 0 292.5 -55t237.5 -166l-266 -225l-49 61q2 8 3 14.5t1 14.5q0 33 -17.5 64.5t-52.5 58t-85 43t-114 16.5q-100 0 -184 -39t-145.5 -109.5t-95 -171t-33.5 -223.5l1015 119l-194 -371 h-37q-10 100 -129 103l-641 20q20 -127 71.5 -222t120 -158.5t149.5 -95.5t161 -32q111 0 196.5 31t150 78t113 102.5t85.5 106.5l67 -72q-70 -92 -143.5 -177t-160.5 -148.5t-192.5 -101.5t-238.5 -38q-147 0 -273.5 61.5t-218.5 168t-145 250t-53 307.5zM661 1765l315 234 l111 -125l-371 -160z" />
<glyph unicode="&#xca;" horiz-adv-x="1587" d="M72 0zM72 758q0 166 58 303t151 229q72 72 137 120t135 78t148.5 43t175.5 13q166 0 292.5 -55t237.5 -166l-266 -225l-49 61q2 8 3 14.5t1 14.5q0 33 -17.5 64.5t-52.5 58t-85 43t-114 16.5q-100 0 -184 -39t-145.5 -109.5t-95 -171t-33.5 -223.5l1015 119l-194 -371 h-37q-10 100 -129 103l-641 20q20 -127 71.5 -222t120 -158.5t149.5 -95.5t161 -32q111 0 196.5 31t150 78t113 102.5t85.5 106.5l67 -72q-70 -92 -143.5 -177t-160.5 -148.5t-192.5 -101.5t-238.5 -38q-147 0 -273.5 61.5t-218.5 168t-145 250t-53 307.5zM516 1714l227 285 h107l221 -285h-123l-149 223l-144 -223h-139z" />
<glyph unicode="&#xcb;" horiz-adv-x="1587" d="M72 0zM72 758q0 166 58 303t151 229q72 72 137 120t135 78t148.5 43t175.5 13q166 0 292.5 -55t237.5 -166l-266 -225l-49 61q2 8 3 14.5t1 14.5q0 33 -17.5 64.5t-52.5 58t-85 43t-114 16.5q-100 0 -184 -39t-145.5 -109.5t-95 -171t-33.5 -223.5l1015 119l-194 -371 h-37q-10 100 -129 103l-641 20q20 -127 71.5 -222t120 -158.5t149.5 -95.5t161 -32q111 0 196.5 31t150 78t113 102.5t85.5 106.5l67 -72q-70 -92 -143.5 -177t-160.5 -148.5t-192.5 -101.5t-238.5 -38q-147 0 -273.5 61.5t-218.5 168t-145 250t-53 307.5zM483 1868l148 155 l129 -131l-146 -164zM827 1868l148 155l129 -131l-146 -164z" />
<glyph unicode="&#xcc;" horiz-adv-x="1095" d="M-20 1559q0 80 122 79q117 0 148 -110h647v-86q-223 0 -223 -137v-1057q0 -152 268 -187q129 0 129 -94q0 -78 -123 -78q-115 0 -147 111h-645v84q223 0 223 141v1055q0 150 -270 186q-129 0 -129 93zM0 0zM256 1874l111 125l313 -234l-55 -51z" />
<glyph unicode="&#xcd;" horiz-adv-x="1095" d="M-20 1559q0 80 122 79q117 0 148 -110h647v-86q-223 0 -223 -137v-1057q0 -152 268 -187q129 0 129 -94q0 -78 -123 -78q-115 0 -147 111h-645v84q223 0 223 141v1055q0 150 -270 186q-129 0 -129 93zM0 0zM416 1765l315 234l111 -125l-371 -160z" />
<glyph unicode="&#xce;" horiz-adv-x="1095" d="M-20 1559q0 80 122 79q117 0 148 -110h647v-86q-223 0 -223 -137v-1057q0 -152 268 -187q129 0 129 -94q0 -78 -123 -78q-115 0 -147 111h-645v84q223 0 223 141v1055q0 150 -270 186q-129 0 -129 93zM0 0zM270 1714l227 285h107l221 -285h-123l-149 223l-144 -223h-139z " />
<glyph unicode="&#xcf;" horiz-adv-x="1095" d="M-20 1559q0 80 122 79q117 0 148 -110h647v-86q-223 0 -223 -137v-1057q0 -152 268 -187q129 0 129 -94q0 -78 -123 -78q-115 0 -147 111h-645v84q223 0 223 141v1055q0 150 -270 186q-129 0 -129 93zM0 0zM237 1868l148 155l129 -131l-146 -164zM581 1868l148 155 l129 -131l-146 -164z" />
<glyph unicode="&#xd0;" horiz-adv-x="1656" d="M61 592l115 223q18 -6 41 -9t45 -7v248q0 135 -153 274l38 70q135 0 290 44t347 142q154 -35 290 -127t240.5 -209t171 -240.5t79.5 -222.5q-92 -291 -287 -496.5t-520 -312.5q-41 12 -91.5 24.5t-102.5 22t-101 15.5t-86 6q-59 0 -106.5 -17.5t-94.5 -52.5l-59 78 q145 135 145 315v275q-92 -6 -156 -57zM561 408q0 -252 189 -252q76 0 153.5 43t140 128t101.5 208.5t39 285.5t-44 275.5t-106.5 185.5t-130 104.5t-115.5 32.5q-98 0 -159.5 -56t-67.5 -167v-405h31q92 0 174 45l51 -21l-117 -205q-78 25 -135 25h-4v-227z" />
<glyph unicode="&#xd1;" horiz-adv-x="1589" d="M72 0zM72 1421v62l360 78l793 -979v761q0 102 -140 103v82h431v-82q-72 -2 -103 -21.5t-31 -58.5v-1366h-157v100l-850 1065v-923q0 -295 -254 -623l-43 27q131 287 131 573v1049q0 129 -137 153zM469 1860q74 166 201 172q41 -4 86 -21.5t88 -56.5q25 -23 44 -36t36 -13 q63 0 90 133l106 -35q-59 -178 -219 -178q-37 0 -72.5 21.5t-95.5 72.5q-20 16 -40.5 23.5t-28.5 7.5q-66 0 -113 -121z" />
<glyph unicode="&#xd2;" d="M106 0zM106 719q0 141 45.5 253.5t135.5 211t227.5 190t319.5 191.5q178 -94 297.5 -196.5t192.5 -213.5t104.5 -230.5t31.5 -246.5t-56 -244t-152.5 -210t-222.5 -157.5t-263 -89.5q-129 47 -248 120t-210 168t-146.5 210t-55.5 244zM303 909q0 -100 34 -190t91 -168 t132 -140.5t156 -107.5t163 -68.5t155 -23.5q100 0 178 49q31 61 49.5 138t18.5 175q0 119 -46 240t-128 219t-195.5 160.5t-248.5 62.5q-125 0 -277 -90q-82 -131 -82 -256zM485 1874l111 125l313 -234l-55 -51z" />
<glyph unicode="&#xd3;" d="M106 0zM106 719q0 141 45.5 253.5t135.5 211t227.5 190t319.5 191.5q178 -94 297.5 -196.5t192.5 -213.5t104.5 -230.5t31.5 -246.5t-56 -244t-152.5 -210t-222.5 -157.5t-263 -89.5q-129 47 -248 120t-210 168t-146.5 210t-55.5 244zM303 909q0 -100 34 -190t91 -168 t132 -140.5t156 -107.5t163 -68.5t155 -23.5q100 0 178 49q31 61 49.5 138t18.5 175q0 119 -46 240t-128 219t-195.5 160.5t-248.5 62.5q-125 0 -277 -90q-82 -131 -82 -256zM647 1765l315 234l111 -125l-371 -160z" />
<glyph unicode="&#xd4;" d="M106 0zM106 719q0 141 45.5 253.5t135.5 211t227.5 190t319.5 191.5q178 -94 297.5 -196.5t192.5 -213.5t104.5 -230.5t31.5 -246.5t-56 -244t-152.5 -210t-222.5 -157.5t-263 -89.5q-129 47 -248 120t-210 168t-146.5 210t-55.5 244zM303 909q0 -100 34 -190t91 -168 t132 -140.5t156 -107.5t163 -68.5t155 -23.5q100 0 178 49q31 61 49.5 138t18.5 175q0 119 -46 240t-128 219t-195.5 160.5t-248.5 62.5q-125 0 -277 -90q-82 -131 -82 -256zM500 1714l227 285h107l221 -285h-123l-149 223l-144 -223h-139z" />
<glyph unicode="&#xd5;" d="M106 0zM106 719q0 141 45.5 253.5t135.5 211t227.5 190t319.5 191.5q178 -94 297.5 -196.5t192.5 -213.5t104.5 -230.5t31.5 -246.5t-56 -244t-152.5 -210t-222.5 -157.5t-263 -89.5q-129 47 -248 120t-210 168t-146.5 210t-55.5 244zM303 909q0 -100 34 -190t91 -168 t132 -140.5t156 -107.5t163 -68.5t155 -23.5q100 0 178 49q31 61 49.5 138t18.5 175q0 119 -46 240t-128 219t-195.5 160.5t-248.5 62.5q-125 0 -277 -90q-82 -131 -82 -256zM453 1860q74 166 201 172q41 -4 86 -21.5t88 -56.5q25 -23 44 -36t36 -13q63 0 90 133l106 -35 q-59 -178 -219 -178q-37 0 -72.5 21.5t-95.5 72.5q-20 16 -40.5 23.5t-28.5 7.5q-66 0 -113 -121z" />
<glyph unicode="&#xd6;" d="M106 0zM106 719q0 141 45.5 253.5t135.5 211t227.5 190t319.5 191.5q178 -94 297.5 -196.5t192.5 -213.5t104.5 -230.5t31.5 -246.5t-56 -244t-152.5 -210t-222.5 -157.5t-263 -89.5q-129 47 -248 120t-210 168t-146.5 210t-55.5 244zM303 909q0 -100 34 -190t91 -168 t132 -140.5t156 -107.5t163 -68.5t155 -23.5q100 0 178 49q31 61 49.5 138t18.5 175q0 119 -46 240t-128 219t-195.5 160.5t-248.5 62.5q-125 0 -277 -90q-82 -131 -82 -256zM467 1868l148 155l129 -131l-146 -164zM811 1868l148 155l129 -131l-146 -164z" />
<glyph unicode="&#xd7;" horiz-adv-x="976" d="M78 793l272 135q16 -39 45 -80t72 -82l45 -43l166 166l196 -49l-241 -242l125 -123q23 -23 58.5 -41t84.5 -24l10 -48l-254 -116q-25 68 -59 102l-106 107l-246 -244l-125 123l248 244l-123 124q-57 51 -127 52h-13.5t-15.5 -2z" />
<glyph unicode="&#xd8;" horiz-adv-x="1562" d="M106 719q0 141 45.5 253.5t135.5 211t227 189.5t320 192q80 -41 149.5 -86t124.5 -90l111 180l96 -58l-125 -196q150 -147 210 -303t60 -334q0 -127 -56 -244t-152.5 -210t-222.5 -157.5t-263 -89.5q-78 29 -153.5 67t-145.5 87l-90 -151l-84 59l94 154 q-129 104 -205 235t-76 291zM295 915q0 -154 64.5 -271.5t168.5 -215.5l445 737q-70 47 -145.5 77t-168.5 30q-124 0 -280 -92q-84 -145 -84 -265zM606 360q104 -78 216 -121.5t216 -43.5q49 0 95.5 12t85.5 39q69 124 69 323q0 154 -57 282t-174 245z" />
<glyph unicode="&#xd9;" horiz-adv-x="1583" d="M129 0zM129 662q0 213 71.5 398t192.5 367h-250v101h654v-84q-106 -29 -177 -93.5t-114 -152.5t-60.5 -191.5t-17.5 -207.5q0 -121 30.5 -224.5t84 -179.5t128 -117.5t163.5 -41.5q57 0 102 20t75.5 55t46 82t15.5 103v829q0 68 -42 98.5t-99 30.5v74h561v-74 q-129 -6 -129 -151v-951q0 -129 135 -159l-2 -58l-225 -166q-66 27 -125.5 87.5t-69.5 146.5q-49 -104 -141 -158.5t-246 -54.5q-80 0 -177 39t-182 120.5t-143.5 208.5t-58.5 304zM497 1874l111 125l313 -234l-55 -51z" />
<glyph unicode="&#xda;" horiz-adv-x="1583" d="M129 0zM129 662q0 213 71.5 398t192.5 367h-250v101h654v-84q-106 -29 -177 -93.5t-114 -152.5t-60.5 -191.5t-17.5 -207.5q0 -121 30.5 -224.5t84 -179.5t128 -117.5t163.5 -41.5q57 0 102 20t75.5 55t46 82t15.5 103v829q0 68 -42 98.5t-99 30.5v74h561v-74 q-129 -6 -129 -151v-951q0 -129 135 -159l-2 -58l-225 -166q-66 27 -125.5 87.5t-69.5 146.5q-49 -104 -141 -158.5t-246 -54.5q-80 0 -177 39t-182 120.5t-143.5 208.5t-58.5 304zM659 1765l315 234l111 -125l-371 -160z" />
<glyph unicode="&#xdb;" horiz-adv-x="1583" d="M129 0zM129 662q0 213 71.5 398t192.5 367h-250v101h654v-84q-106 -29 -177 -93.5t-114 -152.5t-60.5 -191.5t-17.5 -207.5q0 -121 30.5 -224.5t84 -179.5t128 -117.5t163.5 -41.5q57 0 102 20t75.5 55t46 82t15.5 103v829q0 68 -42 98.5t-99 30.5v74h561v-74 q-129 -6 -129 -151v-951q0 -129 135 -159l-2 -58l-225 -166q-66 27 -125.5 87.5t-69.5 146.5q-49 -104 -141 -158.5t-246 -54.5q-80 0 -177 39t-182 120.5t-143.5 208.5t-58.5 304zM514 1714l227 285h107l221 -285h-123l-149 223l-144 -223h-139z" />
<glyph unicode="&#xdc;" horiz-adv-x="1583" d="M129 0zM129 662q0 213 71.5 398t192.5 367h-250v101h654v-84q-106 -29 -177 -93.5t-114 -152.5t-60.5 -191.5t-17.5 -207.5q0 -121 30.5 -224.5t84 -179.5t128 -117.5t163.5 -41.5q57 0 102 20t75.5 55t46 82t15.5 103v829q0 68 -42 98.5t-99 30.5v74h561v-74 q-129 -6 -129 -151v-951q0 -129 135 -159l-2 -58l-225 -166q-66 27 -125.5 87.5t-69.5 146.5q-49 -104 -141 -158.5t-246 -54.5q-80 0 -177 39t-182 120.5t-143.5 208.5t-58.5 304zM481 1868l148 155l129 -131l-146 -164zM825 1868l148 155l129 -131l-146 -164z" />
<glyph unicode="&#xdd;" horiz-adv-x="1552" d="M53 0zM53 1466v62h328q92 -82 142 -231.5t61 -360.5q23 -414 344 -711q164 139 237.5 278.5t73.5 297.5q0 88 -26.5 171t-77 147.5t-123 104.5t-164.5 40q-80 0 -143 -21l-9 41q172 98 244 244q10 0 22.5 1t22.5 1q96 0 182 -31t150.5 -92t102.5 -152.5t38 -212.5 q0 -152 -34.5 -281.5t-106.5 -250.5t-182.5 -236.5t-262.5 -236.5q-20 -27 -20 -66q0 -53 29.5 -77.5t99.5 -24.5q102 0 270 137l58 -35q-86 -154 -205 -241.5t-266 -87.5q-49 0 -89 19.5t-68 50t-43 67.5t-15 71q0 86 84 164q-422 440 -422 844q0 217 -57.5 369.5 t-174.5 238.5zM643 1765l315 234l111 -125l-371 -160z" />
<glyph unicode="&#xde;" horiz-adv-x="1439" d="M-72 1556q0 78 125 78q113 0 148 -110h645v-86q-223 0 -223 -138v-229q63 53 141 109.5t176 115.5q119 -68 200 -139.5t131 -147t71.5 -157.5t21.5 -168t-38 -164t-101.5 -141.5t-148.5 -106.5t-179 -59q-160 57 -274 160v-125q0 -154 270 -187q129 0 129 -94 q0 -78 -123 -78q-117 0 -149 111h-646v84q223 0 224 141v1051q0 150 -269 186q-131 0 -131 94zM631 872q0 -94 46 -177t115.5 -144.5t152.5 -97t155 -35.5q41 0 63.5 14t33.5 35.5t13 48.5t2 49q0 82 -38.5 164t-102 145.5t-145.5 103.5t-170 40q-23 0 -48.5 -3t-50.5 -11 q-27 -55 -26 -132z" />
<glyph unicode="&#xdf;" horiz-adv-x="1339" d="M53 860v37q113 63 113 131q0 90 -113 96v37q74 72 165 133.5t183.5 109.5t177.5 83t150 55q10 -29 51 -52.5t94.5 -41.5t107.5 -31.5t89 -21.5q45 -63 45 -146q0 -53 -21.5 -104t-58.5 -94t-86 -77t-106 -54q84 -8 159.5 -41t132 -85.5t89 -124t32.5 -157.5 q0 -109 -32.5 -197t-103 -153.5t-183.5 -107.5t-272 -56v98q141 10 219 92t78 218q0 131 -90.5 217t-305.5 110v137q72 25 125 66t88 87t52.5 90t17.5 73q-68 10 -129.5 45t-97.5 72q-8 0 -39 -3.5t-66 -8.5t-66.5 -11t-43.5 -14q16 -35 27 -79t11 -100v-1087h-268v860h-125 z" />
<glyph unicode="&#xe0;" horiz-adv-x="1077" d="M113 0zM113 236q0 150 135 247l381 146v65q-14 92 -101 129q-135 -86 -338 -123l-51 74q258 102 387 281q92 -76 183.5 -137.5t189.5 -108.5v-530q0 -133 125 -134v-49l-186 -114l-207 153l-283 -178q-236 49 -235 279zM245 1274l111 125l313 -234l-55 -51zM375 287 q0 -106 127 -123l127 53v326l-123 -56q-131 -88 -131 -200z" />
<glyph unicode="&#xe1;" horiz-adv-x="1077" d="M113 0zM113 236q0 150 135 247l381 146v65q-14 92 -101 129q-135 -86 -338 -123l-51 74q258 102 387 281q92 -76 183.5 -137.5t189.5 -108.5v-530q0 -133 125 -134v-49l-186 -114l-207 153l-283 -178q-236 49 -235 279zM375 287q0 -106 127 -123l127 53v326l-123 -56 q-131 -88 -131 -200zM405 1165l315 234l111 -125l-371 -160z" />
<glyph unicode="&#xe2;" horiz-adv-x="1077" d="M113 0zM113 236q0 150 135 247l381 146v65q-14 92 -101 129q-135 -86 -338 -123l-51 74q258 102 387 281q92 -76 183.5 -137.5t189.5 -108.5v-530q0 -133 125 -134v-49l-186 -114l-207 153l-283 -178q-236 49 -235 279zM262 1114l227 285h107l221 -285h-123l-149 223 l-144 -223h-139zM375 287q0 -106 127 -123l127 53v326l-123 -56q-131 -88 -131 -200z" />
<glyph unicode="&#xe3;" horiz-adv-x="1077" d="M113 0zM113 236q0 150 135 247l381 146v65q-14 92 -101 129q-135 -86 -338 -123l-51 74q258 102 387 281q92 -76 183.5 -137.5t189.5 -108.5v-530q0 -133 125 -134v-49l-186 -114l-207 153l-283 -178q-236 49 -235 279zM213 1260q74 166 201 172q41 -4 86 -21.5t88 -56.5 q25 -23 44 -36t36 -13q63 0 90 133l106 -35q-59 -178 -219 -178q-37 0 -72.5 21.5t-95.5 72.5q-20 16 -40.5 23.5t-28.5 7.5q-66 0 -113 -121zM375 287q0 -106 127 -123l127 53v326l-123 -56q-131 -88 -131 -200z" />
<glyph unicode="&#xe4;" horiz-adv-x="1077" d="M113 0zM113 236q0 150 135 247l381 146v65q-14 92 -101 129q-135 -86 -338 -123l-51 74q258 102 387 281q92 -76 183.5 -137.5t189.5 -108.5v-530q0 -133 125 -134v-49l-186 -114l-207 153l-283 -178q-236 49 -235 279zM229 1268l148 155l129 -131l-146 -164zM375 287 q0 -106 127 -123l127 53v326l-123 -56q-131 -88 -131 -200zM573 1268l148 155l129 -131l-146 -164z" />
<glyph unicode="&#xe5;" horiz-adv-x="1077" d="M113 0zM113 236q0 150 135 247l381 146v65q-14 92 -101 129q-135 -86 -338 -123l-51 74q258 102 387 281q92 -76 183.5 -137.5t189.5 -108.5v-530q0 -133 125 -134v-49l-186 -114l-207 153l-283 -178q-236 49 -235 279zM351 1282q0 39 14 73.5t38.5 60t58.5 41t75 15.5 q37 0 71.5 -15.5t61.5 -41t42 -60.5t15 -73q0 -39 -15 -73t-42 -59.5t-61.5 -40t-71.5 -14.5q-80 0 -133 54.5t-53 132.5zM375 287q0 -106 127 -123l127 53v326l-123 -56q-131 -88 -131 -200zM433 1282q0 -43 29.5 -73t74.5 -30q43 0 72.5 30t29.5 73q0 45 -29.5 74.5 t-72.5 29.5q-45 0 -74.5 -29.5t-29.5 -74.5z" />
<glyph unicode="&#xe6;" horiz-adv-x="1443" d="M113 236q0 150 135 247l381 146v65q-14 92 -101 129q-135 -86 -338 -123l-51 74q258 102 387 281q68 -57 138.5 -106.5t140.5 -90.5q49 47 109.5 96.5t134.5 104.5q166 -104 278 -277l-446 -446q59 -68 124.5 -97.5t141.5 -29.5q96 0 184 45l27 -12q-139 -236 -346 -269 q-86 37 -161 95.5t-126 136.5l-377 -248q-236 49 -235 279zM375 287q0 -106 127 -123l190 90q-57 100 -57 221q0 20 1 40t3 40l-133 -68q-131 -87 -131 -200zM799 567q0 -78 35 -164l235 236q-41 162 -215 178q-55 -139 -55 -250z" />
<glyph unicode="&#xe7;" horiz-adv-x="880" d="M80 475q0 98 27.5 174t80 142.5t129 130t175.5 137.5q172 -102 245 -221l-174 -158q-113 104 -274 143q-10 -55 -15.5 -103t-5.5 -93q0 -104 31 -180t77 -123.5t102.5 -70t107.5 -22.5q84 0 176 50l39 -39q-45 -86 -125 -155t-209 -110v-16h18q72 0 113 -43t41 -102 q0 -33 -17.5 -67t-43 -63.5t-57.5 -51t-58 -29.5q-76 23 -103 82l72 57q41 -49 119 -51q8 27 8 74q0 70 -38 101.5t-130 35.5q0 49 23 90q-68 35 -128.5 84t-106.5 110.5t-72.5 134t-26.5 152.5z" />
<glyph unicode="&#xe8;" horiz-adv-x="903" d="M94 0zM94 475q0 98 28 174t80 141.5t130 130t176 138.5q166 -104 278 -277l-446 -446q61 -68 126.5 -97.5t139.5 -29.5q96 0 185 45l26 -12q-139 -236 -346 -269q-74 33 -142.5 83t-120.5 115t-83 141.5t-31 162.5zM157 1274l111 125l313 -234l-55 -51zM258 567 q0 -78 35 -164l237 236q-43 164 -217 178q-55 -139 -55 -250z" />
<glyph unicode="&#xe9;" horiz-adv-x="903" d="M94 0zM94 475q0 98 28 174t80 141.5t130 130t176 138.5q166 -104 278 -277l-446 -446q61 -68 126.5 -97.5t139.5 -29.5q96 0 185 45l26 -12q-139 -236 -346 -269q-74 33 -142.5 83t-120.5 115t-83 141.5t-31 162.5zM258 567q0 -78 35 -164l237 236q-43 164 -217 178 q-55 -139 -55 -250zM319 1165l315 234l111 -125l-371 -160z" />
<glyph unicode="&#xea;" horiz-adv-x="903" d="M94 0zM94 475q0 98 28 174t80 141.5t130 130t176 138.5q166 -104 278 -277l-446 -446q61 -68 126.5 -97.5t139.5 -29.5q96 0 185 45l26 -12q-139 -236 -346 -269q-74 33 -142.5 83t-120.5 115t-83 141.5t-31 162.5zM174 1114l227 285h107l221 -285h-123l-149 223 l-144 -223h-139zM258 567q0 -78 35 -164l237 236q-43 164 -217 178q-55 -139 -55 -250z" />
<glyph unicode="&#xeb;" horiz-adv-x="903" d="M94 0zM94 475q0 98 28 174t80 141.5t130 130t176 138.5q166 -104 278 -277l-446 -446q61 -68 126.5 -97.5t139.5 -29.5q96 0 185 45l26 -12q-139 -236 -346 -269q-74 33 -142.5 83t-120.5 115t-83 141.5t-31 162.5zM141 1268l148 155l129 -131l-146 -164zM258 567 q0 -78 35 -164l237 236q-43 164 -217 178q-55 -139 -55 -250zM485 1268l148 155l129 -131l-146 -164z" />
<glyph unicode="&#xec;" horiz-adv-x="614" d="M16 0zM16 1274l111 125l313 -234l-55 -51zM57 823v37l197 195l172 -176v-600q0 -133 127 -134v-49l-186 -114l-209 155v557q0 121 -101 129z" />
<glyph unicode="&#xed;" horiz-adv-x="614" d="M57 0zM57 823v37l197 195l172 -176v-600q0 -133 127 -134v-49l-186 -114l-209 155v557q0 121 -101 129zM174 1165l315 234l111 -125l-371 -160z" />
<glyph unicode="&#xee;" horiz-adv-x="614" d="M33 0zM33 1114l227 285h107l221 -285h-123l-149 223l-144 -223h-139zM57 823v37l197 195l172 -176v-600q0 -133 127 -134v-49l-186 -114l-209 155v557q0 121 -101 129z" />
<glyph unicode="&#xef;" horiz-adv-x="614" d="M0 0zM0 1268l148 155l129 -131l-146 -164zM57 823v37l197 195l172 -176v-600q0 -133 127 -134v-49l-186 -114l-209 155v557q0 121 -101 129zM344 1268l148 155l129 -131l-146 -164z" />
<glyph unicode="&#xf0;" horiz-adv-x="1286" d="M94 555q0 92 31 179t93.5 153.5t156.5 107.5t221 41q106 -159 272 -194q-18 225 -192 418l-209 -134l-45 70l194 123q-45 47 -101 90t-124 84l35 61q180 -59 319 -153l173 117l45 -70l-144 -96q350 -281 350 -781q0 -82 -9 -165.5t-25 -176.5q-166 -6 -290 -76.5 t-216 -193.5q-131 14 -230.5 71.5t-167 140.5t-102.5 183.5t-35 200.5zM295 326q0 -23 1 -46.5t3 -43.5q94 -35 184 -35q86 0 164 26.5t138.5 75.5t95 117.5t34.5 152.5q0 86 -36 177q-66 23 -122.5 33t-105.5 10q-92 0 -159.5 -35t-110.5 -97.5t-64.5 -148.5t-21.5 -186z " />
<glyph unicode="&#xf1;" horiz-adv-x="1169" d="M51 0zM51 815v37l225 195q123 -35 144 -138q213 43 344 138q166 -41 232.5 -155t66.5 -312q0 -117 -17.5 -258.5t-54.5 -321.5h-348q172 399 172 592q0 68 -25.5 106.5t-63.5 59t-82 27t-81 6.5q-80 0 -143 -39v-752h-268v686q0 121 -101 129zM258 1260q74 166 201 172 q41 -4 86 -21.5t88 -56.5q25 -23 44 -36t36 -13q63 0 90 133l106 -35q-59 -178 -219 -178q-37 0 -72.5 21.5t-95.5 72.5q-20 16 -40.5 23.5t-28.5 7.5q-66 0 -113 -121z" />
<glyph unicode="&#xf2;" horiz-adv-x="1056" d="M68 0zM68 471q0 98 29.5 175t91 143.5t153.5 131t215 138.5q117 -70 198 -141.5t130 -146.5t71.5 -155.5t22.5 -171.5q0 -84 -38 -161.5t-101.5 -141t-148.5 -107.5t-179 -61q-92 33 -173 83t-141.5 115t-95 140.5t-34.5 159.5zM235 1274l111 125l313 -234l-55 -51z M246 633q0 -94 46 -176t115.5 -143.5t152.5 -97.5t157 -36q39 0 61.5 13.5t32.5 35t13 47t3 50.5q0 84 -38.5 165.5t-102 145t-145.5 102.5t-168 39q-25 0 -50.5 -3t-50.5 -11q-27 -53 -26 -131z" />
<glyph unicode="&#xf3;" horiz-adv-x="1056" d="M68 0zM68 471q0 98 29.5 175t91 143.5t153.5 131t215 138.5q117 -70 198 -141.5t130 -146.5t71.5 -155.5t22.5 -171.5q0 -84 -38 -161.5t-101.5 -141t-148.5 -107.5t-179 -61q-92 33 -173 83t-141.5 115t-95 140.5t-34.5 159.5zM246 633q0 -94 46 -176t115.5 -143.5 t152.5 -97.5t157 -36q39 0 61.5 13.5t32.5 35t13 47t3 50.5q0 84 -38.5 165.5t-102 145t-145.5 102.5t-168 39q-25 0 -50.5 -3t-50.5 -11q-27 -53 -26 -131zM395 1165l315 234l111 -125l-371 -160z" />
<glyph unicode="&#xf4;" horiz-adv-x="1056" d="M68 0zM68 471q0 98 29.5 175t91 143.5t153.5 131t215 138.5q117 -70 198 -141.5t130 -146.5t71.5 -155.5t22.5 -171.5q0 -84 -38 -161.5t-101.5 -141t-148.5 -107.5t-179 -61q-92 33 -173 83t-141.5 115t-95 140.5t-34.5 159.5zM246 633q0 -94 46 -176t115.5 -143.5 t152.5 -97.5t157 -36q39 0 61.5 13.5t32.5 35t13 47t3 50.5q0 84 -38.5 165.5t-102 145t-145.5 102.5t-168 39q-25 0 -50.5 -3t-50.5 -11q-27 -53 -26 -131zM250 1114l227 285h107l221 -285h-123l-149 223l-144 -223h-139z" />
<glyph unicode="&#xf5;" horiz-adv-x="1056" d="M68 0zM68 471q0 98 29.5 175t91 143.5t153.5 131t215 138.5q117 -70 198 -141.5t130 -146.5t71.5 -155.5t22.5 -171.5q0 -84 -38 -161.5t-101.5 -141t-148.5 -107.5t-179 -61q-92 33 -173 83t-141.5 115t-95 140.5t-34.5 159.5zM203 1260q74 166 201 172q41 -4 86 -21.5 t88 -56.5q25 -23 44 -36t36 -13q63 0 90 133l106 -35q-59 -178 -219 -178q-37 0 -72.5 21.5t-95.5 72.5q-20 16 -40.5 23.5t-28.5 7.5q-66 0 -113 -121zM246 633q0 -94 46 -176t115.5 -143.5t152.5 -97.5t157 -36q39 0 61.5 13.5t32.5 35t13 47t3 50.5q0 84 -38.5 165.5 t-102 145t-145.5 102.5t-168 39q-25 0 -50.5 -3t-50.5 -11q-27 -53 -26 -131z" />
<glyph unicode="&#xf6;" horiz-adv-x="1056" d="M68 0zM68 471q0 98 29.5 175t91 143.5t153.5 131t215 138.5q117 -70 198 -141.5t130 -146.5t71.5 -155.5t22.5 -171.5q0 -84 -38 -161.5t-101.5 -141t-148.5 -107.5t-179 -61q-92 33 -173 83t-141.5 115t-95 140.5t-34.5 159.5zM217 1268l148 155l129 -131l-146 -164z M246 633q0 -94 46 -176t115.5 -143.5t152.5 -97.5t157 -36q39 0 61.5 13.5t32.5 35t13 47t3 50.5q0 84 -38.5 165.5t-102 145t-145.5 102.5t-168 39q-25 0 -50.5 -3t-50.5 -11q-27 -53 -26 -131zM561 1268l148 155l129 -131l-146 -164z" />
<glyph unicode="&#xf7;" horiz-adv-x="915" d="M66 473l96 209q66 -33 198 -33h273q76 0 145 58l43 -27l-98 -182q-66 31 -115 30h-360q-88 0 -146 -73zM352 246l127 137l107 -121l-123 -147zM352 924l111 137l123 -121l-123 -145z" />
<glyph unicode="&#xf8;" horiz-adv-x="1030" d="M41 471q0 98 30.5 175t92 143.5t153 131t213.5 138.5q63 -39 116.5 -77t96.5 -79l101 131l71 -53l-106 -143q78 -92 110.5 -187.5t32.5 -206.5q0 -84 -36.5 -161.5t-101 -141t-149.5 -107.5t-180 -61q-66 23 -124 54.5t-111 70.5l-90 -121l-76 68l92 119 q-63 66 -99 143.5t-36 163.5zM221 633q0 -76 29 -144.5t80 -123.5l254 333q-51 37 -112.5 58.5t-125.5 21.5q-25 0 -50 -3t-50 -11q-25 -59 -25 -131zM401 297q66 -53 143 -85t146 -32q39 0 61.5 14.5t34 36t13.5 47t2 48.5q0 86 -39 166.5t-105 144.5z" />
<glyph unicode="&#xf9;" horiz-adv-x="1169" d="M96 0zM96 446q0 55 9.5 110.5t21.5 109t21.5 103.5t9.5 93q0 94 -41 172h286q41 -53 41 -147q0 -45 -14 -109.5t-32.5 -132t-33 -129t-14.5 -100.5q0 -49 17.5 -84t47 -55.5t70.5 -29.5t88 -9q104 0 185 61v735h270v-686q0 -121 100 -129v-37l-227 -194q-121 33 -137 172 q-182 -53 -350 -172q-176 45 -247 158.5t-71 299.5zM293 1274l111 125l313 -234l-55 -51z" />
<glyph unicode="&#xfa;" horiz-adv-x="1169" d="M96 0zM96 446q0 55 9.5 110.5t21.5 109t21.5 103.5t9.5 93q0 94 -41 172h286q41 -53 41 -147q0 -45 -14 -109.5t-32.5 -132t-33 -129t-14.5 -100.5q0 -49 17.5 -84t47 -55.5t70.5 -29.5t88 -9q104 0 185 61v735h270v-686q0 -121 100 -129v-37l-227 -194q-121 33 -137 172 q-182 -53 -350 -172q-176 45 -247 158.5t-71 299.5zM453 1165l315 234l111 -125l-371 -160z" />
<glyph unicode="&#xfb;" horiz-adv-x="1169" d="M96 0zM96 446q0 55 9.5 110.5t21.5 109t21.5 103.5t9.5 93q0 94 -41 172h286q41 -53 41 -147q0 -45 -14 -109.5t-32.5 -132t-33 -129t-14.5 -100.5q0 -49 17.5 -84t47 -55.5t70.5 -29.5t88 -9q104 0 185 61v735h270v-686q0 -121 100 -129v-37l-227 -194q-121 33 -137 172 q-182 -53 -350 -172q-176 45 -247 158.5t-71 299.5zM305 1114l227 285h107l221 -285h-123l-149 223l-144 -223h-139z" />
<glyph unicode="&#xfc;" horiz-adv-x="1169" d="M96 0zM96 446q0 55 9.5 110.5t21.5 109t21.5 103.5t9.5 93q0 94 -41 172h286q41 -53 41 -147q0 -45 -14 -109.5t-32.5 -132t-33 -129t-14.5 -100.5q0 -49 17.5 -84t47 -55.5t70.5 -29.5t88 -9q104 0 185 61v735h270v-686q0 -121 100 -129v-37l-227 -194q-121 33 -137 172 q-182 -53 -350 -172q-176 45 -247 158.5t-71 299.5zM274 1268l148 155l129 -131l-146 -164zM618 1268l148 155l129 -131l-146 -164z" />
<glyph unicode="&#xfd;" horiz-adv-x="1122" d="M53 0zM53 956v78h287q66 -57 97.5 -152.5t35.5 -248.5q6 -301 215 -451q168 156 168 365q0 55 -17.5 111.5t-49 101.5t-75.5 73.5t-100 28.5q-31 0 -96 -16l-16 45q121 66 172 168q10 0 17 1t18 1q68 0 127 -22.5t103 -65.5t70.5 -107.5t26.5 -148.5q0 -209 -100 -375 t-270 -299q-78 -61 -130.5 -115.5t-85 -104.5t-46 -101.5t-13.5 -106.5h-248q43 147 128.5 250.5t226.5 152.5q-281 293 -281 572q0 154 -39 241t-125 125zM428 1165l315 234l111 -125l-371 -160z" />
<glyph unicode="&#xfe;" horiz-adv-x="1122" d="M63 1311v37l369 194v-616q68 16 129.5 48t118.5 77q76 -29 142.5 -75t114.5 -108.5t75.5 -140.5t27.5 -170q0 -121 -26.5 -203t-78.5 -145.5t-128 -119.5t-172 -124q-109 35 -203 199v-549h-268v1567q0 121 -101 129zM432 477q20 -86 54 -142t75 -88t87 -44.5t89 -12.5 q8 0 17.5 1.5t19.5 3.5q33 98 33 213q0 94 -23.5 163.5t-59.5 121.5t-79 91t-80 70q-63 -20 -133 -25v-352z" />
<glyph unicode="&#xff;" horiz-adv-x="1122" d="M53 0zM53 956v78h287q66 -57 97.5 -152.5t35.5 -248.5q6 -301 215 -451q168 156 168 365q0 55 -17.5 111.5t-49 101.5t-75.5 73.5t-100 28.5q-31 0 -96 -16l-16 45q121 66 172 168q10 0 17 1t18 1q68 0 127 -22.5t103 -65.5t70.5 -107.5t26.5 -148.5q0 -209 -100 -375 t-270 -299q-78 -61 -130.5 -115.5t-85 -104.5t-46 -101.5t-13.5 -106.5h-248q43 147 128.5 250.5t226.5 152.5q-281 293 -281 572q0 154 -39 241t-125 125zM252 1268l148 155l129 -131l-146 -164zM596 1268l148 155l129 -131l-146 -164z" />
<glyph unicode="&#x152;" horiz-adv-x="2678" d="M106 719q0 141 45.5 253.5t135.5 211t227 189.5t320 192q166 -86 276.5 -177.5t183.5 -189.5q137 184 296 265t376 81q170 0 295 -56t238 -165l-269 -225l-47 61q2 8 3 14.5t1 14.5q0 33 -18.5 64.5t-53 58t-85 43t-113.5 16.5q-100 0 -184 -39t-145.5 -109.5t-95.5 -171 t-34 -223.5l1016 119l-195 -371h-36q-10 100 -129 103l-641 20q20 -127 71 -222t120 -158.5t149.5 -95.5t160.5 -32q111 0 197 31t151.5 78t113.5 102.5t85 106.5l66 -72q-68 -92 -140.5 -175t-158.5 -146.5t-190.5 -102.5t-235.5 -41q-168 0 -316.5 81t-247.5 222 q-98 -117 -235 -192.5t-297 -104.5q-129 47 -248 120t-210 168t-146.5 210t-55.5 244zM295 915q0 -102 35 -195t93 -174t134 -145.5t159 -110.5t166 -70.5t156 -24.5q49 0 95.5 12t85.5 39q70 125 69 323q0 123 -47 248t-130 226.5t-198.5 165t-253.5 63.5q-124 0 -280 -92 q-84 -145 -84 -265z" />
<glyph unicode="&#x153;" horiz-adv-x="1605" d="M68 471q0 98 29.5 175t91 143.5t153.5 131t215 138.5q123 -72 202 -143.5t130 -149.5q51 76 131 144.5t190 148.5q166 -104 279 -277l-447 -446q59 -68 125 -97.5t142 -29.5q96 0 184 45l27 -12q-139 -236 -346 -269q-86 37 -159 93.5t-124 132.5q-66 -86 -164 -145.5 t-215 -80.5q-92 33 -173 83t-141.5 115t-95 140.5t-34.5 159.5zM246 633q0 -94 46 -176t115.5 -143.5t152.5 -97.5t157 -36q39 0 61.5 13.5t32.5 35t13 47t3 50.5q0 84 -38.5 165.5t-102 145t-145.5 102.5t-168 39q-25 0 -50.5 -3t-50.5 -11q-27 -53 -26 -131zM961 567 q0 -78 34 -164l236 236q-41 162 -215 178q-55 -139 -55 -250z" />
<glyph unicode="&#x178;" horiz-adv-x="1552" d="M53 0zM53 1466v62h328q92 -82 142 -231.5t61 -360.5q23 -414 344 -711q164 139 237.5 278.5t73.5 297.5q0 88 -26.5 171t-77 147.5t-123 104.5t-164.5 40q-80 0 -143 -21l-9 41q172 98 244 244q10 0 22.5 1t22.5 1q96 0 182 -31t150.5 -92t102.5 -152.5t38 -212.5 q0 -152 -34.5 -281.5t-106.5 -250.5t-182.5 -236.5t-262.5 -236.5q-20 -27 -20 -66q0 -53 29.5 -77.5t99.5 -24.5q102 0 270 137l58 -35q-86 -154 -205 -241.5t-266 -87.5q-49 0 -89 19.5t-68 50t-43 67.5t-15 71q0 86 84 164q-422 440 -422 844q0 217 -57.5 369.5 t-174.5 238.5zM465 1868l148 155l129 -131l-146 -164zM809 1868l148 155l129 -131l-146 -164z" />
<glyph unicode="&#x2c6;" horiz-adv-x="643" d="M41 1114l227 285h107l221 -285h-123l-149 223l-144 -223h-139z" />
<glyph unicode="&#x2dc;" horiz-adv-x="624" d="M-2 1260q74 166 201 172q41 -4 86 -21.5t88 -56.5q25 -23 44 -36t36 -13q63 0 90 133l106 -35q-59 -178 -219 -178q-37 0 -72.5 21.5t-95.5 72.5q-20 16 -40.5 23.5t-28.5 7.5q-66 0 -113 -121z" />
<glyph unicode="&#x2000;" horiz-adv-x="1026" />
<glyph unicode="&#x2001;" horiz-adv-x="2052" />
<glyph unicode="&#x2002;" horiz-adv-x="1026" />
<glyph unicode="&#x2003;" horiz-adv-x="2052" />
<glyph unicode="&#x2004;" horiz-adv-x="684" />
<glyph unicode="&#x2005;" horiz-adv-x="513" />
<glyph unicode="&#x2006;" horiz-adv-x="342" />
<glyph unicode="&#x2007;" horiz-adv-x="342" />
<glyph unicode="&#x2008;" horiz-adv-x="256" />
<glyph unicode="&#x2009;" horiz-adv-x="410" />
<glyph unicode="&#x200a;" horiz-adv-x="114" />
<glyph unicode="&#x2010;" horiz-adv-x="753" d="M61 432l97 291q66 -33 198 -33h152q68 0 145 55l43 -24l-100 -264q-66 31 -113 30h-237q-90 0 -148 -73z" />
<glyph unicode="&#x2011;" horiz-adv-x="753" d="M61 432l97 291q66 -33 198 -33h152q68 0 145 55l43 -24l-100 -264q-66 31 -113 30h-237q-90 0 -148 -73z" />
<glyph unicode="&#x2012;" horiz-adv-x="753" d="M61 432l97 291q66 -33 198 -33h152q68 0 145 55l43 -24l-100 -264q-66 31 -113 30h-237q-90 0 -148 -73z" />
<glyph unicode="&#x2013;" horiz-adv-x="1001" d="M59 432l97 291q66 -33 198 -33h369q68 0 145 55l41 -24l-98 -264q-66 31 -113 30h-454q-90 0 -148 -73z" />
<glyph unicode="&#x2014;" horiz-adv-x="1409" d="M59 432l97 291q66 -33 198 -33h807q68 0 146 55l43 -24l-101 -264q-66 31 -112 30h-893q-90 0 -148 -73z" />
<glyph unicode="&#x2018;" horiz-adv-x="413" d="M86 1245l215 354l31 -26l-86 -168l94 -137l-137 -199z" />
<glyph unicode="&#x2019;" horiz-adv-x="405" d="M86 1382l137 197l117 -176l-215 -352l-29 24l80 168z" />
<glyph unicode="&#x201a;" horiz-adv-x="419" d="M86 137l137 199l117 -176l-215 -355l-29 27l80 168z" />
<glyph unicode="&#x201c;" horiz-adv-x="722" d="M86 1245l215 354l31 -26l-86 -168l94 -137l-137 -199zM381 1245l213 354l29 -26l-78 -168l88 -137l-135 -199z" />
<glyph unicode="&#x201d;" horiz-adv-x="722" d="M86 1382l137 197l117 -176l-215 -352l-29 24l80 168zM381 1382l137 197l115 -176l-215 -352l-29 24l84 168z" />
<glyph unicode="&#x201e;" horiz-adv-x="722" d="M86 137l137 199l117 -176l-215 -355l-29 27l80 168zM381 137l137 199l115 -176l-215 -355l-29 27l84 168z" />
<glyph unicode="&#x2022;" horiz-adv-x="798" d="M76 725q0 66 24.5 124t67.5 102t101.5 70t125.5 26q66 0 124.5 -26t102.5 -70t69.5 -102t25.5 -124q0 -68 -25.5 -126t-69.5 -101t-102.5 -67.5t-124.5 -24.5q-68 0 -126 24.5t-101 67.5t-67.5 101t-24.5 126z" />
<glyph unicode="&#x2026;" horiz-adv-x="2375" d="M260 0zM260 170l178 197l158 -172l-179 -211zM1045 170l178 197l158 -172l-179 -211zM1770 170l178 197l158 -172l-179 -211z" />
<glyph unicode="&#x202f;" horiz-adv-x="410" />
<glyph unicode="&#x2039;" horiz-adv-x="649" d="M61 596l498 496v-86l-369 -369l369 -369v-172z" />
<glyph unicode="&#x203a;" horiz-adv-x="649" d="M82 96v88l367 369l-367 367v172l496 -500z" />
<glyph unicode="&#x205f;" horiz-adv-x="513" />
<glyph unicode="&#x20ac;" horiz-adv-x="1732" d="M68 551l38 129h109q-2 16 -3 34.5t-1 35.5q0 29 2 56.5t6 57.5h-151l38 129h142q55 178 174 297q72 72 137.5 120t135 78t148.5 43t175 13q168 0 294 -55t238 -166l-268 -225l-49 61q2 8 3 14.5t1 14.5q0 33 -17.5 64.5t-52 58t-85 43t-113.5 16.5q-78 0 -149.5 -25.5 t-131 -73.5t-102.5 -119t-62 -159h490q84 0 174 37l49 -18l-117 -168q-55 20 -135 20h-473q0 -45 3 -89t13 -95h265q68 0 172 35l51 -17l-117 -168q-59 20 -137 21h-197q4 -18 8 -23q74 -174 193 -256t260 -82q119 0 205 28t149.5 73t108.5 101.5t82 115.5l67 -72 q-55 -96 -126.5 -180t-160.5 -146.5t-199 -99.5t-241 -39q-109 0 -215 38t-198 111t-162 181.5t-100 249.5h-168z" />
<glyph unicode="&#x2122;" horiz-adv-x="2023" d="M129 1321v207h649v-207h-110v121q-113 -12 -113 -49v-555q0 -63 92 -64h29v-84h-430v80q115 10 114 57v551q0 51 -112 64v-121h-119zM829 512q82 125 82 305v531q0 72 -49 88v92h262l185 -398l127 252q12 25 12 37q0 10 -9 13.5t-22 3.5h-24v92h358v-86q-59 0 -59 -56 v-520q0 -106 71 -106v-78h-340v84q68 0 68 92v367l-223 -475l-228 464v-383q0 -203 -155 -358z" />
<glyph unicode="&#x25fc;" horiz-adv-x="1054" d="M0 0v1055h1055v-1055h-1055z" />
<glyph unicode="&#xfb01;" horiz-adv-x="1206" d="M66 901v35q113 27 112 94q0 88 -112 94v37q301 289 559 373q43 -100 176 -137l223 108v-207l-231 -114v174l-185 -123l-10 4q-25 55 -78 55q-35 0 -102 -28q18 -35 29.5 -79t11.5 -100v-32h395l170 -176v-600q0 -133 125 -134v-49l-186 -114l-209 155v557 q-23 207 -101 207h-194v-901h-269v901h-124z" />
<glyph unicode="&#xfb02;" horiz-adv-x="1214" d="M68 860v37q113 63 112 131q0 90 -112 96v37q301 289 559 373q74 -109 172 -109q96 0 223 109v-1264q0 -133 125 -133v-49l-186 -115l-209 156v1045q0 57 -41 98t-123 41q-61 0 -168 -47q18 -35 29.5 -79t11.5 -100v-45h190v-182h-190v-860h-268v860h-125z" />
</font>
</defs>
</svg>
