<?xml version="1.0" standalone="no"?>
<!DOCTYPE svg PUBLIC "-//W3C//DTD SVG 1.1//EN" "http://www.w3.org/Graphics/SVG/1.1/DTD/svg11.dtd" >
<svg xmlns="http://www.w3.org/2000/svg" xmlns:xlink="http://www.w3.org/1999/xlink" version="1.1">
<metadata>
Created by FontForge 20160407 at Wed Nov  2 13:17:46 2016
 By Jimmy Wärting
SharaWeber
</metadata>
<defs>
<font id="GelPenUpright" horiz-adv-x="654" >
  <font-face 
    font-family="GelPenUpright"
    font-weight="500"
    font-stretch="normal"
    units-per-em="1000"
    panose-1="2 0 6 3 0 0 0 0 0 0"
    ascent="800"
    descent="-200"
    x-height="543"
    cap-height="753"
    bbox="-69.129 -313 1016 1026"
    underline-thickness="50"
    underline-position="-150"
    unicode-range="U+0020-F8FF"
  />
<missing-glyph horiz-adv-x="364" 
d="M66 33h199v600h-199v-600zM33 0v666h265v-666h-265z" />
    <glyph glyph-name=".notdef" horiz-adv-x="364" 
d="M66 33h199v600h-199v-600zM33 0v666h265v-666h-265z" />
    <glyph glyph-name=".null" horiz-adv-x="0" 
 />
    <glyph glyph-name="nonmarkingreturn" horiz-adv-x="333" 
 />
    <glyph glyph-name="space" unicode=" " horiz-adv-x="300" 
 />
    <glyph glyph-name="exclam" unicode="!" horiz-adv-x="239" 
d="M215 80q10 -6 16 -15q19 -26 4 -53q-6 -10 -14 -17q-5 -4 -11 -6q-10 -5 -22 -6q-16 -1 -32 3q-12 4 -21 10q-22 15 -25 40q-2 24 14 44q8 9 22 17q17 11 37.5 6.5t30.5 -22.5zM228 643q-2 -5 -4 -24q-3 -22 -6 -55q-6 -69 -10 -152q-3 -88 -2 -149q1 -32 3 -52
q1 -8 2 -13h-1q10 -18 4 -38t-24 -29.5t-38 -3.5t-30 24q-8 16 -12 49q-3 24 -4 60q-1 65 3 156q3 86 9 157q7 78 15 102q7 19 25.5 28.5t38 3t29 -25t2.5 -38.5z" />
    <glyph glyph-name="quotedbl" unicode="&#x22;" horiz-adv-x="301" 
d="M135 684q-5 -43 -4 -114q0 -15 1 -44q1 -46 1 -68q0 -21 -15 -35.5t-35.5 -14.5t-35 14.5t-14.5 35.5t-1 65q-1 30 -1 46q-1 78 5 128q3 20 19.5 33t37 10t33 -19.5t9.5 -36.5zM298 674q-13 -31 -10 -112q0 -9 1 -25q3 -66 1 -96q-2 -21 -17.5 -34t-36.5 -11.5t-34 17.5
t-12 36q2 23 -1 83q-1 17 -1 26q-2 46 1 77q3 46 18 79q8 19 27 26.5t38 -0.5t27 -27.5t-1 -38.5z" />
    <glyph glyph-name="numbersign" unicode="#" horiz-adv-x="587" 
d="M332 444q-49 -3 -95 -9q-9 -31 -17 -64l-8 -32h2q8 1 17 2q37 4 75 4q4 17 8 33q9 34 18 66zM47 319q22 -2 51 2q4 0 7 1q9 38 18 73l6 24q-37 -7 -72 -16q-20 -5 -37.5 6t-22.5 31t5.5 37.5t30.5 22.5q60 15 125 26q9 30 18 55q32 95 59 128q13 16 33.5 18t36.5 -11
t18 -33.5t-11 -36.5q-15 -19 -41 -96q-2 -6 -4 -11q46 4 95 6q7 25 14 46q37 108 66 138q14 15 35 15t36 -14t15 -35t-14 -36q-5 -5 -16 -29q-12 -27 -27 -71q-2 -6 -3 -11q35 0 71 -1q21 0 35.5 -15t14 -35.5t-15.5 -35t-36 -14.5q-52 1 -100 1q-13 -45 -26 -95l-2 -10
q63 -4 135 -14q20 -3 32.5 -20t9.5 -37.5t-19.5 -32.5t-37.5 -9q-77 11 -145 14q-43 -181 -50 -248q-3 -20 -19 -33t-36.5 -11t-33.5 18.5t-11 36.5q8 67 47 238q-21 -1 -41 -3l-14 -2q-15 -2 -38 -6q-27 -122 -33 -176q-3 -20 -19 -33t-36.5 -10.5t-33.5 18.5t-11 37
q6 48 27 149q-21 -1 -41 0q-21 1 -34.5 16.5t-12.5 36t16.5 34.5t36.5 13z" />
    <glyph glyph-name="dollar" unicode="$" horiz-adv-x="522" 
d="M235 417q2 70 3 129q1 47 1 89q-47 -10 -74 -39q-37 -41 -26 -113q3 -22 34 -40q22 -13 62 -26zM317 301v-11q-1 -10 -2 -29q-5 -136 -8 -207q37 4 65 18q45 21 56 61q13 46 5 77q-5 25 -25 43t-56 34q-15 7 -35 14zM420 559q-7 37 -52 60q-19 9 -42 15q0 -43 -1 -90
q-1 -68 -4 -153q39 -12 66 -24q50 -22 80 -50q81 -76 45 -207q-21 -78 -102 -117q-47 -23 -105 -26v-89q0 -18 -13 -30.5t-31 -12.5t-30.5 12.5t-12.5 30.5v95q-63 13 -110 49q-73 55 -81 143q-2 18 9.5 32t29.5 15.5t31.5 -9.5t15.5 -29q5 -51 47 -83q26 -19 61 -29
q2 70 7 203q1 19 2 29q0 17 1 33q-25 8 -43 14q-34 13 -58 26q-68 39 -77 103q-17 113 47 184q52 57 139 69q-1 35 -2 69q-1 18 11 31t30 14t31.5 -11.5t14.5 -30.5q1 -35 2 -73q44 -7 82 -26q84 -43 98 -122q3 -18 -7.5 -33t-28.5 -18t-32.5 7.5t-17.5 28.5z" />
    <glyph glyph-name="percent" unicode="%" horiz-adv-x="765" 
d="M247 529q-17 0 -34 1q-24 2 -39 7q-1 1 -3 1q-2 -2 -4 -5q-12 -16 -14 -31q-4 -25 17 -45q20 -19 41 -15q9 2 16 9q11 10 19 32q6 19 3 41q-1 3 -2 5zM230 645q29 -3 53 -16q84 3 177 27q18 4 49 8q14 2 21 4q17 3 30 11q19 11 40 38q15 18 39 18q18 0 32 -11
q18 -15 18 -39q0 -17 -11 -31q-27 -33 -67 -103q-25 -42 -77 -140h-1q-52 -98 -77 -142q-11 -19 -29 -45q-2 -4 -7 -11.5l-10 -15l-9 -13.5l-4 -6q-43 -65 -61 -104q-11 -25 -17 -46q-5 -20 -22.5 -30.5t-37.5 -5.5t-31 23t-6 38q8 30 23 63q21 45 68 117l5 6q4 6 8.5 13.5
t9.5 15l7 10.5q16 25 26 42q25 42 76 138h1q38 73 56 104q-9 -1 -17 -3q-70 -18 -137 -26q5 -43 -7 -81q-15 -45 -44 -73t-68 -35q-34 -6 -68 5t-60 36q-27 26 -40 60.5t-7 71.5q13 83 108 142q17 11 36.5 6.5t31.5 -20.5zM646 223q-3 -3 -8 -10q-6 -9 -16 -15
q-11 -22 -14 -45.5t3 -34.5h4q36 6 46 28t1 51q-5 13 -11 22q-3 2 -5 4zM689 314q47 -24 68 -85q22 -67 -5 -125q-33 -71 -122 -85q-33 -5 -60.5 7.5t-43.5 38.5q-25 40 -17 100q6 53 35 98q35 53 86 71q17 6 33.5 0.5t25.5 -20.5z" />
    <glyph glyph-name="ampersand" unicode="&#x26;" horiz-adv-x="605" 
d="M237 300q-21 -23 -36 -43q-52 -65 -52 -105v-5q0 -15 1 -21q0 -3 1 -5q2 -5 4 -9q28 -44 72 -44q46 0 106 41q16 11 32 25q-71 74 -125 162q-1 2 -3 4zM507 138l18 -12q24 -16 37 -17q20 -3 33 -19t10.5 -36.5t-18.5 -33.5t-37 -11q-48 6 -112 56q-24 -21 -49 -38
q-85 -59 -162 -59q-99 0 -156 92q-7 10 -12 23t-7.5 26.5t-2.5 37.5v5q0 43 23 90q17 36 50 77q24 31 66 75q-29 65 -37 121q-8 60 9 106q19 55 70 86q33 20 76 19q49 0 80 -28q46 -42 49 -97q3 -46 -24 -97q-20 -36 -60 -82q-17 -20 -42 -46q8 -13 16 -27q48 -77 109 -143
l4 6q44 59 53 104q4 20 21 31.5t37.5 7.5t32 -21t7.5 -38q-15 -73 -82 -158zM319 624q-1 0 -3 1q-4 1 -11 1q-15 0 -23 -5q-21 -12 -28 -33q-9 -24 -4 -60q4 -24 14 -54q5 6 11 14q33 37 48 64q14 26 12 42q0 15 -16 30z" />
    <glyph glyph-name="quotesingle" unicode="'" horiz-adv-x="168" 
d="M162 676q-14 -34 -4 -113l3 -27q9 -65 9 -95q0 -21 -15 -35.5t-35.5 -14.5t-35 14.5t-14.5 35.5q0 23 -8 82q-2 18 -4 29q-5 46 -4 78q1 47 15 83q7 19 26 27.5t38.5 1t27.5 -26.5t1 -39z" />
    <glyph glyph-name="parenleft" unicode="(" horiz-adv-x="359" 
d="M309 685q-58 -90 -89 -197.5t-29 -214.5q1 -116 40 -214.5t114 -170.5q15 -15 15.5 -35.5t-14 -35.5t-35.5 -15.5t-35 14.5q-90 86 -137 203t-48 252q-2 123 33 244.5t101 223.5q11 17 31.5 21.5t38 -6.5t21.5 -31.5t-7 -37.5z" />
    <glyph glyph-name="parenright" unicode=")" horiz-adv-x="271" 
d="M112 729q54 -113 86 -194q44 -115 62 -213q22 -120 5 -223q-18 -119 -87 -216q-2 -2 -7.5 -10.5t-10.5 -16.5t-5 -9q-14 -21 -26 -34q-19 -22 -39 -32q-19 -10 -38.5 -3t-29 25.5t-2.5 38t25 28.5q1 0 2 2q3 2 7 6q7 9 17 24q15 25 25 39q105 147 65 363q-16 89 -57 195
q-30 78 -82 186q-9 19 -2.5 38.5t25.5 28.5t38.5 2t28.5 -25z" />
    <glyph glyph-name="asterisk" unicode="*" horiz-adv-x="348" 
d="M255 547q18 -30 33 -47q13 -15 12 -36t-17 -34.5t-36.5 -12t-34.5 16.5q-15 18 -31 42l-7 -7l-1 -1q-22 -22 -28 -33q-9 -19 -28.5 -25.5t-38 3t-25 29t2.5 38.5q9 17 23 34q8 10 24 25q0 1 1 1q0 1 1 1q-33 8 -55 24q-17 12 -20.5 32.5t8.5 37t32.5 20t37.5 -8.5
q8 -6 33 -10h1v7q1 43 5 66q5 20 22 31.5t37.5 7.5t32 -21.5t7.5 -37.5q-3 -13 -4 -41q16 5 39 14q19 8 38 0t26.5 -27.5t-0.5 -38.5t-27 -26q-38 -16 -63 -23z" />
    <glyph glyph-name="plus" unicode="+" horiz-adv-x="523" 
d="M244 323q3 107 14 191q2 20 18.5 32.5t37 10t33 -19t10.5 -36.5q-10 -75 -12 -171q66 4 129 5q20 1 35 -13.5t15.5 -35.5t-14 -35.5t-35.5 -15.5q-63 -1 -131 -5q0 -32 1 -98v-114q0 -20 -14.5 -35t-35 -15t-35.5 15t-15 35v113q-1 62 -1 92q-87 -8 -181 -19
q-21 -3 -37.5 10t-19 33.5t10.5 36.5t33 19q101 13 194 20z" />
    <glyph glyph-name="comma" unicode="," horiz-adv-x="204" 
d="M68 16q-11 28 -12 50q0 16 5 29q9 21 28 31q18 9 39 5q13 -3 25 -11q17 -11 30 -32q27 -43 22 -98q-7 -65 -59 -123q-14 -16 -35 -17t-36 13t-16 35t13 36q23 26 31 51q-25 7 -35 31z" />
    <glyph glyph-name="hyphen" unicode="-" horiz-adv-x="358" 
d="M44 331q77 12 133 15q82 4 142 -7q20 -3 32 -20t8 -37.5t-21 -32.5t-37 -8q-48 9 -118 5q-52 -3 -124 -14q-21 -3 -37.5 9.5t-19.5 33t9.5 37t32.5 19.5z" />
    <glyph glyph-name="period" unicode="." horiz-adv-x="193" 
d="M68 74q1 18 12 31q15 18 31 25q35 17 63 -9q9 -8 14 -21q4 -8 5 -17q2 -12 1 -26q-4 -32 -20 -52q-9 -10 -21 -16q-18 -7 -37 -3q-15 4 -26 15q-8 8 -13 17q-17 29 -9 56z" />
    <glyph glyph-name="slash" unicode="/" horiz-adv-x="306" 
d="M-14 45q14 54 39 119q15 39 47 114q5 12 7 18q30 70 45 112q21 55 49 167v2q23 88 37 132q6 20 24.5 29.5t38 3t29 -24.5t3.5 -38q-13 -42 -35 -127v-2q-15 -57 -23 -87q-14 -50 -29 -90q-16 -44 -47 -116q-2 -6 -7 -19q-32 -72 -46 -110q-23 -60 -35 -109
q-6 -20 -23.5 -30.5t-37.5 -5t-30.5 23t-5.5 38.5z" />
    <glyph glyph-name="zero" unicode="0" horiz-adv-x="513" 
d="M248 592q-44 -17 -74 -63q-53 -76 -54 -193q-2 -116 46 -192q45 -73 117 -67q53 4 91 84q42 86 40 202q-1 117 -46 183q-41 62 -114 47q-3 -1 -6 -1zM359 681q55 -24 92 -79q62 -91 63 -238q2 -139 -50 -247q-28 -58 -68 -94q-47 -41 -105 -46q-65 -5 -119 25t-91 89
q-63 101 -61 246q2 148 71 249q40 59 98.5 89.5t129.5 27.5q25 -1 40 -22z" />
    <glyph glyph-name="one" unicode="1" horiz-adv-x="360" 
d="M353 648q-11 -24 -12 -109q-2 -70 4 -189q2 -37 6 -90q0 -7 1.5 -33t1.5 -29q2 -34 4 -56q3 -60 3 -91q0 -21 -14.5 -35.5t-35.5 -14.5t-35.5 14.5t-14.5 35.5q0 28 -3 85q-1 22 -3 56q-1 3 -2.5 29t-1.5 33q-4 54 -5 91q-7 122 -5 196q2 104 20 147q8 19 27.5 26.5
t38.5 -0.5t26.5 -27.5t-0.5 -38.5z" />
    <glyph glyph-name="two" unicode="2" horiz-adv-x="565" 
d="M40 493q18 68 87 122q62 49 135 65q86 19 145 -19q70 -45 67 -149q-1 -48 -48 -133q-38 -68 -101 -154q-40 -55 -84 -108q18 1 38 2q109 3 247 -25q20 -4 31.5 -21t7.5 -37.5t-21 -32t-38 -7.5q-126 25 -225 23q-123 -3 -177 -48q-14 -12 -32 -12q-23 0 -38 18
q-12 14 -12 32q0 23 18 38q35 30 92.5 96.5t111.5 140.5q59 81 94 144t36 86q1 28 -7 45q-5 12 -15 18q-23 16 -68 6q-51 -11 -94.5 -45.5t-53.5 -70.5q-5 -20 -23 -30.5t-38 -5t-30.5 23.5t-4.5 38z" />
    <glyph glyph-name="three" unicode="3" horiz-adv-x="506" 
d="M35 558q16 49 66.5 91t116.5 62q68 20 125 6q73 -17 104 -84q25 -55 3 -117q-16 -44 -55 -87q56 -28 86.5 -83t24.5 -123q-8 -95 -89 -152q-68 -48 -162 -50.5t-166 41.5q-85 52 -101 146q-3 20 8.5 37t32 20.5t37.5 -8.5t21 -32q8 -49 54 -77q47 -29 111 -27
q64 1 108 32q43 30 47 78q4 55 -29 89q-32 31 -81 31q-45 -26 -85 -33q-7 -1 -13 -1q-8 0 -15 2q-9 3 -16 8q-12 9 -17 23t-2 28q2 8 6 15t10 12q4 4 10 8q11 6 31 15q33 14 57 19q30 20 54 45q29 30 39 58q8 24 0 41q-11 23 -36 29q-31 8 -74 -5q-41 -13 -74.5 -38.5
t-40.5 -48.5q-7 -20 -25 -29.5t-38 -3.5t-29.5 24.5t-3.5 38.5z" />
    <glyph glyph-name="four" unicode="4" horiz-adv-x="468" 
d="M271 284v22q3 92 9 181q-22 -32 -62 -95l-9 -15q-33 -51 -51 -79q-4 -6 -16 -21q-1 0 -1 -1q21 1 61 4h2q45 3 67 4zM393 622q-16 -101 -22 -318v-22q31 -3 60 -10q20 -4 31 -21.5t6.5 -38t-22 -31.5t-38.5 -6q-18 4 -37 7q2 -137 16 -177q7 -20 -2 -38.5t-28.5 -25.5
t-38.5 2t-25 29q-20 56 -22 212q-21 -1 -60 -4h-2q-76 -6 -116 -5h-1h-1h-2h-20q-13 0 -23 3q-11 2 -19 7q-9 5 -16 13q-10 13 -11 30q-1 14 5 30q4 9 10 19q8 13 22 31q4 5 8.5 10t10.5 13q8 8 9 11q5 5 7 8q2 2 2 3h1q17 27 49 77q7 12 10 15q50 80 80 124q47 68 92 119
q14 15 34.5 16.5t35.5 -12.5q23 -19 16 -48q3 -11 1 -22z" />
    <glyph glyph-name="five" unicode="5" horiz-adv-x="514" 
d="M463 590q-24 -2 -50 -4q-84 -6 -185 -10q-24 -1 -46 -1l-1 -1q-4 -23 -11 -64q-2 -14 -5 -32q-1 -3 -4 -20h1q46 14 105 9q122 -10 190 -88q63 -71 58 -168q-5 -96 -72 -162q-73 -71 -186 -70q-76 1 -149 64q-61 52 -84 111q-8 20 0 39t27.5 26.5t38.5 -0.5t26 -27
q15 -37 57 -73q46 -40 86 -40q71 -1 114 42q39 38 42 95t-33 97q-41 48 -123 54q-80 7 -119 -36q-14 -16 -35 -17q-10 -2 -20 0q-20 4 -31.5 21t-7.5 38q3 16 9 51q1 8 6 38l5 31q3 19 5 33q16 97 27 119q13 29 44 29h2h2h2h17q29 1 60 2q98 4 181 10q25 2 47 4
q21 2 37 -11.5t18 -34t-11.5 -36.5t-33.5 -18z" />
    <glyph glyph-name="six" unicode="6" horiz-adv-x="521" 
d="M216 120q46 -16 104 23t88 101q15 33 15 56q-1 12 -7 18q-17 18 -63 7q-60 -15 -99 -70t-38 -135zM393 551q-2 37 -13 56q-6 10 -14 13q-9 4 -25 -1q-21 -5 -46 -23q-58 -41 -100 -118q-46 -87 -49 -181v-30q11 25 27 46q60 85 155 109q46 12 89.5 3t71.5 -38
q32 -34 34 -84q1 -47 -25 -102q-41 -86 -123 -141q-101 -68 -196 -32q-8 3 -17 7q-26 3 -38 27q-8 7 -14 14q-42 45 -56 112q-9 45 -8 112q3 118 61 226q53 97 131 152q88 63 162 36q43 -15 68 -58q21 -39 25 -98q1 -21 -12.5 -36.5t-34.5 -17t-36.5 12.5t-16.5 34z" />
    <glyph glyph-name="seven" unicode="7" horiz-adv-x="520" 
d="M90 660q31 2 66 5q46 5 136 16q16 2 30 4h1q1 1 3 1q4 1 11 3l16 3q10 3 18 5q9 2 17 4q31 7 51 9q14 1 25 1q9 -1 16 -3q14 -4 24 -13q21 -19 17 -46q-2 -20 -16 -34q-6 -6 -15 -11q-3 -3 -10 -6q-4 -2 -5 -3q-64 -53 -98 -111q-16 -27 -39 -91t-40 -133
q-20 -79 -26 -137t2 -78q8 -19 0 -38.5t-27 -27t-38 0.5t-27 27q-18 43 -10 127q7 65 29 151q19 76 44.5 146.5t45.5 103.5q15 26 34 50q-6 -1 -20 -3q-92 -12 -139 -17q-37 -3 -70 -5q-20 -1 -35.5 12.5t-17 34.5t12.5 36.5t34 16.5z" />
    <glyph glyph-name="eight" unicode="8" horiz-adv-x="531" 
d="M307 454q14 1 26 -4q8 4 14 9q32 25 37 65q4 39 -21 66q-30 32 -93 32q-49 0 -73 -34q-19 -26 -21 -44q-2 -8 3 -15q13 -21 80 -53q2 -1 10 -4.5t19.5 -9t18.5 -8.5zM315 338q-16 -2 -33 -3q-13 -9 -32 -24q-2 -2 -8 -7q-6 -4 -9 -7q-10 -7 -18 -13l-1 -1
q-45 -32 -69 -63q-20 -25 -23 -45q-6 -28 24 -49q41 -28 109 -28q77 0 144 39q34 20 33 55q-2 55 -43 95q-26 26 -74 51zM192 398q-25 12 -43 24q-37 25 -55 54q-24 38 -17 83q5 41 38 87q26 37 66.5 56.5t88.5 19.5q107 0 167 -64q55 -61 46 -145q-8 -72 -62 -123
q21 -15 38 -32q70 -68 73 -162q1 -46 -20.5 -84t-62.5 -61q-89 -52 -193 -53q-101 0 -168 47q-38 27 -55.5 66t-9.5 83q17 87 133 171l32 24l3 3q1 3 1 6z" />
    <glyph glyph-name="nine" unicode="9" horiz-adv-x="508" 
d="M397 570q-8 14 -20 23q-28 20 -75 10q-53 -11 -94 -53q-45 -45 -52 -107q-5 -41 1 -66q4 -13 10.5 -17.5t20.5 -3.5q18 1 43 12q57 24 104 77t52 99q1 15 10 26zM504 490q-17 -126 -54 -253q-49 -169 -109 -255q-12 -17 -32.5 -20.5t-37.5 8.5t-20.5 32.5t8.5 37.5
q51 72 95 225q11 38 21 79q-50 -45 -104 -68q-41 -18 -78 -20q-47 -2 -81 20q-37 25 -51 74q-12 44 -4 106q11 95 80 164q62 63 144 81q90 19 154 -27q72 -51 75 -160q0 -13 -6 -24z" />
    <glyph glyph-name="colon" unicode=":" horiz-adv-x="234" 
d="M138 531q11 5 22 5q27 0 44 -9q20 -10 27.5 -29.5t-0.5 -40.5q-7 -18 -25 -31q-11 -8 -24 -14q-14 -6 -27 -9q-10 -2 -18 -1q-18 1 -32 11q-21 17 -21 44q0 14 7 28q8 15 26 33q9 9 21 13zM167 129q13 2 25 -3q28 -11 38 -37t-4 -51q-15 -26 -45 -39q-17 -6 -32 -6
q-32 1 -49 25q-15 22 -9 51q4 17 15 37q9 16 26.5 22.5t34.5 0.5z" />
    <glyph glyph-name="semicolon" unicode=";" horiz-adv-x="226" 
d="M210 479q15 -13 16.5 -33t-11.5 -35q-27 -34 -66 -26q-32 7 -48 38q-15 28 -4.5 59t41.5 47q18 9 38 2.5t29 -25.5q6 -13 5 -27zM96 70q3 11 7 20q7 16 19 25q21 15 47 9q15 -4 27 -17q20 -21 28 -63t-1 -79q-12 -53 -53 -79q-17 -11 -37.5 -6t-31.5 22.5t-6 37.5t22 31
q13 8 10 43q-16 6 -25 22t-6 34z" />
    <glyph glyph-name="less" unicode="&#x3c;" horiz-adv-x="618" 
d="M33 296q29 14 82 43q2 1 6 3.5t8 4.5t9 5t9 5t7.5 4t5.5 3l2 2q30 16 50 27q51 28 90 48q166 83 263 87q21 1 36 -13t16 -34.5t-13 -36t-34 -16.5q-76 -3 -223 -77q-38 -19 -87 -45q-20 -12 -49 -28h-1l-1.5 -1l-3 -2t-4 -2t-4.5 -3q85 -22 152 -45q143 -50 248 -122
q17 -11 21 -31.5t-7.5 -37.5t-32 -21t-37.5 8q-95 64 -224 109q-87 30 -250 70q-2 0 -5 1q-15 -2 -29.5 5.5t-21.5 21.5q-9 19 -2.5 38.5t24.5 29.5z" />
    <glyph glyph-name="equal" unicode="=" horiz-adv-x="634" 
d="M87 413q72 -1 215 -8q11 -1 16 -1q160 -7 246 -7q21 0 35.5 -15t14.5 -35.5t-14.5 -35t-35.5 -14.5q-89 0 -251 7q-5 0 -15 1q-142 7 -212 8q-21 0 -35.5 15t-14 35.5t15.5 35t35 14.5zM152 212q258 -4 439 -25q20 -2 33 -18t10.5 -37t-18.5 -33.5t-37 -10.5
q-175 20 -428 24q-21 1 -35.5 15.5t-14 35.5t15.5 35.5t35 13.5z" />
    <glyph glyph-name="greater" unicode="&#x3e;" horiz-adv-x="612" 
d="M85 516q24 -18 60 -32q24 -9 72 -23q2 -1 7 -2q42 -13 63 -20q43 -15 92 -38q31 -15 86 -44l3 -2h1q2 -1 3 -2q33 -17 50 -26q21 -10 32 -15q0 -1 1 -1l22 -11q5 -3 8 -5q3 -1 5 -2q3 -2 5 -4q5 -4 9 -9q5 -8 8 -17q6 -22 -8 -41q-10 -15 -27 -21l-8 -2q-2 0 -5 -1
q-49 -14 -136 -37q-133 -35 -200 -58q-106 -37 -185 -86q-18 -11 -38 -6t-31 22.5t-6 37.5t22 31q89 55 205 95q71 25 208 61q14 3 24 6q-1 0 -1 1q-1 0 -2 1l-2 1l-4 2q-53 27 -82 41q-44 21 -82 34q-19 7 -58 19q-5 1 -7 2q-52 15 -81 26q-47 19 -81 44q-17 12 -20.5 32
t8.5 37t32.5 20.5t37.5 -8.5z" />
    <glyph glyph-name="question" unicode="?" horiz-adv-x="535" 
d="M73 492q-16 35 -2 74q11 29 37 56q47 48 122 77q81 30 152 19q92 -14 133 -93q42 -81 4 -170q-14 -31 -40 -68q-15 -21 -46 -60l-2 -3q-43 -53 -59 -80q-21 -37 -21 -65q0 -21 -14.5 -35.5t-35.5 -14.5t-35.5 14.5t-14.5 35.5q0 55 35 115q19 33 66 92q1 2 3 3
q30 37 42 56q20 28 30 50q19 45 -1 85q-18 33 -59 40q-45 7 -102 -15q-54 -20 -85 -52q-12 -12 -15 -21v-1q7 -19 -0.5 -37.5t-25.5 -26.5q-19 -9 -38.5 -1.5t-27.5 26.5zM321 93l1 -1l1 -1h1l1 -1l1 -1h1l1 -1l1 -1h1l1 -1l1 -1l1 -1l1 -1l1 -1l2 -1q17 -12 20 -32.5
t-9 -37.5t-32.5 -20t-37.5 9l-1 1l-1 1l-1 1l-1 1h-2l-1 1l-1 1l-1 1l-1 1h-1l-1 1l-1 1l-1 1l-2 1q-16 12 -19.5 32.5t9 37t33 20t36.5 -8.5z" />
    <glyph glyph-name="at" unicode="@" horiz-adv-x="911" 
d="M583 443q2 10 8 19q1 11 0 19v3q-5 -1 -12 -5q-34 -16 -63 -63q-37 -58 -47 -137v-3q3 2 5 5q38 38 73 93q16 24 26 44q5 10 8 17q1 3 2 5v3zM676 399q-3 -16 -8 -35q-6 -25 -7 -31q-2 -12 -2 -26q0 -32 9 -45q3 -4 9 -4q14 -1 34 10q26 13 48 38q54 60 54 136
q0 93 -88 176q-55 52 -146 41q-92 -11 -181 -102t-116 -200q-27 -108 27 -174q31 -36 87 -58q67 -25 165 -26q20 -1 34.5 -16t14 -35.5t-15 -35t-35.5 -13.5q-229 4 -326 120q-87 105 -48 262q34 136 142 246q113 116 240 131q64 8 123.5 -9t102.5 -58q120 -113 120 -249
q0 -114 -79 -203q-36 -40 -79.5 -62t-84.5 -19q-53 3 -84 46q-10 15 -17 33q-12 -14 -23 -26q-26 -26 -48 -40q-14 -9 -28 -14q-20 -7 -38 -4q-24 3 -41 21q-13 15 -19 36q-8 31 -2 81q13 101 61 179q45 71 104 99q33 16 63 15q38 -1 64 -27q24 -25 29 -64q4 -34 -7 -77
q-2 -9 -8 -17z" />
    <glyph glyph-name="A" unicode="A" 
d="M238 318q57 2 107 4q45 2 75 4q-13 35 -31 86q-2 7 -5 15l-5 15q-28 79 -43 119q-19 -55 -46 -121q-17 -42 -52 -122zM23 39q21 72 56 158q21 53 64 152v1l1 1v1v1l1 2q36 82 53 123q28 68 46 123q1 2 4 12.5t6.5 23.5t4.5 18q7 26 14 42q5 13 11 21q9 15 22 24q9 5 18 7
q10 1 18 1q6 -2 11 -4t8 -4q6 -4 11 -10q3 -3 5 -7l2.5 -5l3.5 -7q3 -8 9 -20q9 -21 14 -34q25 -62 67 -184q4 -11 5 -14q3 -9 6 -15q44 -126 73 -196q44 -103 91 -180q11 -17 6.5 -37.5t-22 -31.5t-37.5 -6t-31 22q-53 83 -99 195l-8 18q-9 -1 -20 -2q-33 -4 -87 -6
q-87 -4 -147 -4q-4 0 -7 1q-13 -31 -25 -59q-32 -82 -52 -149q-6 -20 -24 -30t-38 -4t-30 24.5t-4 37.5z" />
    <glyph glyph-name="B" unicode="B" horiz-adv-x="629" 
d="M161 439q7 -1 13 -4q17 -9 58 -7q33 1 76 8q58 10 94 30q29 15 41 34q18 28 -7 63q-33 47 -107 67q-80 22 -169 -2q-1 -58 0 -128q1 -31 1 -61zM481 397q28 -12 53 -29q43 -30 68.5 -71t28.5 -86q3 -47 -20.5 -89t-69.5 -71q-93 -58 -255 -47q-10 0 -25 1q-3 1 -14 2
l-11 1q-49 3 -80 4q-15 -15 -36 -15t-35.5 14.5t-14.5 35.5q0 80 -3 200q-1 21 -2 64q-4 125 -5 188q-1 105 1 189q1 21 16 35.5t35 13.5q17 -1 30 -10q111 28 213 0q110 -30 163 -107q30 -42 32.5 -87.5t-23.5 -86.5q-18 -27 -46 -49zM290 332q-29 -4 -55 -4q-41 -2 -71 5
q0 -7 1 -19q1 -43 2 -64q2 -81 3 -138q29 -1 74 -5l11 -1q11 -1 14 -1q14 -1 23 -2q130 -8 196 33q45 28 43 69q-3 45 -54 81q-65 45 -169 43q-9 0 -18 3z" />
    <glyph glyph-name="C" unicode="C" horiz-adv-x="675" 
d="M575 515q-19 68 -76 99q-56 29 -130 17q-76 -12 -134 -62q-62 -54 -78 -132q-26 -124 20 -222q41 -86 120 -120q76 -32 148 3q86 41 135 164q7 19 26 27t38.5 0.5t27.5 -26.5t0 -39q-63 -158 -183 -216q-114 -55 -232 -5q-54 24 -98.5 67.5t-71.5 101.5q-61 128 -28 285
q23 112 111 187q79 69 183 86q107 17 192 -28q97 -50 126 -161q6 -20 -4.5 -38t-30.5 -23.5t-38 5t-23 30.5z" />
    <glyph glyph-name="D" unicode="D" horiz-adv-x="650" 
d="M186 114q83 -24 151 -16t118 46q46 35 71 90.5t26 120.5q0 65 -25 122.5t-72 96.5q-52 42 -124 55q-71 12 -158 -5q-3 -62 -2 -135q1 -67 7 -198q1 -2 1 -5q6 -117 7 -172zM162 724q218 40 356 -73q65 -53 99.5 -131t34.5 -166q-1 -87 -36.5 -163.5t-99.5 -125.5
q-135 -103 -337 -53q-15 -22 -42 -22q-21 0 -35.5 14.5t-14.5 35.5q0 80 -8 241v5q-7 133 -8 201q-2 114 6 205q2 21 18 34.5t36 11.5q18 -2 31 -14z" />
    <glyph glyph-name="E" unicode="E" horiz-adv-x="626" 
d="M168 717q86 14 218 12q28 0 84 -1q72 -2 107 -2q21 0 35.5 -14.5t14.5 -35.5t-14.5 -35.5t-35.5 -14.5q-36 0 -109 2q-55 1 -83 1q-128 2 -210 -12q-6 -90 -6 -194h159h163q21 0 35.5 -14.5t14.5 -35.5t-14.5 -35.5t-35.5 -14.5h-163h-157q4 -97 13 -205v-14v-7l-1 -2
q16 -1 36 -1q46 1 127 6q20 2 47 4q3 0 22.5 1.5t23.5 2.5q26 2 43 3q46 3 69 3q21 0 35.5 -14.5t14.5 -35.5t-14.5 -35.5t-35.5 -14.5q-19 0 -62 -3q-17 -1 -42 -3q-4 0 -23.5 -1.5t-23.5 -2.5q-27 -2 -47 -3q-84 -6 -133 -7q-73 0 -104 11q-14 6 -24 19l-6 12q-2 6 -3 12
q0 6 -1 13q0 9 1 24v9q0 1 1 6v2v6v4q-28 339 -3 576q2 21 18.5 34t36.5 11q19 -2 32 -16z" />
    <glyph glyph-name="F" unicode="F" horiz-adv-x="631" 
d="M175 710q82 15 207 22q28 1 85 3q75 3 112 5q21 2 36.5 -12t17 -34.5t-12.5 -36t-34 -17.5q-39 -2 -116 -5q-56 -2 -83 -3q-127 -6 -207 -23q-1 -50 -5 -155q-1 -25 -2 -38q32 2 79 5q10 1 31 2q115 9 174 9q20 0 35 -14.5t15 -35t-15 -35.5t-35 -15q-55 0 -166 -8
q-21 -2 -31 -3q-55 -4 -90 -5q-2 -57 0 -105q2 -95 16 -171q4 -21 -8 -38t-32.5 -20.5t-37.5 8t-20 32.5q-16 83 -18 186q-2 75 2 186q1 22 3 64q5 116 5 169q-1 4 -3 8q-4 18 3 34v17q0 21 14 36t35 15q31 1 46 -27z" />
    <glyph glyph-name="G" unicode="G" horiz-adv-x="739" 
d="M730 47q13 -16 11 -36t-18 -33q-16 -14 -36.5 -12t-33.5 18q-14 16 -20 39q-4 14 -6 33q0 6 -1 17v1q-6 -8 -14 -15q-67 -68 -162 -81q-85 -12 -171 23q-85 34 -146 101.5t-79 149.5q-16 75 0 152.5t59 144.5q45 70 110 115t141 57q86 14 181 -17q54 -18 90 -48
q45 -38 55 -92q4 -20 -5 -43q-6 -17 -16 -30q-7 -9 -14 -15q-13 -11 -29 -13q-31 -5 -51 19q-11 13 -13 32q-3 16 -1 34q0 7 2 22q1 7 1 11q0 2 1 3q-20 15 -51 25q-72 24 -134 14q-54 -9 -101.5 -42.5t-81.5 -85.5q-33 -51 -45 -109.5t0 -111.5q12 -58 57 -106.5t107 -73.5
t120 -17q62 8 106 52q17 17 27 40q8 17 17 52l3 9q1 5 2 9q2 7 6 18v2q1 3 1 8q1 4 1 8h-4q-29 2 -75 7q-7 1 -17 2q-83 10 -110 10q-21 0 -35.5 14.5t-14.5 35.5t14.5 35.5t35.5 14.5q55 0 138 -3q106 -4 128 -12q14 -4 24 -16q6 -7 10 -16q1 -4 3 -7q14 -14 22 -33
q10 -24 10 -58q0 -15 -3 -53q-5 -60 0 -96q1 -8 1 -22q1 -10 1 -14q1 -9 2 -15q1 -1 1 -2z" />
    <glyph glyph-name="H" unicode="H" horiz-adv-x="681" 
d="M206 446q55 -4 167 -3h1q70 0 105 -1q28 0 52 -2q-7 176 1 266q2 21 18 34.5t36.5 11.5t34 -18t11.5 -36q-10 -110 2 -319q14 -233 44 -300q8 -19 0.5 -38t-26.5 -27.5t-38 -1t-28 26.5q-34 77 -49 301q-28 2 -61 2q-33 1 -101 1h-1q-117 -1 -176 3l-10 2q3 -160 23 -280
q4 -20 -8 -37t-32.5 -20.5t-37.5 8.5t-20 33q-25 145 -25 350q0 74 3 217q1 62 2 91q0 21 15 35t36 14t35 -15t14 -36q-1 -29 -2 -92q-3 -116 -3 -172q9 3 18 2z" />
    <glyph glyph-name="I" unicode="I" horiz-adv-x="192" 
d="M193 702q-3 -128 -2 -314q0 -44 1 -132q1 -148 1 -224q0 -21 -14.5 -35.5t-35.5 -14.5t-35.5 14.5t-14.5 35.5q0 74 -1 223q-1 88 -1 132q-1 188 2 317q1 21 16 35.5t35.5 13.5t35 -16t13.5 -35z" />
    <glyph glyph-name="J" unicode="J" horiz-adv-x="434" 
d="M402 714q1 -31 6 -82q2 -20 5 -48l6 -51q6 -59 10 -96q9 -101 6 -170q-3 -93 -28 -153q-32 -74 -99 -109q-64 -32 -133 -17q-71 15 -114 73q-45 62 -40 151q1 21 16.5 34.5t36.5 12.5t34.5 -16.5t12.5 -36.5q-3 -53 21 -86q20 -27 54 -35q34 -7 66 9q35 18 53 60t20 117
q3 62 -6 157q-3 36 -10 93q-4 40 -6 52q-3 29 -5 49q-5 55 -6 90q0 21 14 36t35 15.5t36 -14t15 -35.5z" />
    <glyph glyph-name="K" unicode="K" horiz-adv-x="628" 
d="M167 695q-5 -86 -3 -195q1 -46 3 -100q145 156 315 292q16 13 36.5 10.5t33.5 -18.5t10.5 -36.5t-18.5 -33.5q-106 -85 -207 -183q131 -180 281 -368q13 -16 10.5 -36.5t-18.5 -33.5t-36.5 -10.5t-33.5 18.5q-146 182 -274 358q-37 -38 -70 -76q-10 -11 -24 -15
q5 -142 5 -227q0 -21 -14.5 -35.5t-35.5 -14.5t-35.5 14.5t-14.5 35.5q0 83 -5 226q-1 10 -2 31q-5 134 -6 200q-2 113 3 203q1 20 16.5 34t36 13t34.5 -16.5t13 -36.5z" />
    <glyph glyph-name="L" unicode="L" horiz-adv-x="535" 
d="M171 696q-11 -123 -3 -322q1 -26 3 -76q6 -137 7 -200q47 -8 137 -7q30 1 81 3q68 2 90 2q21 0 35.5 -14.5t14.5 -35.5t-14.5 -35.5t-35.5 -14.5q-20 0 -86 -2q-52 -2 -83 -3q-67 -1 -112 3q-62 6 -98 21q-16 7 -24.5 23t-4.5 33q0 71 -7 222q-2 49 -3 77q-8 205 3 334
q2 21 18 34.5t36.5 11.5t34 -18t11.5 -36z" />
    <glyph glyph-name="M" unicode="M" horiz-adv-x="769" 
d="M717 713q3 -81 15 -194q3 -33 10 -101q14 -124 19 -187q9 -106 9 -191q0 -21 -14.5 -35.5t-35.5 -14.5t-35.5 14.5t-14.5 35.5q0 81 -8 183q-5 61 -19 184q-7 68 -11 102l-2 26q-9 -21 -18 -43q-29 -74 -67 -194q-4 -14 -10 -32l-3.5 -10.5t-4.5 -14.5t-3 -7
q-34 -107 -53 -163q4 -32 -24 -49q-18 -11 -38 -5.5t-31 22.5q-27 46 -53 107q-16 39 -42 109q-1 3 -2 7l-1 3q-1 3 -2 4q-34 96 -55 141q-18 38 -42 82q-2 -50 -9 -156q-1 -11 -2 -17q-6 -89 -8 -139q-1 -74 5 -134q2 -20 -11 -36.5t-33.5 -18.5t-37 11t-18.5 34
q-7 66 -5 147q2 52 9 143q0 6 1 18q8 114 9 170q2 92 -10 163q-3 18 6.5 34t26.5 21q18 10 37.5 4t29.5 -24q16 -30 48 -85l2 -4l2 -4q63 -108 90 -167q23 -49 59 -149q1 -1 2 -3.5t1 -3.5q1 -4 2 -7q21 -56 33 -86q8 25 19 61q0 1 2.5 8t4.5 14t3 10q6 19 11 33
q39 122 69 199q42 109 90 192q5 10 15 16q14 24 41 25q21 1 36 -13t16 -35z" />
    <glyph glyph-name="N" unicode="N" horiz-adv-x="638" 
d="M634 720q0 -114 2 -341q3 -228 3 -342q0 -21 -14.5 -35.5t-35.5 -14.5q-29 0 -43 25q-13 8 -18 22q-42 105 -125 227q-60 90 -165 219q-1 1 -12.5 15t-30.5 37.5t-35 43.5v-48q0 -69 5 -171q1 -20 4 -61q9 -165 9 -247q0 -21 -14.5 -35.5t-35.5 -14.5t-35.5 14.5
t-14.5 35.5q0 79 -9 241q-2 41 -3 62q-6 104 -6 175q-1 97 7 177q2 21 18 34t37 11q20 -2 33 -18q12 -5 20 -15q10 -12 33.5 -41.5t46 -56.5t41.5 -50.5t20 -24.5q107 -133 170 -226q28 -42 52 -81q-1 53 -1 142q-3 228 -3 342q0 21 14.5 35.5t35.5 14.5t35.5 -14.5
t14.5 -35.5z" />
    <glyph glyph-name="O" unicode="O" horiz-adv-x="738" 
d="M371 642q-73 14 -137 -51q-74 -74 -96 -197q-22 -127 30 -219q58 -102 196 -121q122 -16 197 67q71 77 77.5 203.5t-54.5 214.5q-65 92 -182 92q-17 0 -31 11zM422 731q155 -9 244 -135q81 -116 73 -277q-4 -77 -31 -146t-73 -120q-53 -58 -125.5 -83.5t-158.5 -14.5
q-188 25 -270 171q-70 123 -41 285q13 74 45 139.5t78 111.5q54 54 117.5 73t133.5 -1q4 -1 8 -3z" />
    <glyph glyph-name="P" unicode="P" horiz-adv-x="614" 
d="M161 383q16 2 35 3q24 2 72 3q71 2 105 7q53 8 94 28q4 2 7 3q27 15 36 38t2 52q-8 32 -30.5 59t-50.5 39q-54 23 -144 22q-62 -1 -118 -13q-12 -98 -8 -241zM167 725q58 11 119 12q110 1 183 -30q51 -21 88.5 -66t51.5 -100q15 -63 -8 -117.5t-81 -84.5q-4 -3 -9 -5
q-56 -27 -124 -37q-40 -6 -116 -8q-46 -1 -68 -3q-21 -1 -39 -4q1 -16 2 -42q6 -138 6 -206q0 -21 -14.5 -35.5t-35.5 -14.5t-35.5 14.5t-14.5 35.5q0 65 -6 202q-3 68 -4 103q-4 105 -1 182q3 70 11 132q-4 18 5 34q1 8 3 15q4 20 21 32t37 8q18 -3 29 -17z" />
    <glyph glyph-name="Q" unicode="Q" horiz-adv-x="743" 
d="M546 163q22 23 40 50q68 102 57 207q-12 116 -125 193q-13 10 -19 25q-83 22 -160 -6q-102 -37 -163 -140q-60 -103 -46 -210q15 -115 116 -185q79 -55 177 -19q23 8 45 21q-25 25 -47 43q-16 14 -18 34.5t11.5 36.5t34 17.5t36.5 -11.5q28 -24 61 -56zM616 91
q34 -34 60 -57q16 -13 17.5 -34t-12 -36.5t-34 -17t-36.5 11.5q-31 27 -72 68q-39 -26 -82 -42q-69 -26 -138.5 -18.5t-129.5 49.5q-137 95 -158 254q-19 142 59 274q38 64 93.5 111.5t121.5 71.5q151 55 308 -26q16 -8 23 -24t3 -33q91 -91 103 -213q15 -140 -72 -272
q-24 -36 -54 -67z" />
    <glyph glyph-name="R" unicode="R" 
d="M198 373q124 15 200 64q69 45 70 94q2 45 -59 75q-73 37 -202 31q1 -64 -2 -139q-2 -53 -7 -125zM452 353q23 -35 71 -104l5 -6q81 -117 120 -179q11 -17 6.5 -37t-22 -31.5t-37.5 -7t-31 22.5q-39 59 -119 175q-3 5 -4 6q-54 78 -80 117q-76 -28 -171 -37
q-10 -151 -10 -241q0 -20 -15 -35t-35.5 -15t-35 15t-14.5 35q0 96 12 267q1 7 2 21q9 122 11 183q4 100 0 181q-1 21 13 36t35 16q7 1 13 -1q179 16 288 -39q56 -28 86 -71.5t28 -94.5q-1 -50 -31.5 -95.5t-84.5 -80.5z" />
    <glyph glyph-name="S" unicode="S" horiz-adv-x="625" 
d="M483 541q-13 49 -60 77q-45 27 -102 23q-55 -4 -87 -35q-34 -32 -29 -86q3 -43 46 -70q22 -14 57 -27q23 -8 72 -23h1q59 -18 88 -29q50 -20 83 -44q90 -69 71 -191q-17 -101 -118 -147q-82 -37 -190 -22q-107 15 -186 73q-92 68 -105 169q-3 20 10 36.5t33.5 19t37 -10
t18.5 -32.5q8 -59 66 -102t139 -54q80 -11 137 15q51 23 59 71q6 36 -4 59q-8 20 -29 36t-59 31q-24 9 -80 26h-1q-52 16 -78 25q-44 17 -75 36q-86 54 -93 148q-8 101 60 166q58 55 149 61q88 6 160 -36q82 -48 105 -138q6 -20 -5 -38t-31 -23t-37.5 5.5t-22.5 30.5z" />
    <glyph glyph-name="T" unicode="T" horiz-adv-x="603" 
d="M26 723q103 -8 280 -2q18 0 54 1q130 5 194 5q21 0 35.5 -14.5t14.5 -35.5t-14.5 -35.5t-35.5 -14.5q-62 0 -190 -4q-15 -1 -23 -1q-14 -340 12 -569q2 -21 -11 -37t-33.5 -18.5t-36.5 10.5t-19 33q-26 236 -12 578q-130 -3 -223 4q-20 2 -33.5 17.5t-12 36t17 34
t36.5 12.5z" />
    <glyph glyph-name="U" unicode="U" horiz-adv-x="660" 
d="M167 698q-9 -94 0 -283q9 -209 31 -257q30 -63 81 -84q46 -19 103 -2q59 18 105.5 65t60.5 105q14 52 14 117q0 48 -8 124q-1 13 -4 39q-7 57 -9 85q-4 48 -4 87q0 21 14.5 35.5t35.5 14.5t35.5 -14.5t14.5 -35.5q0 -52 12 -161q3 -26 4 -39q9 -81 9 -135
q-1 -77 -16 -141q-21 -84 -86 -150t-149 -91q-91 -28 -170 4q-88 36 -133 135q-31 66 -41 295q-9 196 0 297q2 20 18 33.5t36.5 11.5t34 -18t11.5 -37z" />
    <glyph glyph-name="V" unicode="V" horiz-adv-x="626" 
d="M114 720q103 -199 184 -456q13 -44 30 -94q2 5 2 7q4 11 7 20q127 332 193 528q6 19 24.5 28.5t38 3t29 -25t2.5 -38.5q-66 -198 -193 -532q-3 -6 -6 -16q-1 -2 -7 -21t-8 -24q-10 -30 -19 -50q-15 -30 -32 -49q-4 -3 -7 -6l-10 -6q-5 -2 -10 -3q-6 -1 -11 -1q-9 1 -16 3
q-5 2 -9 4q-6 5 -9 8q-3 2 -4 4q-3 3 -5 7l-2 4q0 1 -1 3t-2 6q-3 5 -6 15q-8 21 -9 25q-34 100 -56 170q-78 249 -176 440q-10 19 -3.5 38.5t25 29t38 3t28.5 -24.5z" />
    <glyph glyph-name="W" unicode="W" horiz-adv-x="917" 
d="M513 651q23 -49 48 -127q15 -45 43 -143v-1q35 -122 54 -175q7 -21 14 -38q7 32 16 68q16 57 51 169q11 35 16 52q48 157 64 252q3 21 20 33t37.5 8.5t32.5 -20.5t8 -37q-17 -102 -67 -265q-5 -17 -16 -53q-34 -110 -49 -165q-24 -90 -35 -163q-2 -21 -19 -33t-37 -9
q-6 0 -12 3q-32 -6 -51 20q-34 48 -68 145q-19 55 -55 180v1q-25 88 -37 127q-18 -60 -45 -133q-17 -47 -44 -118q-2 -6 -6.5 -18.5t-9.5 -24.5l-4 -11q-12 -32 -20 -53q-22 -59 -37 -101q-6 -20 -25 -29t-38 -2q-17 6 -26.5 21t-7.5 32q-15 95 -48 212q-21 73 -66 214
q-36 114 -52 168q-7 21 -12 40q-6 20 4 38t30 24t38 -4t24 -30q5 -19 11 -39q16 -54 53 -167q45 -142 66 -217q9 -32 16 -61q13 34 17 43q27 71 43 117q56 156 77 261q4 20 21 31.5t38 7.5q5 -1 9 -3q25 -5 36 -27z" />
    <glyph glyph-name="X" unicode="X" horiz-adv-x="627" 
d="M403 365q1 -1 1 -2l4 -6q66 -114 101 -167q56 -84 105 -134q15 -14 15 -35t-14.5 -35.5t-35.5 -14.5t-35 15q-57 56 -118 149q-37 55 -101 166q-132 -187 -170 -289q-7 -20 -26 -28.5t-38.5 -1.5t-28 26t-1.5 38q46 126 208 350q-40 66 -72 114q-67 96 -127 144
q-17 12 -19 33t10.5 37t33 18.5t37.5 -10.5q72 -57 147 -166q27 -39 55 -84q106 139 205 251q14 16 34.5 17t36 -12.5t17 -34t-12.5 -36.5q-111 -125 -225 -278q7 -11 14 -24z" />
    <glyph glyph-name="Y" unicode="Y" horiz-adv-x="611" 
d="M600 661q-21 -24 -110 -189q-41 -75 -67 -129q-14 -28 -22 -47q-4 -9 -6 -15l-1 -4q-8 -52 -9 -131v-78v-47q0 -21 -14.5 -35.5t-35 -14.5t-35.5 14.5t-15 35.5v47v79q1 86 10 145v1q-38 41 -78 100q-29 44 -70 118q-1 2 -9.5 17t-17.5 30.5t-12 22.5q-30 53 -51 85
q-11 17 -7 37.5t21.5 32t37.5 7t32 -21.5q23 -35 54 -91q4 -7 13 -23t17 -31t9 -16q39 -71 67 -112q19 -28 37 -51q26 53 64 122q95 175 122 207q14 16 34.5 17.5t36.5 -12t17.5 -34t-12.5 -36.5z" />
    <glyph glyph-name="Z" unicode="Z" horiz-adv-x="633" 
d="M69 723q214 21 449 10h2q2 0 8 1v1q19 3 28 3q8 -1 15 -2q14 -4 25 -14q15 -16 15 -38q0 -13 -7 -25q-7 -14 -19 -29q-7 -7 -19 -20h-1q-10 -11 -14 -16q-57 -68 -166 -208q-1 -1 -1 -2q-87 -110 -131 -165q-55 -68 -104 -124q82 6 197 4q30 -1 90 -2q98 -3 148 -3
q21 0 35.5 -14.5t14.5 -35.5t-14.5 -35.5t-35.5 -14.5q-51 0 -151 3q-60 1 -89 2q-138 2 -233 -8q-7 -1 -11 -1q-12 -1 -21 -2q-14 0 -24 1q-21 2 -35 12q-27 20 -20 53q1 5 4 10q1 4 4 10q4 7 11 18q16 25 22 31q61 69 134 159q44 54 130 164q1 1 1 2q100 128 149 187
q-194 6 -376 -12q-21 -2 -37 11.5t-18 34t11.5 36.5t33.5 18z" />
    <glyph glyph-name="bracketleft" unicode="[" horiz-adv-x="273" 
d="M228 626q-9 -1 -39 2q-10 0 -16 1h-5q-1 -27 -2 -71q-3 -104 -5 -233q-7 -336 -5 -360q1 -1 1 -3q1 -12 2 -16q1 -10 1 -17v-1q11 5 13 6q15 7 24 10q20 6 38 -4t24 -29.5t-3.5 -38t-29.5 -24.5q-1 0 -3 -1q-3 -1 -8 -3q-1 -1 -11.5 -6t-12.5 -6q-7 -3 -12 -5
q-21 -10 -36 -14q-12 -4 -21 -5q-17 -1 -30 3t-22 14q-6 6 -9 13t-4 15q-1 6 -1 12t2 14v5q1 3 1 7l1 1v1q1 14 0 29q0 6 -1 13l-2 16v4q-3 30 4 372q2 129 5 233q1 49 2 77q0 14 1 22v20t1.5 3t3.5 4q6 14 18 24q11 10 27 15q10 2 22 3q15 2 37 1q8 -1 19 -2q1 0 5 -0.5
t5 -0.5h8h5h2q20 1 35.5 -13t17 -34.5t-12 -36t-34.5 -16.5z" />
    <glyph glyph-name="backslash" unicode="\" horiz-adv-x="316" 
d="M56 710q13 -37 49 -106q0 -2 3 -6q37 -72 51 -111q16 -43 44 -125l3 -8q2 -9 3 -11q4 -12 7 -20q54 -160 96 -244q9 -19 2.5 -38.5t-25 -28.5t-38 -2.5t-29.5 24.5q-27 56 -55 127q-19 50 -46 130q-3 8 -7 20q0 2 -3 11l-3 8q-27 80 -43 122q-12 34 -46 100l-3 6
q-40 76 -54 121q-7 20 2.5 38.5t29 25t38 -3t24.5 -29.5z" />
    <glyph glyph-name="bracketright" unicode="]" horiz-adv-x="248" 
d="M-10 690q4 19 20.5 30.5t35.5 8.5h2h8h3h3h2q6 0 10 -1q13 0 23 -1q27 -2 45 -6q14 -3 25 -9q9 -5 16 -12q10 -10 14 -24q6 -20 5 -46q0 -15 -4 -38q0 -3 -1 -7q-5 -30 -4 -40q2 -33 5 -99q3 -73 5 -108q8 -145 19 -244q2 -12 5 -32q1 -2 1.5 -7t2 -10.5t2 -10.5t1.5 -9
l1 -4q5 -26 8 -45q6 -42 7 -73q1 -43 -9 -73q-7 -19 -13.5 -24t-26.5 -9q-4 -1 -9 -1q-8 -1 -21 -2q-27 -1 -58 -1q-36 1 -62 3q-16 2 -28 5q-8 2 -14 4q-12 5 -20 12q-15 14 -16 34.5t12 36.5q12 13 29.5 15.5t32.5 -5.5q5 -1 14 -2q21 -2 53 -3q18 0 36 1q0 26 -6 67
q-3 17 -8 42v2q0 2 -0.5 5t-1.5 7t-1.5 8t-1.5 7.5t-1.5 7t-0.5 4.5q-4 24 -6 38q-12 102 -20 250q-2 36 -5 109q-3 66 -5 99q-1 19 5 60q1 4 1 6q2 13 3 20q-6 1 -12 1q-8 1 -19 1q-4 1 -10 1h-1h-4h-3q-17 1 -24 2q-20 4 -31.5 21.5t-7.5 37.5z" />
    <glyph glyph-name="asciicircum" unicode="^" horiz-adv-x="442" 
d="M60 331q11 44 30 97q12 33 36 93q22 57 32 83q6 17 16 43q8 18 13 28q3 8 6 13q4 6 9 11q8 8 17 11q27 11 50 -6q7 -6 13 -15q2 -4 5 -8q3 -7 7 -17q6 -15 18 -44l6 -16q6 -17 13.5 -37t15.5 -41.5t12 -31.5q9 -24 16 -43q40 -100 58 -121q13 -16 11 -36.5t-18.5 -34
t-37 -11.5t-33.5 18q-27 34 -72 148q-9 20 -18 44q-7 19 -28 74q-5 -14 -18 -47q-47 -119 -63 -179q-5 -20 -23 -30.5t-38 -5.5t-30.5 23t-4.5 38z" />
    <glyph glyph-name="underscore" unicode="_" horiz-adv-x="579" 
d="M32 -41q64 -3 182 0h13q102 3 154 2q87 -1 157 -11q20 -3 32.5 -19.5t10 -37t-19 -33t-37.5 -9.5q-64 9 -145 10q-50 1 -150 -2h-12q-122 -3 -189 0q-21 1 -35 16.5t-13 36t16 34.5t36 13z" />
    <glyph glyph-name="grave" unicode="`" horiz-adv-x="217" 
d="M128 758q1 -1 5 -8t5 -9q6 -10 10 -17q31 -50 56 -75q14 -15 14 -35.5t-14.5 -35t-35 -14.5t-35.5 14q-33 33 -70 95q-5 7 -11 17q-1 2 -5.5 9t-4.5 8q-10 18 -5 38t23 30.5t38 5t30 -22.5z" />
    <glyph glyph-name="a" unicode="a" horiz-adv-x="495" 
d="M122 118q4 -3 10 -6q44 -24 119 -12q44 6 109 28q8 2 19 6q1 12 2.5 27l5.5 55q1 3 1 5q-6 0 -13 -1q-24 -2 -56 -10q-69 -16 -128 -45q-52 -26 -69 -47zM55 408q33 54 90.5 89t123.5 41q149 13 202 -89q20 -39 24 -95q3 -40 -2 -97q-2 -20 -6 -53q-9 -72 -9 -96v-11v-12
q0 -9 1 -13v-1q14 -14 14 -34.5t-15 -34.5q-14 -15 -35 -15t-35 15q-13 12 -20 29q-71 -23 -122 -30q-109 -17 -182 23q-45 25 -59 60q-15 40 8 81q28 48 114 90q69 34 149 53q60 14 100 13q1 54 -14 82q-9 19 -29 27q-27 13 -76 8q-41 -3 -78.5 -26t-57.5 -56
q-11 -17 -31 -22.5t-37.5 5.5t-23 31t5.5 38z" />
    <glyph glyph-name="b" unicode="b" horiz-adv-x="517" 
d="M162 179q6 -5 10 -12q43 -72 96 -86q42 -11 81 19q44 33 61 98q20 74 -7 158q-14 44 -43.5 68.5t-66.5 24.5t-69.5 -24t-50.5 -67q-9 -22 -13 -44q-2 -9 -3 -18q4 -96 4 -101q0 -9 1 -16zM57 300q-2 47 -3 63q-2 64 -4 114q-5 142 -7 240q0 21 14 36t35 15t36 -14t15 -35
q2 -93 7 -225q63 56 144 55q70 0 125.5 -44t79.5 -119q35 -111 8 -214q-26 -98 -98 -152q-77 -59 -167 -36q-43 12 -82 43q-13 -26 -42 -27h-2q-20 0 -34.5 14t-15.5 34q-1 41 -5 94q-3 41 -4 52q-2 28 -2 48q-1 32 2 58z" />
    <glyph glyph-name="c" unicode="c" horiz-adv-x="555" 
d="M368 379q2 54 -29 74q-32 20 -82 5q-58 -18 -97 -71q-45 -61 -43 -147q1 -51 29 -88t75 -54t96.5 -7.5t85.5 44.5q26 25 38 40q14 19 17 34q3 20 19.5 32.5t37 9t33 -20t8.5 -37.5q-6 -39 -36 -79q-16 -21 -48 -52q-57 -54 -134.5 -69.5t-149.5 11.5q-77 27 -123.5 89.5
t-47.5 144.5q-3 120 63 209q59 79 149 106q93 29 163 -16q80 -50 76 -162q-1 -21 -16 -35t-36 -13t-35 16t-13 36z" />
    <glyph glyph-name="d" unicode="d" horiz-adv-x="514" 
d="M415 53q-19 -18 -40 -32q-90 -61 -181 -34q-49 15 -84.5 54t-53.5 98q-33 108 1 215q31 98 103 156q81 64 166 45q45 -10 81 -43q-4 107 -11 194q-1 21 12.5 36.5t34 17t36 -12t17.5 -33.5q14 -196 18 -478v-13q2 -32 1 -112v-58q0 -21 -14.5 -35.5t-35.5 -14.5
t-35.5 14.5t-14.5 35.5zM406 296q0 2 -1 4q-8 39 -27 81q-30 67 -74 77q-38 8 -81 -26q-49 -39 -71 -108q-24 -77 0 -155q21 -71 71 -86q46 -14 96 20q58 39 78 113q11 38 9 80z" />
    <glyph glyph-name="e" unicode="e" horiz-adv-x="558" 
d="M173 316q79 -1 136 9q59 10 86 29q8 6 11 11q1 2 1 3q0 2 -1 5q-2 5 -8 11q-16 17 -44 25.5t-58 5.5q-35 -5 -64 -27q-34 -25 -59 -72zM142 217q-2 -28 5 -52q15 -53 67 -78q55 -26 123 -10q76 19 134 87q14 15 34.5 16.5t36 -12t17 -34t-11.5 -36.5q-79 -92 -187 -118
q-102 -25 -189 17q-93 45 -120 140q-29 101 30 219q35 70 87.5 110t115.5 48q53 7 104 -10t83 -52q40 -41 35.5 -92.5t-53.5 -87.5q-89 -62 -311 -55z" />
    <glyph glyph-name="f" unicode="f" horiz-adv-x="374" 
d="M26 485q23 -1 47 1q4 92 18 154q15 62 42 98q38 50 96 50q55 0 91 -31q26 -22 50 -69q9 -18 2.5 -37.5t-25 -29t-38 -3t-29.5 25.5q-14 28 -24 37q-9 7 -27 7q-8 0 -16 -10q-14 -19 -24 -61q-12 -49 -15 -122q47 4 81 4q21 0 35.5 -14.5t14.5 -35.5t-14.5 -35.5
t-35.5 -14.5q-30 0 -78 -5h-5v-7q1 -74 8 -182q0 -7 2.5 -43t2.5 -43q3 -43 3 -62q0 -21 -14.5 -35.5t-35.5 -14.5t-35.5 14.5t-14.5 35.5q0 16 -2 55q-1 8 -3.5 44t-2.5 42q-7 111 -8 187q-26 -1 -50 0q-20 1 -34.5 16t-13.5 35.5t16 35t36 13.5z" />
    <glyph glyph-name="g" unicode="g" horiz-adv-x="499" 
d="M381 400q-36 51 -83 54q-48 4 -96 -37q-51 -43 -70 -108q-21 -67 6 -126q17 -36 36 -51q12 -10 24 -9q34 1 80 56q37 43 65 103.5t38 117.5zM400 177q-21 -34 -45 -63q-75 -88 -153 -91q-49 -2 -90 30q-38 30 -64 88q-43 93 -12 197q28 93 102 156q79 67 168 60
q54 -4 100 -37q11 8 25 10h5q19 0 33.5 -13t16.5 -32q0 -3 0.5 -8.5t1 -10.5t0.5 -6q1 -15 2 -26q13 -140 11 -234q-4 -155 -43 -256q-54 -136 -173 -176q-38 -13 -81.5 -11.5t-80.5 18.5q-46 20 -72 57.5t-26 86.5q0 21 14.5 35.5t35.5 14.5t35.5 -14.5t14.5 -35.5
q0 -36 38 -53q45 -19 90 -4q75 26 112 119q30 77 35 199z" />
    <glyph glyph-name="h" unicode="h" horiz-adv-x="485" 
d="M67 47q-18 238 -18 675q0 21 14.5 35.5t35.5 14.5t35.5 -14.5t14.5 -35.5q0 -135 2 -255q7 9 15 17q58 59 141 64q55 3 90 -22q31 -22 53 -71q24 -55 30 -128q4 -44 2 -123q-1 -4 -1 -12q-2 -54 -1 -80q0 -42 5 -73q4 -20 -8 -37t-32.5 -20.5t-37.5 8.5t-20 33
q-7 38 -7 88q-1 28 1 85q0 7 1 11q2 73 -1 112q-5 56 -23 96q-10 23 -19 29q-6 5 -26 4q-45 -3 -75.5 -34t-49.5 -91q-33 -108 -21 -268v-4q0 -20 -13.5 -34t-32.5 -16h-4q-20 0 -34 13.5t-16 32.5z" />
    <glyph glyph-name="i" unicode="i" horiz-adv-x="167" 
d="M161 700q10 -18 7 -39q-3 -17 -14 -32q-8 -10 -18 -17q-14 -11 -28 -13q-20 -4 -36 6q-24 13 -26 40q-2 12 2 25l4 10q0 3 1 7q2 18 15.5 30.5t31.5 13.5q24 7 44 -8q12 -9 17 -23zM160 507q-2 -38 -5 -255q-1 -95 -2 -155v-52v-14q3 -18 -7 -34t-28 -22q-20 -5 -38 4.5
t-24 29.5q-2 7 -3 19v17v52q1 61 2 157q3 218 5 258q1 21 16.5 35t36 13t34.5 -16.5t13 -36.5z" />
    <glyph glyph-name="j" unicode="j" horiz-adv-x="171" 
d="M107 727q26 3 46 -16q26 -24 18 -58q-8 -32 -43 -45q-18 -6 -34 -3q-22 4 -35 22q-8 10 -12 23q-1 7 -2 15v3v1v1l-1 2q-2 21 10.5 37.5t32.5 19.5q10 1 20 -2zM1 -104q33 -14 45 -15h5l2 2q2 1 3 4q1 1 2 4q2 7 4 19q4 25 5 67q2 70 -5 190q-2 43 -6 101l-1 16
q-1 16 -2 34.5t-2.5 38t-1.5 27.5q-4 57 -4 82q0 21 14.5 35.5t35.5 14.5t35.5 -14.5t14.5 -35.5q0 -22 3 -76q1 -8 2 -27t2.5 -37.5t2.5 -35.5l1 -16q4 -59 6 -101q7 -125 5 -199q-1 -47 -6 -79q-7 -43 -22 -65q-37 -52 -98 -49q-20 1 -44 9q-14 5 -36 14q-19 8 -26.5 27.5
t0.5 38.5t27.5 26.5t38.5 -0.5z" />
    <glyph glyph-name="k" unicode="k" horiz-adv-x="473" 
d="M434 468q-34 -38 -78 -82q-27 -27 -73 -70q9 -14 29 -43q0 -1 5 -8.5t10.5 -16t8.5 -11.5q14 -22 25 -39q6 -9 12 -17q63 -92 82 -108q16 -13 18.5 -33.5t-10.5 -36.5t-33.5 -18.5t-36.5 10.5q-32 25 -103 130q-5 8 -12 18q-11 16 -26 39q-2 3 -7.5 11.5t-10.5 16t-6 8.5
q-11 18 -18 28q-15 -14 -29 -27q-5 -6 -12 -9q5 -95 5 -173q0 -21 -14.5 -35.5t-35.5 -14.5t-35.5 14.5t-14.5 35.5q0 105 -11 285q-1 13 -2 40q-7 110 -10 165q-4 93 -4 167q0 21 14.5 35.5t35.5 14.5t35.5 -14.5t14.5 -35.5q0 -72 4 -162q3 -55 9 -164q2 -19 2 -29
q14 14 35 34q1 0 5 4l5 5q104 97 151 152q14 15 34.5 16.5t36 -12t17 -34t-11.5 -36.5z" />
    <glyph glyph-name="l" unicode="l" horiz-adv-x="160" 
d="M156 695q-13 -129 -5 -342q1 -25 3 -74q7 -158 7 -236q0 -21 -14.5 -35.5t-35.5 -14.5t-35.5 14.5t-14.5 35.5q0 76 -7 231l-3 75q-8 220 5 356q2 21 18 34t37 11t34 -18t11 -37z" />
    <glyph glyph-name="m" unicode="m" horiz-adv-x="768" 
d="M358 288q-1 14 0 27q-5 50 -19 80q-10 24 -25.5 33.5t-39.5 7.5q-54 -4 -100 -91q-9 -17 -26 -24q1 -29 3 -65q1 -15 3 -44q7 -118 7 -176q0 -21 -14.5 -35.5t-35.5 -14.5t-35.5 14.5t-14.5 35.5q0 55 -7 170q-2 29 -3 44q-4 76 -4 128q-1 71 6 130q3 21 19 33.5t37 10
t33.5 -18.5t10.5 -37l-2 -14q52 49 115 54q102 7 153 -78q31 37 72 59q67 37 132 18q73 -20 113 -103q24 -51 31 -118q4 -48 0 -116q-1 -20 -5 -56q-6 -73 -6 -105q0 -21 -14.5 -35.5t-35.5 -14.5t-35.5 14.5t-14.5 35.5q0 36 7 114q3 35 4 53q8 123 -21 184q-20 43 -50 51
q-26 7 -57 -10t-53 -48.5t-27 -65.5q3 -32 3 -70q0 -44 -4 -116q-4 -66 -4 -83q0 -21 -14.5 -35.5t-35.5 -14.5t-35.5 14.5t-14.5 35.5q0 20 4 88.5t4 110.5q0 15 -1 28q-3 7 -3 15z" />
    <glyph glyph-name="n" unicode="n" horiz-adv-x="495" 
d="M49 122q-1 22 -1 46q-1 47 1 146v11q1 121 -1 181q-1 21 13 36t35 16t36 -13t16 -35q1 -24 1 -49q20 24 41 41q50 41 107 41q54 0 94 -33q32 -28 52 -77q27 -65 34 -188q2 -28 5 -88q2 -54 4 -78q3 -33 7 -47q7 -20 -2.5 -38.5t-29 -25t-38 3t-24.5 28.5q-9 25 -13 70
q-2 27 -4 83q-3 59 -4 85q-7 107 -28 158q-10 26 -24 37q-12 10 -29 10q-42 0 -89 -71q-62 -93 -59 -247q2 -46 6 -80v-6q0 -19 -12.5 -33.5t-31.5 -16.5h-6q-19 0 -33.5 12.5t-16.5 31.5q-5 47 -6 89z" />
    <glyph glyph-name="o" unicode="o" horiz-adv-x="502" 
d="M227 453q-17 -6 -32 -22q-41 -42 -54 -121q-14 -81 11 -145q25 -63 82 -80q63 -18 109 26q47 47 58 130t-24 139q-36 58 -114 58q-21 0 -36 15zM329 530q86 -21 133 -97q54 -86 38 -205q-15 -117 -88 -188q-41 -41 -94 -54.5t-112 3.5q-104 31 -147 140q-35 90 -17 198
q19 109 80 173q37 39 83.5 51.5t97.5 -2.5q16 -5 26 -19z" />
    <glyph glyph-name="p" unicode="p" horiz-adv-x="484" 
d="M136 166q14 -24 30 -33t44 -7q80 4 129 67q45 58 47 134q1 69 -34 98q-16 13 -38 14q-30 2 -71 -16q-23 -10 -43 -33q-15 -18 -38 -56q-7 -12 -19 -18q-4 -68 -7 -150zM162 491q19 14 41 24q129 57 213 -13q35 -29 52.5 -75.5t17.5 -101.5q-2 -109 -68 -194
q-77 -98 -202 -105q-47 -3 -83 12q-1 -58 -1 -103q0 -44 2 -70q1 -12 2 -18q6 -15 1 -32t-19 -27q-17 -12 -37.5 -8.5t-32.5 20.5q-8 12 -11 33q-2 10 -3 26q-2 28 -2 76q-1 91 3 215q4 127 12 219q3 49 8 80q5 41 14 58q10 18 30 23.5t38 -4.5q21 -11 25 -35z" />
    <glyph glyph-name="q" unicode="q" horiz-adv-x="487" 
d="M386 268q1 84 1 125q-26 33 -52.5 47.5t-60.5 14.5q-64 0 -97 -62q-36 -65 -26 -157q8 -90 52 -135q39 -39 99 -13q52 23 72 100q9 33 12 80zM384 20q-20 -14 -42 -24q-60 -26 -114 -16.5t-96 51.5q-69 70 -81 195q-12 122 38 214q29 55 76.5 85t108.5 30q63 0 114 -30
q1 20 15.5 33.5t34.5 13.5q21 0 35.5 -14.5t14.5 -35.5v-138v-35q0 -53 -2 -84q0 -34 -1 -98q-1 -86 -1 -145q-2 -173 -2 -285q0 -21 -14.5 -35.5t-35.5 -14.5t-35.5 14.5t-14.5 35.5q0 112 2 283z" />
    <glyph glyph-name="r" unicode="r" horiz-adv-x="442" 
d="M154 242q-2 -76 -2 -194q0 -21 -14.5 -35.5t-35 -14.5t-35.5 14.5t-15 35.5q0 133 3 219q4 125 15 221q2 21 18.5 34t37 10.5t33.5 -18.5t10 -37q-1 -14 -3 -29q19 18 38 32q63 47 119 48q38 0 68 -20.5t48 -58.5q9 -19 2 -38.5t-26 -28t-38.5 -1.5t-27.5 26
q-7 13 -14 18q-4 3 -11 3q-24 0 -60 -28q-39 -29 -70 -72q-28 -39 -31 -64q-2 -12 -9 -22z" />
    <glyph glyph-name="s" unicode="s" horiz-adv-x="457" 
d="M364 379q-15 29 -52 51t-76 26q-37 3 -58 -11q-22 -15 -26 -53q-4 -30 19 -47q13 -9 37 -19q17 -6 53 -18q1 0 4 -1q42 -13 64 -22q39 -16 63 -36q71 -56 54 -155q-14 -77 -94 -110q-63 -27 -141 -15q-80 13 -135 59q-67 57 -67 140q0 21 15 35.5t35.5 14.5t35 -14.5
t14.5 -35.5q0 -37 32 -64q33 -28 85 -36q51 -8 88 8q29 12 33 36q4 23 -1 38q-4 12 -16 21q-14 11 -39 21q-17 8 -56 20h-1q-1 0 -2 1q-41 12 -61 20q-35 14 -59 31q-69 51 -60 139q9 83 69 124q52 35 125 28q64 -6 122 -42t84 -88q10 -19 3.5 -38.5t-25 -29t-38 -3
t-28.5 24.5z" />
    <glyph glyph-name="t" unicode="t" horiz-adv-x="361" 
d="M1 529q36 -3 89 1q2 84 2 135q0 20 15 35t35.5 15t35 -15t14.5 -35q0 -51 -2 -126q19 2 38 3q51 2 92 -5q21 -4 33 -20.5t8.5 -37t-20.5 -32.5t-37 -9q-31 5 -73 4q-19 -1 -44 -3q-1 -43 -1 -76q-4 -206 22 -335q4 -20 -7.5 -37.5t-31.5 -21.5t-37.5 7.5t-21.5 32.5
q-28 138 -24 355q0 31 1 65q-55 -4 -97 1q-20 2 -33 18t-11 36.5t18 33.5t37 11z" />
    <glyph glyph-name="u" unicode="u" horiz-adv-x="488" 
d="M157 496q-22 -91 -23 -191q-1 -116 31 -171q23 -39 54 -51q26 -9 57 2q34 13 62.5 44.5t40.5 70.5q15 51 8 137q-3 37 -12 98q0 2 -0.5 6.5t-1.5 8.5t-1 8l-1 3q-2 16 -3 26q-3 20 9 37t32.5 19.5t37.5 -9.5t19 -33q2 -10 4 -25v-2q1 -2 1.5 -5.5l1 -7t1 -6.5t0.5 -5
q10 -64 13 -104q9 -105 -12 -174q-19 -62 -63.5 -111t-101.5 -70q-65 -23 -125 -2q-65 24 -106 95q-46 78 -45 222q1 111 25 214q5 20 23 30.5t38 6t30.5 -22.5t6.5 -38z" />
    <glyph glyph-name="v" unicode="v" horiz-adv-x="495" 
d="M131 517q14 -52 52 -152l2 -4q0 -1 1 -4q26 -66 38 -103q17 -53 26 -100q2 5 4 11q17 42 54 151q5 16 9 27q26 75 42 118q24 61 44 95q10 18 30 23t38 -5.5t23.5 -30.5t-5.5 -38q-26 -44 -77 -195q-4 -10 -10 -26q-37 -111 -55 -155q-32 -83 -58 -115q-18 -21 -46 -23
q-25 -2 -45 15q-12 10 -20 25q-9 17 -15 45q-4 14 -7 31q0 5 -1 12q-1 4 -1 5q-8 45 -25 99q-12 35 -36 99q-1 1 -2 3q-1 3 -1 4q-20 52 -30 79q-15 45 -26 83q-5 20 5.5 38t30.5 23.5t38 -5t23 -30.5z" />
    <glyph glyph-name="w" unicode="w" horiz-adv-x="718" 
d="M129 485q4 -46 21 -104q10 -37 36 -109q10 -27 14 -41q14 39 26 70q2 7 4 13q21 57 36 96q9 22 26 62q0 2 1 3q2 4 4.5 10t3.5 8v2q1 4 2 6q1 6 3 11q3 6 7 11q8 11 21 17q20 8 41 -1q11 -5 19 -15q13 -16 36 -85q13 -39 42 -131v-1q23 -75 35 -111l5 19q15 48 47 139
q0 1 2 5q42 122 60 184q6 20 24 30t38 4t30 -24t4 -38q-18 -64 -62 -189q-1 -3 -2 -5q-31 -89 -45 -136l-20 -68q-3 -11 -6 -20q-7 -24 -13 -39q-4 -10 -8 -17q-4 -6 -8 -10q-9 -11 -21 -16q-19 -8 -37 -1q-9 3 -17 9q-6 6 -12 14t-12 20q-4 8 -9 17q-2 5 -4 9
q-10 23 -29 81q-10 33 -35 113l-1 1q-15 51 -24 77q-12 -33 -28 -76l-4 -12q-12 -33 -27 -74q-5 -14 -13 -34l-5 -16q-4 -9 -6 -15q-11 -33 -16 -46q-4 -9 -5 -14q-2 -3 -3 -5q-1 -4 -4 -10q-9 -22 -11.5 -25t-8.5 -1q-11 5 -22 5q-19 0 -34 13q-5 4 -9 10q-3 5 -6 11
q-4 7 -8 18q-6 17 -8 26q-7 27 -19 61q-7 22 -23 68q-27 75 -39 114q-19 68 -24 124q-2 20 11.5 36t34 18t36.5 -11.5t18 -34.5z" />
    <glyph glyph-name="x" unicode="x" horiz-adv-x="487" 
d="M14 32q22 35 65 105q0 1 1 2q56 91 84 134q-100 153 -119 211q-6 20 3.5 38t29 24.5t38 -3t24.5 -29.5q12 -37 85 -151q66 94 131 165q14 15 34.5 16t36 -13t16 -34.5t-13.5 -36.5q-68 -74 -139 -178l-6 -8l6 -8q58 -85 107 -145q50 -62 69 -75q17 -11 21.5 -31
t-6.5 -37.5t-31.5 -22t-37.5 6.5q-33 21 -93 96q-43 53 -94 125q-22 -34 -60 -96q-1 -2 -1 -3l-66 -105q-11 -18 -31.5 -22.5t-38 6.5t-22 31.5t7.5 37.5z" />
    <glyph glyph-name="y" unicode="y" horiz-adv-x="473" 
d="M78 -110q18 -3 38 11q26 19 55 64q16 24 31 55q-44 93 -90 202q-67 161 -82 234q-4 20 7.5 37.5t31.5 21.5t37.5 -7.5t21.5 -31.5q13 -64 76 -216q24 -57 51 -117q11 28 21 59q22 64 59 184q31 105 43 135q8 20 27 28t38 0.5t27.5 -26.5t0.5 -39q-10 -26 -41 -126
q-36 -123 -59 -189q-32 -92 -62 -158q-2 -16 -14 -28q-19 -41 -40 -73q-39 -60 -81 -90q-55 -39 -114 -28q-20 3 -32 20t-8 37.5t21 32.5t37 8z" />
    <glyph glyph-name="z" unicode="z" horiz-adv-x="487" 
d="M60 534q67 9 164 9q22 0 67 -1h60q39 0 59 -8q22 -9 33 -28t7 -42q-3 -12 -10 -25q-4 -7 -11 -17l-11 -17q-7 -9 -11 -16q-3 -4 -5 -8q-23 -38 -57 -81q-21 -25 -62 -72l-3 -3l-2 -4q-52 -59 -76 -91q-10 -13 -21 -26q21 -1 44 -2q28 -1 83 -5q13 -1 19 -2q70 -5 111 -5
q21 0 35.5 -14.5t14.5 -35.5t-14.5 -35.5t-35.5 -14.5q-45 0 -118 5q-6 1 -19 2q-107 8 -159 6q-4 0 -19 -3q-4 -1 -7 -2q-15 -3 -26 -3q-20 -2 -36 3q-17 6 -27 20q-7 11 -8 24q-1 10 2 20q2 5 5 10q2 3 5 8t10 13q12 16 16 20q1 2 4 5l3 4l1 1q39 43 57 67q26 35 80 97
l3 3l3 3q40 46 59 70q30 37 49 70q3 4 6 9h-32q-44 1 -66 1q-90 0 -150 -9q-21 -2 -37.5 10.5t-19 33t10 37t32.5 19.5z" />
    <glyph glyph-name="braceleft" unicode="{" horiz-adv-x="374" 
d="M281 630q-47 -22 -65 -63q-7 -17 -12 -43q-3 -17 -6 -53v-2q-4 -44 -8 -66q-7 -40 -22 -71q-21 -44 -61 -74q30 -24 51 -61q16 -28 29 -67q8 -24 18 -67q1 -2 1 -5l2 -6q11 -45 18 -67q10 -31 22 -49q25 -37 78 -37q20 0 35 -14.5t15 -35t-15 -35.5t-35 -15
q-106 0 -161 82q-19 29 -34 73q-8 25 -20 75q-1 4 -2 5q0 3 -1 5q-19 77 -37 108q-23 41 -63 51q-16 4 -26 16t-12 28q-1 3 -3 6q-7 20 2 38.5t29 25.5q60 21 80 64q9 18 14 45q3 18 6 57q0 1 1 2q3 40 7 61q6 37 18 66q33 75 115 113q19 9 38.5 2t28.5 -26t1.5 -38.5
t-26.5 -27.5z" />
    <glyph glyph-name="bar" unicode="|" horiz-adv-x="190" 
d="M164 700q0 -33 -2 -121q-1 -122 0 -191q2 -227 28 -330q5 -20 -6 -38t-31 -23t-37.5 5.5t-22.5 30.5q-29 115 -31 354q-1 70 0 194q2 87 2 119q0 21 14.5 35.5t35 14.5t35.5 -14.5t15 -35.5z" />
    <glyph glyph-name="braceright" unicode="}" horiz-adv-x="369" 
d="M312 227q-41 -7 -58 -45q-9 -20 -15 -51q-4 -22 -8 -65q0 -2 -1 -8q-5 -52 -10 -78q-8 -46 -24 -78q-46 -89 -157 -89q-21 0 -35.5 14.5t-14.5 35.5t14.5 35.5t35.5 14.5q29 0 46 10q13 8 22 25q9 18 15 50q4 22 9 70q0 6 1 9q4 46 9 72q8 43 21 73t33 51q-24 19 -42 47
q-20 33 -33 80q-9 31 -17 81q-1 7 -2 16q-1 4 -2 9v2q0 1 -0.5 3t-0.5 3q-6 44 -11 64q-6 29 -14 45q-7 13 -14.5 17.5t-21.5 3.5q-21 -2 -36.5 11.5t-17.5 34t11.5 36.5t34.5 17q92 8 133 -75q14 -27 23 -68q5 -24 12 -71q4 -24 5 -33q14 -87 36 -122q25 -41 83 -41
q20 0 35 -15t15 -35q0 -19 -12.5 -33t-30.5 -17q-8 -4 -16 -6z" />
    <glyph glyph-name="asciitilde" unicode="~" horiz-adv-x="570" 
d="M5 210q22 64 58 96q37 34 88 36q36 1 83 -16q23 -9 73 -32q31 -15 48 -22q48 -19 76.5 -16.5t51.5 28.5q14 16 34.5 17.5t36.5 -12t17 -34.5t-12 -36q-52 -59 -123 -64q-51 -3 -118 24q-20 8 -53 24q-47 22 -66 29q-28 10 -45 10q-14 -1 -24 -10q-17 -15 -31 -55
q-7 -19 -25.5 -28t-38 -2.5t-28.5 25.5t-2 38z" />
    <glyph glyph-name="exclamdown" unicode="&#xa1;" horiz-adv-x="228" 
d="M208 497q10 -13 10 -30q0 -21 -14.5 -35.5t-35.5 -14.5q-22 0 -41 11.5t-27 31.5q-14 29 2 56q14 24 44 31q20 5 38 -6t22 -31q2 -6 2 -13zM199 326q-2 -49 -1 -104q3 -69 11 -156q5 -54 17 -158q3 -19 4 -27q2 -21 -11 -37t-33.5 -18.5t-36.5 10.5t-19 33q-1 8 -3 28
q-12 105 -18 159q-8 90 -11 163q-1 58 1 111q0 21 15.5 35t36 13t34.5 -16t14 -36z" />
    <glyph glyph-name="cent" unicode="&#xa2;" horiz-adv-x="512" 
d="M222 95q2 7 4 15v3q32 128 46 192q6 30 16 90q6 39 8 50q-55 -11 -103 -79q-27 -38 -41 -81t-12 -82q5 -79 82 -108zM412 515q4 -2 7 -5q53 -39 90 -119q9 -18 2 -37.5t-26 -28.5t-38.5 -2t-27.5 26q-14 29 -29 49q-1 -6 -3 -19q-10 -62 -17 -95q-14 -65 -45 -188
q41 15 79 50q15 14 36 13t35 -16.5t12.5 -36t-16.5 -34.5q-60 -54 -127 -75q-23 -7 -46 -10q-17 -71 -28 -130q-5 -20 -22 -31.5t-37.5 -7.5t-32 21.5t-7.5 37.5q12 56 27 120l-10 4q-68 25 -105.5 76t-42.5 120q-3 56 16 115.5t55 111.5q39 54 88.5 86.5t102.5 36.5h15
q1 5 3 10q16 59 38 103q9 19 28.5 25.5t38 -2.5t25 -29t-2.5 -38q-20 -41 -35 -101z" />
    <glyph glyph-name="sterling" unicode="&#xa3;" horiz-adv-x="579" 
d="M402 516q0 46 -27 81q-25 33 -63 45t-73 0q-40 -15 -65 -59q-22 -38 -15 -90q4 -35 26 -98h2q98 1 147 1q21 0 35.5 -14.5t14.5 -35.5t-14.5 -35.5t-35.5 -14.5q-44 0 -116 -1q11 -38 14 -70q6 -50 -6 -93q12 -1 25 -3q33 -6 90 -27q47 -17 67 -22q54 -12 93 17
q17 12 37.5 9t32.5 -19.5t9 -37t-19 -33.5q-42 -31 -90 -38q-39 -6 -84 5q-27 6 -80 25q-50 18 -74 22q-35 7 -63 -2q-3 -1 -7 -2q-19 -20 -40 -33q-17 -11 -32 -16q-10 -3 -19 -3q-16 -1 -29 5q-27 12 -31 41q-2 19 8 36q9 15 29 28q21 15 56 28q2 3 5 6q29 41 23 96
q-3 26 -13 59q-2 10 -6 20h-72q-20 0 -35 14.5t-15 35.5t15 35.5t35 14.5h38q-3 9 -5 18q-11 38 -15 70q-11 85 27 152q44 75 117 102q68 25 139 2q68 -22 112 -80q47 -62 47 -141q0 -21 -15 -35.5t-35.5 -14.5t-35 14.5t-14.5 35.5z" />
    <glyph glyph-name="currency" unicode="&#xa4;" horiz-adv-x="541" 
d="M304 249q3 10 9 17q14 17 35 19q6 8 11 18q20 42 8 91q-12 44 -42 61q-27 16 -63 -6q-12 -7 -26 -7q-8 -8 -16 -18q-37 -47 -41 -106q-5 -52 18 -75q9 -9 25 -11q22 -4 54 6q15 4 28 11zM175 522q55 49 125 58q16 2 30 -5.5t21 -21.5q13 -5 24 -11l2 -2q37 34 63 62
q15 15 35.5 16t35.5 -13.5t15.5 -35t-13.5 -35.5q-29 -31 -68 -67q12 -23 18 -48q23 -84 -14 -159q-7 -15 -16 -29q49 -43 82 -60q18 -9 24.5 -28.5t-2.5 -38t-29 -25t-38 2.5q-28 14 -57 35q-18 14 -46 39l-9 8q-25 -13 -53 -22q-85 -26 -146 6q-5 -6 -12 -14q0 -1 -1 -2
l-1 -1q-17 -20 -27 -31q-17 -19 -35 -31q-17 -12 -37.5 -8.5t-32 20.5t-8 37.5t20.5 32.5q14 10 41 43l1 2l1 1q15 18 24 27q-19 45 -14 102q5 60 34 115q-4 4 -9 10l-1 1l-1 1q-37 42 -57 60q-16 13 -17 34t12.5 36.5t34 16.5t36.5 -12q25 -22 64 -66z" />
    <glyph glyph-name="yen" unicode="&#xa5;" horiz-adv-x="511" 
d="M51 493q16 -1 44 2q-25 38 -61 97q-2 5 -9.5 17t-13.5 22l-6 10q-11 17 -6 37t23 31t38 6t31 -23q22 -38 29 -48q58 -95 99 -152q6 -8 18 -32q2 -3 5 -9q0 -1 2 -4v-1q2 -3 3 -5l5 -10q28 65 55 117q57 109 120 172q14 14 35 14t35.5 -14.5t14.5 -35t-15 -35.5
q-51 -52 -101 -147l-4 -6h8q24 2 37 3q21 2 36.5 -12t16.5 -34.5t-12.5 -36t-34.5 -17.5q-12 0 -34 -2q-11 -1 -16 -2q-29 -2 -49 -2q-12 -29 -25 -62v-1v-2q-2 -5 -3 -8v-1q53 6 90 6q20 0 35 -14.5t15 -35.5t-15 -35.5t-35 -14.5q-35 0 -98 -8q1 -14 5 -38q1 -7 1 -10
q7 -48 8 -76q3 -45 -2 -80q-2 -20 -18.5 -33t-37 -10t-33 19.5t-10.5 36.5q6 42 -6 130q-1 3 -1 9q-4 26 -6 41q-11 -1 -23 -2q-52 -3 -92 3q-21 3 -33 19.5t-9.5 37t19.5 33t37 9.5q30 -4 72 -2q12 1 25 2v10q-10 13 -22 35q-6 10 -13 23q-5 9 -11 22q-1 2 -3 5
q-11 -1 -35 -4q-5 0 -8 -1q-41 -4 -66 -3q-21 1 -35 16.5t-12.5 36.5t16.5 34.5t36 12.5z" />
    <glyph glyph-name="brokenbar" unicode="&#xa6;" horiz-adv-x="178" 
d="M148 700q4 -119 20 -267q2 -20 -10.5 -36.5t-33.5 -18.5t-37 11t-18 33q-17 151 -21 275q-1 20 13 35.5t34.5 16t36 -13.5t16.5 -35zM153 291q3 -28 8 -84q10 -119 18 -178q3 -21 -9.5 -37.5t-33 -19t-37 10t-19.5 33.5q-8 61 -19 182q-4 56 -7 83q-2 21 11 37t34 18
t36.5 -11.5t17.5 -33.5z" />
    <glyph glyph-name="section" unicode="&#xa7;" horiz-adv-x="485" 
d="M208 392q-23 -17 -38 -48q-13 -26 -13 -46q1 -17 10 -33q18 -30 85 -77q2 -2 6 -4.5t8.5 -6t9 -6.5l7.5 -5l3 -2q30 -21 48 -36q39 35 49 64q7 19 0 38q-8 21 -35 48q-21 21 -66 56q-5 4 -11 9q-1 0 -3.5 2t-4.5 4t-3 2q-34 26 -52 41zM371 548q-2 27 -28 49
q-28 24 -66 31q-37 7 -60 -5q-19 -10 -22 -36q-4 -33 29 -71q25 -30 97 -86q1 0 3 -2t4.5 -3.5t3.5 -2.5q3 -2 11 -9q50 -39 76 -65q42 -41 57 -82q21 -54 1 -109q-18 -49 -71 -99q59 -75 49 -167q-9 -75 -81 -104q-54 -22 -126 -11q-68 12 -122 48q-64 43 -80 105
q-5 21 5.5 38.5t30.5 22.5t38 -5.5t23 -30.5q6 -26 40.5 -48.5t80.5 -30.5q44 -7 72 4q18 7 19 23q6 52 -29 96q-27 34 -98 84l-2 2q-1 1 -3.5 2.5t-6 3.5t-6.5 4.5t-6.5 5t-6 4t-3.5 3.5q-39 27 -61 47q-34 30 -52 60q-47 80 -1 174q18 37 46 64q5 6 12 12q-50 65 -42 135
q9 78 75 112q54 28 124 15q65 -12 113 -53q57 -49 63 -116q1 -21 -12 -36.5t-33.5 -17.5t-36.5 11.5t-18 33.5z" />
    <glyph glyph-name="dieresis" unicode="&#xa8;" horiz-adv-x="293" 
d="M47 707q16 18 40 16q23 -1 39 -15.5t19 -37.5q3 -28 -15 -51q-10 -12 -23 -18q-22 -11 -45 -3q-22 9 -33 31q-6 13 -7 30q-3 32 25 48zM196 709q19 21 47 15q24 -6 38 -23q17 -21 13 -47q-5 -29 -30 -49q-12 -9 -25 -13q-11 -3 -22 -2q-17 2 -30 12.5t-18 26.5
q-3 10 -3 22q1 15 8 33q6 16 22 25z" />
    <glyph glyph-name="copyright" unicode="&#xa9;" horiz-adv-x="699" 
d="M527 595q-21 14 -46 24q-71 26 -154 9q-85 -18 -141 -75q-61 -62 -67 -156q-3 -59 2 -96q7 -44 28 -81q64 -110 166 -123q92 -12 176 54q87 68 106 173q20 118 -62 233q-12 17 -8 38zM665 533q50 -113 30 -227q-12 -69 -49 -129.5t-93 -104.5t-121.5 -63.5t-129.5 -10.5
q-73 9 -134 53t-105 118q-32 54 -41 117q-7 48 -3 117q8 132 96 221q77 78 192 102q110 22 208 -13q109 -40 152 -135q10 -23 -2 -45zM445 437q-4 31 -33 49q-24 16 -47 4q-83 -46 -95 -108q-9 -50 27 -94q34 -42 75 -43q17 0 30 9q18 12 31 40q8 18 27.5 25.5t38.5 -1
t26 -28t-1 -38.5q-24 -52 -64.5 -80t-89.5 -27q-42 1 -81.5 22t-69.5 58q-65 80 -47 175q20 109 145 177q37 20 76 18t74 -25q31 -20 51.5 -51.5t25.5 -67.5q3 -21 -9.5 -37.5t-33 -19.5t-37 9.5t-19.5 33.5z" />
    <glyph glyph-name="ordfeminine" unicode="&#xaa;" horiz-adv-x="381" 
d="M165 491q23 7 52 20l4 2v17q-32 -18 -56 -39zM32 684q20 37 50 62q37 31 82 36t78.5 -13.5t52.5 -57.5q13 -26 19 -65q4 -27 6 -65q0 -13 1 -40q0 -39 2 -56q15 3 29.5 -3t22.5 -20q11 -17 6.5 -37.5t-22.5 -31.5q-16 -10 -32 -15q-21 -6 -40 -1q-21 5 -36 21
q-6 6 -11 14q-74 -31 -120 -30q-35 1 -57 19q-28 23 -26 60q2 42 44 87t106 77q13 7 28 5q-3 24 -10 38q-5 9 -10 12q-6 4 -20 2q-32 -3 -56 -46q-10 -19 -29.5 -24.5t-38 4.5t-24 30t4.5 38z" />
    <glyph glyph-name="guillemotleft" unicode="&#xab;" horiz-adv-x="494" 
d="M271 368q-19 -19 -52 -50q-22 -21 -29 -29q4 -4 11 -10q52 -44 91 -86q14 -16 13.5 -36.5t-16 -34.5t-36 -13.5t-34.5 16.5q-35 38 -83 78q-21 18 -28 25q-19 19 -25 38q-8 27 6 55q8 14 25 33q10 11 36 36q31 30 50 49q15 14 35.5 14t35 -14.5t14.5 -35t-14 -35.5z
M472 368q-8 -6 -32 -26l-23 -19q-25 -20 -36 -30v-1q3 -2 7 -5q3 -3 19 -15t19 -15q28 -22 52 -43q16 -13 17.5 -34t-12 -36.5t-34.5 -17t-36 12.5q-23 19 -49 40q-3 2 -19 14.5t-19 14.5q-20 17 -31 28q-19 20 -22 43q-5 28 11 54q10 15 29 33q13 12 40 34q1 1 24.5 20
t31.5 26q16 13 36.5 11t33.5 -18t11 -37t-18 -34z" />
    <glyph glyph-name="logicalnot" unicode="&#xac;" horiz-adv-x="565" 
d="M73 413q18 -2 60 1q21 1 90 7q35 3 58 4q90 7 143 4q37 -2 64 -8q35 -8 57 -25q13 -11 18 -28q1 -4 1.5 -8.5t0.5 -10.5q1 -11 1 -28q1 -29 0 -79v-61v-18v-4v-6.5v-4.5v-18q0 -21 -15 -35.5t-35.5 -14.5t-35 14.5t-14.5 35.5v19v15v17v61q1 49 0 77v4q0 1 -1 1
q-18 4 -46 5q-47 3 -131 -3q-22 -2 -57 -5q-70 -6 -92 -7q-49 -3 -75 -1q-20 2 -33.5 17.5t-11.5 36t17.5 34t36.5 12.5z" />
    <glyph glyph-name="registered" unicode="&#xae;" horiz-adv-x="724" 
d="M300 396q40 2 56 26q14 23 6 51q-7 26 -27 32q-12 4 -27 1q-7 -2 -16 -5q0 -27 3 -61q2 -20 5 -44zM345 640q-87 -7 -148 -77q-66 -75 -78 -184q-12 -108 37 -183q52 -79 160 -86q159 -10 242 66q70 64 68 170q-3 106 -76 190q-78 91 -203 104h-2zM388 735
q144 -25 238 -133q46 -54 72 -120t27 -134q2 -72 -23.5 -136t-76.5 -110q-114 -104 -315 -92q-159 10 -238 131q-69 105 -53 249q16 140 103 239q98 112 242 112q13 0 24 -6zM204 566q86 59 162 34q34 -11 58 -37t34 -62q20 -67 -13 -125q11 -6 21 -12q26 -17 43 -45
q9 -16 20 -44q6 -13 8 -18q6 -15 12 -24q13 -17 9.5 -37.5t-20.5 -32.5t-37.5 -8.5t-32.5 20.5q-13 18 -23 42q-3 7 -9 22q-13 33 -26 42q-11 7 -33 11q-26 5 -65 4q6 -54 6 -97q0 -21 -14.5 -35.5t-35.5 -14.5t-35.5 14.5t-14.5 35.5q0 47 -12 141q0 1 -1 4q-7 58 -10 88
q-2 34 -3 62q0 1 -1 2q-12 17 -8 37.5t21 32.5z" />
    <glyph glyph-name="macron" unicode="&#xaf;" horiz-adv-x="348" 
d="M19 697q64 24 167 24q20 0 58 -2q38 -1 56 -1q21 0 35.5 -14.5t14.5 -35t-14.5 -35.5t-35.5 -15q-19 0 -59 1q-37 2 -56 2q-83 0 -130 -18q-19 -7 -38 1.5t-26.5 27.5t1 38t27.5 27z" />
    <glyph glyph-name="degree" unicode="&#xb0;" horiz-adv-x="362" 
d="M204 619q-3 -2 -6 -3q-26 -13 -41 -42q-15 -27 -11 -49q3 -17 19 -24q22 -10 47 0q27 11 42 35q13 21 8 36q-2 7 -8 14q-10 10 -29 17q-13 5 -21 16zM318 662q30 -26 40 -62q17 -59 -19 -117q-33 -52 -90 -75q-65 -26 -126 2q-64 29 -76 98q-9 56 21 113q31 56 84 84
q63 32 131 11q18 -6 27.5 -21t7.5 -33z" />
    <glyph glyph-name="plusminus" unicode="&#xb1;" horiz-adv-x="596" 
d="M244 369q1 76 8 135q2 21 18.5 34t37 10.5t33.5 -18.5t10 -37q-6 -53 -7 -123h36h106q21 0 35.5 -14.5t14.5 -35t-14.5 -35.5t-35.5 -15h-105h-36v-20q1 -60 1 -89q0 -21 -14.5 -35.5t-35.5 -14.5t-35.5 14.5t-14.5 35.5q0 29 -1 88v20q-89 1 -158 4q-21 1 -35 16t-13 36
t16 35t36 13q67 -3 153 -4zM555 -6q-100 -14 -256 -11q-25 0 -76 2q-89 3 -132 3q-21 0 -35.5 14.5t-14.5 35t14.5 35.5t35.5 15q44 0 135 -3q50 -2 75 -2q147 -3 239 10q21 3 37.5 -9.5t19.5 -33t-9.5 -37t-32.5 -19.5z" />
    <glyph glyph-name="uni00B2" unicode="&#xb2;" horiz-adv-x="352" 
d="M8 580q27 92 93 125q63 32 127 -1q61 -31 76 -96q17 -71 -37 -134q-11 -14 -43 -40q-9 -7 -45 -36q72 5 133 -5q20 -3 32 -20t8.5 -37.5t-20 -32.5t-37.5 -9q-85 15 -208 -10h-1l-2 -1q-1 -1 -2 -1q-3 -1 -5 -2q-4 -1 -7 -2q-12 -4 -21 -5q-10 -1 -20 1q-23 5 -35 24
q-12 20 -6 44q3 11 10 23q9 14 26 31q22 22 68 60q5 4 11 9q47 37 58 46q25 21 30 27q21 25 16 47q-5 20 -25 30q-19 10 -36 1q-27 -13 -42 -64q-5 -20 -23.5 -30t-38.5 -4t-29.5 24t-4.5 38z" />
    <glyph glyph-name="uni00B3" unicode="&#xb3;" horiz-adv-x="322" 
d="M-5 613q48 62 121 83q69 20 124 -5q34 -15 50 -44.5t8 -65.5q-7 -34 -37 -67q50 -33 60 -84q7 -35 -7 -70t-44 -63q-58 -54 -132 -55q-43 0 -78.5 22.5t-56.5 64.5q-9 18 -2.5 37.5t25 29t38 3t28.5 -25.5q16 -31 46 -31q34 0 64 28q25 23 21 41q-1 7 -10 15
q-16 14 -50 24q-6 2 -12 6q-15 5 -24 19q-11 17 -7 37t21 32q31 21 48 39q6 8 9 14q1 1 2 3h-1q-21 9 -55 0q-42 -12 -70 -49q-13 -16 -33.5 -18.5t-37 10.5t-19 33.5t10.5 36.5z" />
    <glyph glyph-name="acute" unicode="&#xb4;" horiz-adv-x="283" 
d="M64 646q1 1 8.5 9.5t9.5 10.5l21 21q60 62 108 88q18 10 38 4.5t29.5 -24t4 -38t-23.5 -29.5q-35 -19 -84 -70q-9 -9 -19 -21l-10 -10l-9 -9q-14 -16 -34.5 -16.5t-36 13.5t-16 35t13.5 36z" />
    <glyph glyph-name="uni00B5" unicode="&#xb5;" horiz-adv-x="514" 
d="M137 137v-4q1 -3 1 -4q8 -40 15 -52q6 -8 19 -9q40 -4 82 33q43 39 81 115q4 7 8 15q1 3 1 6q9 29 27 79q22 66 30 93q13 46 15 79q1 20 15.5 33.5t34.5 13.5h2q20 -1 34 -15.5t14 -34.5v-3q-3 -58 -24.5 -137t-54.5 -149q-28 -100 -10 -161q6 -20 -4 -38t-29.5 -24
t-38 4t-24.5 30l-6 24l-4 -4q-74 -67 -158 -59q-60 6 -91 52q-23 -109 -23 -172q0 -21 -14.5 -35.5t-35.5 -14.5t-35.5 14.5t-14.5 35.5q0 65 20 166q15 77 44 189q8 32 19 72q1 4 9 33.5t16.5 61t11.5 43.5q20 73 30 115q4 21 21.5 32t37.5 6.5t31.5 -22t6.5 -37.5
q-10 -45 -30 -120q-3 -12 -11.5 -43.5t-16.5 -61t-9 -33.5q-11 -40 -19 -71l-2 -6q23 -10 29 -35z" />
    <glyph glyph-name="paragraph" unicode="&#xb6;" horiz-adv-x="524" 
d="M178 623q-90 -32 -117 -100q-24 -58 15 -105q37 -44 116 -57q-2 35 -5 97q-6 111 -9 165zM278 630q3 -55 8 -167q8 -143 11 -216q10 -214 10 -371q0 -21 -14.5 -35.5t-35 -14.5t-35.5 14.5t-15 35.5q0 155 -9 367q-1 8 -1 16q-132 16 -198 96q-37 44 -45 98.5t14 107.5
q21 52 67.5 93t110.5 64q145 51 341 3q20 -5 30.5 -22.5t6 -37.5t-22.5 -31t-38 -6q-16 -71 -16 -166q0 -82 13 -206q3 -30 9 -83q12 -101 16 -146q7 -81 7 -141q0 -21 -14.5 -35.5t-35.5 -14.5t-35.5 14.5t-14.5 35.5q0 56 -7 132q-4 44 -15 143q-7 54 -10 85
q-13 129 -13 216q0 103 18 183q-47 5 -90 2q2 -6 3 -13z" />
    <glyph glyph-name="periodcentered" unicode="&#xb7;" horiz-adv-x="204" 
d="M83 302q-8 7 -13 16q-15 26 -5 53q7 20 25 33q13 10 29 14q17 4 33 1q26 -4 41 -23q17 -22 12 -52q-4 -19 -18 -39q-15 -22 -38 -28q-29 -8 -53 11q-8 6 -13 14z" />
    <glyph glyph-name="cedilla" unicode="&#xb8;" horiz-adv-x="305" 
d="M116 -151q38 0 63 6q-5 1 -12 2q-1 0 -4 0.5t-6 0.5l-3 1q-16 2 -25 3q-17 4 -28 10t-19 14q-12 14 -14 32q-2 16 5 31q4 9 11 18q4 5 9 11q1 1 4.5 6t4.5 6q24 30 43 47q15 14 35.5 13.5t35 -16t13.5 -36t-16 -34.5q-6 -5 -11 -11q37 -6 60 -20q50 -30 44 -86
q-1 -8 -2 -13q-2 -11 -8 -20q-5 -9 -13 -16q-3 -3 -9 -8q-23 -18 -56 -28q-41 -13 -102 -13h-31q-19 1 -27 1q-21 0 -35.5 14.5t-14.5 35t14.5 35.5t35.5 15q9 0 28 -1h30z" />
    <glyph glyph-name="uni00B9" unicode="&#xb9;" horiz-adv-x="255" 
d="M250 648q-9 -16 -17 -64q-7 -41 -12 -109q-1 -23 -3 -54q0 -6 -1 -27.5t-2 -23.5q-2 -47 -4 -70q-2 -21 -18.5 -34t-37 -11t-33.5 18t-11 37q2 20 5 65q0 2 1 24t1 28q2 31 4 55q5 72 12 118q11 66 30 99q10 17 30.5 22.5t38 -5t23 -30.5t-5.5 -38z" />
    <glyph glyph-name="ordmasculine" unicode="&#xba;" horiz-adv-x="348" 
d="M184 635q-31 -18 -51 -46q-18 -26 -16 -45q0 -6 4 -11q5 -8 18 -15q36 -20 64 0q31 21 42 68q10 41 -3 57q-2 3 -7 4q-14 2 -39 -8q-6 -3 -12 -4zM269 741q32 -10 52 -36q43 -55 21 -143q-20 -83 -81 -126q-38 -26 -81.5 -27.5t-88.5 22.5q-68 37 -74 105q-4 55 34 110
q33 47 84 77q58 33 111 27q13 -2 23 -9z" />
    <glyph glyph-name="guillemotright" unicode="&#xbb;" horiz-adv-x="465" 
d="M117 440q65 -47 85 -65q42 -36 53 -70q9 -30 -1 -59q-8 -24 -30 -48q-29 -33 -109 -90q-17 -12 -37.5 -8.5t-32.5 20.5t-8.5 37t20.5 32q70 51 92 76q5 5 8 9q0 1 1 3q-1 2 -3 4q-6 8 -19 19q-17 15 -78 59q-17 12 -20 32.5t9.5 37.5t32.5 20t37 -9zM310 461
q31 -33 77 -66q2 -2 9 -7l8 -5q10 -8 16 -12q19 -16 29 -29q21 -28 16 -60q-4 -26 -27 -52q-28 -32 -121 -99q-17 -12 -37.5 -8.5t-32.5 20t-8.5 37t19.5 32.5q78 56 101 79q0 1 -1 1q-5 4 -13 10l-4 2q-4 3 -7.5 6t-5.5 4q-54 39 -90 78q-15 15 -14 36t16 35t35.5 13.5
t34.5 -15.5z" />
    <glyph glyph-name="onequarter" unicode="&#xbc;" horiz-adv-x="774" 
d="M637 198q-1 36 -2 66q-4 -11 -10 -25h-1q-14 -32 -22 -50l16 4q9 2 19 5zM249 650q-5 -43 -5 -161q-1 -60 2 -98q2 -19 4 -30q0 -1 1 -2q9 -15 7 -32.5t-14 -29.5q-15 -15 -36 -15t-35 15q-10 9 -16 25q-3 8 -5 19q-3 17 -5 42q-4 42 -3 106q0 125 6 173q3 21 19 33.5
t36.5 10t33.5 -19t10 -36.5zM181 46q1 2 3.5 5.5t5 8t5.5 10t6 10.5t6 9.5t5 8t4 6.5l1 2q25 43 45 77q61 102 111 182q23 36 44 69q147 229 218 291q16 13 37 11.5t34 -17.5t11.5 -36.5t-16.5 -33.5q-61 -52 -200 -269q-21 -32 -43 -68q-50 -79 -110 -180q-20 -34 -45 -77
l-2 -3q-2 -3 -4.5 -7.5t-6 -10t-7 -11.5t-6.5 -11.5t-5.5 -10t-4.5 -6.5q-10 -18 -30 -23t-38 5.5t-23 30.5t5 38zM742 400q-8 -72 -6 -182q15 -3 25.5 -14t13.5 -27q3 -19 -7.5 -35t-28.5 -21q2 -56 2 -88q11 -14 11 -32q0 -20 -14.5 -35t-35.5 -15q-8 0 -14 1
q-19 4 -32 17q-12 13 -14 32q-1 3 -1 7v4v2q0 35 -1 81q-57 -14 -87 -14q-14 0 -24 2q-18 4 -31 15q-19 17 -20 42q-1 17 7 35q17 34 48 104v1q42 94 66 140q8 16 25.5 23t34.5 1q17 14 39 11q20 -2 33 -18t11 -37z" />
    <glyph glyph-name="onehalf" unicode="&#xbd;" horiz-adv-x="806" 
d="M218 620q-9 -13 -10 -50q-1 -35 6 -94q2 -17 5 -42q1 -3 1 -8q1 -7 1 -9q2 -9 3 -16q2 -18 3 -31q4 -36 4 -58q0 -20 -14.5 -35t-35.5 -15t-35.5 15t-14.5 35q0 17 -3 47q-1 12 -4 30q0 6 -2 16l-1 8q0 5 -1 8q-3 26 -5 43q-8 67 -7 109q2 64 24 100q11 18 31.5 22.5
t38 -6.5t22 -31t-5.5 -38zM118 35q6 11 29.5 54.5t25.5 46.5q32 61 56 103q81 148 146 252q84 135 165 239q13 16 33.5 18.5t37 -10.5t19 -33.5t-10.5 -36.5q-78 -99 -159 -230q-64 -102 -144 -247q-23 -42 -55 -102q-2 -3 -25.5 -46.5t-29.5 -55.5q-10 -18 -29.5 -24t-38 4
t-24.5 30t4 38zM477 324q58 64 116 85q67 25 114 -11q46 -36 41 -106q-4 -59 -46 -126q-13 -20 -25 -37q41 0 86 -5q20 -2 33 -18.5t11 -37t-18.5 -33.5t-36.5 -10q-74 8 -135 0q-49 -7 -104 -26q-8 -2 -16 -2q-16 0 -29 9t-19 24q-2 8 -2 17q0 15 9 28.5t24 18.5
q74 25 137 125q29 46 32 80q0 11 -2 18q0 1 -1 2h-2q-6 0 -17 -3q-34 -13 -76 -59q-14 -15 -34.5 -16t-36 13t-16.5 34.5t13 35.5z" />
    <glyph glyph-name="threequarters" unicode="&#xbe;" horiz-adv-x="788" 
d="M42 599q16 43 44.5 69t64.5 30q32 3 62 -11t51 -41q21 -28 28 -60.5t-4 -65.5l-2 -4q12 -8 22 -19q56 -59 37 -126q-16 -56 -74 -88q-55 -30 -111 -22q-71 11 -100 75q-8 19 -0.5 38.5t26.5 28t38.5 1t27.5 -26.5q6 -14 23 -17q23 -3 47 11q22 12 27 27q1 5 0 10
q-3 9 -14 20q-6 7 -10 7q-8 1 -21 -5q-8 -3 -15 -3q-12 -5 -24 -8q-20 -6 -38 4t-24 29.5t4 38t30 24.5q28 8 44 21q9 8 12 16q5 15 -8 32q-12 15 -24 14q-4 0 -8 -4q-10 -9 -17 -30q-7 -19 -26 -28t-38.5 -1.5t-28 26t-1.5 38.5zM669 623q-1 0 -2 -1q-3 -2 -5 -4
q-7 -6 -16 -15q-18 -21 -42 -55q-43 -63 -102 -170q-21 -38 -44 -81q-36 -67 -97 -187q-54 -105 -70 -134q-10 -18 -30 -24t-38 4t-24 30t4 38q15 28 69 131q61 121 97 189q24 44 45 82q62 112 108 178q61 89 104 109q18 9 37.5 2t28.5 -25.5t2 -38t-25 -28.5zM778 443
q-1 -7 -3 -17v-2v-2q-1 -3 -1 -5q-1 -5 -1 -8q-3 -22 -5 -36q-10 -64 -15 -110q20 -5 30 -22q11 -18 5.5 -38t-23.5 -31q-10 -6 -20 -11q-6 -97 4 -163q4 -21 -8.5 -37.5t-33 -19.5t-37 9t-19.5 33q-10 63 -8 147l-21 -7q-33 -12 -54 -13q-18 -1 -33 7q-21 10 -30 32
q-5 13 -4 29q0 9 3 21q1 6 4 17q3 13 4 17q4 14 6 25q1 7 5 25q8 51 15 78q11 45 28 81q9 18 28.5 25.5t38 -1.5t26 -28.5t-1.5 -38.5q-13 -27 -22 -62q-6 -24 -14 -71q-3 -19 -5 -26q-1 -7 -3 -15q10 3 29 8l3 1q3 0 5 1q6 62 19 152q2 15 5 36q0 4 1 9q0 2 1 4v4
q2 11 3 17q3 21 19.5 33t37 9t33 -19.5t9.5 -36.5z" />
    <glyph glyph-name="questiondown" unicode="&#xbf;" horiz-adv-x="538" 
d="M254 497q0 17 12 30q22 26 52.5 23t46.5 -31q12 -19 9 -43.5t-20 -41.5q-9 -9 -19 -14q-17 -7 -34 -5q-18 3 -31 17q-9 8 -14 20q-8 22 -2 45zM357 314q0 -9 2 -32q1 -9 1 -14q3 -44 -5 -73q-10 -36 -41 -72q-16 -19 -52 -52q-44 -39 -56 -58q-15 -23 -8 -47
q12 -42 47 -58t82 -6q49 12 81 44q32 31 32 69q0 21 14.5 35.5t35 14.5t35.5 -14.5t15 -35.5q0 -79 -61 -140q-53 -52 -129 -70q-81 -18 -147 12q-77 35 -101 122q-19 67 20 127q13 21 35 44q12 13 38 36q31 28 43 42q17 19 21 35q3 11 1 38q0 4 -1 12q-2 29 -2 43
q1 20 15.5 34.5t35.5 14t35.5 -15.5t13.5 -35z" />
    <glyph glyph-name="Agrave" unicode="&#xc0;" 
d="M238 318q57 2 107 4q45 2 75 4q-13 35 -31 86q-2 7 -5 15l-5 15q-28 79 -43 119q-19 -55 -46 -121q-17 -42 -52 -122zM23 39q21 72 56 158q21 53 64 152v1l1 1v1v1l1 2q36 82 53 123q28 68 46 123q1 2 4 12.5t6.5 23.5t4.5 18q7 26 14 42q5 13 11 21q9 15 22 24q9 5 18 7
q10 1 18 1q6 -2 11 -4t8 -4q6 -4 11 -10q3 -3 5 -7l2.5 -5l3.5 -7q3 -8 9 -20q9 -21 14 -34q25 -62 67 -184q4 -11 5 -14q3 -9 6 -15q44 -126 73 -196q44 -103 91 -180q11 -17 6.5 -37.5t-22 -31.5t-37.5 -6t-31 22q-53 83 -99 195l-8 18q-9 -1 -20 -2q-33 -4 -87 -6
q-87 -4 -147 -4q-4 0 -7 1q-13 -31 -25 -59q-32 -82 -52 -149q-6 -20 -24 -30t-38 -4t-30 24.5t-4 37.5zM292 949q40 -53 72 -80q16 -14 17 -34.5t-12.5 -36.5t-34 -17t-36.5 12q-39 35 -86 96q-12 16 -9.5 36.5t19 33t37 10t33.5 -19.5z" />
    <glyph glyph-name="Aacute" unicode="&#xc1;" 
d="M238 318q57 2 107 4q45 2 75 4q-13 35 -31 86q-2 7 -5 15l-5 15q-28 79 -43 119q-19 -55 -46 -121q-17 -42 -52 -122zM23 39q21 72 56 158q21 53 64 152v1l1 1v1v1l1 2q36 82 53 123q28 68 46 123q1 2 4 12.5t6.5 23.5t4.5 18q7 26 14 42q5 13 11 21q9 15 22 24q9 5 18 7
q10 1 18 1q6 -2 11 -4t8 -4q6 -4 11 -10q3 -3 5 -7l2.5 -5l3.5 -7q3 -8 9 -20q9 -21 14 -34q25 -62 67 -184q4 -11 5 -14q3 -9 6 -15q44 -126 73 -196q44 -103 91 -180q11 -17 6.5 -37.5t-22 -31.5t-37.5 -6t-31 22q-53 83 -99 195l-8 18q-9 -1 -20 -2q-33 -4 -87 -6
q-87 -4 -147 -4q-4 0 -7 1q-13 -31 -25 -59q-32 -82 -52 -149q-6 -20 -24 -30t-38 -4t-30 24.5t-4 37.5zM239.5 854q13.5 16 39.5 44q3 3 4 3q49 53 70 81q13 17 33.5 19.5t37 -10t19 -33t-9.5 -36.5q-25 -32 -77 -89l-1 -1l-1 -1l-1 -1q-26 -27 -38 -42q-14 -16 -34.5 -17
t-36.5 12.5t-17 34t12.5 36.5z" />
    <glyph glyph-name="Acircumflex" unicode="&#xc2;" 
d="M238 318q57 2 107 4q45 2 75 4q-13 35 -31 86q-2 7 -5 15l-5 15q-28 79 -43 119q-19 -55 -46 -121q-17 -42 -52 -122zM23 39q21 72 56 158q21 53 64 152v1l1 1v1v1l1 2q36 82 53 123q28 68 46 123q1 2 4 12.5t6.5 23.5t4.5 18q7 26 14 42q5 13 11 21q9 15 22 24q9 5 18 7
q10 1 18 1q6 -2 11 -4t8 -4q6 -4 11 -10q3 -3 5 -7l2.5 -5l3.5 -7q3 -8 9 -20q9 -21 14 -34q25 -62 67 -184q4 -11 5 -14q3 -9 6 -15q44 -126 73 -196q44 -103 91 -180q11 -17 6.5 -37.5t-22 -31.5t-37.5 -6t-31 22q-53 83 -99 195l-8 18q-9 -1 -20 -2q-33 -4 -87 -6
q-87 -4 -147 -4q-4 0 -7 1q-13 -31 -25 -59q-32 -82 -52 -149q-6 -20 -24 -30t-38 -4t-30 24.5t-4 37.5zM167 844q34 41 40 49q1 0 1 1q15 18 39 48l1 1q1 2 4 7q9 14 14 22l6 8q9 13 17 22q6 7 12 11q5 5 11 7q12 6 24 6q18 0 33 -12l8 -8q3 -4 6 -9q4 -6 9 -17
q8 -15 20 -42l2 -6q8 -17 19 -42l4 -8q2 -4 3 -7q1 -2 1 -4l1 -1q2 -4 5 -11.5t6 -14.5t5 -13l3 -6q7 -16 13 -25q3 -4 5 -7q1 -1 2 -1q17 -12 21 -32.5t-7.5 -37.5t-32 -21t-37.5 7q-20 14 -35 38q-10 16 -20 39q-1 1 -5 10.5t-8 18.5t-5 12q0 1 -4 10t-10.5 23.5
t-10.5 22.5q0 -1 -1 -1q-26 -33 -41 -51l-1 -1l-41 -49q-13 -16 -33.5 -18t-36.5 11.5t-18 34t12 36.5z" />
    <glyph glyph-name="Atilde" unicode="&#xc3;" 
d="M238 318q57 2 107 4q45 2 75 4q-13 35 -31 86q-2 7 -5 15l-5 15q-28 79 -43 119q-19 -55 -46 -121q-17 -42 -52 -122zM23 39q21 72 56 158q21 53 64 152v1l1 1v1v1l1 2q36 82 53 123q28 68 46 123q1 2 4 12.5t6.5 23.5t4.5 18q7 26 14 42q5 13 11 21q9 15 22 24q9 5 18 7
q10 1 18 1q6 -2 11 -4t8 -4q6 -4 11 -10q3 -3 5 -7l2.5 -5l3.5 -7q3 -8 9 -20q9 -21 14 -34q25 -62 67 -184q4 -11 5 -14q3 -9 6 -15q44 -126 73 -196q44 -103 91 -180q11 -17 6.5 -37.5t-22 -31.5t-37.5 -6t-31 22q-53 83 -99 195l-8 18q-9 -1 -20 -2q-33 -4 -87 -6
q-87 -4 -147 -4q-4 0 -7 1q-13 -31 -25 -59q-32 -82 -52 -149q-6 -20 -24 -30t-38 -4t-30 24.5t-4 37.5zM136 820q26 53 58 80q49 42 110 27q21 -5 44 -17q14 -8 34 -21q27 -18 34 -22q7 14 12 41q4 20 21 31.5t37.5 7.5t32 -21t7.5 -38q-11 -53 -29 -81q-25 -40 -66 -43
q-28 -3 -62 15q-9 5 -22 13q-4 3 -10 7h-1q-7 5 -9 6q-32 21 -46 25q-12 2 -22 -6q-16 -14 -33 -48q-9 -19 -28.5 -25.5t-38.5 2.5t-25.5 28.5t2.5 38.5z" />
    <glyph glyph-name="Adieresis" unicode="&#xc4;" 
d="M238 318q57 2 107 4q45 2 75 4q-13 35 -31 86q-2 7 -5 15l-5 15q-28 79 -43 119q-19 -55 -46 -121q-17 -42 -52 -122zM302 849q1 -4 1 -8q0 -11 -3 -21q-6 -17 -19 -26q-18 -14 -39.5 -10t-33.5 23q-6 8 -8 19q-1 5 -1 11v5q-2 18 7 33q7 18 24.5 26.5t36.5 3.5
q18 -5 28 -21t7 -35zM468 874q1 -2 1 -3q6 -18 2 -37q-2 -9 -6 -16q-4 -6 -9 -11q-9 -10 -21 -14q-20 -7 -40 3q-13 8 -21 22q-6 10 -7 24q-1 13 3 33q3 20 20 32t38 8q16 -3 27 -14.5t13 -26.5zM23 39q21 72 56 158q21 53 64 152v1l1 1v1v1l1 2q36 82 53 123q28 68 46 123
q1 2 4 12.5t6.5 23.5t4.5 18q7 26 14 42q5 13 11 21q9 15 22 24q9 5 18 7q10 1 18 1q6 -2 11 -4t8 -4q6 -4 11 -10q3 -3 5 -7l2.5 -5l3.5 -7q3 -8 9 -20q9 -21 14 -34q25 -62 67 -184q4 -11 5 -14q3 -9 6 -15q44 -126 73 -196q44 -103 91 -180q11 -17 6.5 -37.5t-22 -31.5
t-37.5 -6t-31 22q-53 83 -99 195l-8 18q-9 -1 -20 -2q-33 -4 -87 -6q-87 -4 -147 -4q-4 0 -7 1q-13 -31 -25 -59q-32 -82 -52 -149q-6 -20 -24 -30t-38 -4t-30 24.5t-4 37.5z" />
    <glyph glyph-name="Aring" unicode="&#xc5;" 
d="M238 318q57 2 107 4q45 2 75 4q-13 35 -31 86q-2 7 -5 15l-5 15q-28 79 -43 119q-19 -55 -46 -121q-17 -42 -52 -122zM321 802q10 -3 20.5 1t14.5 14q0 2 1 4v1l-2 1q-2 2 -6 3l-8 2q-14 -13 -20 -24v-2zM23 39q21 72 56 158q21 53 64 152v1l1 1v1v1l1 2q36 82 53 123
q28 68 46 123q1 2 4 12.5t6.5 23.5t4.5 18q7 26 14 42q3 8 7 14q-27 11 -43.5 33t-17.5 51q-1 22 8 43q-4 22 8 40q23 33 64 45t80 -1q42 -14 63 -47q25 -41 8 -90q-17 -51 -67 -73q4 -7 9 -19q9 -21 14 -34q25 -62 67 -184q4 -11 5 -14q3 -9 6 -15q44 -126 73 -196
q44 -103 91 -180q11 -17 6.5 -37.5t-22 -31.5t-37.5 -6t-31 22q-53 83 -99 195l-8 18q-9 -1 -20 -2q-33 -4 -87 -6q-87 -4 -147 -4q-4 0 -7 1q-13 -31 -25 -59q-32 -82 -52 -149q-6 -20 -24 -30t-38 -4t-30 24.5t-4 37.5z" />
    <glyph glyph-name="AE" unicode="&#xc6;" horiz-adv-x="1015" 
d="M429 316q-1 15 -1 38q-1 101 0 152q0 72 3 130q-42 2 -78 3q-78 -181 -135 -328h75q76 1 136 5zM353 739q56 -1 172 -7q74 -4 112 -6q171 -6 283 5q21 2 37 -11t18 -34t-11 -37t-34 -18q-119 -12 -297 -5q-37 2 -102 5q-3 -56 -3 -126q-1 -33 0 -70q20 -1 63 -3
q39 -1 59 -2q101 -3 168 -3q21 0 35.5 -14.5t14.5 -35.5t-14.5 -35.5t-35.5 -14.5q-69 0 -171 3q-21 1 -60 3q-39 1 -59 2q1 -60 1 -97v-3v-4q0 -52 1 -90q0 -32 1 -53q15 0 35 1q53 1 163 6h20q192 8 217 8q21 0 35.5 -14.5t14.5 -35.5t-14.5 -35.5t-35.5 -14.5
q-23 0 -213 -8h-20q-110 -5 -164 -6q-37 -1 -57 -1h-19q-5 0 -9 1q-9 1 -16 4q-17 7 -25 23q-4 5 -5 11q-2 6 -3 14q-2 10 -3 27q-2 27 -2 71q-1 34 -1 76q-60 -3 -135 -4h-105h-8q-31 -83 -58 -163q-6 -19 -24.5 -28.5t-38 -3t-29 25t-2.5 38.5q88 266 245 628q8 17 25 25
t36 3q9 3 18 3z" />
    <glyph glyph-name="Ccedilla" unicode="&#xc7;" horiz-adv-x="691" 
d="M410 -3q-5 -11 -16 -26l-6 -8q8 -1 16 -4q43 -14 61 -57q21 -50 -4 -92q-19 -31 -60 -50q-53 -24 -121 -24q-21 0 -35.5 14.5t-14.5 35.5t14.5 35.5t35.5 14.5q46 0 80 15q7 4 12 7l2 2q0 2 -1 4q-6 2 -25 1h-6q-19 -1 -31 0h-1h-6q-7 0 -12 2q-16 4 -27 16
q-16 19 -11 43q3 17 15 38q6 10 14 23q-56 7 -102 41q-49 35 -80.5 94.5t-42.5 134.5q-22 148 37 283q67 153 209 207q126 47 231 -37q75 -59 127 -176q8 -19 0.5 -38t-26.5 -27.5t-38 -1t-28 26.5q-42 94 -97 138q-61 49 -133 21q-103 -39 -153 -153q-48 -109 -30 -229
q17 -115 82 -162q31 -22 71 -24q47 -1 104 28q66 33 109 81t73 122q7 19 26 27t38.5 0.5t27.5 -26.5t0 -39q-36 -90 -91 -151.5t-139 -103.5q-23 -11 -45 -19q-2 -4 -3 -7z" />
    <glyph glyph-name="Egrave" unicode="&#xc8;" horiz-adv-x="642" 
d="M191 709q83 20 213 25q26 2 78 3q73 2 109 5q20 1 35.5 -13t17 -34.5t-12.5 -36t-34 -16.5q-38 -3 -112 -5q-52 -1 -77 -2q-145 -7 -230 -33q-8 -65 -10 -150v-41q164 31 390 31q21 0 35.5 -14.5t14.5 -35t-14.5 -35.5t-35.5 -15q-227 0 -388 -33q2 -50 6 -95
q4 -58 -1 -109q88 23 191 33q93 9 225 9q20 0 35 -15t15 -35.5t-15 -35t-35 -14.5q-128 0 -215 -9q-112 -11 -204 -38q-1 0 -3 -1q-6 -3 -10 -4q-5 -2 -9 -3q-13 -5 -23 -6t-19 1q-18 3 -30 15q-20 19 -16 47q1 5 3 11l2 6l1 1q14 64 8 139q-10 122 -7 248q3 158 26 252
q5 20 23 30.5t38 5.5q26 -7 35 -33zM283 951q14 -9 32 -23q8 -7 28 -24q18 -16 28 -24q14 -11 24 -15q19 -8 26.5 -27.5t-0.5 -38.5t-27.5 -26.5t-38.5 0.5q-21 9 -46 28q-12 10 -32 28q-33 29 -46 36q-17 11 -22.5 31t5.5 37.5t31 23t38 -5.5z" />
    <glyph glyph-name="Eacute" unicode="&#xc9;" horiz-adv-x="642" 
d="M191 709q83 20 213 25q26 2 78 3q73 2 109 5q20 1 35.5 -13t17 -34.5t-12.5 -36t-34 -16.5q-38 -3 -112 -5q-52 -1 -77 -2q-145 -7 -230 -33q-8 -65 -10 -150v-41q164 31 390 31q21 0 35.5 -14.5t14.5 -35t-14.5 -35.5t-35.5 -15q-227 0 -388 -33q2 -50 6 -95
q4 -58 -1 -109q88 23 191 33q93 9 225 9q20 0 35 -15t15 -35.5t-15 -35t-35 -14.5q-128 0 -215 -9q-112 -11 -204 -38q-1 0 -3 -1q-6 -3 -10 -4q-5 -2 -9 -3q-13 -5 -23 -6t-19 1q-18 3 -30 15q-20 19 -16 47q1 5 3 11l2 6l1 1q14 64 8 139q-10 122 -7 248q3 158 26 252
q5 20 23 30.5t38 5.5q26 -7 35 -33zM256 834q4 4 10 11q2 2 6 6.5l8 9t5 5.5q63 71 106 105q16 13 36.5 10.5t33.5 -18.5t10.5 -36.5t-18.5 -33.5q-36 -29 -94 -94l-4 -5q-4 -4 -8.5 -9t-6.5 -7l-10 -12q-14 -15 -34.5 -16t-36 13t-16.5 34.5t13 36.5z" />
    <glyph glyph-name="Ecircumflex" unicode="&#xca;" horiz-adv-x="642" 
d="M191 709q83 20 213 25q26 2 78 3q73 2 109 5q20 1 35.5 -13t17 -34.5t-12.5 -36t-34 -16.5q-38 -3 -112 -5q-52 -1 -77 -2q-145 -7 -230 -33q-8 -65 -10 -150v-41q164 31 390 31q21 0 35.5 -14.5t14.5 -35t-14.5 -35.5t-35.5 -15q-227 0 -388 -33q2 -50 6 -95
q4 -58 -1 -109q88 23 191 33q93 9 225 9q20 0 35 -15t15 -35.5t-15 -35t-35 -14.5q-128 0 -215 -9q-112 -11 -204 -38q-1 0 -3 -1q-6 -3 -10 -4q-5 -2 -9 -3q-13 -5 -23 -6t-19 1q-18 3 -30 15q-20 19 -16 47q1 5 3 11l2 6l1 1q14 64 8 139q-10 122 -7 248q3 158 26 252
q5 20 23 30.5t38 5.5q26 -7 35 -33zM206 806q2 11 13 39q11 26 24 51q16 31 30 50q10 14 21 23q9 7 19 11q17 6 34 2q19 -5 37 -20q11 -10 23 -25q10 -13 30 -45q16 -24 23 -34q5 -7 9 -10l3 -3t2 -1q17 -11 22.5 -31t-5.5 -37.5t-31 -23t-38 5.5q-20 12 -40 38
q-11 14 -29 42q-11 17 -15 24l-6 -12q-11 -21 -20 -43q-4 -9 -6 -15q-1 -3 -1 -4q-4 -19 -20 -30t-36 -9q-20 3 -32.5 19.5t-10.5 37.5z" />
    <glyph glyph-name="Edieresis" unicode="&#xcb;" horiz-adv-x="642" 
d="M191 709q83 20 213 25q26 2 78 3q73 2 109 5q20 1 35.5 -13t17 -34.5t-12.5 -36t-34 -16.5q-38 -3 -112 -5q-52 -1 -77 -2q-145 -7 -230 -33q-8 -65 -10 -150v-41q164 31 390 31q21 0 35.5 -14.5t14.5 -35t-14.5 -35.5t-35.5 -15q-227 0 -388 -33q2 -50 6 -95
q4 -58 -1 -109q88 23 191 33q93 9 225 9q20 0 35 -15t15 -35.5t-15 -35t-35 -14.5q-128 0 -215 -9q-112 -11 -204 -38q-1 0 -3 -1q-6 -3 -10 -4q-5 -2 -9 -3q-13 -5 -23 -6t-19 1q-18 3 -30 15q-20 19 -16 47q1 5 3 11l2 6l1 1q14 64 8 139q-10 122 -7 248q3 158 26 252
q5 20 23 30.5t38 5.5q26 -7 35 -33zM232 898q14 14 34 14q26 0 47 -17q9 -8 15 -19q9 -15 8 -32q-2 -28 -25 -43q-16 -10 -36 -10q-20 1 -49 15q-18 9 -25 28.5t2 38t29 25.5zM438 926q33 2 48 -28q16 -32 -3 -63q-13 -23 -36 -31q-8 -3 -16 -4q-14 -1 -26 5q-33 14 -32 51
q1 14 9 29q5 10 13 21q16 21 43 20z" />
    <glyph glyph-name="Igrave" unicode="&#xcc;" horiz-adv-x="217" 
d="M105 945q8 -7 21 -21q0 -1 8.5 -10.5t10.5 -11.5q19 -20 29 -28q3 -1 4 -2q20 -4 31.5 -21t7.5 -37.5t-21 -32t-37.5 -7.5t-40.5 18t-47 42q-2 3 -10.5 12.5t-8.5 10.5q-9 9 -13 12q-15 14 -16.5 34.5t12 36t34 17t36.5 -11.5zM197 679q-16 -115 -9 -311q1 -28 3 -82
q5 -131 5 -194q0 -21 -14.5 -35.5t-35.5 -14.5t-35.5 14.5t-14.5 35.5q0 61 -5 190q-2 54 -3 82q-7 205 11 329q2 21 19 33t37.5 9.5t32.5 -19.5t9 -37z" />
    <glyph glyph-name="Iacute" unicode="&#xcd;" horiz-adv-x="241" 
d="M195 658q-2 -37 -5 -317q-1 -122 -1 -200q0 -43 1 -66v-18q4 -16 -3 -31q-8 -19 -27.5 -26.5t-38.5 0.5t-26 27q-4 9 -5 25v21q-1 24 -1 68q0 78 1 201q3 282 5 322q1 21 16.5 34.5t36.5 12.5t34.5 -16.5t12.5 -36.5zM48 831q0 1 1 2q34 42 52 64q30 35 57 62
q14 15 35 15t35.5 -14.5t14.5 -35.5t-15 -35q-36 -37 -100 -118l-2 -2q-13 -16 -33.5 -18.5t-36.5 10.5t-18.5 33.5t10.5 36.5z" />
    <glyph glyph-name="Icircumflex" unicode="&#xce;" horiz-adv-x="321" 
d="M195 658q-2 -37 -5 -317q-1 -122 -1 -200q0 -43 1 -66v-18q4 -16 -3 -31q-8 -19 -27.5 -26.5t-38.5 0.5t-26 27q-4 9 -5 25v21q-1 24 -1 68q0 78 1 201q3 282 5 322q1 21 16.5 34.5t36.5 12.5t34.5 -16.5t12.5 -36.5zM-2 810q63 81 149 153v1q1 0 1 1l2 2q4 4 9 7
q9 7 20 9q16 3 31 -3q24 -11 30 -36q2 -5 2 -11v-5v-1q7 -43 67 -112q14 -15 13 -36t-16.5 -34.5t-36.5 -12.5t-34 17q-34 38 -56 74q-8 12 -13 23q-50 -47 -90 -98q-12 -16 -33 -18.5t-37 10t-18.5 33.5t10.5 37z" />
    <glyph glyph-name="Idieresis" unicode="&#xcf;" horiz-adv-x="287" 
d="M281 869q6 -10 8 -23q0 -8 -1 -16q-2 -9 -7 -19q-7 -18 -19 -29q-6 -6 -12.5 -10t-14.5 -5q-14 -3 -27 1q-15 5 -24 17q-7 8 -10 18q-2 9 -2 19q-6 20 0 38t23 28q10 12 25 16t31 -1q23 -9 30 -34zM7 810q-4 6 -7 12q-4 7 -5 15q-2 12 1 24q7 30 37 39q25 9 46 1
q30 -10 38 -42q3 -15 0 -32q-3 -11 -8 -21q-5 -11 -11 -19q-9 -11 -20 -16q-19 -8 -39 -0.5t-29 27.5q-2 6 -3 12zM195 658q-2 -37 -5 -317q-1 -122 -1 -200q0 -43 1 -66v-18q4 -16 -3 -31q-8 -19 -27.5 -26.5t-38.5 0.5t-26 27q-4 9 -5 25v21q-1 27 -1 68q0 78 1 201
q3 282 5 322q1 21 16.5 34.5t36.5 12.5t34.5 -16.5t12.5 -36.5z" />
    <glyph glyph-name="Eth" unicode="&#xd0;" horiz-adv-x="641" 
d="M197 98h6h5q3 0 5 1h10q165 5 252 95q76 79 67 188q-9 111 -100 187q-102 85 -270 84q1 -80 8 -201q0 -4 1 -7q14 1 31 1q20 1 62 4q77 4 118 4q21 0 35.5 -14.5t14.5 -35.5t-14.5 -35.5t-35.5 -14.5q-38 0 -112 -4q-43 -3 -64 -4q-16 0 -30 -1q5 -79 7 -128
q3 -65 4 -119zM161 753q211 4 345 -107q60 -50 95 -116.5t41 -140t-18.5 -142.5t-76.5 -122q-116 -120 -320 -126q-4 0 -19 -1q-26 -1 -42 -1q-33 1 -57 9q-38 13 -56 44q-11 18 -5.5 38t23.5 30q12 7 25 7q-1 74 -10 224q-29 3 -57 8q-21 4 -32.5 21t-7.5 37.5t21 32
t37 7.5q17 -3 33 -5q-8 147 -8 245q0 21 14.5 35.5t35.5 14.5q6 0 11 -1q13 9 28 9z" />
    <glyph glyph-name="Ntilde" unicode="&#xd1;" horiz-adv-x="650" 
d="M196 710q39 -53 81 -125q25 -43 70 -129q1 -1 2 -3q57 -107 89 -159q40 -65 79 -113q-1 9 -1 11q-1 12 -1 18q0 57 6 128q3 43 12 126q4 37 6 55q12 114 12 188q0 21 14.5 35.5t35.5 14.5t35.5 -14.5t14.5 -35.5q0 -79 -12 -199q-2 -18 -6 -55q-9 -82 -13 -123
q-5 -67 -5 -120v-4t1 -8q0 -1 0.5 -11t0.5 -12q1 -18 2 -32q1 -31 0 -51q-1 -15 -4 -26q-2 -9 -6 -16q-7 -13 -18 -21q-22 -15 -48 -6q-5 2 -11 6q-5 3 -12 8q-9 7 -22 19q-27 24 -33 32q-57 63 -113 154q-33 54 -91 164l-2 4q-45 84 -69 125q-9 15 -17 29q-8 -79 -9 -181
q-1 -183 19 -304q4 -20 -8 -37t-32.5 -20.5t-37.5 8.5t-20 33q-22 129 -21 321q1 210 32 315q6 20 24 30t38 4q6 -2 11 -5q17 -4 27 -18zM183 825q23 74 92 90q24 5 55 3q19 -1 49 -7q4 0 10 -1q50 -9 65 -7q6 1 7.5 2t3.5 7q6 19 24.5 28.5t38 3t29 -25t2.5 -38.5
q-22 -67 -92 -76q-21 -3 -50 0q-15 2 -46 7q-6 1 -9 2q-47 8 -64 4q-7 -1 -10 -5q-5 -5 -9 -17q-6 -19 -24.5 -29t-38 -4t-29.5 24.5t-4 38.5z" />
    <glyph glyph-name="Ograve" unicode="&#xd2;" horiz-adv-x="730" 
d="M421 649q-85 3 -151 -35q-97 -57 -130 -181q-15 -58 -11.5 -116.5t25.5 -106.5q46 -102 149 -118q111 -16 201 62q84 74 115 194q30 115 -9 193.5t-143 78.5q-32 0 -46 29zM614 681q55 -34 86 -95q55 -112 16 -264q-39 -149 -146 -243q-124 -109 -281 -85q-78 11 -136 57
t-90 118q-29 64 -34 140t15 149q21 79 66 141.5t110 100.5q152 89 361 19q28 -9 33 -38zM424 789q-33 7 -62 21q-21 11 -46 29q-1 1 -3 2.5l-4 3t-4.5 3.5t-4.5 3.5l-4 3t-3 2.5l-1 1q-14 10 -25 17q-17 12 -21 32.5t7.5 37.5t32 21t37.5 -7q13 -9 29 -21q0 -1 3.5 -3.5
l7 -5t7.5 -5.5t6 -5q35 -25 68 -32q20 -4 31.5 -21.5t7.5 -37.5t-21.5 -31.5t-37.5 -7.5z" />
    <glyph glyph-name="Oacute" unicode="&#xd3;" horiz-adv-x="700" 
d="M404 754q16 12 36 10q77 -9 134 -50.5t90 -109.5q58 -120 27.5 -275t-131.5 -253q-118 -114 -278 -94q-72 9 -123.5 53.5t-77.5 117.5q-45 126 -7 282q40 161 144 249q83 70 186 70zM476 642q-110 36 -193 -34q-80 -67 -112 -197q-31 -126 4 -224q34 -95 119 -105
q113 -15 196 66q79 76 103 200q24 123 -19 213q-26 54 -72 80q-14 -3 -26 1zM302 874q24 13 80 52q39 27 62 41q37 23 68 35q20 8 39 0t26.5 -27.5t-0.5 -38.5t-27 -26q-24 -10 -54 -28q-20 -13 -57 -38q-60 -42 -87 -58q-18 -10 -38 -4.5t-30.5 23.5t-5 38t23.5 31z" />
    <glyph glyph-name="Ocircumflex" unicode="&#xd4;" horiz-adv-x="700" 
d="M404 754q16 12 36 10q77 -9 134 -50.5t90 -109.5q58 -120 27.5 -275t-131.5 -253q-118 -114 -278 -94q-72 9 -123.5 53.5t-77.5 117.5q-45 126 -7 282q40 161 144 249q83 70 186 70zM476 642q-110 36 -193 -34q-80 -67 -112 -197q-31 -126 4 -224q34 -95 119 -105
q113 -15 196 66q79 76 103 200q24 123 -19 213q-26 54 -72 80q-14 -3 -26 1zM255 858q70 85 97 107q25 21 48 25q32 6 59 -15q11 -9 24 -26q4 -5 10 -13l2 -3l4 -6t3 -5q27 -37 53 -64q15 -14 15 -35t-14.5 -35.5t-35.5 -14.5t-35 15q-33 32 -64 76q-1 2 -3.5 5t-4.5 6l-2 3
q-1 2 -3 4q-20 -20 -77 -88q-13 -16 -33.5 -18t-36.5 11.5t-18 34t12 36.5z" />
    <glyph glyph-name="Otilde" unicode="&#xd5;" horiz-adv-x="700" 
d="M404 754q16 12 36 10q77 -9 134 -50.5t90 -109.5q58 -120 27.5 -275t-131.5 -253q-118 -114 -278 -94q-72 9 -123.5 53.5t-77.5 117.5q-45 126 -7 282q40 161 144 249q83 70 186 70zM476 642q-110 36 -193 -34q-80 -67 -112 -197q-31 -126 4 -224q34 -95 119 -105
q113 -15 196 66q79 76 103 200q24 123 -19 213q-26 54 -72 80q-14 -3 -26 1zM204 862l7 7l7 6q29 28 48 42q33 24 69 33q40 9 77 -7q21 -8 49 -30l1 -1l2 -1q2 -2 4 -3q18 -13 24 -14q3 -1 6 0q7 2 18 10q32 23 38 39q6 19 24.5 28.5t38 3t29 -25t2.5 -38.5q-9 -28 -34 -54
q-17 -18 -40 -35q-50 -35 -99 -27q-20 3 -40 15q-12 6 -28 18q-1 2 -3 3l-2 1l-1 1q-18 14 -26.5 17.5t-17.5 1.5q-15 -3 -33 -16q-13 -9 -36 -33q-6 -5 -7 -6l-7 -7q-15 -14 -36 -14t-35 15t-14 36t15 35z" />
    <glyph glyph-name="Odieresis" unicode="&#xd6;" horiz-adv-x="700" 
d="M404 754q16 12 36 10q77 -9 134 -50.5t90 -109.5q58 -120 27.5 -275t-131.5 -253q-118 -114 -278 -94q-72 9 -123.5 53.5t-77.5 117.5q-45 126 -7 282q40 161 144 249q83 70 186 70zM265 897v1q13 20 36 26q12 3 24 1q9 -1 17 -6q13 -7 20 -20q7 -14 6 -30q-1 -10 -6 -20
q-5 -9 -15 -18q-10 -8 -29 -17q-18 -9 -37.5 -2t-28.5 26q-8 15 -4 32t17 27zM515 933q20 -4 31.5 -20t8.5 -36q-2 -18 -13 -35t-26 -25q-10 -5 -21 -6q-21 -1 -36 12q-14 10 -18 27q-2 8 -2 18q1 15 11 39q8 19 27 26.5t38 -0.5zM476 642q-110 36 -193 -34
q-80 -67 -112 -197q-31 -126 4 -224q34 -95 119 -105q113 -15 196 66q79 76 103 200q24 123 -19 213q-26 54 -72 80q-14 -3 -26 1z" />
    <glyph glyph-name="multiply" unicode="&#xd7;" horiz-adv-x="535" 
d="M141 475q53 -39 114 -92q20 -18 41 -37q104 88 156 139q14 15 35 15t35.5 -14.5t14.5 -35.5t-15 -35q-53 -54 -152 -138q84 -77 131 -117q16 -13 18 -33.5t-11.5 -36.5t-34 -18t-36.5 12q-50 41 -143 128q-30 -26 -55 -48q-56 -50 -96 -94q-14 -15 -35 -16t-36 13t-16 35
t13 36q44 47 103 100q22 21 48 42q-16 14 -31 28q-58 50 -108 87q-16 12 -19.5 32.5t9 37t33 20t37.5 -9.5z" />
    <glyph glyph-name="Oslash" unicode="&#xd8;" horiz-adv-x="745" 
d="M582 531q-147 -164 -229 -260q-74 -87 -135 -163q33 -23 81 -28q111 -13 195 74q80 83 100 211q15 93 -12 166zM88 104q-10 17 -18 36q-48 117 -10 271q36 149 131 245q75 76 166 89q10 5 22 6q123 6 205 -57q17 21 32 36q28 30 54 46q18 11 38 5.5t31 -23t5.5 -37.5
t-22.5 -31q-26 -15 -70 -73q66 -112 41 -268q-12 -75 -45 -144t-82 -120q-118 -123 -279 -105q-75 9 -130 49q-18 -23 -35 -46q-12 -16 -32.5 -19t-37 9t-19.5 32.5t9 37.5q23 30 46 61zM421 645q-84 15 -159 -60q-75 -76 -105 -198q-28 -111 1 -195q55 68 119 144
q85 99 246 279q-32 24 -75 32q-13 -5 -27 -2z" />
    <glyph glyph-name="Ugrave" unicode="&#xd9;" horiz-adv-x="683" 
d="M201 677q-1 -18 -3 -39q-3 -25 -9 -74q-9 -74 -11 -111q-3 -59 3 -105q12 -80 35 -129q28 -60 76 -90q55 -35 94 -30q29 3 54 33q52 65 79 230q10 61 17 137q3 51 9 133q2 19 16 32.5t34 13.5h4q19 -2 32.5 -16.5t13.5 -33.5v-4v-2q-1 -2 -2.5 -25t-3 -50t-2.5 -40
q-1 -8 -2 -15v-6q-5 -92 -4 -163q1 -89 12 -146q11 -58 27 -75q15 -15 14.5 -36t-15.5 -35t-35.5 -14t-35.5 15q-30 31 -46 91q-15 -31 -34 -54q-51 -62 -121 -70q-73 -8 -158 45q-74 47 -114 133q-29 63 -42 156q-9 57 -5 126q2 40 12 118q6 47 8 71q2 19 3 35
q1 21 16.5 34.5t36.5 12.5t34.5 -17t12.5 -36zM327 937q17 -18 39 -58q0 -1 2 -3q23 -42 38 -51q17 -11 22.5 -31t-5.5 -37.5t-31 -23t-38 5.5q-25 16 -46 44q-11 15 -28 44l-2 4q-16 30 -25 40q-14 15 -13 36t16.5 34.5t36.5 12.5t34 -17z" />
    <glyph glyph-name="Uacute" unicode="&#xda;" horiz-adv-x="683" 
d="M201 677q-1 -18 -3 -39q-3 -25 -9 -74q-9 -74 -11 -111q-3 -59 3 -105q12 -80 35 -129q28 -60 76 -90q55 -35 94 -30q29 3 54 33q52 65 79 230q10 61 17 137q3 51 9 133q2 19 16 32.5t34 13.5h4q19 -2 32.5 -16.5t13.5 -33.5v-4v-2q-1 -2 -2.5 -25t-3 -50t-2.5 -40
q-1 -8 -2 -15v-6q-5 -92 -4 -163q1 -89 12 -146q11 -58 27 -75q15 -15 14.5 -36t-15.5 -35t-35.5 -14t-35.5 15q-30 31 -46 91q-15 -31 -34 -54q-51 -62 -121 -70q-73 -8 -158 45q-74 47 -114 133q-29 63 -42 156q-9 57 -5 126q2 40 12 118q6 47 8 71q2 19 3 35
q1 21 16.5 34.5t36.5 12.5t34.5 -17t12.5 -36zM278 833q10 11 25 28q3 4 8 10q1 1 3 4l1 1q3 3 4 5q50 57 83 83q16 13 36.5 10.5t33.5 -18.5t10.5 -36.5t-18.5 -33.5q-26 -21 -69 -71q-2 -2 -4 -5l-1 -1q-3 -3 -3 -4l-9 -9q-16 -19 -28 -31q-14 -15 -34.5 -16t-35.5 13.5
t-16 35t14 35.5z" />
    <glyph glyph-name="Ucircumflex" unicode="&#xdb;" horiz-adv-x="683" 
d="M201 677q-1 -18 -3 -39q-3 -25 -9 -74q-9 -74 -11 -111q-3 -59 3 -105q12 -80 35 -129q28 -60 76 -90q55 -35 94 -30q29 3 54 33q52 65 79 230q10 61 17 137q3 51 9 133q2 19 16 32.5t34 13.5h4q19 -2 32.5 -16.5t13.5 -33.5v-4v-2q-1 -2 -2.5 -25t-3 -50t-2.5 -40
q-1 -8 -2 -15v-6q-5 -92 -4 -163q1 -89 12 -146q11 -58 27 -75q15 -15 14.5 -36t-15.5 -35t-35.5 -14t-35.5 15q-30 31 -46 91q-15 -31 -34 -54q-51 -62 -121 -70q-73 -8 -158 45q-74 47 -114 133q-29 63 -42 156q-9 57 -5 126q2 40 12 118q6 47 8 71q2 19 3 35
q1 21 16.5 34.5t36.5 12.5t34.5 -17t12.5 -36zM222 815q16 22 72 83q27 29 44 47q11 10 19 17q6 4 11 8q22 12 44 4q15 -5 25 -17q5 -6 9 -14t8 -19q1 -3 2 -7q0 -2 1 -4h-1q21 -45 66 -97q13 -16 11.5 -36.5t-17 -34t-36 -12t-34.5 16.5q-41 49 -66 94q-6 -7 -12 -13
q-52 -57 -64 -74t-32.5 -20.5t-37.5 8.5t-20.5 32.5t8.5 37.5zM457 913v0v0z" />
    <glyph glyph-name="Udieresis" unicode="&#xdc;" horiz-adv-x="683" 
d="M241 804q-22 19 -16 48q3 14 12.5 28t20.5 22q9 6 18 8q27 6 47 -13q9 -9 13 -21q2 -7 2.5 -14.5t-1.5 -14.5q-3 -13 -14 -33q-9 -19 -29 -25t-38 4q-9 4 -15 11zM459 915q10 0 20 -4q22 -9 32 -32q5 -13 3 -29q-1 -19 -12 -35q-3 -6 -8 -10q-9 -10 -21 -13q-26 -9 -48 8
q-13 11 -18 28t2 48q4 17 18 28t32 11zM201 677q-1 -18 -3 -39q-3 -25 -9 -74q-9 -74 -11 -111q-3 -59 3 -105q12 -80 35 -129q28 -60 76 -90q55 -35 94 -30q29 3 54 33q52 65 79 230q10 61 17 137q3 51 9 133q2 19 16 32.5t34 13.5h4q19 -2 32.5 -16.5t13.5 -33.5v-4v-2
q-1 -2 -2.5 -25t-3 -50t-2.5 -40q-1 -8 -2 -15v-6q-5 -92 -4 -163q1 -89 12 -146q11 -58 27 -75q15 -15 14.5 -36t-15.5 -35t-35.5 -14t-35.5 15q-30 31 -46 91q-15 -31 -34 -54q-51 -62 -121 -70q-73 -8 -158 45q-74 47 -114 133q-29 63 -42 156q-9 57 -5 126q2 40 12 118
q6 47 8 71q2 19 3 35q1 21 16.5 34.5t36.5 12.5t34.5 -17t12.5 -36z" />
    <glyph glyph-name="Yacute" unicode="&#xdd;" horiz-adv-x="634" 
d="M287 298q-5 4 -10 10q-8 9 -15 18q-88 133 -207 353q-10 18 -4 38t24 30t38 4t30 -24q107 -199 183 -315q2 0 4 1q16 20 32 45q23 34 63 106q0 1 1 2q35 64 55 95q33 54 66 92q14 16 34.5 17t36.5 -12.5t17 -34t-12 -36.5q-28 -32 -57 -79q-19 -29 -53 -90q0 -1 -1 -2
q-42 -76 -66 -113q-29 -45 -60 -78q1 -19 2 -40t3 -65q5 -98 5 -148q0 -21 -14.5 -35.5t-35.5 -14.5t-35.5 14.5t-14.5 35.5q0 47 -5 143l-3 66q0 9 -1 17zM255 825l8 8q0 1 1 2q59 69 93 102q14 15 35 15t35.5 -14.5t14.5 -35.5t-15 -35q-30 -31 -88 -98v-1q-5 -5 -8 -9
q-14 -15 -34.5 -16.5t-36 12t-17 34t11.5 36.5z" />
    <glyph glyph-name="Thorn" unicode="&#xde;" horiz-adv-x="585" 
d="M150 296q11 0 31 -1q40 -1 61 -1q109 0 174 24q53 20 66 48q10 21 -4 51q-16 36 -56 67t-85 42q-40 10 -101 4q-35 -3 -91 -15v-68q1 -68 5 -151zM62 37v1.5v1.5v12q0 19 -2 48q0 9 -1.5 34.5t-3 50.5t-1.5 28q-7 139 -9 232q-2 164 11 270q3 21 19.5 33.5t37 10t33 -19
t10.5 -36.5q-5 -39 -8 -85q44 8 78 12q78 8 135 -6q67 -17 125 -63t83 -103q33 -71 4 -134q-30 -66 -123 -100q-47 -17 -105 -24q-44 -6 -103 -6q-22 0 -63 1q-15 0 -24 1q4 -77 5 -91q1 -9 1 -17q0 -2 1 -4q0 -3 1 -5v-58q0 -21 -14.5 -35.5t-35.5 -14.5t-35.5 14.5
t-14.5 35.5v1v1q-1 3 -1 6v8z" />
    <glyph glyph-name="germandbls" unicode="&#xdf;" horiz-adv-x="566" 
d="M103 32q-1 14 -2 39v4.5t-0.5 7t-0.5 6.5v3q0 13 -1 22q-6 118 -6 195q0 210 38 311q41 109 131 134q79 23 156 -29q73 -48 95 -129q26 -94 -31 -175q-4 -6 -9 -12q2 -1 5 -3q75 -43 88 -137q9 -71 -20 -133q-24 -50 -73 -90q-36 -30 -86 -55q-14 -7 -27 -13
q-2 -1 -4.5 -2.5t-5.5 -3.5q-3 -1 -10 -4q-5 -3 -7 -4q-20 -13 -43 -5q-1 0 -3 1q-24 6 -34 30q-3 9 -3 18q0 15 8.5 28t23.5 19q37 14 60 26q40 19 67 42q68 56 57 132q-6 46 -38 65q-14 8 -31 9q-17 2 -54 -1q-31 -3 -48 -3q-20 0 -34.5 14.5t-14.5 35.5v1q0 20 14.5 34.5
t35.5 14.5h1q25 0 56.5 16t46.5 38q30 42 17 90q-13 45 -54 73q-39 26 -74 16q-41 -11 -64 -74q-32 -83 -32 -275q0 -74 6 -190q0 -9 1 -22v-3.5t0.5 -6t0.5 -7v-5.5q1 -24 2 -39q1 -21 -13 -36t-35 -16t-36 13t-16 35z" />
    <glyph glyph-name="agrave" unicode="&#xe0;" horiz-adv-x="531" 
d="M127 51h1q4 -1 9 -1q35 -1 98 22q64 23 149 68q-4 26 -5 61q-1 12 -2 37q-1 10 -1 19q-73 -12 -143 -66q-38 -29 -65.5 -62.5t-37.5 -61.5q-3 -10 -3 -16zM84 400q13 49 57 87.5t100 53.5q61 17 112 -1q62 -22 88 -86q20 -47 28 -108q5 -35 8 -104q1 -24 1 -35
q2 -36 6 -62q1 -2 3 -4q10 -18 4 -38q4 -18 10 -34q5 -2 9 -4q17 -12 21 -32.5t-7 -37.5q-7 -10 -14 -16q-9 -7 -18 -11q-16 -5 -31 -1q-13 3 -23 12q-6 5 -10 11t-8 15q-8 17 -14 34q-178 -92 -272 -89q-68 2 -95 50q-23 42 -3 99q14 43 50.5 88.5t85.5 83.5q94 71 194 86
q-6 32 -17 59q-10 23 -29 30q-22 7 -52 -1q-32 -9 -57 -29.5t-31 -41.5q-5 -20 -23 -30.5t-38 -5t-30.5 23.5t-4.5 38zM215 761l3 -3q3 -4 7 -8t6 -5q58 -60 91 -94q15 -14 15 -35t-14.5 -35.5t-35.5 -14.5t-35 15q-34 34 -93 94q-1 1 -5 5.5t-8 7.5l-3 3q-14 15 -14 35.5
t15 35t35.5 14.5t35.5 -15z" />
    <glyph glyph-name="aacute" unicode="&#xe1;" horiz-adv-x="531" 
d="M127 51h1q4 -1 9 -1q35 -1 98 22q64 23 149 68q-4 26 -5 61q-1 12 -2 37q-1 10 -1 19q-73 -12 -143 -66q-38 -29 -65.5 -62.5t-37.5 -61.5q-3 -10 -3 -16zM84 400q13 49 57 87.5t100 53.5q61 17 112 -1q62 -22 88 -86q20 -47 28 -108q5 -35 8 -104q1 -24 1 -35
q2 -36 6 -62q1 -2 3 -4q10 -18 4 -38q4 -18 10 -34q5 -2 9 -4q17 -12 21 -32.5t-7 -37.5q-7 -10 -14 -16q-9 -7 -18 -11q-16 -5 -31 -1q-13 3 -23 12q-6 5 -10 11t-8 15q-8 17 -14 34q-178 -92 -272 -89q-68 2 -95 50q-23 42 -3 99q14 43 50.5 88.5t85.5 83.5q94 71 194 86
q-6 32 -17 59q-10 23 -29 30q-22 7 -52 -1q-32 -9 -57 -29.5t-31 -41.5q-5 -20 -23 -30.5t-38 -5t-30.5 23.5t-4.5 38zM188 665q87 90 176 144q18 11 38 5.5t31 -23t5.5 -37.5t-22.5 -31q-78 -47 -156 -128q-14 -15 -35 -15t-36 14t-15 35t14 36z" />
    <glyph glyph-name="acircumflex" unicode="&#xe2;" horiz-adv-x="531" 
d="M127 51h1q4 -1 9 -1q35 -1 98 22q64 23 149 68q-4 26 -5 61q-1 12 -2 37q-1 10 -1 19q-73 -12 -143 -66q-38 -29 -65.5 -62.5t-37.5 -61.5q-3 -10 -3 -16zM84 400q13 49 57 87.5t100 53.5q61 17 112 -1q62 -22 88 -86q20 -47 28 -108q5 -35 8 -104q1 -24 1 -35
q2 -36 6 -62q1 -2 3 -4q10 -18 4 -38q4 -18 10 -34q5 -2 9 -4q17 -12 21 -32.5t-7 -37.5q-7 -10 -14 -16q-9 -7 -18 -11q-16 -5 -31 -1q-13 3 -23 12q-6 5 -10 11t-8 15q-8 17 -14 34q-178 -92 -272 -89q-68 2 -95 50q-23 42 -3 99q14 43 50.5 88.5t85.5 83.5q94 71 194 86
q-6 32 -17 59q-10 23 -29 30q-22 7 -52 -1q-32 -9 -57 -29.5t-31 -41.5q-5 -20 -23 -30.5t-38 -5t-30.5 23.5t-4.5 38z" />
    <glyph glyph-name="atilde" unicode="&#xe3;" horiz-adv-x="531" 
d="M127 51h1q4 -1 9 -1q35 -1 98 22q64 23 149 68q-4 26 -5 61q-1 12 -2 37q-1 10 -1 19q-73 -12 -143 -66q-38 -29 -65.5 -62.5t-37.5 -61.5q-3 -10 -3 -16zM84 400q13 49 57 87.5t100 53.5q61 17 112 -1q62 -22 88 -86q20 -47 28 -108q5 -35 8 -104q1 -24 1 -35
q2 -36 6 -62q1 -2 3 -4q10 -18 4 -38q4 -18 10 -34q5 -2 9 -4q17 -12 21 -32.5t-7 -37.5q-7 -10 -14 -16q-9 -7 -18 -11q-16 -5 -31 -1q-13 3 -23 12q-6 5 -10 11t-8 15q-8 17 -14 34q-178 -92 -272 -89q-68 2 -95 50q-23 42 -3 99q14 43 50.5 88.5t85.5 83.5q94 71 194 86
q-6 32 -17 59q-10 23 -29 30q-22 7 -52 -1q-32 -9 -57 -29.5t-31 -41.5q-5 -20 -23 -30.5t-38 -5t-30.5 23.5t-4.5 38zM67 628q29 58 56 89q31 37 68 46q23 6 49 0q18 -4 39 -14q12 -6 34 -19q25 -15 34 -20q6 -4 12 -7q29 -15 48 -7q4 2 7 5q4 7 4 20q0 21 14.5 35.5
t35.5 14.5t35.5 -14.5t14.5 -35.5q0 -41 -19.5 -72.5t-53.5 -45.5q-62 -25 -132 12q-7 3 -14 7q-9 5 -20 11q-4 3 -9 6l-4 2q-3 2 -4 3q-19 11 -28 15q-10 5 -16 7h-3t-1 -1q-2 0 -3 -1q-6 -4 -12 -12q-19 -21 -42 -68q-10 -19 -29.5 -25.5t-38 3t-25 29t2.5 37.5z" />
    <glyph glyph-name="adieresis" unicode="&#xe4;" horiz-adv-x="531" 
d="M127 51h1q4 -1 9 -1q35 -1 98 22q64 23 149 68q-4 26 -5 61q-1 12 -2 37q-1 10 -1 19q-73 -12 -143 -66q-38 -29 -65.5 -62.5t-37.5 -61.5q-3 -10 -3 -16zM261 691q3 -6 4 -13q1 -6 1 -13q0 -8 -2 -17q-4 -16 -11 -27q-5 -7 -11 -13q-8 -6 -17 -10q-18 -6 -35 1
q-16 6 -25 20q-1 3 -2 5q-6 4 -11 10q-18 22 -11 49q5 20 24 31q8 5 17 8h2q17 12 38 8q15 -3 25.5 -14t13.5 -25zM372 740q20 2 36.5 -8.5t22.5 -29.5q6 -15 3 -35q-2 -12 -7 -24q-4 -13 -11 -23q-8 -11 -19 -18q-15 -8 -33 -5.5t-31 16.5q-7 8 -11 19q-1 5 -2 11v1l-2 2
q-12 19 -8.5 39t19.5 34q5 4 10 7q14 14 33 14zM84 400q13 49 57 87.5t100 53.5q61 17 112 -1q62 -22 88 -86q20 -47 28 -108q5 -35 8 -104q1 -24 1 -35q2 -36 6 -62q1 -2 3 -4q10 -18 4 -38q4 -18 10 -34q5 -2 9 -4q17 -12 21 -32.5t-7 -37.5q-7 -10 -14 -16q-9 -7 -18 -11
q-16 -5 -31 -1q-13 3 -23 12q-6 5 -10 11t-8 15q-8 17 -14 34q-178 -92 -272 -89q-68 2 -95 50q-23 42 -3 99q14 43 50.5 88.5t85.5 83.5q94 71 194 86q-6 32 -17 59q-10 23 -29 30q-22 7 -52 -1q-32 -9 -57 -29.5t-31 -41.5q-5 -20 -23 -30.5t-38 -5t-30.5 23.5t-4.5 38z
" />
    <glyph glyph-name="aring" unicode="&#xe5;" horiz-adv-x="531" 
d="M127 51h1q4 -1 9 -1q35 -1 98 22q64 23 149 68q-4 26 -5 61q-1 12 -2 37q-1 10 -1 19q-73 -12 -143 -66q-38 -29 -65.5 -62.5t-37.5 -61.5q-3 -10 -3 -16zM299 699q-6 0 -12 -1h-3v-1q5 -1 11 0zM223 780q6 6 13 12q24 19 51 7q23 2 45 -3q40 -8 61 -35q30 -38 9 -87
q-24 -55 -77 -72q-49 -15 -92 9q-24 13 -37.5 34.5t-13.5 48.5t15 53q3 14 14 24q5 5 12 9zM84 400q13 49 57 87.5t100 53.5q61 17 112 -1q62 -22 88 -86q20 -47 28 -108q5 -35 8 -104q1 -24 1 -35q2 -36 6 -62q1 -2 3 -4q10 -18 4 -38q4 -18 10 -34q5 -2 9 -4
q17 -12 21 -32.5t-7 -37.5q-7 -10 -14 -16q-9 -7 -18 -11q-16 -5 -31 -1q-13 3 -23 12q-6 5 -10 11t-8 15q-8 17 -14 34q-178 -92 -272 -89q-68 2 -95 50q-23 42 -3 99q14 43 50.5 88.5t85.5 83.5q94 71 194 86q-6 32 -17 59q-10 23 -29 30q-22 7 -52 -1q-32 -9 -57 -29.5
t-31 -41.5q-5 -20 -23 -30.5t-38 -5t-30.5 23.5t-4.5 38z" />
    <glyph glyph-name="ae" unicode="&#xe6;" horiz-adv-x="938" 
d="M509 290q53 2 86 14q30 11 46 32q19 25 23 69q2 15 -2 24q-2 4 -6 7q-14 8 -43 -2q-39 -13 -67 -51q-30 -39 -37 -93zM353 199q-52 4 -77 5q-43 2 -68 -2q-22 -4 -30 -12q-6 -6 -7 -22q-2 -38 4 -61q3 -13 7 -18l1 -1v-1q70 -17 122 36q29 30 48 76zM75 414q27 54 73 84
q38 25 97 40q65 15 116.5 -5t81.5 -71q9 -13 15 -29l8 10q47 63 114 86q73 25 128 -8q31 -18 45.5 -51t10.5 -75q-14 -140 -134 -185q-42 -16 -100 -19q19 -30 54 -51q38 -22 83.5 -27t87.5 9q2 1 5 3q6 3 15 8q22 13 41 26q11 8 19 15q1 11 7 22q11 17 31 22.5t38 -5.5
q16 -10 23.5 -27t3.5 -36q-4 -17 -19 -34.5t-46 -38.5q-55 -38 -82 -48q-63 -23 -131.5 -16t-126.5 41q-61 36 -94 93q-25 -55 -62 -93q-45 -46 -101 -62.5t-117 -0.5q-35 9 -57 39q-16 21 -24 53q-9 37 -7 89q2 56 38 90q30 29 81 38q36 6 90 4q29 -1 95 -7h2q6 72 -19 114
q-13 21 -32 28q-23 10 -57 1q-43 -10 -66.5 -26t-39.5 -46q-9 -18 -28.5 -24.5t-38 3t-25 29t3.5 38.5z" />
    <glyph glyph-name="ccedilla" unicode="&#xe7;" horiz-adv-x="497" 
d="M377 383q-12 40 -29 60q-12 12 -24 15q-31 5 -76 -35q-52 -48 -85 -125q-34 -81 -25 -150q6 -52 38 -71q19 -10 45 -11q15 6 30 3q3 0 6 1q52 11 93 47.5t49 80.5q3 21 20 33t37.5 8.5t32.5 -20.5t8 -37q-13 -79 -80 -139q-61 -54 -139 -71q-9 -2 -17 -3q-1 -1 -1 -1.5
t-1 -1.5l-1 -1q0 -1 -1 -2l-2 -4l-1 -1q15 -1 27 -5q23 -6 39 -19q23 -18 29 -48q5 -25 -4 -55q-7 -25 -26 -45q-11 -13 -30 -26q-35 -25 -78 -34q-35 -7 -76 -4q-27 2 -61 9q-1 1 -9 2.5t-15 3.5t-9 2q-18 3 -29.5 17t-11.5 32q0 5 1 9q3 18 17 29.5t32 11.5h5h5
q10 0 19 -4q4 -1 5.5 -1.5t2.5 -0.5l4 -2l4 -1q58 -13 95 -5q23 5 41 18q15 10 18 16q-5 1 -12 2q-3 0 -11 1q-19 1 -29 3q-24 5 -39 17q-27 22 -23 58q2 19 14 41q-12 4 -23 11q-75 44 -88 145q-11 96 33 201q41 97 110 160q81 74 161 59q46 -8 81 -47q31 -36 50 -96
q6 -20 -4 -38.5t-29.5 -24.5t-38 4t-24.5 29z" />
    <glyph glyph-name="egrave" unicode="&#xe8;" horiz-adv-x="616" 
d="M167 323q82 3 135 22q35 12 51 29q15 15 15 37q0 17 -18 27q-53 28 -109 -15q-47 -36 -74 -100zM144 223q0 -46 19 -77q17 -28 49 -43q39 -18 100 -17q144 2 214 102q12 17 32.5 20.5t37.5 -8.5t20.5 -32.5t-8.5 -37.5q-100 -141 -294 -144q-169 -3 -236 108
q-57 93 -20 222q16 56 48 105t74 81q50 39 105.5 46t110.5 -21q33 -18 52.5 -49t19.5 -67q0 -63 -43 -107q-34 -34 -91 -54q-42 -15 -97 -22q-39 -4 -84 -6q-4 0 -9 1zM222 778q11 -10 30 -28q2 -2 5 -4l2 -2l2 -2q44 -41 65 -66q14 -16 12 -36.5t-18 -34t-36.5 -11.5
t-33.5 18q-17 20 -57 56l-2 2l-2 2l-4 4q-21 19 -33 32q-15 14 -15 35t14.5 35.5t35.5 14.5t35 -15z" />
    <glyph glyph-name="eacute" unicode="&#xe9;" horiz-adv-x="616" 
d="M167 323q82 3 135 22q35 12 51 29q15 15 15 37q0 17 -18 27q-53 28 -109 -15q-47 -36 -74 -100zM144 223q0 -46 19 -77q17 -28 49 -43q39 -18 100 -17q144 2 214 102q12 17 32.5 20.5t37.5 -8.5t20.5 -32.5t-8.5 -37.5q-100 -141 -294 -144q-169 -3 -236 108
q-57 93 -20 222q16 56 48 105t74 81q50 39 105.5 46t110.5 -21q33 -18 52.5 -49t19.5 -67q0 -63 -43 -107q-34 -34 -91 -54q-42 -15 -97 -22q-39 -4 -84 -6q-4 0 -9 1zM177 648q36 40 102 106l7 7l3 3l4 4q8 8 14 13q6 7 12 12q14 15 35 15t35.5 -14.5t14.5 -35.5t-15 -35
q-5 -6 -12 -13q-6 -5 -14 -13q0 -1 -1.5 -2t-1.5 -2q-3 -2 -4 -3l-7 -7q-63 -63 -96 -101q-14 -15 -34.5 -16.5t-36 12t-17 34t11.5 36.5z" />
    <glyph glyph-name="ecircumflex" unicode="&#xea;" horiz-adv-x="616" 
d="M167 323q82 3 135 22q35 12 51 29q15 15 15 37q0 17 -18 27q-53 28 -109 -15q-47 -36 -74 -100zM144 223q0 -46 19 -77q17 -28 49 -43q39 -18 100 -17q144 2 214 102q12 17 32.5 20.5t37.5 -8.5t20.5 -32.5t-8.5 -37.5q-100 -141 -294 -144q-169 -3 -236 108
q-57 93 -20 222q16 56 48 105t74 81q50 39 105.5 46t110.5 -21q33 -18 52.5 -49t19.5 -67q0 -63 -43 -107q-34 -34 -91 -54q-42 -15 -97 -22q-39 -4 -84 -6q-4 0 -9 1zM152 644q43 60 93 116q25 28 60 22q22 -3 42 -22q11 -10 24 -27q6 -9 19 -27q22 -33 28 -38
q16 -13 18.5 -33.5t-10.5 -36.5t-33.5 -18.5t-36.5 10.5q-13 10 -28 29q-7 10 -21 31q-7 10 -11 16q-34 -39 -64 -80q-12 -17 -32.5 -20.5t-37 9t-20 33t9.5 36.5z" />
    <glyph glyph-name="edieresis" unicode="&#xeb;" horiz-adv-x="616" 
d="M167 323q82 3 135 22q35 12 51 29q15 15 15 37q0 17 -18 27q-53 28 -109 -15q-47 -36 -74 -100zM144 223q0 -46 19 -77q17 -28 49 -43q39 -18 100 -17q144 2 214 102q12 17 32.5 20.5t37.5 -8.5t20.5 -32.5t-8.5 -37.5q-100 -141 -294 -144q-169 -3 -236 108
q-57 93 -20 222q16 56 48 105t74 81q50 39 105.5 46t110.5 -21q33 -18 52.5 -49t19.5 -67q0 -63 -43 -107q-34 -34 -91 -54q-42 -15 -97 -22q-39 -4 -84 -6q-4 0 -9 1zM416 654q-3 -18 -17 -30.5t-33 -12.5q-21 0 -35.5 14.5t-14.5 35.5v2v3v6q1 16 9 29q2 2 5 6l2 2l6 9
q11 17 31 21.5t37.5 -6.5t22 -31t-6.5 -38zM261 652q-2 -6 -4.5 -11t-5.5 -10q-9 -19 -28.5 -26t-38 2t-25.5 28.5t2 37.5q2 6 4.5 11t5.5 10q9 19 28.5 26t38 -2t25.5 -28.5t-2 -37.5z" />
    <glyph glyph-name="igrave" unicode="&#xec;" horiz-adv-x="211" 
d="M177 479q0 -63 -1 -162q-1 -35 -2 -84q-2 -160 -2 -175v-3v-3v-1v-8q0 -21 -14.5 -35.5t-35.5 -14.5t-35.5 14.5t-14.5 35.5v8v1v3v9v5v5v1v2q0 19 1 46q0 19 1 53v14v15q0 18 1 30q0 48 1 84q1 98 1 160q0 21 14.5 35.5t35.5 14.5t35.5 -14.5t14.5 -35.5zM93 757
q10 -8 23 -21q4 -4 8 -9q1 0 4 -3.5t4 -4.5q32 -33 49 -40q19 -7 27 -26t0.5 -38.5t-26.5 -27.5t-39 0q-24 9 -48 29q-14 12 -35 34l-4 4l-4 4l-7 7l-16 16q-16 13 -18 34t11.5 36.5t34.5 17.5t36 -12z" />
    <glyph glyph-name="iacute" unicode="&#xed;" horiz-adv-x="278" 
d="M177 479q0 -63 -1 -162q-1 -35 -2 -84q-2 -160 -2 -175v-3v-3v-1v-8q0 -21 -14.5 -35.5t-35.5 -14.5t-35.5 14.5t-14.5 35.5v8v1v3v9v5v5v1v2q0 19 1 46q0 19 1 53v14v15q0 18 1 30q0 48 1 84q1 98 1 160q0 21 14.5 35.5t35.5 14.5t35.5 -14.5t14.5 -35.5zM152 619
q-1 -1 -6 -5l-11 -11l-7 -7q-15 -14 -36 -14t-35 15t-14 36t15 35q3 3 7 6q4 5 11 11l6 6l6 6q32 31 53 49q31 28 60 48q17 11 37.5 7t32 -21t7.5 -37.5t-21 -32.5q-38 -25 -100 -85q-2 -2 -5 -6z" />
    <glyph glyph-name="icircumflex" unicode="&#xee;" horiz-adv-x="293" 
d="M177 479q0 -63 -1 -162q-1 -35 -2 -84q-2 -160 -2 -175v-3v-3v-1v-8q0 -21 -14.5 -35.5t-35.5 -14.5t-35.5 14.5t-14.5 35.5v8v1v3v9v5v5v1v2q0 19 1 46q0 19 1 53v14v15q0 18 1 30q0 48 1 84q1 98 1 160q0 21 14.5 35.5t35.5 14.5t35.5 -14.5t14.5 -35.5zM14 650
q79 107 111 131q16 11 31 15q23 5 43 -4q16 -8 28 -23q6 -9 12 -22q2 -4 6.5 -15t8.5 -22t5 -12q12 -30 27 -52q11 -17 7 -37.5t-21 -32t-37.5 -7.5t-32.5 21q-20 30 -36 70q-1 3 -6 15q-23 -27 -66 -85q-12 -16 -32.5 -19.5t-37 9t-20 33t9.5 37.5z" />
    <glyph glyph-name="idieresis" unicode="&#xef;" horiz-adv-x="276" 
d="M62 611q-10 -5 -22 -5q-21 0 -35.5 14.5t-14.5 35.5v3v1v3q0 4 1 7q1 8 4 15q6 12 18 20q10 7 22 9h13q2 -1 5 -1q1 -1 2.5 -1h2.5q3 -1 6 -1q21 -1 35 -16.5t13 -35.5t-15.5 -34t-34.5 -14zM276 669v-8q-1 -16 -10 -31q-6 -9 -15 -17q-12 -11 -26 -14q-26 -7 -46 9.5
t-19 43.5q1 7 3 13q-1 4 -1 8q0 19 12 32.5t30 16.5q27 15 53 -4q25 -18 19 -49zM177 479q0 -63 -1 -162q-1 -35 -2 -84q-2 -160 -2 -175v-3v-3v-1v-8q0 -21 -14.5 -35.5t-35.5 -14.5t-35.5 14.5t-14.5 35.5v8v1v3v9v5v5v1v2q0 19 1 46q0 19 1 53v14v15q0 18 1 30q0 48 1 84
q1 98 1 160q0 21 14.5 35.5t35.5 14.5t35.5 -14.5t14.5 -35.5z" />
    <glyph glyph-name="eth" unicode="&#xf0;" horiz-adv-x="504" 
d="M345 425q-12 1 -49 0h-1q-78 -3 -117 -59q-38 -53 -32 -127q7 -73 50 -113q45 -41 115 -23q80 19 92 86q13 69 -33 181q-11 26 -25 55zM87 639q16 12 41 35l21 21q-9 7 -16 13q-17 13 -19.5 33.5t10 37t33 19t36.5 -9.5q14 -11 29 -25q19 16 37 29q53 39 102 50
q20 4 37.5 -7t22 -31t-6.5 -37.5t-31 -22.5q-29 -6 -65 -33q-13 -9 -28 -21q23 -27 45 -57q46 -64 82 -130q23 -14 41 -38q20 -26 4 -54q0 -2 1 -3q57 -139 38 -237q-11 -63 -53.5 -105.5t-112.5 -60.5q-123 -30 -207 48q-72 66 -81 178q-10 110 49 193q67 95 191 101
q-16 25 -33 49q-18 25 -37 47q-15 -15 -21 -20q-28 -27 -49 -42q-17 -12 -37.5 -9t-32.5 19.5t-9 37t19 32.5z" />
    <glyph glyph-name="ntilde" unicode="&#xf1;" horiz-adv-x="516" 
d="M419 28q-10 34 -10 86q0 28 4 92q2 31 3 47q4 107 -16 154q-11 26 -30 39q-23 16 -63 19q-45 3 -93 -46q-38 -38 -47 -81v-294q0 -21 -14.5 -35.5t-35.5 -14.5t-35.5 14.5t-14.5 35.5v262q-2 7 -2 14q0 13 2 27v148q0 21 14.5 35.5t35.5 14.5q17 0 30 -10t18 -25
q72 61 150 55q131 -10 177 -119q18 -41 23 -97q3 -41 0 -100q0 -17 -2 -49q-4 -61 -4 -86q0 -38 6 -58t-4 -38t-30 -24t-38 4t-24 30zM117 654q1 1 7.5 10t8.5 11q23 29 44 44q38 25 81 17q9 -1 17 -6q3 -2 7 -4q3 -2 11 -8q17 -12 27 -18q18 -12 32 -17q6 -3 11 -4
q4 11 4 32t14.5 35.5t35.5 14.5t35.5 -14.5t14.5 -35.5q0 -41 -10 -69q-13 -34 -40 -50q-25 -16 -57 -14q-22 2 -46 12q-22 9 -48 25q-12 8 -31 22q-1 -1 -2 -1q-8 -6 -21 -23q-2 -1 -8.5 -10t-8.5 -11q-13 -16 -33.5 -18.5t-36.5 10.5t-18.5 33.5t10.5 36.5z" />
    <glyph glyph-name="ograve" unicode="&#xf2;" horiz-adv-x="540" 
d="M294 458q-29 -3 -58 -23q-55 -37 -86 -111q-32 -74 -18 -134q12 -58 68 -78q92 -33 159 16q62 46 79 133q16 86 -26 142q-38 52 -118 55zM291 558q43 3 85 -13l1 -1q72 -23 115 -81q33 -44 44.5 -102t-0.5 -118q-11 -60 -42 -111.5t-76 -84.5q-110 -80 -252 -29
q-53 19 -86.5 58t-45.5 93q-20 91 24 194q43 101 122 155q19 13 39 22q14 15 34 17q20 1 38 1zM206 784q4 -2 31.5 -15.5t33.5 -17.5q31 -16 53 -31q31 -22 47 -46q11 -17 7 -37.5t-21 -32t-37.5 -7.5t-32.5 21q-12 18 -62 45q-5 2 -33 16l-34 17q-18 10 -24 30t4 38t30 24
t38 -4z" />
    <glyph glyph-name="oacute" unicode="&#xf3;" horiz-adv-x="540" 
d="M294 458q-29 -3 -58 -23q-55 -37 -86 -111q-32 -74 -18 -134q12 -58 68 -78q92 -33 159 16q62 46 79 133q16 86 -26 142q-38 52 -118 55zM291 558q43 3 85 -13l1 -1q72 -23 115 -81q33 -44 44.5 -102t-0.5 -118q-11 -60 -42 -111.5t-76 -84.5q-110 -80 -252 -29
q-53 19 -86.5 58t-45.5 93q-20 91 24 194q43 101 122 155q19 13 39 22q14 15 34 17q20 1 38 1zM198 683q69 29 199 94q1 0 3 1l4 2l16 8q18 9 37.5 2.5t29 -25t3 -38t-25.5 -29.5q-5 -3 -15 -7q-6 -4 -7 -4q-133 -67 -206 -96q-19 -8 -38 0t-27 27t0 38t27 27z" />
    <glyph glyph-name="ocircumflex" unicode="&#xf4;" horiz-adv-x="540" 
d="M294 458q-29 -3 -58 -23q-55 -37 -86 -111q-32 -74 -18 -134q12 -58 68 -78q92 -33 159 16q62 46 79 133q16 86 -26 142q-38 52 -118 55zM291 558q43 3 85 -13l1 -1q72 -23 115 -81q33 -44 44.5 -102t-0.5 -118q-11 -60 -42 -111.5t-76 -84.5q-110 -80 -252 -29
q-53 19 -86.5 58t-45.5 93q-20 91 24 194q43 101 122 155q19 13 39 22q14 15 34 17q20 1 38 1zM133 581q-14 15 -13 35t15 34q0 1 1 1q2 3 3 4l13 13l40 40q5 4 9 7q25 24 42 38q11 9 20 14q7 5 14 7q5 2 11 3q10 2 20 0q23 -5 42 -25q10 -10 21 -27q3 -5 7 -12l2 -5
q3 -4 4 -5q10 -17 16 -24q2 -3 4 -5q19 -7 27 -26t0.5 -38.5t-26.5 -27.5t-39 0q-24 9 -44 34q-10 12 -24 35q-1 2 -4 7l-2 4l-1 1q-10 -9 -22 -20q-4 -4 -7 -8q-18 -17 -39 -37q-2 -3 -7 -8l-8 -8l-4 -4q-16 -14 -36.5 -13t-34.5 16z" />
    <glyph glyph-name="otilde" unicode="&#xf5;" horiz-adv-x="540" 
d="M294 458q-29 -3 -58 -23q-55 -37 -86 -111q-32 -74 -18 -134q12 -58 68 -78q92 -33 159 16q62 46 79 133q16 86 -26 142q-38 52 -118 55zM291 558q43 3 85 -13l1 -1q72 -23 115 -81q33 -44 44.5 -102t-0.5 -118q-11 -60 -42 -111.5t-76 -84.5q-110 -80 -252 -29
q-53 19 -86.5 58t-45.5 93q-20 91 24 194q43 101 122 155q19 13 39 22q14 15 34 17q20 1 38 1zM77 662q74 109 167 107q38 -1 77 -21q25 -12 58 -35l21 -16q11 -8 18 -12q4 -3 7 -5q2 5 4 11q6 20 24 30t38 4t30 -24t4 -38q-13 -45 -37 -67q-31 -28 -73 -19q-23 5 -52 24
q-8 6 -21 15l-2 2q-2 1 -4.5 3t-5.5 4t-5.5 3.5t-3.5 2.5q-51 37 -79 38q-16 0 -33 -10q-24 -16 -50 -53q-11 -17 -31.5 -21t-37.5 7.5t-21 32t8 37.5z" />
    <glyph glyph-name="odieresis" unicode="&#xf6;" horiz-adv-x="540" 
d="M294 458q-29 -3 -58 -23q-55 -37 -86 -111q-32 -74 -18 -134q12 -58 68 -78q92 -33 159 16q62 46 79 133q16 86 -26 142q-38 52 -118 55zM291 558q43 3 85 -13l1 -1q72 -23 115 -81q33 -44 44.5 -102t-0.5 -118q-11 -60 -42 -111.5t-76 -84.5q-110 -80 -252 -29
q-53 19 -86.5 58t-45.5 93q-20 91 24 194q43 101 122 155q19 13 39 22q14 15 34 17q20 1 38 1zM216 621q-11 -16 -31 -19.5t-37 7.5q-17 12 -21 32.5t7 37.5q2 2 4 5v1q2 3 3 4q3 5 6 9q7 8 16 13q8 4 16 5q3 1 7 2q7 1 12 2q21 4 38 -7t21.5 -31.5t-6.5 -37.5t-31 -22
q-2 0 -4 -1zM417 664q-2 -8 -4.5 -15t-5.5 -14q-6 -20 -25 -29t-38.5 -2.5t-28.5 25.5t-2 38q2 8 4.5 15t5.5 14q6 20 25 29t38.5 2.5t28.5 -25.5t2 -38z" />
    <glyph glyph-name="divide" unicode="&#xf7;" horiz-adv-x="623" 
d="M330 108q3 -1 5 -2q17 -10 24 -29q5 -13 3 -28q-4 -31 -31 -45q-22 -11 -44 -3q-17 7 -28 22q-11 16 -15 44q-4 20 8 37t33 20q27 5 45 -16zM85 307q127 -6 243 -1q168 7 224 35q18 9 37.5 2.5t29 -25t3 -38t-25.5 -29.5q-75 -37 -264 -45q-121 -5 -251 1q-21 1 -35 16.5
t-13 36t16.5 34.5t35.5 13zM365 476q11 -31 -13 -53q-3 -25 -24 -38q-12 -7 -22 -10q-8 -3 -16 -4q-14 -1 -26 5q-19 8 -27 26q-6 13 -5 27q1 13 8 26q10 17 26.5 31.5t35.5 20.5q20 7 38.5 -2.5t24.5 -28.5z" />
    <glyph glyph-name="oslash" unicode="&#xf8;" horiz-adv-x="646" 
d="M480 323q-122 -122 -201 -198q60 -8 113 30q56 40 79 108q10 31 9 60zM110 102q-22 25 -34 56q-34 88 11 190q42 96 127 147q61 37 127 37q15 8 31 5q78 -11 129 -51l22 22q22 22 40 39q14 15 35 15t35.5 -14.5t14.5 -35.5t-15 -35q-17 -18 -39 -40l-31 -31
q10 -23 10.5 -51.5t-3.5 -66.5t-4 -57q-33 -98 -116 -157q-94 -67 -203 -45q-28 6 -53 16q-32 -31 -66 -62q-16 -14 -36.5 -13t-34.5 16.5t-13 36t16 34.5q26 23 50 45zM380 424q-56 21 -114 -14t-88 -102q-28 -65 -9 -113q5 -13 14 -24q92 88 247 243q-8 5 -18 9
q-16 -5 -32 1z" />
    <glyph glyph-name="ugrave" unicode="&#xf9;" horiz-adv-x="487" 
d="M158 481q-63 -128 -31 -251q12 -48 37.5 -83.5t55.5 -48.5q24 -11 46 -3q27 9 51 45q28 43 46 113q3 23 8 44q1 4 2 7q15 88 15 203q0 21 14.5 35.5t35.5 14.5t35.5 -14.5t14.5 -35.5q0 -159 -27 -272q-5 -36 -4 -68q2 -60 22 -87q12 -17 8.5 -37t-20 -32.5t-37 -9
t-32.5 20.5q-12 15 -20 34q-35 -41 -80 -56q-59 -20 -118 6q-53 23 -92.5 76t-57.5 123q-41 159 38 320q9 18 28.5 25t38.5 -2t25.5 -29t-2.5 -38zM227 751q20 -13 47 -41q1 -1 3 -4q1 0 2 -1.5t2 -1.5q31 -33 45 -37q20 -6 30 -24t4 -38t-24 -30t-38 -4q-27 8 -53 29
q-14 12 -37 35l-2 2l-1 1q-2 2 -3 4q-20 20 -29 26q-18 12 -22 32t7.5 37.5t31.5 21.5t37 -7z" />
    <glyph glyph-name="uacute" unicode="&#xfa;" horiz-adv-x="487" 
d="M158 481q-63 -128 -31 -251q12 -48 37.5 -83.5t55.5 -48.5q24 -11 46 -3q27 9 51 45q28 43 46 113q3 23 8 44q1 4 2 7q15 88 15 203q0 21 14.5 35.5t35.5 14.5t35.5 -14.5t14.5 -35.5q0 -159 -27 -272q-5 -36 -4 -68q2 -60 22 -87q12 -17 8.5 -37t-20 -32.5t-37 -9
t-32.5 20.5q-12 15 -20 34q-35 -41 -80 -56q-59 -20 -118 6q-53 23 -92.5 76t-57.5 123q-41 159 38 320q9 18 28.5 25t38.5 -2t25.5 -29t-2.5 -38zM209 671q8 6 19 15q1 2 9.5 8.5t10.5 8.5q64 52 107 74q18 9 37.5 2.5t29 -25t3 -38t-25.5 -29.5q-32 -16 -88 -62
q-2 -1 -10 -8t-10 -8q-12 -10 -20 -16q-16 -13 -36.5 -10.5t-33.5 18.5t-10.5 36.5t18.5 33.5z" />
    <glyph glyph-name="ucircumflex" unicode="&#xfb;" horiz-adv-x="487" 
d="M158 481q-63 -128 -31 -251q12 -48 37.5 -83.5t55.5 -48.5q24 -11 46 -3q27 9 51 45q28 43 46 113q3 23 8 44q1 4 2 7q15 88 15 203q0 21 14.5 35.5t35.5 14.5t35.5 -14.5t14.5 -35.5q0 -159 -27 -272q-5 -36 -4 -68q2 -60 22 -87q12 -17 8.5 -37t-20 -32.5t-37 -9
t-32.5 20.5q-12 15 -20 34q-35 -41 -80 -56q-59 -20 -118 6q-53 23 -92.5 76t-57.5 123q-41 159 38 320q9 18 28.5 25t38.5 -2t25.5 -29t-2.5 -38zM153 647q30 40 77 92q19 20 33 34q7 7 12 11q4 3 7 5q15 11 22.5 12t27.5 -6q12 -5 15 -7.5t9 -14.5q1 -2 2 -3.5t2 -4.5
l2 -6q2 -4 4 -7q9 -21 18 -36q9 -17 16 -27q3 -5 5 -8l2 -2q16 -12 18.5 -32.5t-10 -37t-33 -19t-37.5 10.5q-14 10 -28 31q-9 14 -19 32q-40 -43 -63 -75q-13 -17 -33.5 -20.5t-37 9t-20 33t8.5 36.5z" />
    <glyph glyph-name="udieresis" unicode="&#xfc;" horiz-adv-x="487" 
d="M241 703q4 -4 7 -9q11 -16 10 -35q0 -14 -7 -27q-9 -17 -26 -25t-34.5 -3.5t-29.5 19.5q-4 6 -7 12q-11 12 -13 28q-3 19 7.5 34.5t28.5 20.5q14 8 29 6q22 -3 35 -21zM405 714q4 -3 6 -6q13 -16 12 -36q-1 -14 -8 -26q-4 -7 -10 -13q-7 -7 -17 -13t-20 -9q-12 -3 -23 -1
q-13 2 -23 10q-14 11 -19 28q-3 12 0 25q1 2 1 4v4q0 21 14.5 35.5t35.5 14.5q9 0 16 -1q21 -1 35 -16zM158 481q-63 -128 -31 -251q12 -48 37.5 -83.5t55.5 -48.5q24 -11 46 -3q27 9 51 45q28 43 46 113q3 23 8 44q1 4 2 7q15 88 15 203q0 21 14.5 35.5t35.5 14.5
t35.5 -14.5t14.5 -35.5q0 -159 -27 -272q-5 -36 -4 -68q2 -60 22 -87q12 -17 8.5 -37t-20 -32.5t-37 -9t-32.5 20.5q-12 15 -20 34q-35 -41 -80 -56q-59 -20 -118 6q-53 23 -92.5 76t-57.5 123q-41 159 38 320q9 18 28.5 25t38.5 -2t25.5 -29t-2.5 -38z" />
    <glyph glyph-name="yacute" unicode="&#xfd;" horiz-adv-x="473" 
d="M467 464q-34 -59 -67 -141q-21 -50 -57 -154v-1q-45 -129 -71 -191q-46 -106 -99 -181q-12 -17 -32.5 -20.5t-37.5 8.5t-20.5 32.5t8.5 37.5q47 66 89 162q6 15 11 28q-13 9 -19 24q-10 26 -27 64q-6 14 -16 34q-1 2 -8 17t-8 19q-22 47 -36 77q-49 117 -55 197
q-1 20 12.5 35.5t34 17t36 -12t17.5 -34.5q4 -62 47 -163q13 -29 34 -75q2 -3 9 -18t8 -17q10 -21 16 -36q1 -1 2 -3q5 14 10 31q1 0 1 1q37 106 58 158q36 89 74 154q10 18 30 23.5t38 -5t23.5 -30.5t-5.5 -38zM167 659q1 0 10 9t20 19.5t17 15.5q20 18 37 31q20 15 37 23
q25 12 48 12q21 0 35.5 -14.5t14.5 -35.5q0 -20 -14 -34.5t-35 -15.5q-2 -1 -6 -2q-9 -5 -21 -14q-13 -9 -29 -24q-7 -6 -27 -25l-19 -19q-15 -14 -36 -13t-35 16t-13 36t16 35z" />
    <glyph glyph-name="thorn" unicode="&#xfe;" horiz-adv-x="487" 
d="M174 217q23 -11 26 -37q9 -57 38 -85q14 -12 44 -6q56 12 86 86q30 77 17 167q-12 83 -50 108q-14 10 -31 7q-27 -5 -62 -34q-22 -19 -34 -39.5t-24 -59.5q-3 -8 -8 -16q-1 -33 -2 -70v-21zM167 25q-5 -148 -5 -207q0 -21 -14.5 -35.5t-35.5 -14.5t-35.5 14.5t-14.5 35.5
q0 63 7 251q4 107 5 171q4 149 -1 250q-6 124 -24 194q-6 20 4.5 38t30.5 23.5t38 -5t23 -30.5q22 -81 28 -215q2 2 5 4q56 47 110 56q56 10 103 -22q74 -50 93 -177q17 -116 -23 -218q-24 -59 -64 -97t-95 -50q-36 -8 -66 -2q-37 6 -66 34q-1 1 -3 2z" />
    <glyph glyph-name="ydieresis" unicode="&#xff;" horiz-adv-x="514" 
d="M175 723q34 7 57 -12q9 -6 13 -16q11 -19 4 -39q-6 -16 -20 -26q-6 -4 -13 -6q-8 -3 -19 -3q-10 0 -28 2q-21 3 -33.5 19.5t-10.5 36.5q3 19 17 31.5t33 12.5zM317 632q-15 5 -24 19t-8 31q2 21 18 34.5t36 11.5q8 -1 14 -3q29 14 53 -6q16 -13 18.5 -33.5t-10.5 -36.5
q-23 -29 -54 -30q-14 -1 -28 5q-7 2 -14 7zM35 -197q47 66 93 158q23 47 52 115q-46 115 -72 196q-40 121 -54 219q-4 20 8.5 36.5t33 20t37 -9t19.5 -33.5q14 -89 51 -202q15 -45 33 -96q35 80 65 137q59 115 126 195q13 16 33.5 18t36.5 -11.5t18 -34t-12 -36.5
q-60 -72 -114 -177q-33 -64 -90 -200l-2 -4q-50 -118 -80 -178q-48 -99 -100 -171q-12 -17 -32.5 -20.5t-37.5 8.5t-20.5 32.5t8.5 37.5z" />
    <glyph glyph-name="quoteleft" unicode="&#x2018;" horiz-adv-x="203" 
d="M150 585q15 -2 26 -11q16 -13 18.5 -34t-10.5 -37q-23 -28 -42 -41q-13 -9 -27 -13q-22 -5 -42 4q-18 9 -28 29q-6 11 -8 26q-2 18 2 44q7 44 28 92q24 56 54 84q15 14 35.5 13t34.5 -16t13.5 -36t-15.5 -35q-20 -18 -39 -69z" />
    <glyph glyph-name="quoteright" unicode="&#x2019;" horiz-adv-x="220" 
d="M52 664q0 2 1 5.5t2 6.5l1 4q7 22 25 36q8 6 25 14q33 15 60 8q35 -9 49 -44q7 -19 7 -46q-1 -19 -6 -42q-6 -36 -21 -79q-13 -35 -20 -49q-10 -19 -29.5 -25t-38 3.5t-24.5 29.5t3 38q1 1 1 2l4 8q4 12 9 26q7 21 13 40q-15 -4 -29 1q-20 6 -29.5 24.5t-2.5 38.5z" />
    <glyph glyph-name="quotedblleft" unicode="&#x201c;" horiz-adv-x="324" 
d="M171 656q-12 -13 -28 -41q-19 -31 -27 -57l-2 -8q20 3 36.5 -9t20.5 -32q3 -20 -9 -37t-32 -20q-34 -6 -59 2q-32 10 -47 38q-12 22 -11 51q0 20 8 44q10 35 32.5 74.5t44.5 62.5q14 16 34.5 16.5t36 -13.5t16 -35t-13.5 -36zM317 678q-17 -24 -28.5 -62.5t-12.5 -73.5
v-2q13 -3 22 -12q15 -14 16 -34.5t-13 -36.5q-9 -10 -20 -16q-14 -10 -31 -11q-20 -1 -37 10q-13 8 -21 22q-17 28 -16 83q2 50 17.5 101.5t41.5 88.5q12 17 32.5 20.5t37.5 -8.5t20.5 -32t-8.5 -37z" />
    <glyph glyph-name="quotedblright" unicode="&#x201d;" horiz-adv-x="349" 
d="M245 627q-14 -8 -30 -6q-21 2 -34 18t-11 37q4 34 20.5 59t43.5 35q30 10 58 -2.5t44 -40.5q27 -51 5 -125q-23 -78 -97 -168q-14 -16 -34.5 -18t-36.5 11.5t-18 34t12 36.5q60 72 78 129zM-2 499q47 61 61 116q-9 -2 -19 0q-21 3 -32.5 20t-8.5 37q6 32 19 54
q18 29 46 37q34 10 63 -13q19 -16 29 -44q17 -50 0 -117q-20 -74 -78 -150q-13 -17 -33.5 -19.5t-37 10t-19 33t9.5 36.5z" />
    <glyph glyph-name="Euro" unicode="&#x20ac;" horiz-adv-x="690" 
d="M79 490q35 -1 71 -1q14 74 48 129q46 75 120.5 102.5t168.5 1.5q69 -19 119.5 -68t69.5 -116q6 -20 -4 -38t-30 -24t-38 4t-24 30q-12 42 -44 73t-75 43q-65 17 -111 -1q-40 -16 -67 -59q-19 -31 -30 -74q10 0 21 1q43 1 65 2q82 2 140 0q21 -1 35 -16t13.5 -36t-16 -35
t-36.5 -13q-55 2 -133 0q-21 -1 -64 -2q-21 -1 -37 -2q-1 -20 1 -41q16 1 33 0q26 0 76 -1q67 -1 99 -1q21 0 35.5 -14.5t14.5 -35.5t-14.5 -35.5t-35.5 -14.5q-33 0 -101 1q-50 1 -75 1h-15q28 -99 82 -145q35 -29 75 -29q48 1 107 44q42 31 71 119q7 20 25.5 29t38 2.5
t29 -25t2.5 -38.5q-17 -52 -38 -88q-28 -50 -69 -79q-84 -62 -165 -63q-77 -2 -140 51q-87 74 -121 221q-50 -3 -95 -9q-20 -3 -36.5 9.5t-19.5 33t9.5 37t33.5 19.5q44 6 94 9q-2 21 -1 41q-33 0 -66 1q-21 1 -35 16t-13.5 36t16 35t36.5 13z" />
    <glyph glyph-name="uni3000" unicode="&#x3000;" horiz-adv-x="1000" 
 />
    <glyph glyph-name="uniF8FF" unicode="&#xf8ff;" horiz-adv-x="721" 
d="M484 18q-8 2 -25 7q-49 15 -70 10q-4 -1 -32 -16q-13 -7 -23 -11q-29 -14 -52 -15q-33 -3 -58 15q-11 3 -21 9q-62 34 -100 148q-22 65 -30 100q-13 56 -13 110q0 99 50 166q39 52 93 63q35 11 81 6q42 -5 86 -22q11 -1 22 0q1 1 2 1q2 0 5 1q6 2 16 6q4 1 23 8.5t21 8.5
q31 11 53 18q59 17 101 10q66 -9 92 -70q6 -14 3 -29q-1 -8 -5 -16q-3 -6 -9 -13q-4 -5 -12 -10q-1 -2 -2.5 -3t-3.5 -3q-1 0 -2 -1l-1 -1q-1 0 -1 -1q-39 -45 -45 -110.5t26 -111.5v-1q2 -1 5 -3q4 -4 16 -13q15 -11 21 -16t10 -9t7 -9q3 -4 5 -9q5 -10 5 -21
q0 -24 -18 -54q-11 -19 -30 -42q-33 -42 -59 -63q-44 -37 -98 -25q-16 3 -33 11zM368 678q2 5 6 17l3 12l6 12q5 11 20 29q28 35 57 59q14 12 27 19q19 11 37 12q21 1 37.5 -12t20.5 -35q3 -20 -8 -44q-13 -30 -53 -80q-27 -35 -68 -43q-3 -1 -5 -1q-22 -19 -50 -9
q-19 7 -28 25.5t-2 38.5z" />
  </font>
</defs>
</svg>
