<?xml version="1.0" standalone="no"?>
<!DOCTYPE svg PUBLIC "-//W3C//DTD SVG 1.1//EN" "http://www.w3.org/Graphics/SVG/1.1/DTD/svg11.dtd" >
<svg xmlns="http://www.w3.org/2000/svg" xmlns:xlink="http://www.w3.org/1999/xlink" version="1.1">
<metadata>
Created by FontForge 20160407 at Tue Nov 22 11:18:33 2016
 By Jimmy Wärting
</metadata>
<defs>
<font id="ArialBlack-Bold" horiz-adv-x="150" >
  <font-face 
    font-family="Arial Black"
    font-weight="700"
    font-stretch="normal"
    units-per-em="1000"
    panose-1="0 0 0 0 0 0 0 0 0 0"
    ascent="800"
    descent="-200"
    x-height="518"
    cap-height="715"
    bbox="-45 -210 1150 896"
    underline-thickness="50"
    underline-position="-105"
    unicode-range="U+0020-F002"
  />
<missing-glyph horiz-adv-x="900" 
d="M125 0v625h150h500v-625h-150h-500v0zM290 15h319v594h-319v-594v0z" />
    <glyph glyph-name=".notdef" horiz-adv-x="900" 
d="M125 0v625h150h500v-625h-150h-500v0zM290 15h319v594h-319v-594v0z" />
    <glyph glyph-name="glyph1" horiz-adv-x="0" 
 />
    <glyph glyph-name="glyph2" horiz-adv-x="277" 
 />
    <glyph glyph-name="space" unicode=" " horiz-adv-x="427" 
 />
    <glyph glyph-name="space" unicode="&#xa0;" horiz-adv-x="427" 
 />
    <glyph glyph-name="exclam" unicode="!" horiz-adv-x="427" 
d="M89 0v100h150h101v-100h-150h-101v0zM112 177l-27 380v158h150h109v-158l-25 -380h-150h-57v0z" />
    <glyph glyph-name="quotedbl" unicode="&#x22;" horiz-adv-x="504" 
d="M70 462l-25 136v117h150h100v-117l-21 -136h-150h-54v0zM231 462l-23 136v117h150h100v-117l-24 -136h-150h-53v0z" />
    <glyph glyph-name="numbersign" unicode="#" horiz-adv-x="706" 
d="M50 -12l42 207h-82v73h97l36 177h-133v73h148l42 210h150h73l-42 -210h4l42 210h150h74l-43 -210h85v-73h-99l-37 -177h136v-73h-150l-43 -207h-150h-73l42 207h-3l-43 -207h-150h-73v0zM330 268h3l37 177h-4l-36 -177v0z" />
    <glyph glyph-name="dollar" unicode="$" horiz-adv-x="706" 
d="M249 -103v88q-33 5 -60 12t-48 17q-20 11 -38 28t-33 41q-15 23 -24 52t-11 63l89 17h150q5 -36 14 -61.5t22 -42.5q18 -24 40.5 -37t48.5 -15h-150v279q-28 5 -55.5 15.5t-55.5 26.5q-21 12 -37.5 28.5t-27.5 36.5q-11 21 -17 44.5t-6 50.5q0 47 16.5 84.5t50.5 66.5
q22 20 55 32t77 16v42h150h51v-42q38 -4 69 -15t53 -30q29 -24 46 -57t23 -74l-91 -14h-150q-4 26 -12 46t-20 34q-13 14 -29.5 23t-38.5 13h150v-253q33 -9 55.5 -15t32.5 -11q21 -9 37.5 -20t29.5 -24t23 -28.5t17 -33.5t10.5 -37t3.5 -40q0 -46 -14.5 -84t-43.5 -68
q-29 -31 -66.5 -46.5t-84.5 -17.5v-90h-150h-51v0zM300 59q26 3 47.5 14t37.5 30q17 19 25 42.5t8 51.5q0 24 -5.5 43.5t-17.5 33.5q-12 15 -36 28t-59 24h150v-267h-150v0zM399 666q-26 -4 -46.5 -14t-34.5 -27q-15 -16 -22.5 -36t-7.5 -43q0 -22 6.5 -41t18.5 -34
q13 -15 34 -27t52 -21h-150v243h150v0z" />
    <glyph glyph-name="percent" unicode="%" horiz-adv-x="1039" 
d="M211 -26l392 754h150h71l-390 -754h-150h-73v0zM520 167q0 39 10 71.5t29 59.5q20 27 47.5 40.5t64.5 13.5h150q34 0 62 -12t50 -37q22 -24 33 -59t11 -82q0 -45 -11 -80t-34 -60q-22 -23 -49.5 -35t-60.5 -12l-150 -1q-32 1 -59 13t-49 35q-22 24 -33 60.5t-11 84.5v0z
M749 198q-1 -9 -1.5 -18.5t-0.5 -20.5v-16.5t1 -15.5q1 8 1.5 18.5t0.5 20.5v16.5t-1 15.5v0zM58 543q0 39 9.5 71.5t28.5 59.5q20 27 47.5 40.5t64.5 13.5h150q34 0 62 -12.5t50 -36.5t33 -59t11 -82q0 -45 -11 -80t-34 -60q-22 -25 -49.5 -37t-60.5 -12h-150q-32 0 -59 12
t-49 36q-22 25 -32.5 61t-10.5 85v0zM286 573q-1 -9 -1.5 -18t-0.5 -20v-16t1 -15q1 8 1.5 17.5t0.5 19.5v16.5t-1 15.5v0z" />
    <glyph glyph-name="ampersand" unicode="&#x26;" horiz-adv-x="816" 
d="M540 16q-1 -1 -2.5 -1.5t-2.5 -0.5q-1 -1 -2.5 -1.5t-2.5 -1.5q-25 -11 -53 -16.5t-58 -5.5l-150 -1q-55 1 -98.5 19t-75.5 55q-27 30 -40 64t-13 71q0 33 11 63t32 57q22 26 53.5 50t74.5 44q-24 28 -40.5 50.5t-24.5 39.5q-7 17 -11.5 34t-4.5 33q0 32 13 60t38 52
q26 24 57.5 36t69.5 12h150q37 0 67 -11t53 -34q23 -22 35 -49t12 -59q0 -51 -34 -95t-102 -80l129 -163h-150q11 21 19.5 46t14.5 53h150l91 -19q-12 -47 -27.5 -85.5t-35.5 -68.5q24 -33 52.5 -60.5t59.5 -49.5l-60 -69h-150q-6 4 -11.5 8t-10.5 8q-5 3 -10.5 7.5
t-11.5 8.5v0zM419 153l-103 127q0 -1 -0.5 -1.5l-1.5 -1.5l-1.5 -1.5t-0.5 -1.5q-13 -18 -19 -36t-6 -36q0 -22 9 -44.5t26 -45.5q5 -7 11.5 -13.5t13.5 -11.5q1 0 1.5 0.5l1.5 1.5l0.5 0.5t1.5 0.5q21 12 37.5 28t29.5 35v0zM382 540q2 8 3.5 16t1.5 16q0 11 -1.5 20
t-5.5 17q-4 -7 -5.5 -15.5t-1.5 -17.5q0 -8 2 -17t6 -18v0v0q0 -1 0.5 -1h0.5v0z" />
    <glyph glyph-name="quotesingle" unicode="'" horiz-adv-x="340" 
d="M66 462l-23 134v119h150h101v-119l-24 -134h-150h-54v0z" />
    <glyph glyph-name="parenleft" unicode="(" horiz-adv-x="483" 
d="M233 -210q-36 47 -66.5 100.5t-56.5 113.5q-25 62 -37.5 125.5t-12.5 129.5q0 58 9.5 113.5t28.5 108.5q11 31 25 62t31 62q16 30 36 61t43 62h150h63q-30 -51 -49.5 -87.5t-28.5 -57.5q-15 -34 -27 -69.5t-20 -71.5q-10 -46 -15.5 -91.5t-5.5 -92.5q0 -78 16 -156
t49 -155q16 -39 36.5 -78t44.5 -78l-150 -1h-63v0z" />
    <glyph glyph-name="parenright" unicode=")" horiz-adv-x="483" 
d="M99 -210h-63q24 40 44.5 79t36.5 78q32 77 48.5 155t16.5 156q0 46 -5 91.5t-16 90.5q-8 37 -19.5 72t-26.5 69q-10 22 -29.5 58.5t-49.5 88.5h150h63q23 -31 43 -62t37 -61q17 -31 31 -62t25 -62q18 -53 27.5 -108.5t9.5 -113.5q0 -66 -12 -129.5t-38 -125.5
q-25 -60 -56 -113.5t-67 -99.5l-150 -1v0z" />
    <glyph glyph-name="asterisk" unicode="*" horiz-adv-x="539" 
d="M31 584l22 69h150q18 -6 34 -12t29 -12q15 7 31.5 13t33.5 11h150l23 -69q-31 -10 -62 -17t-60 -10q15 -13 36 -36.5t48 -56.5l-59 -41h-150q-14 19 -30.5 45t-36.5 60h150q-18 -34 -33.5 -60.5t-29.5 -44.5h-150l-58 41q29 35 49 58t32 35q-31 6 -61 13t-58 14v0z" />
    <glyph glyph-name="plus" unicode="+" horiz-adv-x="733" 
d="M250 115v197h-195v82h195v194h150h83v-194h195v-82h-195v-197h-150h-83v0z" />
    <glyph glyph-name="comma" unicode="," horiz-adv-x="427" 
d="M88 0v100h150h100v-100q0 -26 -4.5 -48.5t-14.5 -39.5t-25.5 -30t-36.5 -22l-150 -1l-24 37q14 8 24 17t17 20q6 12 9.5 29t4.5 38h-50v0z" />
    <glyph glyph-name="hyphen" unicode="-" horiz-adv-x="483" 
d="M31 214v89h150h270v-89h-150h-270v0z" />
    <glyph glyph-name="period" unicode="." horiz-adv-x="427" 
d="M90 0v100h150h100v-100h-150h-100v0z" />
    <glyph glyph-name="slash" unicode="/" horiz-adv-x="427" 
d="M0 -12l207 740h150h70l-207 -740h-150h-70v0z" />
    <glyph glyph-name="zero" unicode="0" horiz-adv-x="706" 
d="M41 353q0 63 6.5 114t19.5 90q14 38 33 68t45 51t58 31.5t71 10.5h150q29 0 54.5 -5.5t46.5 -17.5q22 -11 40 -28t32 -39t25.5 -48t19.5 -58q8 -31 12 -73.5t4 -95.5q0 -63 -6.5 -114t-19.5 -90q-13 -38 -32 -68t-45 -51q-26 -22 -58.5 -31.5t-72.5 -9.5l-150 -1
q-52 1 -92.5 19t-69.5 55q-36 44 -53.5 117t-17.5 174v0zM281 353q0 -88 10.5 -147t31.5 -88q6 -9 12.5 -16.5t13.5 -13.5q8 6 14.5 13.5t12.5 16.5q21 29 31 88t10 147t-10 147t-31 87q-6 9 -13 17t-15 14q-5 -5 -10.5 -11t-10.5 -13q-23 -33 -34.5 -93t-11.5 -148v0z" />
    <glyph glyph-name="one" unicode="1" horiz-adv-x="706" 
d="M372 0h-88v464q-7 -3 -13.5 -5.5t-12.5 -4.5h-150v85q38 17 70 38t59 46q28 24 47.5 48t30.5 47h150h57v-718h-150v0z" />
    <glyph glyph-name="two" unicode="2" horiz-adv-x="706" 
d="M653 84v-84h-150h-473v15.5t2 15.5q1 7 3 15t5 15q9 24 23.5 48t34.5 47t49 50t66 58q59 48 98 86t60 66q20 28 30.5 54t10.5 51q0 26 -9.5 48.5t-28.5 40.5q-5 5 -11 9l-12 8q-7 -4 -13.5 -9t-12.5 -11q-19 -19 -28.5 -45t-9.5 -60h-150l-91 9q5 51 22.5 89.5t47.5 64.5
q31 27 71.5 40t91.5 13h150q51 0 92 -14t71 -43q30 -28 45 -63.5t15 -77.5q0 -22 -4.5 -43t-13.5 -42q-8 -21 -23 -42.5t-35 -44.5t-54 -54.5t-81 -71.5q-40 -34 -65.5 -56.5t-36.5 -33.5q-11 -12 -20 -24t-17 -24h351v0z" />
    <glyph glyph-name="three" unicode="3" horiz-adv-x="706" 
d="M41 188l88 12h150q8 -37 21 -64t31 -43q4 -4 7.5 -7t7.5 -5q8 5 15 10t13 12q22 21 32.5 48t10.5 58q0 30 -10 55.5t-30 44.5q-19 20 -44 29.5t-56 9.5h150q-13 0 -28.5 -2.5t-33.5 -7.5h-150l10 78h150q4 -1 7.5 -1h6.5h-150q28 0 53.5 7t47.5 22q23 14 34 36.5t11 53.5
q0 24 -8 44t-25 36l-4.5 4.5t-5.5 3.5q-1 -1 -2.5 -2t-2.5 -2t-2.5 -2t-2.5 -2q-17 -16 -28 -40.5t-16 -56.5h-150l-88 16q8 44 26.5 78t47.5 59q29 24 64 36t78 12h150q29 0 56 -6t52 -19q24 -13 43 -30t32 -38q13 -22 19.5 -45t6.5 -48q0 -23 -6 -44t-19 -40
q-12 -19 -30.5 -34.5t-43.5 -26.5q32 -7 57 -22.5t42 -38.5q18 -22 26.5 -51t8.5 -64q0 -47 -17 -87t-51 -72t-77 -47.5t-96 -15.5l-150 -1q-47 1 -86 14t-70 41t-49 64.5t-23 80.5v0z" />
    <glyph glyph-name="four" unicode="4" horiz-adv-x="706" 
d="M323 0v171h-311v80l327 464h150h72v-464h96v-80h-96v-171h-150h-88v0zM323 251v107l-74 -107h74v0z" />
    <glyph glyph-name="five" unicode="5" horiz-adv-x="706" 
d="M41 187l92 8h150q5 -34 17 -59.5t31 -42.5l8 -6l8 -6q8 5 16 12t15 14q23 24 33.5 56t10.5 71q0 38 -10.5 67.5t-31.5 51.5q-7 8 -15.5 14.5t-18.5 11.5l-0.5 -0.5l-0.5 -0.5q-1 0 -1.5 -0.5l-0.5 -0.5q-17 -10 -30.5 -22t-23.5 -28h-150l-82 11l69 368h150h356v-84h-286
l-38 -193h-150q32 23 65.5 34t69.5 11h150q47 0 86.5 -16.5t71.5 -48.5t48.5 -74t16.5 -93q0 -49 -14 -91t-43 -77q-34 -43 -81.5 -64t-106.5 -21l-150 -1q-49 1 -88.5 14t-70.5 40t-48.5 63.5t-22.5 81.5v0z" />
    <glyph glyph-name="six" unicode="6" horiz-adv-x="706" 
d="M647 540l-87 -7h-150q-6 26 -14.5 44.5t-19.5 30.5q-3 4 -6.5 7t-7.5 6q-20 -16 -36 -37t-27 -50q-6 -15 -10.5 -32.5t-7.5 -38.5q2 0 4 0.5t5 0.5h4h4h150q44 0 81.5 -16.5t68.5 -48.5t46.5 -74t15.5 -93q0 -34 -7.5 -65t-21.5 -60q-15 -29 -34.5 -51t-45.5 -38
q-25 -14 -54 -21.5t-61 -7.5l-150 -1q-55 1 -100 20.5t-80 59.5q-34 41 -51.5 107.5t-17.5 158.5q0 104 19 179.5t58 122.5q33 41 78 61.5t102 20.5h150q42 0 76.5 -12t61.5 -35q27 -24 43.5 -56.5t21.5 -74.5v0zM288 231q0 -22 5 -44t14 -42q9 -19 21.5 -34.5t28.5 -26.5
q6 4 12 9t11 11q20 23 30 53.5t10 69.5q0 37 -10 66t-30 50l-12 12t-13 10q-3 -2 -6 -4.5t-6 -5.5q-4 -3 -7 -6l-6 -6q-21 -21 -31.5 -49t-10.5 -63v0z" />
    <glyph glyph-name="seven" unicode="7" horiz-adv-x="706" 
d="M47 622v84h150h463v-68q-34 -37 -67.5 -85t-67.5 -109q-34 -60 -60 -122t-44 -126q-13 -45 -21.5 -94t-12.5 -102h-150h-90q1 42 9 93t24 111q16 59 39 117t52 113q30 56 61.5 103t64.5 85h-350v0z" />
    <glyph glyph-name="eight" unicode="8" horiz-adv-x="706" 
d="M176 388q-27 10 -47 24t-34 33q-13 19 -19.5 41t-6.5 48q0 39 14 72t42 59q28 27 65.5 40t83.5 13h150q47 0 85 -13.5t66 -40.5q29 -27 43 -60.5t14 -72.5q0 -25 -6 -46.5t-20 -39.5q-13 -19 -33 -33t-46 -24q33 -11 58 -28.5t42 -41.5t26 -52.5t9 -61.5
q0 -46 -16.5 -84.5t-48.5 -69.5q-33 -31 -75.5 -46t-95.5 -15l-150 -1q-53 1 -96 16t-75 46q-32 32 -48.5 71t-16.5 86q0 35 9 64t26 52q18 24 43.5 40t57.5 25v0zM280 206q0 -19 4.5 -37t13.5 -36q9 -17 22.5 -30.5t30.5 -23.5h0.5h0.5v-1v0q8 5 15 10t14 12q20 20 30.5 46
t10.5 57q0 32 -10.5 58t-31.5 47q-7 7 -15 13t-16 10q-7 -4 -14 -9.5t-14 -12.5q-20 -21 -30.5 -46.5t-10.5 -56.5v0zM309 537q0 -25 8 -46t24 -37l4.5 -4.5t5.5 -4.5l2 2t3 2l2 2l2 2q16 17 24 36.5t8 42.5q0 24 -8 44.5t-25 36.5l-2 2l-2 2q-2 1 -3 2l-2 2l-2 -2t-2 -1
l-2 -2l-2 -2q-16 -16 -24.5 -35t-8.5 -42v0z" />
    <glyph glyph-name="nine" unicode="9" horiz-adv-x="706" 
d="M54 165l85 8h150q5 -30 15 -51.5t26 -35.5q1 0 1.5 -0.5l1.5 -1.5q0 -1 0.5 -1.5t1.5 -0.5q14 9 24 20.5t19 25.5q10 15 18 36t15 47l2 8l2 8t1.5 8t1.5 8q-4 -1 -7.5 -1h-7.5h-150q-44 0 -81.5 16.5t-68.5 48.5t-46.5 74.5t-15.5 95.5q0 54 16 98t48 77t72.5 49.5
t88.5 16.5h150q35 0 67 -9t61 -28t51 -46t37 -62q15 -34 22.5 -84.5t7.5 -116.5q0 -68 -7.5 -122.5t-22.5 -95.5t-37 -72t-52 -52q-29 -22 -63.5 -31.5t-74.5 -9.5l-150 -1q-42 1 -76 12t-61 34q-26 23 -42.5 56t-21.5 75v0zM414 481q0 38 -10 68t-30 52q-5 6 -11 11.5
t-12 9.5q-7 -5 -13.5 -11t-12.5 -13q-22 -24 -33 -55t-11 -69q0 -34 10.5 -62t31.5 -49q6 -7 12.5 -12t13.5 -10q8 5 14 10t12 12q20 21 29.5 50.5t9.5 67.5v0z" />
    <glyph glyph-name="colon" unicode=":" horiz-adv-x="427" 
d="M90 0v100h150h100v-100h-150h-100v0zM90 418v100h150h100v-100h-150h-100v0z" />
    <glyph glyph-name="semicolon" unicode=";" horiz-adv-x="427" 
d="M88 0v100h150h100v-100q0 -26 -4.5 -48.5t-14.5 -39.5t-25.5 -30t-36.5 -22l-150 -1l-24 37q14 8 24 17t17 20q6 12 9.5 29t4.5 38h-50v0zM88 418v100h150h100v-100h-150h-100v0z" />
    <glyph glyph-name="less" unicode="&#x3c;" horiz-adv-x="733" 
d="M54 312v83l474 200h150v-88l-376 -154l376 -156v-87h-150l-474 202v0z" />
    <glyph glyph-name="equal" unicode="=" horiz-adv-x="733" 
d="M528 203h-473v82h150h473v-82h-150v0zM528 420h-473v82h150h473v-82h-150v0z" />
    <glyph glyph-name="greater" unicode="&#x3e;" horiz-adv-x="733" 
d="M678 312l-474 -202h-150v87l376 156l-376 154v88h150l474 -200v-83v0z" />
    <glyph glyph-name="question" unicode="?" horiz-adv-x="706" 
d="M225 0v100h150h100v-100h-150h-100v0zM230 176q-1 8 -1 15v11q0 26 4 48t11 41q5 14 14 28.5t21 29.5q9 11 25 26t38 35q23 20 37.5 36t21.5 28t10.5 25t3.5 27q0 26 -10 48.5t-30 41.5q-5 5 -11 10t-13 9l-2.5 -2.5t-3.5 -2.5q-3 -2 -6 -4.5t-6 -5.5q-19 -17 -31 -44.5
t-18 -65.5h-150l-91 11q7 50 25 88.5t48 64.5q30 27 70 40.5t89 13.5h150q53 0 95 -14.5t73 -43.5q32 -28 47 -62.5t15 -75.5q0 -23 -5.5 -44.5t-16.5 -41.5q-10 -20 -32 -44t-54 -52q-21 -19 -35 -33.5t-21 -23.5q-6 -9 -11 -19t-8 -22t-5 -31t-3 -45h-150h-84v0z" />
    <glyph glyph-name="at" unicode="@" horiz-adv-x="1165" 
d="M612 6q-11 -4 -22.5 -5t-23.5 -1l-150 -1q-7 1 -14 1t-14 1q-14 3 -28 8.5t-28 13.5q-20 13 -37 32.5t-30 46.5q-13 26 -19 55t-6 60q0 39 10 78t30 78q10 19 20.5 35.5t22.5 31.5q-24 -47 -35.5 -98.5t-11.5 -105.5q0 -59 13 -110.5t39 -95.5q26 -41 63.5 -73t86.5 -52
q34 -14 70 -24t74 -14q40 5 74.5 15t64.5 24q43 22 75 48t54 55h150h89q-13 -24 -34.5 -50t-51.5 -53q-30 -26 -66 -47t-78 -37t-92 -23.5t-109 -7.5l-150 -1q-54 1 -104 8t-96 21q-46 13 -85 34t-71 50q-32 28 -56 60t-41 66q-21 47 -31 96.5t-10 103.5q0 59 12 116t37 111
q29 66 71.5 116.5t97.5 85.5t121 53t145 18h150q60 0 114.5 -12.5t102.5 -37.5t86 -61.5t66 -86.5q24 -42 36 -87.5t12 -95.5q0 -71 -25 -134t-75 -118q-45 -49 -93 -72.5t-101 -23.5l-150 -1q-15 1 -27 2t-22 5v0zM480 211q0 -33 8 -59t24 -45l0.5 -0.5l1.5 -1.5l1.5 -1.5
l0.5 -0.5q9 7 17.5 14.5t16.5 17.5q14 17 25 37t20 45t13.5 49.5t4.5 49.5q0 34 -8 59.5t-25 43.5l-2 2t-2 3l-2 2l-2 2q-9 -7 -18 -17t-17 -22q-13 -17 -23 -38.5t-18 -46.5t-12 -48.5t-4 -44.5v0z" />
    <glyph glyph-name="A" unicode="A" horiz-adv-x="816" 
d="M-1 0l274 715h150h102l293 -715h-150h-108l-83 216h-150l-78 -216h-150h-100v0zM355 293h92l-46 124l-46 -124v0z" />
    <glyph glyph-name="B" unicode="B" horiz-adv-x="816" 
d="M73 0v715h150h268q41 0 74 -5t58 -16t44.5 -27.5t33.5 -39.5q14 -22 21 -46t7 -49q0 -22 -6.5 -44t-18.5 -42q-13 -20 -31.5 -36.5t-43.5 -29.5q32 -9 57 -25.5t42 -39.5q18 -22 26.5 -49t8.5 -59q0 -25 -5 -48.5t-16 -44.5q-10 -22 -23.5 -39t-28.5 -28
q-16 -12 -35.5 -21t-43.5 -15q-23 -6 -52 -8.5t-63 -2.5h-150h-273v0zM317 84h29q23 0 39 1t25 2q17 3 30.5 8t24.5 12t20 17t16 23t10.5 28t3.5 32q0 20 -5 37.5t-15 32.5q-10 14 -24.5 24.5t-32.5 16.5q-19 6 -44.5 9t-60.5 3h-16v-246v0zM317 415h5q32 0 54.5 2t36.5 6
q18 5 31.5 14t22.5 21q9 13 13.5 28.5t4.5 34.5q0 18 -4 34t-13 29q-8 14 -20 23t-29 14q-15 5 -40.5 7.5t-61.5 2.5v-216v0z" />
    <glyph glyph-name="C" unicode="C" horiz-adv-x="872" 
d="M737 250l95 -23q-15 -58 -41.5 -103t-65.5 -75q-39 -31 -86 -45.5t-103 -14.5l-150 -1q-58 1 -105 12t-84 34q-36 24 -63.5 58t-46.5 79q-19 44 -28.5 92t-9.5 100q0 56 11 104.5t32 90.5q22 41 52 73t70 53q39 22 82.5 33t90.5 11h150q54 0 99 -14t82 -41
q37 -28 62.5 -66t39.5 -88l-93 -22h-150q-13 39 -31 67.5t-42 46.5q-10 8 -21.5 14.5t-25.5 10.5q-16 -5 -31 -12t-29 -17q-28 -19 -47.5 -46t-30.5 -60q-11 -34 -16.5 -68.5t-5.5 -69.5q0 -46 7 -85.5t20 -73.5t33.5 -59.5t48.5 -42.5q11 -7 23 -12l24 -10q17 6 32 14.5
t28 19.5q27 23 45.5 57t28.5 79h150v0z" />
    <glyph glyph-name="D" unicode="D" horiz-adv-x="872" 
d="M77 0v715h150h246q42 0 74 -2.5t54 -7.5q30 -7 56.5 -20t48.5 -31q28 -24 49.5 -54.5t34.5 -68.5q14 -37 21 -79.5t7 -90.5q0 -40 -4.5 -76t-14.5 -68q-9 -31 -21.5 -57.5t-26.5 -46.5q-15 -21 -31.5 -37.5t-34.5 -27.5q-17 -12 -38.5 -21t-46.5 -15t-54 -9t-61 -3h-150
h-258v0zM321 84h3q35 0 63 3t48 10t36.5 16t28.5 21q17 17 29.5 40t22.5 51q10 29 14.5 63.5t4.5 74.5q0 56 -9 99t-28 73q-19 31 -41.5 51t-48.5 30q-19 8 -49.5 11.5t-72.5 3.5h-1v-547v0z" />
    <glyph glyph-name="E" unicode="E" horiz-adv-x="816" 
d="M79 0v715h150h517v-84h-423v-219h396v-84h-396v-244h440v-84h-150h-534v0z" />
    <glyph glyph-name="F" unicode="F" horiz-adv-x="760" 
d="M82 0v715h150h482v-84h-388v-222h336v-84h-336v-325h-150h-94v0z" />
    <glyph glyph-name="G" unicode="G" horiz-adv-x="927" 
d="M412 280v84l303 1h150v-266q-35 -28 -71 -49t-73 -35q-37 -13 -75 -19.5t-78 -6.5l-150 -1q-52 1 -100 11.5t-91 32.5q-43 23 -75.5 55.5t-54.5 75.5t-33 91t-11 100q0 53 10.5 101.5t32.5 93.5q23 45 54 79t72 56t88.5 33t100.5 11h150q39 0 74.5 -6.5t66.5 -19.5
q31 -12 55.5 -29.5t42.5 -40.5q18 -22 31.5 -51.5t22.5 -65.5l-85 -23h-150q-8 27 -18 48.5t-22 37.5q-12 15 -29 27.5t-40 22.5q-7 3 -13.5 5.5t-14.5 3.5q-9 -1 -17 -4l-16 -6q-23 -10 -42.5 -23t-33.5 -29t-25.5 -33.5t-19.5 -37.5q-14 -34 -21 -70t-7 -74q0 -48 8.5 -88
t24.5 -72q17 -32 41 -56t55 -40q14 -7 29 -12.5t30 -9.5q11 3 22.5 6.5t22.5 7.5q29 12 51.5 25t37.5 26v133h-210v0z" />
    <glyph glyph-name="H" unicode="H" horiz-adv-x="872" 
d="M78 0v715h150h95v-294h222v294h150h95v-715h-150h-95v337h-222v-337h-150h-95v0z" />
    <glyph glyph-name="I" unicode="I" horiz-adv-x="427" 
d="M93 0v715h150h94v-715h-150h-94v0z" />
    <glyph glyph-name="J" unicode="J" horiz-adv-x="650" 
d="M28 203l86 11h150q2 -40 9.5 -68.5t21.5 -43.5l0.5 -0.5l0.5 -0.5l0.5 -0.5l0.5 -0.5q7 7 12 15t8 18q5 14 7.5 36t2.5 53v493h150h95v-487q0 -45 -5.5 -80t-16.5 -60q-10 -25 -27.5 -43.5t-41.5 -31.5q-23 -12 -50.5 -18t-59.5 -6l-150 -1q-47 1 -83 13.5t-62 39.5
q-25 28 -37 68t-11 94v0z" />
    <glyph glyph-name="K" unicode="K" horiz-adv-x="816" 
d="M73 0v715h150h94v-205l206 205h150h128l-300 -290l314 -425h-150h-125l-194 276l-29 -28v-248h-150h-94v0z" />
    <glyph glyph-name="L" unicode="L" horiz-adv-x="706" 
d="M73 0v715h150h94v-631h353v-84h-150h-447v0z" />
    <glyph glyph-name="M" unicode="M" horiz-adv-x="983" 
d="M74 0v715h150h142l130 -388l133 388h150h128v-715h-150h-91v167l-58 -167h-150h-86l-57 168v-168h-150h-91v0z" />
    <glyph glyph-name="N" unicode="N" horiz-adv-x="872" 
d="M76 0v715h150h97l226 -338v338h150h91v-715h-150h-98l-226 338v-338h-150h-90v0z" />
    <glyph glyph-name="O" unicode="O" horiz-adv-x="927" 
d="M48 348q0 89 24 159t72 120q47 50 109 75.5t138 25.5h150q50 0 94 -12t84 -35q40 -24 70.5 -57t51.5 -75q20 -43 30.5 -91t10.5 -102t-10.5 -102.5t-33.5 -91.5q-22 -43 -52.5 -75.5t-71.5 -55.5q-40 -22 -83.5 -32t-90.5 -10l-150 -1q-50 1 -95 12.5t-86 35.5
q-40 25 -70 58t-50 75q-20 43 -30.5 87.5t-10.5 91.5v0zM295 347q0 -65 18 -116t52 -88q22 -23 47 -39t53 -25q29 9 54 25t47 40q35 38 52 91t17 122q0 44 -7.5 82t-22.5 71q-14 32 -35.5 57.5t-50.5 43.5q-13 8 -26 14t-27 10q-27 -8 -51.5 -22.5t-46.5 -35.5
q-36 -34 -54.5 -92t-18.5 -138v0z" />
    <glyph glyph-name="P" unicode="P" horiz-adv-x="816" 
d="M77 0v715h150h270q35 0 62.5 -2t46.5 -5q26 -4 48 -12.5t40 -20.5t32.5 -29t24.5 -40q11 -22 16.5 -46.5t5.5 -51.5q0 -46 -14.5 -84t-43.5 -70q-29 -31 -81.5 -47t-128.5 -16h-184v-291h-150h-94v0zM321 375h35q47 0 79.5 8.5t51.5 25.5q20 17 29 41t9 55q0 23 -5.5 42
t-16.5 35q-11 17 -26 27.5t-34 15.5q-12 3 -34.5 4.5t-54.5 1.5h-33v-256v0z" />
    <glyph glyph-name="Q" unicode="Q" horiz-adv-x="927" 
d="M769 76q33 -22 63.5 -38.5t58.5 -27.5l-28 -65h-150q-25 11 -50.5 23t-51.5 29q-19 -4 -38.5 -6t-39.5 -2l-150 -1q-48 1 -92 12t-84 34t-70 56t-52 76q-21 43 -32 90.5t-11 100.5t11 101.5t32 91.5q22 44 52.5 77t70.5 56t84 34t93 11h150q50 0 94.5 -12t84.5 -35
q40 -24 70 -56.5t51 -75.5q21 -42 31.5 -90t10.5 -101q0 -44 -6.5 -84t-20.5 -75q-13 -35 -33.5 -66t-47.5 -57v0zM561 197q3 -1 5.5 -1.5t4.5 -1.5q5 -2 10.5 -3.5t9.5 -3.5q19 34 28.5 77t9.5 94q0 44 -7 81.5t-22 70.5q-15 32 -36.5 57.5t-50.5 43.5q-13 8 -26 14.5
t-27 10.5q-28 -9 -53.5 -24t-46.5 -38q-35 -36 -52.5 -90.5t-17.5 -126.5q0 -70 17.5 -123t51.5 -91q21 -23 46.5 -39t53.5 -25q6 2 11.5 4t10.5 4q-22 14 -45.5 24.5t-47.5 16.5l23 69h150v0z" />
    <glyph glyph-name="R" unicode="R" horiz-adv-x="872" 
d="M78 0v715h150h317q48 0 84.5 -4.5t61.5 -14.5t45 -27t35 -41q14 -25 21.5 -52t7.5 -56q0 -38 -12 -70t-37 -58t-63 -42.5t-89 -24.5q18 -9 32.5 -18t24.5 -17q20 -19 39.5 -43t38.5 -53l125 -194h-150h-119l-95 148q-21 32 -37.5 57t-30.5 42q-13 17 -25 29t-23 19
q-6 3 -11.5 6t-10.5 5q-5 3 -10.5 5t-11.5 3q-1 0 -2.5 0.5t-2.5 0.5q-2 0 -3.5 0.5t-3.5 0.5v-316h-150h-95v0zM323 399h53q33 0 58.5 3.5t43.5 10.5t32 17.5t24 25.5q9 14 14 30.5t5 33.5q0 26 -9.5 47t-27.5 37q-19 16 -48 24t-69 8h-76v-237v0z" />
    <glyph glyph-name="S" unicode="S" horiz-adv-x="816" 
d="M44 229l90 8h150q3 -27 10.5 -49t18.5 -39q12 -17 30 -31t42 -25q8 -4 16.5 -7t17.5 -5l6 2t5 2q3 0 5.5 1t5.5 2q21 8 36.5 19.5t25.5 25.5t15 29.5t5 31.5q0 17 -5 31.5t-15 27.5q-10 12 -25.5 23t-38.5 19q-14 5 -46 14t-81 21t-84 23.5t-55 21.5q-25 13 -44 30
t-32 36q-13 20 -19 42t-6 47q0 27 7.5 52.5t23.5 49.5q15 23 37.5 41t51.5 30q30 12 63 18.5t69 6.5h150q40 0 75 -6.5t65 -19.5q31 -13 54.5 -31.5t39.5 -44.5q16 -25 25 -52.5t10 -59.5l-91 -7h-150q-4 34 -16 59.5t-34 42.5q-10 9 -23.5 15.5t-29.5 10.5q-13 -4 -25 -9
t-22 -13q-19 -16 -29 -35t-10 -41q0 -19 7 -35.5t21 -28.5t49.5 -24.5t93.5 -26.5q58 -13 97.5 -24.5t60.5 -21.5q32 -14 55 -32t37 -41q15 -22 22.5 -47t7.5 -54q0 -28 -8 -55t-24 -53q-16 -25 -40 -45t-54 -34q-31 -13 -65.5 -19.5t-72.5 -6.5l-150 -1q-49 1 -89.5 8
t-73.5 20q-33 14 -58.5 35.5t-44.5 49.5q-19 29 -28.5 61t-11.5 67v0z" />
    <glyph glyph-name="T" unicode="T" horiz-adv-x="760" 
d="M259 0v631h-236v84h150h567v-84h-236v-631h-150h-95v0z" />
    <glyph glyph-name="U" unicode="U" horiz-adv-x="872" 
d="M696 715h95v-413q0 -54 -6 -97t-18 -75q-13 -31 -34.5 -57t-53.5 -46q-32 -19 -74 -28.5t-94 -9.5l-150 -1q-50 1 -91 9.5t-73 24.5q-32 17 -55 42.5t-37 57.5q-13 33 -20 78t-7 102v413h150h95v-413q0 -46 4.5 -80.5t12.5 -56.5q9 -22 24 -39t36 -29q8 -4 16.5 -8
t17.5 -7q22 6 38.5 15.5t29.5 22.5q23 24 33.5 69.5t10.5 112.5v413h150v0z" />
    <glyph glyph-name="V" unicode="V" horiz-adv-x="816" 
d="M281 0l-277 715h150h102l150 -420l156 420h150h97l-281 -715h-150h-97v0z" />
    <glyph glyph-name="W" unicode="W" horiz-adv-x="1093" 
d="M202 0l-190 715h150h97l71 -305l86 305h150h115l84 -297l72 297h150h95l-196 -715h-150h-91l-98 354l-99 -354h-150h-96v0z" />
    <glyph glyph-name="X" unicode="X" horiz-adv-x="816" 
d="M4 0l277 373l-244 342h150h112l116 -163l123 163h150h103l-252 -337l271 -378h-150h-117l-136 193l-139 -193h-150h-114v0z" />
    <glyph glyph-name="Y" unicode="Y" horiz-adv-x="816" 
d="M278 0v303l-276 412h150h116l140 -213q0 1 0.5 1.5l1.5 1.5l138 210h150h111l-286 -412v-303h-150h-95v0z" />
    <glyph glyph-name="Z" unicode="Z" horiz-adv-x="760" 
d="M20 0v87l366 459q20 24 38 45.5t36 39.5h-399v84h150h513v-84l-402 -497l-44 -50h457v-84h-150h-565v0z" />
    <glyph glyph-name="bracketleft" unicode="[" horiz-adv-x="427" 
d="M67 -198v913h150h194v-72h-106v-768h106v-73h-150h-194v0z" />
    <glyph glyph-name="backslash" unicode="\" horiz-adv-x="427" 
d="M207 -12l-207 740h150h70l207 -740h-150h-70v0z" />
    <glyph glyph-name="bracketright" unicode="]" horiz-adv-x="427" 
d="M212 -198h-193v73h106v768h-106v72h150h193v-913h-150v0z" />
    <glyph glyph-name="asciicircum" unicode="^" horiz-adv-x="619" 
d="M116 336h-90l172 392h150h71l173 -392h-150h-88l-45 108l-43 -108h-150v0z" />
    <glyph glyph-name="underscore" unicode="_" horiz-adv-x="706" 
d="M-15 -198v63h150h582v-63h-150h-582v0z" />
    <glyph glyph-name="grave" unicode="`" horiz-adv-x="483" 
d="M227 583h-71l-113 136h150h118l66 -136h-150v0z" />
    <glyph glyph-name="a" unicode="a" horiz-adv-x="706" 
d="M445 0q-19 -5 -40 -7.5t-42 -2.5l-150 -1q-43 1 -75.5 10.5t-55.5 30.5q-23 20 -34.5 47t-11.5 59q0 20 4 37t13 33t20.5 28.5t24.5 21.5q14 10 30 17.5t34 11.5q6 2 14 3.5t18 3.5q9 1 21 3t25 3q53 6 92 14t64 17v8.5t1 6.5v4.5v3.5q0 26 -6.5 45t-18.5 30
q-6 5 -12.5 9t-14.5 8q-1 -1 -2.5 -1.5t-2.5 -1.5q-3 -1 -5.5 -2.5t-4.5 -3.5q-14 -10 -25 -29.5t-18 -47.5h-150l-86 12q6 28 15.5 50.5t22.5 38.5q14 17 33.5 30t44.5 22q26 10 55 14.5t63 4.5h150q33 0 60 -4t48 -12q20 -7 35.5 -17t25.5 -22t16.5 -27t10.5 -33
q2 -11 3 -31.5t1 -49.5v-117q0 -61 1.5 -100t4.5 -55t8.5 -32t13.5 -30h-150h-68v0zM396 226q-12 -2 -22.5 -4t-19.5 -4q-9 -3 -16 -5t-12 -4q-11 -5 -19.5 -12t-14.5 -17q-7 -9 -10 -19.5t-3 -21.5q0 -18 7 -32.5t20 -26.5q2 -1 4 -2.5t4 -3.5q3 1 5.5 2.5t4.5 2.5
q20 11 34.5 26.5t23.5 34.5q7 14 10.5 35.5t3.5 50.5v0z" />
    <glyph glyph-name="b" unicode="b" horiz-adv-x="706" 
d="M146 0h-81v715h150h88v-255h-150q27 35 63 52.5t79 17.5h150q24 0 46.5 -5t43.5 -15q22 -9 39.5 -22.5t31.5 -31.5q14 -17 25 -38t18 -46q8 -25 12 -51t4 -54q0 -67 -16.5 -118.5t-49.5 -87.5q-33 -37 -72.5 -54t-85.5 -17l-150 -1q-46 1 -82.5 19.5t-62.5 55.5h150v-64
h-150v0zM295 263q0 -47 6.5 -81t19.5 -54q8 -13 17 -24t19 -19q7 5 13.5 11.5t12.5 13.5q21 25 31.5 62.5t10.5 86.5q0 51 -10 88.5t-30 61.5q-5 7 -11 12.5t-12 10.5q-7 -5 -13 -11.5t-12 -13.5q-21 -25 -31.5 -61t-10.5 -83v0z" />
    <glyph glyph-name="c" unicode="c" horiz-adv-x="650" 
d="M554 189l86 -11q-7 -44 -25 -79t-47 -61q-29 -25 -65 -36.5t-79 -11.5l-150 -1q-53 1 -96 17.5t-75 50.5q-32 35 -48 85t-16 115q0 42 7 79t20 68q14 32 35.5 55t49.5 39q29 16 59.5 24t64.5 8h150q42 0 76.5 -10.5t61.5 -32.5q27 -21 44.5 -51.5t24.5 -69.5l-86 -13
h-150q-6 26 -16.5 45.5t-26.5 32.5q-1 0 -1.5 0.5t-0.5 1.5l-1.5 1.5t-1.5 0.5q-7 -5 -14 -11t-14 -14q-20 -24 -30.5 -61.5t-10.5 -89.5t10 -90t30 -62q7 -7 14 -13.5t14 -11.5q4 2 7 4.5t6 5.5q17 16 28.5 40t15.5 57h150v0z" />
    <glyph glyph-name="d" unicode="d" horiz-adv-x="706" 
d="M473 0q-14 -4 -31 -7t-35 -3l-150 -1q-31 1 -59.5 9t-54.5 24q-26 17 -46.5 41t-34.5 54q-14 31 -21 66t-7 75q0 39 6.5 74.5t19.5 66.5q13 32 32.5 56.5t44.5 40.5q26 17 55 25.5t61 8.5h150q23 0 44 -5t39 -15q19 -10 34 -22.5t26 -29.5h-150v257h150h87v-715h-150h-10
v0zM274 258q0 -49 10.5 -86.5t31.5 -62.5q6 -7 12 -12.5t12 -10.5l12 10t11 11q20 24 30 60t10 84q0 53 -10 92t-31 64q-6 8 -12.5 14t-13.5 11q-6 -5 -12 -10.5t-11 -12.5q-19 -24 -29 -61.5t-10 -89.5v0z" />
    <glyph glyph-name="e" unicode="e" horiz-adv-x="706" 
d="M570 166l91 -11q-10 -40 -30 -70.5t-49 -52.5t-66.5 -32t-82.5 -10l-150 -1q-57 1 -102 17.5t-78 51.5q-34 35 -50.5 84t-16.5 112q0 66 17 116.5t51 87.5q33 36 77 54t97 18h150q53 0 95 -18t75 -53t49.5 -85t16.5 -114v-10v-14h-387q2 -43 14 -75.5t34 -55.5
q8 -7 16 -13.5t16 -11.5q2 1 4.5 2.5t4.5 2.5q17 13 30.5 33t23.5 48h150v0zM282 309h139q-3 32 -11 57t-22 41q-7 10 -16 17.5t-19 13.5q-7 -4 -13.5 -9.5t-12.5 -11.5q-20 -20 -31.5 -47t-13.5 -61v0z" />
    <glyph glyph-name="f" unicode="f" horiz-adv-x="427" 
d="M86 0v450h-77v68h77v55q0 26 2.5 45.5t7.5 32.5q6 17 17 31t27 24q17 11 39.5 16.5t50.5 5.5h150q18 0 39 -2t43 -7l-13 -77h-150q-14 2 -27 3.5t-25 1.5h150q-20 0 -34.5 -4.5t-22.5 -12.5q-8 -9 -12 -25t-4 -39v-48h101v-68h-101v-450h-150h-88v0z" />
    <glyph glyph-name="g" unicode="g" horiz-adv-x="706" 
d="M199 -42l86 -13q2 -19 9.5 -33.5t20.5 -23.5q4 -3 8 -5.5t8 -4.5q5 2 9 4.5t8 5.5q17 12 28 29t17 40q3 13 4.5 40t1.5 70h150q-28 -34 -64 -50.5t-79 -16.5h-150q-53 0 -95 19t-71 58q-29 38 -43.5 84.5t-14.5 100.5q0 37 7 71.5t20 65.5t32.5 55.5t44.5 41.5
q26 17 56 25.5t64 8.5h150q46 0 84 -18.5t68 -55.5h-150v62h150h81v-448q0 -60 -6 -102.5t-19 -67.5q-12 -26 -31.5 -45.5t-46.5 -34.5q-27 -14 -60 -21.5t-72 -7.5l-150 -1q-46 1 -83.5 11.5t-66.5 31.5q-28 21 -42 52.5t-13 73.5l150 -1v0zM272 268q0 -51 10.5 -88.5
t30.5 -60.5q6 -7 12.5 -13t13.5 -11q8 5 14.5 11t12.5 13q20 23 30.5 60t10.5 86q0 48 -10.5 83.5t-32.5 60.5q-6 7 -12.5 13t-13.5 11q-7 -5 -13 -11t-12 -13q-20 -23 -30.5 -58.5t-10.5 -82.5v0z" />
    <glyph glyph-name="h" unicode="h" horiz-adv-x="706" 
d="M65 0v715h150h88v-185h3.5h2.5h150q29 0 53.5 -6t46.5 -17q21 -11 36 -27t24 -36q10 -19 14.5 -48.5t4.5 -67.5v-328h-150h-88v328q0 33 -7.5 57t-21.5 39l-2 2l-2 2l-2 2l-2 2q-16 -10 -27 -23t-18 -30t-11 -41t-4 -55v-283h-150h-88v0z" />
    <glyph glyph-name="i" unicode="i" horiz-adv-x="372" 
d="M66 0v518h150h88v-518h-150h-88v0zM66 614v101h150h88v-101h-150h-88v0z" />
    <glyph glyph-name="j" unicode="j" horiz-adv-x="372" 
d="M-45 -201l16 75h150q14 -2 24 -4t17 -2l-150 -1q14 1 23.5 5.5t16.5 13.5t10 31.5t3 57.5v543h150h88v-546q0 -47 -6.5 -80t-18.5 -52q-16 -24 -42.5 -36.5t-63.5 -12.5l-150 -1q-8 1 -16 1.5t-17 1.5q-8 1 -16.5 3t-16.5 4zM65 613v102h150h88v-102h-150h-88v0z" />
    <glyph glyph-name="k" unicode="k" horiz-adv-x="650" 
d="M66 0v715h150h88v-256l58 59h150h114l-199 -192l219 -326h-150h-109l-83 129v-129h-150h-88v0z" />
    <glyph glyph-name="l" unicode="l" horiz-adv-x="372" 
d="M63 0v715h150h88v-715h-150h-88v0z" />
    <glyph glyph-name="m" unicode="m" horiz-adv-x="983" 
d="M294 454v-9h-150q12 20 28.5 35t36.5 27q20 11 43.5 17t48.5 6h150q24 0 44 -4t37 -12q17 8 36 12t40 4h150q38 0 68 -10.5t51 -32.5q20 -21 30.5 -54t10.5 -78v-355h-150h-87v326q0 26 -2 45.5t-7 30.5q-2 7 -5.5 13t-8.5 11q-3 -2 -5.5 -4.5l-4.5 -4.5q-19 -18 -28 -47
t-9 -69v-301h-150h-87v336q0 29 -5.5 51.5t-16.5 36.5q-9 13 -23.5 20.5t-34.5 9.5v0z" />
    <glyph glyph-name="n" unicode="n" horiz-adv-x="706" 
d="M295 454v-10h-150q29 43 70 64.5t95 21.5h150q23 0 45 -4.5t41 -12.5q20 -8 34.5 -19t24.5 -25q10 -13 16.5 -29.5t10.5 -35.5q2 -13 3.5 -34.5t1.5 -51.5v-318h-150h-88v315q0 27 -2.5 47t-7.5 33q-5 14 -14 24.5t-23 18.5q-12 7 -26.5 11t-30.5 5v0z" />
    <glyph glyph-name="o" unicode="o" horiz-adv-x="706" 
d="M33 259q0 72 20 125.5t60 87.5q33 29 74 43.5t89 14.5h150q53 0 97 -17.5t78 -52.5t51 -83.5t17 -110.5q0 -50 -7.5 -89t-22.5 -68q-16 -29 -37.5 -51t-50.5 -38q-28 -16 -59.5 -23t-65.5 -7l-150 -1q-55 1 -98.5 17.5t-77.5 51.5t-50.5 85t-16.5 116v0zM273 259
q0 -50 11 -87t32 -62q8 -9 16.5 -16.5t17.5 -12.5q10 5 18.5 12.5t16.5 16.5q22 25 32.5 63t10.5 89q0 48 -10.5 84t-32.5 61q-8 9 -17 16.5t-19 13.5q-3 -2 -5.5 -4t-5.5 -4q-6 -5 -11.5 -10t-10.5 -11q-21 -25 -32 -62t-11 -87v0z" />
    <glyph glyph-name="p" unicode="p" horiz-adv-x="706" 
d="M65 -198v716h150h11q16 6 33.5 9t36.5 3h150q33 0 62.5 -8.5t54.5 -25.5q26 -17 45 -41t32 -56q13 -31 19.5 -65t6.5 -71q0 -40 -7.5 -76t-21.5 -68q-14 -31 -35 -55.5t-48 -41.5q-27 -16 -55.5 -24t-58.5 -8l-150 -1q-22 1 -42 5.5t-37 11.5q-18 10 -32.5 21.5
t-25.5 25.5h150v-251h-150h-88v0zM295 256q0 -50 10.5 -87t30.5 -61q5 -7 11 -12l12 -10q7 5 13 11t12 13q21 25 31.5 63t10.5 90q0 50 -10.5 87t-30.5 62q-5 6 -10.5 11.5t-11.5 9.5q-3 -3 -6 -5.5t-6 -5.5q-4 -3 -7 -6.5t-6 -7.5q-22 -26 -32.5 -64t-10.5 -88v0z" />
    <glyph glyph-name="q" unicode="q" horiz-adv-x="706" 
d="M396 -198v253h150q-10 -15 -24.5 -26.5t-32.5 -21.5q-19 -8 -38.5 -12.5t-40.5 -4.5l-150 -1q-46 1 -85.5 18.5t-73.5 54.5q-33 37 -49.5 87.5t-16.5 114.5q0 39 7 74t20 66q14 31 33.5 54.5t44.5 39.5q26 16 54 24t59 8h150q48 0 86 -20t66 -61h-150v69h150h79v-716
h-150h-88v0zM275 260q0 -49 10.5 -87t31.5 -63q6 -7 12 -13t13 -11q6 5 11.5 10.5t10.5 11.5q20 23 30.5 59.5t10.5 84.5q0 52 -10.5 91t-32.5 65q-6 8 -12.5 14.5t-13.5 11.5q-5 -4 -10.5 -10t-10.5 -12q-20 -25 -30 -62.5t-10 -89.5v0z" />
    <glyph glyph-name="r" unicode="r" horiz-adv-x="483" 
d="M64 0v518h150h80v-79h-150q15 28 28.5 46t26.5 27q14 9 27.5 13.5t29.5 4.5h150q22 0 44.5 -7.5t45.5 -21.5l-30 -81h-150q-8 5 -16 8.5t-16 5.5q-9 2 -17 3.5t-16 1.5h150q-14 0 -27 -4.5t-24 -12.5q-12 -9 -20 -21t-13 -27q-7 -24 -11 -49.5t-4 -53.5v-271h-150h-88v0z
" />
    <glyph glyph-name="s" unicode="s" horiz-adv-x="650" 
d="M30 154l87 14h150q4 -26 14.5 -46t26.5 -34q5 -4 9.5 -7t9.5 -6q4 2 7.5 4.5t6.5 5.5q15 12 22.5 26.5t7.5 31.5q0 14 -6.5 25.5t-19.5 20.5q-9 6 -31.5 13.5t-58.5 16.5q-49 13 -82 23.5t-52 18.5q-19 9 -33 21.5t-24 28.5t-14.5 33t-4.5 36q0 17 4 33.5t12 31.5
q8 14 19 26.5t24 22.5q11 8 24.5 14t31.5 11t37 8t39 3h150q31 0 57.5 -4.5t49.5 -13.5t40 -20.5t28 -26.5t18.5 -35t11.5 -46l-86 -11h-150q-2 20 -10.5 35.5t-22.5 26.5l-2 2t-3 2q-1 0 -2 1t-3 2l-1.5 -1.5t-1.5 -0.5l-1.5 -1.5l-1.5 -1.5q-13 -10 -19.5 -21t-6.5 -25
q0 -9 2.5 -16.5t8.5 -14.5q5 -7 13 -13t20 -11q6 -2 25.5 -7.5t52.5 -14.5q47 -13 79 -23t51 -18q19 -7 33.5 -19t24.5 -27q11 -15 16 -33.5t5 -41.5q0 -22 -6.5 -42.5t-19.5 -40.5q-13 -19 -31 -34t-43 -26q-24 -9 -51 -14t-58 -5l-150 -1q-50 1 -89 10.5t-65 30.5t-43 52
t-25 72v0z" />
    <glyph glyph-name="t" unicode="t" horiz-adv-x="427" 
d="M407 78l13 -78q-19 -2 -35.5 -3.5t-30.5 -1.5l-150 -1q-24 1 -42.5 4t-32.5 10q-13 8 -22.5 17.5t-14.5 22.5q-5 12 -7.5 38t-2.5 65v299h-65v68h65v128l87 53h150v-181h88v-68h-88v-304q0 -19 1 -31t4 -17q2 -5 6 -9.5t9 -7.5t12.5 -4.5t17.5 -1.5h-150q7 0 16.5 1
t21.5 2h150v0z" />
    <glyph glyph-name="u" unicode="u" horiz-adv-x="706" 
d="M459 0q-16 -4 -32.5 -7t-35.5 -3l-150 -1q-23 1 -44.5 5t-41.5 11q-20 9 -34.5 20.5t-24.5 24.5t-16.5 29.5t-10.5 35.5q-3 13 -4.5 33.5t-1.5 48.5v321h150h88v-288q0 -34 1.5 -57t4.5 -35q4 -16 11.5 -28.5t18.5 -22.5q16 9 27 22.5t18 29.5q7 17 10.5 42.5t3.5 58.5
v278h150h88v-518h-150h-25v0z" />
    <glyph glyph-name="v" unicode="v" horiz-adv-x="650" 
d="M209 0l-197 518h150h93l70 -197l72 197h150h91l-197 -518h-150h-82v0z" />
    <glyph glyph-name="w" unicode="w" horiz-adv-x="872" 
d="M161 0l-159 518h150h91l37 -133l36 133h150h90l34 -130l38 130h150h86l-162 -518h-150h-92l-29 108l-28 -108h-150h-92v0z" />
    <glyph glyph-name="x" unicode="x" horiz-adv-x="650" 
d="M7 0l189 269l-175 249h150h110l44 -68l49 68h150h105l-180 -244l193 -274h-150h-108l-60 91l-61 -91h-150h-106v0z" />
    <glyph glyph-name="y" unicode="y" horiz-adv-x="650" 
d="M62 -199l-10 82h150q14 -3 27 -5t23 -2l-150 -1q15 1 26.5 3.5t20.5 7.5t16 12t13 16q4 7 10.5 23t16.5 42q1 4 2.5 9t4.5 12l-196 518h150h94l71 -197l72 197h150h88l-198 -526q-16 -42 -28 -71.5t-21 -45.5q-11 -22 -24.5 -38t-29.5 -26q-15 -10 -33 -15t-39 -5
l-150 -1q-13 1 -27 4t-29 8v-1z" />
    <glyph glyph-name="z" unicode="z" horiz-adv-x="650" 
d="M19 0v71l330 379h150q-28 -1 -53 -2t-46 -1h-150h-211v71h150h423v-58l-280 -329l-55 -60h-150q30 2 58 3t53 1h150h240v-75h-150h-459v0z" />
    <glyph glyph-name="braceleft" unicode="{" horiz-adv-x="483" 
d="M27 298q19 1 34.5 6t27.5 15q11 9 19 22.5t12 30.5t6 45.5t2 69.5q1 41 1.5 67.5t1.5 39.5q2 21 6.5 37.5t10.5 28.5q6 13 13.5 23t15.5 17q9 8 20.5 13.5t24.5 9.5q9 2 24.5 3.5t36.5 1.5h150h27v-77h-15q-25 0 -42 -4.5t-25 -13.5q-9 -10 -13 -30t-4 -52
q0 -64 -1.5 -104.5t-3.5 -57.5q-4 -26 -11.5 -46t-18.5 -34t-27.5 -27t-39.5 -24q27 -11 46.5 -28t31.5 -40t18 -60.5t6 -90.5q0 -46 0.5 -74.5t1.5 -37.5q2 -17 7 -28t13 -18t23.5 -10t38.5 -3l15 -1v-77h-150h-27q-24 1 -41.5 3t-28.5 6q-15 5 -28 14t-23 22t-17 28.5
t-10 35.5q-3 19 -4.5 50.5t-2.5 73.5q0 44 -2 75t-6 47q-4 17 -12 30t-19 23q-12 10 -27.5 15t-34.5 6v79v0z" />
    <glyph glyph-name="bar" unicode="|" horiz-adv-x="409" 
d="M91 -210v938h150h77v-938h-150h-77v0z" />
    <glyph glyph-name="braceright" unicode="}" horiz-adv-x="483" 
d="M455 298v-79q-19 -1 -34 -6t-27 -15t-19.5 -23t-12.5 -30q-4 -16 -6 -45t-2 -70q0 -39 -0.5 -65.5t-2.5 -39.5q-2 -21 -6 -37.5t-10 -28.5q-6 -13 -13.5 -23t-16.5 -17q-8 -8 -19.5 -13.5t-25.5 -9.5q-9 -2 -24 -3.5t-36 -1.5l-150 -1h-28v77h16q25 1 42 5.5t25 13.5
t12.5 29.5t4.5 52.5q0 59 1 98t3 55q4 27 12 49t19 38q12 16 28.5 28.5t38.5 21.5q-28 14 -48 31.5t-31 39.5q-12 23 -17.5 60.5t-5.5 89.5q0 47 -0.5 75.5t-2.5 37.5q-1 17 -6 28t-13 18t-23.5 10t-38.5 3h-16v77h150h28q24 0 41.5 -2t27.5 -6q16 -5 29 -14t23 -22
q11 -13 17 -29t9 -35q4 -19 5.5 -51t1.5 -76q0 -43 2 -73.5t6 -47.5q5 -16 12.5 -29.5t19.5 -23.5t27 -15t34 -6v0z" />
    <glyph glyph-name="asciitilde" unicode="~" horiz-adv-x="733" 
d="M251 319q-25 9 -45 14t-37 5h150q-15 0 -29.5 -3.5t-28.5 -10.5q-1 -1 -2.5 -1.5t-2.5 -0.5q-1 -1 -2.5 -1.5t-2.5 -1.5v0z" />
    <glyph glyph-name="Adieresis" unicode="&#xc4;" horiz-adv-x="816" 
d="M-1 0l274 715h150h102l293 -715h-150h-108l-83 216h-150l-78 -216h-150h-100v0zM355 293h92l-46 124l-46 -124v0zM185 759v100h150h91v-100h-150h-91v0zM367 759v100h150h91v-100h-150h-91v0z" />
    <glyph glyph-name="Aring" unicode="&#xc5;" horiz-adv-x="816" 
d="M-1 0l274 715h150h102l293 -715h-150h-108l-83 216h-150l-78 -216h-150h-100v0zM355 293h92l-46 124l-46 -124v0zM234 781q0 18 6.5 33.5t19.5 28.5q14 13 29 19.5t33 6.5h150q18 0 33.5 -6.5t28.5 -19.5q14 -13 20 -29t6 -35t-6 -34.5t-20 -28.5q-13 -13 -28 -19.5
t-33 -6.5h-150q-19 0 -34.5 6.5t-28.5 19.5t-19.5 29.5t-6.5 35.5v0zM421 781q0 -12 4.5 -21.5t11.5 -17.5q8 -7 17 -11t19 -4h-150q11 0 20 4t17 11q8 8 11.5 17.5t3.5 20.5t-3.5 20.5t-11.5 16.5q-7 8 -16.5 12t-20.5 4h150q-10 0 -19 -3.5t-17 -11.5q-7 -8 -11.5 -17
t-4.5 -20v0z" />
    <glyph glyph-name="Ccedilla" unicode="&#xc7;" horiz-adv-x="872" 
d="M302 -75l26 86h150h65l-16 -52q21 -1 36.5 -7.5t25.5 -16.5q11 -11 16 -22t5 -24q0 -19 -8.5 -35t-26.5 -30q-17 -14 -43.5 -21t-62.5 -7l-150 -1q-20 1 -37.5 2.5t-32.5 4.5l5 56h150q16 0 27.5 -0.5t18.5 -0.5l-150 -1q23 1 39 4.5t26 9.5q7 4 10.5 10t3.5 14v2.5
t-1 2.5q0 3 -1.5 5.5t-3.5 4.5q-2 4 -7 7t-13 5t-20.5 3.5t-30.5 1.5v-1zM737 250l95 -23q-15 -58 -41.5 -103t-65.5 -75q-39 -31 -86 -45.5t-103 -14.5l-150 -1q-58 1 -105 12t-84 34q-36 24 -63.5 58t-46.5 79q-19 44 -28.5 92t-9.5 100q0 56 11 104.5t32 90.5
q22 41 52 73t70 53q39 22 82.5 33t90.5 11h150q54 0 99 -14t82 -41q37 -28 62.5 -66t39.5 -88l-93 -22h-150q-13 39 -31 67.5t-42 46.5q-10 8 -21.5 14.5t-25.5 10.5q-16 -5 -31 -12t-29 -17q-28 -19 -47.5 -46t-30.5 -60q-11 -34 -16.5 -68.5t-5.5 -69.5q0 -46 7 -85.5
t20 -73.5t33.5 -59.5t48.5 -42.5q11 -7 23 -12l24 -10q17 6 32 14.5t28 19.5q27 23 45.5 57t28.5 79h150v0z" />
    <glyph glyph-name="Eacute" unicode="&#xc9;" horiz-adv-x="816" 
d="M79 0v715h150h517v-84h-423v-219h396v-84h-396v-244h440v-84h-150h-534v0zM274 759l65 137h150h115l-107 -137h-150h-73v0z" />
    <glyph glyph-name="Ntilde" unicode="&#xd1;" horiz-adv-x="872" 
d="M76 0v715h150h97l226 -338v338h150h91v-715h-150h-98l-226 338v-338h-150h-90v0zM424 763q-13 2 -29 8.5t-36 16.5q-16 9 -27.5 13.5t-19.5 4.5h150q-9 0 -15.5 -3t-11.5 -9q-5 -5 -7.5 -13t-3.5 -18v0z" />
    <glyph glyph-name="Odieresis" unicode="&#xd6;" horiz-adv-x="927" 
d="M48 348q0 89 24 159t72 120q47 50 109 75.5t138 25.5h150q50 0 94 -12t84 -35q40 -24 70.5 -57t51.5 -75q20 -43 30.5 -91t10.5 -102t-10.5 -102.5t-33.5 -91.5q-22 -43 -52.5 -75.5t-71.5 -55.5q-40 -22 -83.5 -32t-90.5 -10l-150 -1q-50 1 -95 12.5t-86 35.5
q-40 25 -70 58t-50 75q-20 43 -30.5 87.5t-10.5 91.5v0zM295 347q0 -65 18 -116t52 -88q22 -23 47 -39t53 -25q29 9 54 25t47 40q35 38 52 91t17 122q0 44 -7.5 82t-22.5 71q-14 32 -35.5 57.5t-50.5 43.5q-13 8 -26 14t-27 10q-27 -8 -51.5 -22.5t-46.5 -35.5
q-36 -34 -54.5 -92t-18.5 -138v0zM251 759v100h150h92v-100h-150h-92v0zM434 759v100h150h91v-100h-150h-91v0z" />
    <glyph glyph-name="Udieresis" unicode="&#xdc;" horiz-adv-x="872" 
d="M696 715h95v-413q0 -54 -6 -97t-18 -75q-13 -31 -34.5 -57t-53.5 -46q-32 -19 -74 -28.5t-94 -9.5l-150 -1q-50 1 -91 9.5t-73 24.5q-32 17 -55 42.5t-37 57.5q-13 33 -20 78t-7 102v413h150h95v-413q0 -46 4.5 -80.5t12.5 -56.5q9 -22 24 -39t36 -29q8 -4 16.5 -8
t17.5 -7q22 6 38.5 15.5t29.5 22.5q23 24 33.5 69.5t10.5 112.5v413h150v0zM221 759v100h150h92v-100h-150h-92v0zM403 759v100h150h92v-100h-150h-92v0z" />
    <glyph glyph-name="aacute" unicode="&#xe1;" horiz-adv-x="706" 
d="M445 0q-19 -5 -40 -7.5t-42 -2.5l-150 -1q-43 1 -75.5 10.5t-55.5 30.5q-23 20 -34.5 47t-11.5 59q0 20 4 37t13 33t20.5 28.5t24.5 21.5q14 10 30 17.5t34 11.5q6 2 14 3.5t18 3.5q9 1 21 3t25 3q53 6 92 14t64 17v8.5t1 6.5v4.5v3.5q0 26 -6.5 45t-18.5 30
q-6 5 -12.5 9t-14.5 8q-1 -1 -2.5 -1.5t-2.5 -1.5q-3 -1 -5.5 -2.5t-4.5 -3.5q-14 -10 -25 -29.5t-18 -47.5h-150l-86 12q6 28 15.5 50.5t22.5 38.5q14 17 33.5 30t44.5 22q26 10 55 14.5t63 4.5h150q33 0 60 -4t48 -12q20 -7 35.5 -17t25.5 -22t16.5 -27t10.5 -33
q2 -11 3 -31.5t1 -49.5v-117q0 -61 1.5 -100t4.5 -55t8.5 -32t13.5 -30h-150h-68v0zM396 226q-12 -2 -22.5 -4t-19.5 -4q-9 -3 -16 -5t-12 -4q-11 -5 -19.5 -12t-14.5 -17q-7 -9 -10 -19.5t-3 -21.5q0 -18 7 -32.5t20 -26.5q2 -1 4 -2.5t4 -3.5q3 1 5.5 2.5t4.5 2.5
q20 11 34.5 26.5t23.5 34.5q7 14 10.5 35.5t3.5 50.5v0zM226 583l65 136h150h115l-108 -136h-150h-72v0z" />
    <glyph glyph-name="agrave" unicode="&#xe0;" horiz-adv-x="706" 
d="M445 0q-19 -5 -40 -7.5t-42 -2.5l-150 -1q-43 1 -75.5 10.5t-55.5 30.5q-23 20 -34.5 47t-11.5 59q0 20 4 37t13 33t20.5 28.5t24.5 21.5q14 10 30 17.5t34 11.5q6 2 14 3.5t18 3.5q9 1 21 3t25 3q53 6 92 14t64 17v8.5t1 6.5v4.5v3.5q0 26 -6.5 45t-18.5 30
q-6 5 -12.5 9t-14.5 8q-1 -1 -2.5 -1.5t-2.5 -1.5q-3 -1 -5.5 -2.5t-4.5 -3.5q-14 -10 -25 -29.5t-18 -47.5h-150l-86 12q6 28 15.5 50.5t22.5 38.5q14 17 33.5 30t44.5 22q26 10 55 14.5t63 4.5h150q33 0 60 -4t48 -12q20 -7 35.5 -17t25.5 -22t16.5 -27t10.5 -33
q2 -11 3 -31.5t1 -49.5v-117q0 -61 1.5 -100t4.5 -55t8.5 -32t13.5 -30h-150h-68v0zM396 226q-12 -2 -22.5 -4t-19.5 -4q-9 -3 -16 -5t-12 -4q-11 -5 -19.5 -12t-14.5 -17q-7 -9 -10 -19.5t-3 -21.5q0 -18 7 -32.5t20 -26.5q2 -1 4 -2.5t4 -3.5q3 1 5.5 2.5t4.5 2.5
q20 11 34.5 26.5t23.5 34.5q7 14 10.5 35.5t3.5 50.5v0zM334 583h-71l-113 136h150h118l66 -136h-150v0z" />
    <glyph glyph-name="acircumflex" unicode="&#xe2;" horiz-adv-x="706" 
d="M445 0q-19 -5 -40 -7.5t-42 -2.5l-150 -1q-43 1 -75.5 10.5t-55.5 30.5q-23 20 -34.5 47t-11.5 59q0 20 4 37t13 33t20.5 28.5t24.5 21.5q14 10 30 17.5t34 11.5q6 2 14 3.5t18 3.5q9 1 21 3t25 3q53 6 92 14t64 17v8.5t1 6.5v4.5v3.5q0 26 -6.5 45t-18.5 30
q-6 5 -12.5 9t-14.5 8q-1 -1 -2.5 -1.5t-2.5 -1.5q-3 -1 -5.5 -2.5t-4.5 -3.5q-14 -10 -25 -29.5t-18 -47.5h-150l-86 12q6 28 15.5 50.5t22.5 38.5q14 17 33.5 30t44.5 22q26 10 55 14.5t63 4.5h150q33 0 60 -4t48 -12q20 -7 35.5 -17t25.5 -22t16.5 -27t10.5 -33
q2 -11 3 -31.5t1 -49.5v-117q0 -61 1.5 -100t4.5 -55t8.5 -32t13.5 -30h-150h-68v0zM396 226q-12 -2 -22.5 -4t-19.5 -4q-9 -3 -16 -5t-12 -4q-11 -5 -19.5 -12t-14.5 -17q-7 -9 -10 -19.5t-3 -21.5q0 -18 7 -32.5t20 -26.5q2 -1 4 -2.5t4 -3.5q3 1 5.5 2.5t4.5 2.5
q20 11 34.5 26.5t23.5 34.5q7 14 10.5 35.5t3.5 50.5v0zM426 666l-55 -83h-41l-54 83h150v0z" />
    <glyph glyph-name="adieresis" unicode="&#xe4;" horiz-adv-x="706" 
d="M445 0q-19 -5 -40 -7.5t-42 -2.5l-150 -1q-43 1 -75.5 10.5t-55.5 30.5q-23 20 -34.5 47t-11.5 59q0 20 4 37t13 33t20.5 28.5t24.5 21.5q14 10 30 17.5t34 11.5q6 2 14 3.5t18 3.5q9 1 21 3t25 3q53 6 92 14t64 17v8.5t1 6.5v4.5v3.5q0 26 -6.5 45t-18.5 30
q-6 5 -12.5 9t-14.5 8q-1 -1 -2.5 -1.5t-2.5 -1.5q-3 -1 -5.5 -2.5t-4.5 -3.5q-14 -10 -25 -29.5t-18 -47.5h-150l-86 12q6 28 15.5 50.5t22.5 38.5q14 17 33.5 30t44.5 22q26 10 55 14.5t63 4.5h150q33 0 60 -4t48 -12q20 -7 35.5 -17t25.5 -22t16.5 -27t10.5 -33
q2 -11 3 -31.5t1 -49.5v-117q0 -61 1.5 -100t4.5 -55t8.5 -32t13.5 -30h-150h-68v0zM396 226q-12 -2 -22.5 -4t-19.5 -4q-9 -3 -16 -5t-12 -4q-11 -5 -19.5 -12t-14.5 -17q-7 -9 -10 -19.5t-3 -21.5q0 -18 7 -32.5t20 -26.5q2 -1 4 -2.5t4 -3.5q3 1 5.5 2.5t4.5 2.5
q20 11 34.5 26.5t23.5 34.5q7 14 10.5 35.5t3.5 50.5v0zM138 620v100h150h91v-100h-150h-91v0zM320 620v100h150h92v-100h-150h-92v0z" />
    <glyph glyph-name="atilde" unicode="&#xe3;" horiz-adv-x="706" 
d="M445 0q-19 -5 -40 -7.5t-42 -2.5l-150 -1q-43 1 -75.5 10.5t-55.5 30.5q-23 20 -34.5 47t-11.5 59q0 20 4 37t13 33t20.5 28.5t24.5 21.5q14 10 30 17.5t34 11.5q6 2 14 3.5t18 3.5q9 1 21 3t25 3q53 6 92 14t64 17v8.5t1 6.5v4.5v3.5q0 26 -6.5 45t-18.5 30
q-6 5 -12.5 9t-14.5 8q-1 -1 -2.5 -1.5t-2.5 -1.5q-3 -1 -5.5 -2.5t-4.5 -3.5q-14 -10 -25 -29.5t-18 -47.5h-150l-86 12q6 28 15.5 50.5t22.5 38.5q14 17 33.5 30t44.5 22q26 10 55 14.5t63 4.5h150q33 0 60 -4t48 -12q20 -7 35.5 -17t25.5 -22t16.5 -27t10.5 -33
q2 -11 3 -31.5t1 -49.5v-117q0 -61 1.5 -100t4.5 -55t8.5 -32t13.5 -30h-150h-68v0zM396 226q-12 -2 -22.5 -4t-19.5 -4q-9 -3 -16 -5t-12 -4q-11 -5 -19.5 -12t-14.5 -17q-7 -9 -10 -19.5t-3 -21.5q0 -18 7 -32.5t20 -26.5q2 -1 4 -2.5t4 -3.5q3 1 5.5 2.5t4.5 2.5
q20 11 34.5 26.5t23.5 34.5q7 14 10.5 35.5t3.5 50.5v0zM326 598q-13 2 -29 9t-36 17q-16 8 -28 12.5t-20 4.5h150q-8 0 -14.5 -3t-11.5 -9q-6 -6 -8.5 -13.5t-2.5 -17.5v0z" />
    <glyph glyph-name="aring" unicode="&#xe5;" horiz-adv-x="706" 
d="M445 0q-19 -5 -40 -7.5t-42 -2.5l-150 -1q-43 1 -75.5 10.5t-55.5 30.5q-23 20 -34.5 47t-11.5 59q0 20 4 37t13 33t20.5 28.5t24.5 21.5q14 10 30 17.5t34 11.5q6 2 14 3.5t18 3.5q9 1 21 3t25 3q53 6 92 14t64 17v8.5t1 6.5v4.5v3.5q0 26 -6.5 45t-18.5 30
q-6 5 -12.5 9t-14.5 8q-1 -1 -2.5 -1.5t-2.5 -1.5q-3 -1 -5.5 -2.5t-4.5 -3.5q-14 -10 -25 -29.5t-18 -47.5h-150l-86 12q6 28 15.5 50.5t22.5 38.5q14 17 33.5 30t44.5 22q26 10 55 14.5t63 4.5h150q33 0 60 -4t48 -12q20 -7 35.5 -17t25.5 -22t16.5 -27t10.5 -33
q2 -11 3 -31.5t1 -49.5v-117q0 -61 1.5 -100t4.5 -55t8.5 -32t13.5 -30h-150h-68v0zM396 226q-12 -2 -22.5 -4t-19.5 -4q-9 -3 -16 -5t-12 -4q-11 -5 -19.5 -12t-14.5 -17q-7 -9 -10 -19.5t-3 -21.5q0 -18 7 -32.5t20 -26.5q2 -1 4 -2.5t4 -3.5q3 1 5.5 2.5t4.5 2.5
q20 11 34.5 26.5t23.5 34.5q7 14 10.5 35.5t3.5 50.5v0zM187 653q0 18 6.5 33t19.5 28q13 14 28.5 20t32.5 6h150q18 0 33.5 -6t28.5 -20q14 -13 20 -28.5t6 -34.5t-6 -34.5t-20 -29.5q-13 -13 -28 -19t-33 -6h-150q-19 0 -34 6.5t-29 19.5q-13 13 -19 29.5t-6 35.5v0z
M374 652q0 -11 4 -20.5t11 -17.5q8 -8 17 -12t19 -4h-150q11 0 20.5 4t16.5 12q8 8 11.5 17.5t3.5 19.5q0 11 -3.5 21t-11.5 17q-7 8 -16.5 12t-20.5 4h150q-10 0 -19 -4t-17 -12q-7 -7 -11 -16.5t-4 -20.5v0z" />
    <glyph glyph-name="ccedilla" unicode="&#xe7;" horiz-adv-x="650" 
d="M200 -65l26 85h150h65l-16 -51q21 -1 36.5 -7.5t25.5 -16.5q11 -11 16 -22.5t5 -24.5q0 -18 -8.5 -34.5t-26.5 -29.5q-17 -14 -44 -21t-62 -7l-150 -1q-20 1 -37.5 2.5t-32.5 4.5l5 56h150q16 0 27.5 -0.5t18.5 -0.5l-150 -1q23 1 39 4t26 9q7 5 10.5 11t3.5 13
q0 4 -1.5 8t-4.5 8q-2 2 -5 4t-7 4l-4 2t-5 2q-7 2 -19.5 3.5t-30.5 1.5v-1zM554 189l86 -11q-7 -44 -25 -79t-47 -61q-29 -25 -65 -36.5t-79 -11.5l-150 -1q-53 1 -96 17.5t-75 50.5q-32 35 -48 85t-16 115q0 42 7 79t20 68q14 32 35.5 55t49.5 39q29 16 59.5 24t64.5 8
h150q42 0 76.5 -10.5t61.5 -32.5q27 -21 44.5 -51.5t24.5 -69.5l-86 -13h-150q-6 26 -16.5 45.5t-26.5 32.5q-1 0 -1.5 0.5t-0.5 1.5l-1.5 1.5t-1.5 0.5q-7 -5 -14 -11t-14 -14q-20 -24 -30.5 -61.5t-10.5 -89.5t10 -90t30 -62q7 -7 14 -13.5t14 -11.5q4 2 7 4.5t6 5.5
q17 16 28.5 40t15.5 57h150v0z" />
    <glyph glyph-name="eacute" unicode="&#xe9;" horiz-adv-x="706" 
d="M570 166l91 -11q-10 -40 -30 -70.5t-49 -52.5t-66.5 -32t-82.5 -10l-150 -1q-57 1 -102 17.5t-78 51.5q-34 35 -50.5 84t-16.5 112q0 66 17 116.5t51 87.5q33 36 77 54t97 18h150q53 0 95 -18t75 -53t49.5 -85t16.5 -114v-10v-14h-387q2 -43 14 -75.5t34 -55.5
q8 -7 16 -13.5t16 -11.5q2 1 4.5 2.5t4.5 2.5q17 13 30.5 33t23.5 48h150v0zM282 309h139q-3 32 -11 57t-22 41q-7 10 -16 17.5t-19 13.5q-7 -4 -13.5 -9.5t-12.5 -11.5q-20 -20 -31.5 -47t-13.5 -61v0zM227 583l64 136h150h116l-108 -136h-150h-72v0z" />
    <glyph glyph-name="egrave" unicode="&#xe8;" horiz-adv-x="706" 
d="M570 166l91 -11q-10 -40 -30 -70.5t-49 -52.5t-66.5 -32t-82.5 -10l-150 -1q-57 1 -102 17.5t-78 51.5q-34 35 -50.5 84t-16.5 112q0 66 17 116.5t51 87.5q33 36 77 54t97 18h150q53 0 95 -18t75 -53t49.5 -85t16.5 -114v-10v-14h-387q2 -43 14 -75.5t34 -55.5
q8 -7 16 -13.5t16 -11.5q2 1 4.5 2.5t4.5 2.5q17 13 30.5 33t23.5 48h150v0zM282 309h139q-3 32 -11 57t-22 41q-7 10 -16 17.5t-19 13.5q-7 -4 -13.5 -9.5t-12.5 -11.5q-20 -20 -31.5 -47t-13.5 -61v0zM334 583h-70l-113 136h150h118l65 -136h-150v0z" />
    <glyph glyph-name="ecircumflex" unicode="&#xea;" horiz-adv-x="706" 
d="M570 166l91 -11q-10 -40 -30 -70.5t-49 -52.5t-66.5 -32t-82.5 -10l-150 -1q-57 1 -102 17.5t-78 51.5q-34 35 -50.5 84t-16.5 112q0 66 17 116.5t51 87.5q33 36 77 54t97 18h150q53 0 95 -18t75 -53t49.5 -85t16.5 -114v-10v-14h-387q2 -43 14 -75.5t34 -55.5
q8 -7 16 -13.5t16 -11.5q2 1 4.5 2.5t4.5 2.5q17 13 30.5 33t23.5 48h150v0zM282 309h139q-3 32 -11 57t-22 41q-7 10 -16 17.5t-19 13.5q-7 -4 -13.5 -9.5t-12.5 -11.5q-20 -20 -31.5 -47t-13.5 -61v0zM426 666l-55 -83h-41l-54 83h150v0z" />
    <glyph glyph-name="edieresis" unicode="&#xeb;" horiz-adv-x="706" 
d="M570 166l91 -11q-10 -40 -30 -70.5t-49 -52.5t-66.5 -32t-82.5 -10l-150 -1q-57 1 -102 17.5t-78 51.5q-34 35 -50.5 84t-16.5 112q0 66 17 116.5t51 87.5q33 36 77 54t97 18h150q53 0 95 -18t75 -53t49.5 -85t16.5 -114v-10v-14h-387q2 -43 14 -75.5t34 -55.5
q8 -7 16 -13.5t16 -11.5q2 1 4.5 2.5t4.5 2.5q17 13 30.5 33t23.5 48h150v0zM282 309h139q-3 32 -11 57t-22 41q-7 10 -16 17.5t-19 13.5q-7 -4 -13.5 -9.5t-12.5 -11.5q-20 -20 -31.5 -47t-13.5 -61v0zM138 620v100h150h92v-100h-150h-92v0zM320 620v100h150h92v-100h-150
h-92v0z" />
    <glyph glyph-name="iacute" unicode="&#xed;" horiz-adv-x="427" 
d="M96 0v518h150h88v-518h-150h-88v0zM92 583l65 136h150h115l-107 -136h-150h-73v0z" />
    <glyph glyph-name="igrave" unicode="&#xec;" horiz-adv-x="427" 
d="M96 0v518h150h88v-518h-150h-88v0zM200 583h-71l-112 136h150h117l66 -136h-150v0z" />
    <glyph glyph-name="icircumflex" unicode="&#xee;" horiz-adv-x="427" 
d="M96 0v518h150h88v-518h-150h-88v0zM292 666l-55 -83h-41l-54 83h150v0z" />
    <glyph glyph-name="idieresis" unicode="&#xef;" horiz-adv-x="427" 
d="M96 0v518h150h88v-518h-150h-88v0zM4 620v100h150h92v-100h-150h-92v0zM186 620v100h150h92v-100h-150h-92v0z" />
    <glyph glyph-name="ntilde" unicode="&#xf1;" horiz-adv-x="706" 
d="M295 454v-10h-150q29 43 70 64.5t95 21.5h150q23 0 45 -4.5t41 -12.5q20 -8 34.5 -19t24.5 -25q10 -13 16.5 -29.5t10.5 -35.5q2 -13 3.5 -34.5t1.5 -51.5v-318h-150h-88v315q0 27 -2.5 47t-7.5 33q-5 14 -14 24.5t-23 18.5q-12 7 -26.5 11t-30.5 5v0zM342 598
q-13 2 -29 9t-36 17q-16 8 -28 12.5t-20 4.5h150q-8 0 -14.5 -3t-11.5 -9q-6 -6 -8.5 -13.5t-2.5 -17.5v0z" />
    <glyph glyph-name="oacute" unicode="&#xf3;" horiz-adv-x="706" 
d="M33 259q0 72 20 125.5t60 87.5q33 29 74 43.5t89 14.5h150q53 0 97 -17.5t78 -52.5t51 -83.5t17 -110.5q0 -50 -7.5 -89t-22.5 -68q-16 -29 -37.5 -51t-50.5 -38q-28 -16 -59.5 -23t-65.5 -7l-150 -1q-55 1 -98.5 17.5t-77.5 51.5t-50.5 85t-16.5 116v0zM273 259
q0 -50 11 -87t32 -62q8 -9 16.5 -16.5t17.5 -12.5q10 5 18.5 12.5t16.5 16.5q22 25 32.5 63t10.5 89q0 48 -10.5 84t-32.5 61q-8 9 -17 16.5t-19 13.5q-3 -2 -5.5 -4t-5.5 -4q-6 -5 -11.5 -10t-10.5 -11q-21 -25 -32 -62t-11 -87v0zM227 583l65 136h150h115l-107 -136h-150
h-73v0z" />
    <glyph glyph-name="ograve" unicode="&#xf2;" horiz-adv-x="706" 
d="M33 259q0 72 20 125.5t60 87.5q33 29 74 43.5t89 14.5h150q53 0 97 -17.5t78 -52.5t51 -83.5t17 -110.5q0 -50 -7.5 -89t-22.5 -68q-16 -29 -37.5 -51t-50.5 -38q-28 -16 -59.5 -23t-65.5 -7l-150 -1q-55 1 -98.5 17.5t-77.5 51.5t-50.5 85t-16.5 116v0zM273 259
q0 -50 11 -87t32 -62q8 -9 16.5 -16.5t17.5 -12.5q10 5 18.5 12.5t16.5 16.5q22 25 32.5 63t10.5 89q0 48 -10.5 84t-32.5 61q-8 9 -17 16.5t-19 13.5q-3 -2 -5.5 -4t-5.5 -4q-6 -5 -11.5 -10t-10.5 -11q-21 -25 -32 -62t-11 -87v0zM335 583h-71l-113 136h150h118l66 -136
h-150v0z" />
    <glyph glyph-name="ocircumflex" unicode="&#xf4;" horiz-adv-x="706" 
d="M33 259q0 72 20 125.5t60 87.5q33 29 74 43.5t89 14.5h150q53 0 97 -17.5t78 -52.5t51 -83.5t17 -110.5q0 -50 -7.5 -89t-22.5 -68q-16 -29 -37.5 -51t-50.5 -38q-28 -16 -59.5 -23t-65.5 -7l-150 -1q-55 1 -98.5 17.5t-77.5 51.5t-50.5 85t-16.5 116v0zM273 259
q0 -50 11 -87t32 -62q8 -9 16.5 -16.5t17.5 -12.5q10 5 18.5 12.5t16.5 16.5q22 25 32.5 63t10.5 89q0 48 -10.5 84t-32.5 61q-8 9 -17 16.5t-19 13.5q-3 -2 -5.5 -4t-5.5 -4q-6 -5 -11.5 -10t-10.5 -11q-21 -25 -32 -62t-11 -87v0zM427 666l-55 -83h-41l-54 83h150v0z" />
    <glyph glyph-name="odieresis" unicode="&#xf6;" horiz-adv-x="706" 
d="M33 259q0 72 20 125.5t60 87.5q33 29 74 43.5t89 14.5h150q53 0 97 -17.5t78 -52.5t51 -83.5t17 -110.5q0 -50 -7.5 -89t-22.5 -68q-16 -29 -37.5 -51t-50.5 -38q-28 -16 -59.5 -23t-65.5 -7l-150 -1q-55 1 -98.5 17.5t-77.5 51.5t-50.5 85t-16.5 116v0zM273 259
q0 -50 11 -87t32 -62q8 -9 16.5 -16.5t17.5 -12.5q10 5 18.5 12.5t16.5 16.5q22 25 32.5 63t10.5 89q0 48 -10.5 84t-32.5 61q-8 9 -17 16.5t-19 13.5q-3 -2 -5.5 -4t-5.5 -4q-6 -5 -11.5 -10t-10.5 -11q-21 -25 -32 -62t-11 -87v0zM139 620v100h150h91v-100h-150h-91v0z
M321 620v100h150h92v-100h-150h-92v0z" />
    <glyph glyph-name="otilde" unicode="&#xf5;" horiz-adv-x="706" 
d="M33 259q0 72 20 125.5t60 87.5q33 29 74 43.5t89 14.5h150q53 0 97 -17.5t78 -52.5t51 -83.5t17 -110.5q0 -50 -7.5 -89t-22.5 -68q-16 -29 -37.5 -51t-50.5 -38q-28 -16 -59.5 -23t-65.5 -7l-150 -1q-55 1 -98.5 17.5t-77.5 51.5t-50.5 85t-16.5 116v0zM273 259
q0 -50 11 -87t32 -62q8 -9 16.5 -16.5t17.5 -12.5q10 5 18.5 12.5t16.5 16.5q22 25 32.5 63t10.5 89q0 48 -10.5 84t-32.5 61q-8 9 -17 16.5t-19 13.5q-3 -2 -5.5 -4t-5.5 -4q-6 -5 -11.5 -10t-10.5 -11q-21 -25 -32 -62t-11 -87v0zM327 598q-13 2 -29.5 8.5t-35.5 17.5
q-16 8 -28 12.5t-20 4.5h150q-8 0 -15 -3t-12 -9t-7.5 -13.5t-2.5 -17.5v0z" />
    <glyph glyph-name="uacute" unicode="&#xfa;" horiz-adv-x="706" 
d="M459 0q-16 -4 -32.5 -7t-35.5 -3l-150 -1q-23 1 -44.5 5t-41.5 11q-20 9 -34.5 20.5t-24.5 24.5t-16.5 29.5t-10.5 35.5q-3 13 -4.5 33.5t-1.5 48.5v321h150h88v-288q0 -34 1.5 -57t4.5 -35q4 -16 11.5 -28.5t18.5 -22.5q16 9 27 22.5t18 29.5q7 17 10.5 42.5t3.5 58.5
v278h150h88v-518h-150h-25v0zM221 583l65 136h150h115l-108 -136h-150h-72v0z" />
    <glyph glyph-name="ugrave" unicode="&#xf9;" horiz-adv-x="706" 
d="M459 0q-16 -4 -32.5 -7t-35.5 -3l-150 -1q-23 1 -44.5 5t-41.5 11q-20 9 -34.5 20.5t-24.5 24.5t-16.5 29.5t-10.5 35.5q-3 13 -4.5 33.5t-1.5 48.5v321h150h88v-288q0 -34 1.5 -57t4.5 -35q4 -16 11.5 -28.5t18.5 -22.5q16 9 27 22.5t18 29.5q7 17 10.5 42.5t3.5 58.5
v278h150h88v-518h-150h-25v0zM355 583h-71l-113 136h150h118l66 -136h-150v0z" />
    <glyph glyph-name="ucircumflex" unicode="&#xfb;" horiz-adv-x="706" 
d="M459 0q-16 -4 -32.5 -7t-35.5 -3l-150 -1q-23 1 -44.5 5t-41.5 11q-20 9 -34.5 20.5t-24.5 24.5t-16.5 29.5t-10.5 35.5q-3 13 -4.5 33.5t-1.5 48.5v321h150h88v-288q0 -34 1.5 -57t4.5 -35q4 -16 11.5 -28.5t18.5 -22.5q16 9 27 22.5t18 29.5q7 17 10.5 42.5t3.5 58.5
v278h150h88v-518h-150h-25v0zM425 666l-55 -83h-41l-54 83h150v0z" />
    <glyph glyph-name="udieresis" unicode="&#xfc;" horiz-adv-x="706" 
d="M459 0q-16 -4 -32.5 -7t-35.5 -3l-150 -1q-23 1 -44.5 5t-41.5 11q-20 9 -34.5 20.5t-24.5 24.5t-16.5 29.5t-10.5 35.5q-3 13 -4.5 33.5t-1.5 48.5v321h150h88v-288q0 -34 1.5 -57t4.5 -35q4 -16 11.5 -28.5t18.5 -22.5q16 9 27 22.5t18 29.5q7 17 10.5 42.5t3.5 58.5
v278h150h88v-518h-150h-25v0zM137 620v100h150h92v-100h-150h-92v0zM319 620v100h150h92v-100h-150h-92v0z" />
    <glyph glyph-name="dagger" unicode="&#x2020;" horiz-adv-x="706" 
d="M230 -168v590h-195v78h195v199h150h88v-199h196v-78h-196v-590h-150h-88v0z" />
    <glyph glyph-name="degree" horiz-adv-x="549" 
d="M62 592q0 29 10 53t30 43q20 20 43.5 30t51.5 10h150q29 0 53 -10t43 -30q20 -19 30 -43t10 -53q0 -28 -10 -52t-30 -44q-19 -19 -43 -29t-53 -10h-150q-28 0 -51.5 10t-43.5 29q-20 20 -30 44t-10 52v0zM265 592q0 -10 1.5 -18.5t5.5 -16.5q4 8 6 16.5t2 18.5t-1.5 19
t-6.5 17q-3 -8 -5 -17t-2 -19v0z" />
    <glyph glyph-name="cent" unicode="&#xa2;" horiz-adv-x="706" 
d="M513 436l-109 -374q8 -2 15.5 -3t14.5 -1h-150q26 0 47.5 8.5t40.5 25.5q18 17 29.5 41.5t15.5 55.5h150l87 -9q-7 -46 -26.5 -81t-49.5 -61t-65.5 -38t-76.5 -12l-150 -1q-12 1 -24.5 3t-26.5 5l150 -1l-57 -193h-150l-55 15l56 194q-28 14 -51 36t-41 53
q-17 32 -26 71.5t-9 85.5q0 44 7 81.5t21 68.5t36 54t50 39q29 16 57.5 23.5t58.5 7.5h150q8 0 20.5 -1t28.5 -3h-150l55 189h150l53 -15l-54 -189q24 -10 42.5 -24.5t31.5 -32.5q13 -17 22 -39.5t14 -48.5l-85 -13h-150q-7 27 -18.5 47.5t-28.5 35.5h150v0zM311 458
q-8 1 -14 1.5t-10 0.5h150q-20 0 -39 -5.5t-36 -16.5q-18 -11 -31 -28.5t-22 -40.5q-8 -23 -12.5 -50t-4.5 -58q0 -32 4 -59.5t12 -49.5t19 -38.5t25 -27.5h-150l109 372v0z" />
    <glyph glyph-name="sterling" unicode="&#xa3;" horiz-adv-x="706" 
d="M343 395h154v-73h-139q2 -5 4 -10.5t3 -10.5q1 -6 1.5 -11.5t0.5 -10.5q0 -21 -4.5 -43.5t-15.5 -46.5q-10 -23 -27 -47t-40 -49h-150q20 5 37.5 8t33.5 3h150q20 0 43 -3.5t48 -9.5q7 -1 13.5 -2.5t12.5 -3.5q8 3 16 6.5t16 7.5h150l28 -81q-22 -10 -39.5 -15t-30.5 -8
q-6 -2 -12 -3l-12 -2q-7 0 -13 -0.5t-12 -0.5l-150 -1q-5 1 -10 1.5t-10 0.5q-6 1 -11 1.5t-10 1.5q-7 1 -22.5 5t-41.5 11q-10 3 -18.5 5.5t-16.5 4.5q1 0 0.5 0h-0.5v0v0q-20 -6 -38 -13.5t-35 -17.5l-150 -1l-33 83q23 14 43 32t36 42q17 24 25 53.5t8 64.5q0 14 -2 29
t-6 31h-96v73h75q-8 27 -13 47t-7 32q-2 13 -3.5 25t-1.5 24q0 51 19 91t56 68q30 23 67 34.5t80 11.5h150q44 0 80.5 -12.5t65.5 -36.5t46 -58.5t24 -78.5l-87 -13h-150q-4 29 -15 52.5t-29 40.5q-3 3 -6 5.5t-7 4.5q-2 -1 -3.5 -2.5t-3.5 -2.5l-3.5 -3.5l-3.5 -3.5
q-18 -17 -27 -38t-9 -46q0 -27 7 -62t21 -79v0z" />
    <glyph glyph-name="section" unicode="&#xa7;" horiz-adv-x="706" 
d="M69 -34l89 13h150q7 -31 17.5 -53t25.5 -35l0.5 -0.5l1.5 -1.5q1 0 1.5 -0.5l0.5 -0.5q1 0 1.5 0.5t1.5 0.5v0.5v0.5q1 0 1.5 0.5l0.5 0.5q14 13 21 27.5t7 31.5q0 13 -4.5 24t-12.5 22q-16 17 -57 46.5t-109 71.5q-37 22 -62 39.5t-39 29.5q-14 13 -26 28t-21 32
t-13.5 34.5t-4.5 36.5q0 23 7.5 44.5t21.5 40.5q15 19 35.5 32.5t45.5 20.5q-17 17 -29 32.5t-20 28.5q-7 14 -10.5 29t-3.5 31q0 32 12 59t37 50q24 23 56.5 34.5t72.5 11.5h150q46 0 82 -11t61 -33q26 -22 41 -53.5t20 -72.5l-91 -9h-150q-4 27 -12.5 46.5t-19.5 32.5
q-11 -11 -17 -23.5t-6 -26.5q0 -13 4 -24.5t13 -22.5q14 -16 51.5 -43t98.5 -65q38 -24 64 -41t39 -28q17 -14 30 -29t21 -31t12.5 -33t4.5 -35q0 -28 -9 -51t-27 -43q-10 -12 -29 -23.5t-46 -22.5q20 -14 34 -30.5t24 -33.5q10 -16 15 -34t5 -37q0 -21 -6.5 -41.5
t-18.5 -39.5q-12 -20 -29.5 -34.5t-40.5 -24.5t-48 -15t-51 -5l-150 -1q-46 1 -83.5 13t-64.5 35q-28 23 -44.5 55.5t-21.5 73.5v-1zM417 176q5 8 7.5 16.5t2.5 17.5q0 14 -6.5 28.5t-19.5 30.5q-13 15 -40.5 35.5t-69.5 46.5q-4 2 -7.5 4.5t-7.5 4.5q-4 -8 -5.5 -17
t-1.5 -19q0 -16 5.5 -30.5t16.5 -28.5t36.5 -32.5t64.5 -41.5q7 -4 13 -7.5t12 -7.5v0z" />
    <glyph glyph-name="bullet" horiz-adv-x="500" 
d="M53 350q0 26 9 47.5t27 39.5q18 19 40 28t47 9h150q26 0 48 -9t40 -28q18 -18 27 -39.5t9 -47.5q0 -25 -9 -47t-27 -41q-18 -18 -40 -27t-48 -9h-150q-25 0 -47 9t-40 27q-18 19 -27 41t-9 47v0z" />
    <glyph glyph-name="paragraph" unicode="&#xb6;" horiz-adv-x="687" 
d="M197 -198v509q-46 2 -82 17t-62 42q-26 28 -39.5 62.5t-13.5 76.5q0 47 15 84.5t44 65.5q29 29 72 42.5t100 13.5h150h309v-84h-70v-829h-150h-42v0h-150h-81v0z" />
    <glyph glyph-name="germandbls" unicode="&#xdf;" horiz-adv-x="760" 
d="M74 0v487q0 45 5.5 79.5t16.5 58.5t29 43t43 32q26 14 54.5 21t60.5 7h150q42 0 75 -11t58 -32q24 -21 36 -45t12 -53q0 -12 -2 -24.5t-7 -26.5q-4 -13 -12 -29.5t-19 -36.5q-11 -19 -18.5 -32.5t-10.5 -21.5q-2 -7 -3.5 -14.5t-1.5 -12.5q0 -8 2.5 -15.5t7.5 -15.5
t20 -20t39 -27q33 -22 55.5 -39.5t33.5 -30.5q15 -19 23 -41t8 -48q0 -34 -12.5 -63t-37.5 -53q-25 -25 -57 -36t-71 -11l-150 -1q-25 1 -47 6t-42 15v-9h-150h-88v0z" />
    <glyph glyph-name="registered" unicode="&#xae;" horiz-adv-x="886" 
d="M520 728q46 0 91.5 -12t89.5 -36t78.5 -58t58.5 -78q25 -44 37.5 -90.5t12.5 -94.5t-12 -93.5t-37 -89.5q-24 -44 -58 -78t-78 -59q-43 -24 -89.5 -35t-93.5 -11l-150 -1q-48 1 -94 12t-90 35q-43 25 -77.5 59t-58.5 78q-25 44 -37 89.5t-12 93.5t12.5 94.5t37.5 90.5
t59.5 78t77.5 58q44 24 90 36t92 12h150v0zM444 657q-9 -3 -18.5 -6t-19.5 -7q-10 -3 -19.5 -7.5t-18.5 -9.5q-36 -20 -65 -48.5t-49 -65.5q-21 -37 -31.5 -75.5t-10.5 -78.5t10.5 -78t30.5 -75q20 -36 48.5 -64.5t65.5 -48.5q19 -11 38.5 -19t39.5 -13q20 5 39 13t38 19
q37 20 65.5 48.5t48.5 64.5q20 37 30.5 75t10.5 78t-10.5 78.5t-31.5 75.5q-20 37 -48.5 65.5t-66.5 48.5q-19 10 -37.5 17.5t-38.5 12.5v0zM208 155v397h150h136q35 0 60 -3t41 -8q16 -6 28.5 -15.5t21.5 -23.5q9 -13 14 -27.5t5 -30.5q0 -22 -8 -40.5t-23 -34.5
q-16 -16 -36.5 -25t-46.5 -11q11 -4 19 -9.5t15 -11.5q12 -12 26.5 -32t32.5 -47l48 -78h-150h-78l-35 63q-1 3 -2.5 5.5t-3.5 4.5v-73h-150h-64v0zM422 392l0.5 0.5l1.5 1.5q1 0 1.5 0.5l0.5 0.5q10 8 15 19.5t5 24.5q0 9 -2.5 16.5t-7.5 14.5q-3 5 -6 8.5t-8 5.5v-92v0z
" />
    <glyph glyph-name="copyright" unicode="&#xa9;" horiz-adv-x="886" 
d="M520 728q46 0 91.5 -12t89.5 -36t78.5 -58t58.5 -78q25 -44 37.5 -90.5t12.5 -94.5t-12 -93.5t-37 -89.5q-24 -44 -58 -78t-78 -59q-43 -24 -89.5 -35t-93.5 -11l-150 -1q-48 1 -94 12t-90 35q-43 25 -77.5 59t-58.5 78q-25 44 -37 89.5t-12 93.5t12.5 94.5t37.5 90.5
t59.5 78t77.5 58q44 24 90 36t92 12h150v0zM444 657q-9 -3 -18.5 -6t-19.5 -7q-10 -3 -19.5 -7.5t-18.5 -9.5q-36 -20 -65 -48.5t-49 -65.5q-21 -37 -31.5 -75.5t-10.5 -78.5t10.5 -78t30.5 -75q20 -36 48.5 -64.5t65.5 -48.5q19 -11 38.5 -19t39.5 -13q20 5 39 13t38 19
q37 20 65.5 48.5t48.5 64.5q20 37 30.5 75t10.5 78t-10.5 78.5t-31.5 75.5q-20 37 -48.5 65.5t-66.5 48.5q-19 10 -37.5 17.5t-38.5 12.5v0zM638 299l60 -17q-7 -31 -23 -55t-39 -43q-24 -18 -53 -27t-63 -9h-150q-43 0 -78 14t-62 42q-26 28 -39.5 66.5t-13.5 87.5
q0 32 6 60t18 52t30 42t40 30q23 12 48.5 18t54.5 6h150q32 0 59 -7.5t49 -23.5t36.5 -37t22.5 -47l-59 -14h-150q-6 16 -15 28t-21 22l-4 -4l-4 -4l-4 -4l-4 -4q-19 -20 -28 -48.5t-9 -66.5q0 -37 9 -65t26 -48l7.5 -7.5t7.5 -6.5v0.5t1 0.5v0v0q17 13 28 30t16 39h150v0z
" />
    <glyph glyph-name="trademark" unicode="&#x2122;" horiz-adv-x="1150" 
d="M238 317v339h-129v59h150h326v-59h-130v-339h-150h-67v0zM690 440l84 275h150h96v-398h-150h-13v0h-150h-60l-107 339h150v-216v0z" />
    <glyph glyph-name="acute" unicode="&#xb4;" horiz-adv-x="483" 
d="M108 583l65 136h150h115l-107 -136h-150h-73v0z" />
    <glyph glyph-name="dieresis" unicode="&#xa8;" horiz-adv-x="483" 
d="M29 620v100h150h92v-100h-150h-92v0zM211 620v100h150h92v-100h-150h-92v0z" />
    <glyph glyph-name="notequal" unicode="&#x2260;" 
 />
    <glyph glyph-name="AE" unicode="&#xc6;" horiz-adv-x="1150" 
d="M0 0l344 715h150h588v-84h-360v-220h334v-84h-334v-243h373v-84h-150h-468v206h-127l-97 -206h-150h-103v0zM390 290h87v179l-87 -179v0z" />
    <glyph glyph-name="Oslash" unicode="&#xd8;" horiz-adv-x="927" 
d="M661 708l31 34h150l48 -41l-86 -97q21 -31 35.5 -58.5t21.5 -50.5q9 -31 14 -65.5t5 -72.5q0 -55 -10.5 -104t-33.5 -92q-22 -43 -53 -75t-72 -55q-40 -22 -82.5 -32t-87.5 -10l-150 -1q-34 1 -64.5 5.5t-57.5 12.5v0v0l-31 -34h-150l-48 40l86 96q-24 36 -40 67.5
t-24 56.5q-8 26 -12 57t-4 67q0 56 11 104.5t33 91.5q22 44 52.5 76.5t70.5 54.5q40 23 84 34t93 11h150q32 0 60.5 -4.5t53.5 -13.5q1 0 2 -0.5t2 -0.5q0 -1 1 -1h2v0zM630 409l-251 -282q18 -15 35.5 -26t33.5 -17q4 -1 7.5 -2.5t7.5 -2.5q29 8 53.5 24.5t46.5 40.5
q35 38 52.5 90.5t17.5 119.5q0 14 -0.5 28t-2.5 27v0zM551 584q-22 18 -42.5 30.5t-37.5 18.5q-1 0 -2 0.5t-1 1.5q-1 0 -2 0.5t-2 0.5q-28 -9 -53.5 -24t-47.5 -38q-34 -36 -51.5 -90.5t-17.5 -126.5q0 -16 1 -30l2 -28l254 285v0z" />
    <glyph glyph-name="infinity" unicode="&#x221e;" 
 />
    <glyph glyph-name="plusminus" unicode="&#xb1;" horiz-adv-x="698" 
d="M510 0h-472v82h150h472v-82h-150v0zM232 126v197h-194v82h194v195h150h83v-195h195v-82h-195v-197h-150h-83v0z" />
    <glyph glyph-name="lessequal" unicode="&#x2264;" 
 />
    <glyph glyph-name="greaterequal" unicode="&#x2265;" 
 />
    <glyph glyph-name="yen" unicode="&#xa5;" horiz-adv-x="706" 
d="M232 0v158h-202v68h202v70h-202v72h166l-197 347h150h97l103 -183l99 183h150h105l-198 -347h166v-72h-201v-70h201v-68h-201v-158h-150h-88v0z" />
    <glyph glyph-name="mu" unicode="&#xb5;" horiz-adv-x="726" 
d="M647 518v-518h-150h-79v61h150q-13 -19 -25.5 -32.5t-24.5 -21.5q-18 -8 -37.5 -13t-42.5 -5l-150 -1q-20 1 -38 4.5t-34 10.5q-12 6 -24.5 18.5t-26.5 30.5h150v-250h-150h-87v716h150h87v-220q0 -59 3 -98t9 -57q6 -15 14.5 -27.5t18.5 -22.5q14 11 23 23.5t14 27.5
q7 17 10 55t3 98v221h150h87v0z" />
    <glyph glyph-name="partialdiff" unicode="&#x2202;" 
 />
    <glyph glyph-name="summation" unicode="&#x3a3;" 
 />
    <glyph glyph-name="product" unicode="&#x220f;" 
 />
    <glyph glyph-name="pi" unicode="&#x3c0;" 
 />
    <glyph glyph-name="integral" unicode="&#x222b;" 
 />
    <glyph glyph-name="ordfeminine" unicode="&#xaa;" horiz-adv-x="520" 
d="M417 416q-17 -15 -35 -26t-36 -17h-68q-5 9 -8 20t-3 23h150v0zM258 501q-7 -7 -10 -14t-3 -16v-1.5v-0.5v-1.5v-1.5q4 5 6.5 10.5t4.5 11.5q0 1 0.5 2t0.5 3t0.5 4t0.5 4v0z" />
    <glyph glyph-name="ordmasculine" unicode="&#xba;" horiz-adv-x="515" 
d="M332 728q35 0 64 -12.5t51 -36.5q23 -25 34 -58.5t11 -76.5t-11 -76.5t-34 -57.5q-22 -25 -51 -37t-64 -12h-150q-35 0 -64 12t-52 36q-22 24 -33.5 57t-11.5 76q0 44 11.5 78t33.5 59q23 24 51.5 36.5t64.5 12.5h150v0zM256 616q-6 -13 -9 -31t-3 -41q0 -22 3 -39.5
t9 -31.5q7 14 10.5 32.5t3.5 40.5t-3.5 39.5t-10.5 30.5v0z" />
    <glyph glyph-name="Omega" unicode="&#x3a9;" 
 />
    <glyph glyph-name="ae" unicode="&#xe6;" horiz-adv-x="1039" 
d="M996 158q-12 -40 -33 -71.5t-50 -54.5q-29 -22 -65 -32t-80 -10l-150 -1q-31 1 -58.5 6.5t-50.5 15.5l-4 2t-4 3q-3 1 -5 2.5t-4 2.5q-3 -1 -5.5 -2.5t-4.5 -2.5q-2 -2 -4.5 -3t-5.5 -2q-26 -10 -54 -15.5t-58 -5.5l-150 -1q-42 1 -75 10.5t-56 31.5t-34.5 48t-11.5 57
q0 21 6 40.5t18 38.5t28.5 32.5t38.5 23.5t56.5 17.5t81.5 13.5q36 5 67 11t56 13v5.5t1 5.5v4.5v4.5q0 31 -6.5 52.5t-19.5 33.5q-4 4 -8.5 7t-9.5 6q-12 -5 -21 -12t-15 -15q-7 -10 -13 -25t-11 -36h-150l-85 11q7 29 16.5 51.5t22.5 38.5q13 17 31.5 30t42.5 23
q24 9 52 14t59 5h150q32 0 58.5 -3.5t48.5 -11.5q19 8 41.5 11.5t48.5 3.5h150q39 0 72 -9.5t59 -29.5q26 -19 44.5 -44t30.5 -57q12 -31 18 -62t6 -62v-5v-7q-1 -4 -1 -8.5v-9.5h-374q0 -35 4.5 -60.5t12.5 -41.5t21 -29t31 -24h0.5h0.5q0 -1 0.5 -1h0.5q3 2 6 4.5t6 4.5
q18 14 30 34.5t18 46.5h150l92 -12v0zM387 225h-2h-2q-1 -1 -2 -1h-2q-27 -4 -45 -10.5t-29 -14.5q-15 -12 -22 -27t-7 -33q0 -17 6.5 -31.5t19.5 -26.5q2 -1 3.5 -2.5t3.5 -2.5l4 2l4 2t4 2.5t4 2.5q21 14 34.5 31.5t19.5 37.5q3 10 5 28t3 43v0zM623 309h135
q-4 38 -14.5 66.5t-29.5 45.5q-5 5 -10.5 9t-11.5 8q-7 -4 -13.5 -9t-12.5 -11q-19 -19 -30 -46.5t-13 -62.5v0z" />
    <glyph glyph-name="oslash" unicode="&#xf8;" horiz-adv-x="760" 
d="M482 529l17 21h150l47 -34l-52 -68q15 -21 25.5 -40t16.5 -36q8 -25 11.5 -53.5t3.5 -60.5q0 -73 -21 -126.5t-62 -88.5q-34 -27 -74 -40t-87 -13l-150 -1q-2 1 -4 1h-4h-5h-4l-21 -28h-150l-46 35l52 67q-7 8 -13 16.5t-12 17.5q-5 8 -9 16.5t-7 16.5q-10 26 -14.5 56
t-4.5 64q0 74 18 127t54 86t78 49.5t90 16.5h150h14.5t12.5 -1v0zM457 206l-88 -115q3 -3 6.5 -5.5t7.5 -4.5q9 6 17.5 13t16.5 16q16 17 26 41t14 55v0zM401 423q-2 2 -4.5 3.5t-4.5 3.5q-3 1 -5.5 3t-4.5 3q-9 -6 -17 -13.5t-16 -15.5q-17 -19 -27.5 -45.5t-14.5 -60.5
l94 122v0z" />
    <glyph glyph-name="questiondown" unicode="&#xbf;" horiz-adv-x="760" 
d="M502 342v-15v-10q0 -27 -3.5 -50t-11.5 -41q-5 -15 -13.5 -29.5t-20.5 -28.5q-9 -10 -25 -25.5t-39 -35.5q-22 -19 -37 -35.5t-22 -28.5t-10 -24.5t-3 -25.5q0 -26 10 -48.5t30 -41.5q5 -5 11 -9.5t12 -8.5q5 3 10 6.5t9 7.5q19 18 31 45t18 63h150l90 -9q-6 -49 -24 -87
t-48 -65q-31 -27 -70.5 -40.5t-88.5 -13.5l-150 -1q-53 1 -95 15t-73 43q-31 28 -46.5 62.5t-15.5 75.5q0 22 5.5 44t15.5 41q11 20 32.5 43.5t53.5 51.5q22 20 36 34t21 23t11.5 19.5t7.5 22.5q3 11 4.5 30.5t2.5 45.5h150h85v0zM507 518v-100h-150h-100v100h150h100v0z
" />
    <glyph glyph-name="exclamdown" unicode="&#xa1;" horiz-adv-x="483" 
d="M344 340l27 -378v-159h-150h-109v159l25 378h150h57v0zM367 518v-100h-150h-101v100h150h101v0z" />
    <glyph glyph-name="logicalnot" unicode="&#xac;" horiz-adv-x="733" 
d="M528 207h-83v213h-390v82h150h473v-295h-150v0z" />
    <glyph glyph-name="radical" unicode="&#x221a;" 
 />
    <glyph glyph-name="florin" unicode="&#x192;" horiz-adv-x="706" 
d="M22 -197l17 75h150q24 -4 42.5 -6.5t31.5 -2.5l-150 -1q14 1 24 4t17 10t12.5 22.5t9.5 38.5l86 507h-98l12 68h98l12 65q5 29 10.5 49.5t11.5 31.5q8 15 18.5 27t24.5 20t32.5 12.5t40.5 4.5h150q20 0 46 -5t59 -14l-17 -74h-150q-25 5 -44 8t-31 3h150q-13 0 -23.5 -3
t-17.5 -10t-12.5 -23t-10.5 -42l-9 -50h99l-12 -68h-99l-94 -533q-6 -35 -16.5 -60t-25.5 -38q-15 -14 -36 -21t-49 -7l-150 -1q-23 1 -50 4.5t-59 9.5v-1z" />
    <glyph glyph-name="approxequal" unicode="&#x2248;" 
 />
    <glyph glyph-name="Delta" unicode="&#x2206;" 
 />
    <glyph glyph-name="guillemotleft" unicode="&#xab;" horiz-adv-x="706" 
d="M316 257l126 -222h-150h-71l-156 222l156 223h150h72l-127 -223v0zM504 257l129 -222h-150h-74l-153 222l153 223h150h74l-129 -223v0z" />
    <glyph glyph-name="guillemotright" unicode="&#xbb;" horiz-adv-x="706" 
d="M197 257l-129 223h150h74l153 -223l-153 -222h-150h-74l129 222v0zM386 257l-128 223h150h73l155 -223l-155 -222h-150h-72l127 222v0z" />
    <glyph glyph-name="ellipsis" unicode="&#x2026;" horiz-adv-x="1150" 
d="M116 0v100h150h100v-100h-150h-100v0zM450 0v100h150h100v-100h-150h-100v0zM783 0v100h150h100v-100h-150h-100v0z" />
    <glyph glyph-name="Agrave" unicode="&#xc0;" horiz-adv-x="816" 
d="M-1 0l274 715h150h102l293 -715h-150h-108l-83 216h-150l-78 -216h-150h-100v0zM355 293h92l-46 124l-46 -124v0zM402 759h-71l-113 137h150h118l66 -137h-150v0z" />
    <glyph glyph-name="Atilde" unicode="&#xc3;" horiz-adv-x="816" 
d="M-1 0l274 715h150h102l293 -715h-150h-108l-83 216h-150l-78 -216h-150h-100v0zM355 293h92l-46 124l-46 -124v0zM385 763q-13 2 -29.5 8.5t-35.5 16.5q-16 9 -28 13.5t-20 4.5h150q-9 0 -15.5 -3t-11.5 -9q-5 -5 -7.5 -13t-2.5 -18v0z" />
    <glyph glyph-name="Otilde" unicode="&#xd5;" horiz-adv-x="927" 
d="M48 348q0 89 24 159t72 120q47 50 109 75.5t138 25.5h150q50 0 94 -12t84 -35q40 -24 70.5 -57t51.5 -75q20 -43 30.5 -91t10.5 -102t-10.5 -102.5t-33.5 -91.5q-22 -43 -52.5 -75.5t-71.5 -55.5q-40 -22 -83.5 -32t-90.5 -10l-150 -1q-50 1 -95 12.5t-86 35.5
q-40 25 -70 58t-50 75q-20 43 -30.5 87.5t-10.5 91.5v0zM295 347q0 -65 18 -116t52 -88q22 -23 47 -39t53 -25q29 9 54 25t47 40q35 38 52 91t17 122q0 44 -7.5 82t-22.5 71q-14 32 -35.5 57.5t-50.5 43.5q-13 8 -26 14t-27 10q-27 -8 -51.5 -22.5t-46.5 -35.5
q-36 -34 -54.5 -92t-18.5 -138v0zM442 763q-13 2 -29.5 8.5t-35.5 16.5q-16 9 -28 13.5t-20 4.5h150q-9 0 -15.5 -3t-11.5 -9q-5 -5 -7.5 -13t-2.5 -18v0z" />
    <glyph glyph-name="OE" unicode="&#x152;" horiz-adv-x="1150" 
d="M1118 84v-84h-150h-389q-18 -5 -37 -8t-40 -3l-150 -1q-73 1 -129 28.5t-94 84.5q-34 50 -50.5 114t-16.5 143t18 145t52 119q35 53 89.5 79.5t130.5 26.5h150q64 0 112.5 -27.5t82.5 -81.5h-150v96h150h406v-84h-318v-219h293v-84h-293v-244h333v0zM426 632
q-5 -3 -10.5 -6t-10.5 -7q-23 -16 -41 -40t-30 -56t-18 -75.5t-6 -96.5q0 -74 14.5 -128.5t42.5 -89.5q14 -16 28.5 -29t30.5 -22q17 9 32 22t28 29q28 35 41.5 92.5t13.5 137.5q0 75 -13.5 130t-42.5 89q-13 17 -28 29.5t-31 20.5v0z" />
    <glyph glyph-name="oe" unicode="&#x153;" horiz-adv-x="1093" 
d="M552 17q-1 -1 -2.5 -1.5t-2.5 -0.5l-3 -1.5t-2 -1.5q-25 -11 -52 -16.5t-56 -5.5l-150 -1q-55 1 -99.5 17.5t-77.5 51.5q-34 35 -50.5 83.5t-16.5 110.5q0 41 7 78.5t21 69.5q14 33 36 57.5t51 40.5t61.5 24t68.5 8h150q34 0 63 -7t54 -21h0.5h0.5q0 -1 0.5 -1h0.5
l0.5 0.5t1.5 0.5l0.5 0.5l0.5 0.5q25 14 52.5 20.5t57.5 6.5h150q54 0 97.5 -18.5t76.5 -55.5t49.5 -92t15.5 -129h-383q1 -40 12.5 -72t33.5 -56q8 -8 16 -15t16 -12q2 1 3 2l2 2q2 0 3 1l2 2q17 14 30 34t21 47h150l87 -12q-10 -40 -29.5 -71t-48.5 -54
q-28 -22 -64.5 -31.5t-80.5 -9.5l-150 -1q-32 1 -61.5 6.5t-55.5 17.5q-1 0 -2 0.5t-1 1.5q-1 1 -2 1.5t-2 0.5v0zM280 260q0 -46 8.5 -80.5t26.5 -57.5q9 -13 19 -22.5t21 -17.5q9 6 18 13.5t16 16.5q23 26 34 63t11 86q0 48 -11 84.5t-33 61.5q-7 9 -16 16.5t-18 13.5
l-1.5 -1.5l-1.5 -1.5q-18 -12 -31.5 -30t-22.5 -41q-10 -23 -14.5 -49t-4.5 -54v0zM677 308h136q-2 37 -13 64.5t-31 46.5q-5 5 -10.5 9.5t-11.5 8.5q-6 -4 -12 -9t-12 -11q-20 -19 -32 -46.5t-14 -62.5v0z" />
    <glyph glyph-name="endash" horiz-adv-x="706" 
d="M-1 223v71h150h555v-71h-150h-555v0z" />
    <glyph glyph-name="emdash" unicode="&#x2014;" horiz-adv-x="1150" 
d="M0 223v71h150h1000v-71h-150h-1000v0z" />
    <glyph glyph-name="quotedblleft" unicode="&#x201c;" horiz-adv-x="483" 
d="M284 595v-102h-150h-94v81q0 32 4 55.5t12 38.5q10 20 26.5 35t38.5 25h150l21 -35q-13 -5 -23 -13.5t-16 -19.5q-7 -11 -10.5 -27t-4.5 -38h46v0zM436 595v-102h-150h-95v81q0 32 4 55.5t12 38.5q11 20 27 35t38 25h150l21 -35q-13 -5 -23 -13.5t-16 -19.5
q-7 -11 -10 -27t-4 -38h46v0z" />
    <glyph glyph-name="quotedblright" unicode="&#x201d;" horiz-adv-x="483" 
d="M42 621v102h150h94v-81q0 -33 -3.5 -56.5t-11.5 -37.5q-10 -20 -26.5 -35t-38.5 -25h-150l-22 35q14 5 23.5 13.5t15.5 20.5q7 11 10.5 27.5t4.5 36.5h-46v0zM193 621v102h150h95v-81q0 -33 -4 -56.5t-12 -37.5q-10 -20 -26.5 -35t-38.5 -25h-150l-21 35q13 5 22.5 13.5
t16.5 20.5q6 11 9.5 27.5t4.5 36.5h-46v0z" />
    <glyph glyph-name="quoteleft" unicode="&#x2018;" horiz-adv-x="372" 
d="M306 595v-102h-150h-94v81q0 32 4 55.5t12 38.5q10 20 26.5 35t38.5 25h150l21 -35q-13 -5 -23 -13.5t-16 -19.5q-7 -11 -10.5 -27t-4.5 -38h46v0z" />
    <glyph glyph-name="quoteright" unicode="&#x2019;" horiz-adv-x="372" 
d="M60 621v102h150h94v-81q0 -33 -3.5 -56.5t-11.5 -37.5q-10 -20 -26.5 -35t-38.5 -25h-150l-22 35q14 5 23.5 13.5t16.5 20.5q6 11 9.5 27.5t4.5 36.5h-46v0z" />
    <glyph glyph-name="divide" unicode="&#xf7;" horiz-adv-x="698" 
d="M224 155v100h150h100v-100h-150h-100v0zM510 312h-472v82h150h472v-82h-150v0zM224 450v100h150h100v-100h-150h-100v0z" />
    <glyph glyph-name="lozenge" unicode="&#x25ca;" 
 />
    <glyph glyph-name="ydieresis" unicode="&#xff;" horiz-adv-x="650" 
d="M62 -199l-10 82h150q14 -3 27 -5t23 -2l-150 -1q15 1 26.5 3.5t20.5 7.5t16 12t13 16q4 7 10.5 23t16.5 42q1 4 2.5 9t4.5 12l-196 518h150h94l71 -197l72 197h150h88l-198 -526q-16 -42 -28 -71.5t-21 -45.5q-11 -22 -24.5 -38t-29.5 -26q-15 -10 -33 -15t-39 -5
l-150 -1q-13 1 -27 4t-29 8v-1zM118 620v100h150h92v-100h-150h-92v0zM300 620v100h150h92v-100h-150h-92v0z" />
    <glyph glyph-name="Ydieresis" unicode="&#x178;" horiz-adv-x="816" 
d="M278 0v303l-276 412h150h116l140 -213q0 1 0.5 1.5l1.5 1.5l138 210h150h111l-286 -412v-303h-150h-95v0zM193 759v100h150h92v-100h-150h-92v0zM375 759v100h150h92v-100h-150h-92v0z" />
    <glyph glyph-name="fraction" unicode="&#x2215;" 
 />
    <glyph glyph-name="currency" unicode="&#xa4;" horiz-adv-x="706" 
d="M104 469l-68 66l56 58h150l32 -32v0h1v0v0h150h0.5h0.5h0.5h0.5l32 32h150l57 -58l-68 -66q17 -27 25.5 -56t8.5 -59q0 -31 -8.5 -60t-25.5 -55l68 -67l-57 -58h-150l-32 33h-0.5h-0.5h-0.5h-0.5h-150v0h-1l-32 -33h-150l-56 58l68 67q-18 26 -26.5 55t-8.5 60
q0 30 8.5 59t26.5 56v0zM298 354q0 -26 9.5 -48.5t28.5 -41.5q3 -4 6.5 -7t7.5 -5q2 1 3.5 2.5t3.5 2.5l3.5 3.5l3.5 3.5q19 19 28 41.5t9 48.5t-9 48.5t-28 40.5q-3 4 -6.5 7t-7.5 6q-2 -1 -3.5 -3t-3.5 -3l-3.5 -3.5l-3.5 -3.5q-19 -18 -28.5 -40.5t-9.5 -48.5v0z" />
    <glyph glyph-name="guilsinglleft" unicode="&#x2039;" horiz-adv-x="483" 
d="M292 257l129 -222h-150h-73l-154 222l154 223h150h73l-129 -223v0z" />
    <glyph glyph-name="guilsinglright" unicode="&#x203a;" horiz-adv-x="483" 
d="M191 258l-129 222h150h72l149 -219l-149 -226h-150h-72l129 223v0z" />
    <glyph glyph-name="fi" unicode="&#xf001;" 
 />
    <glyph glyph-name="fl" unicode="&#xf002;" 
 />
    <glyph glyph-name="daggerdbl" unicode="&#x2021;" horiz-adv-x="706" 
d="M231 -168v179h-196v79h196v354h-196v78h196v184h150h88v-184h197v-78h-197v-354h197v-79h-197v-179h-150h-88v0z" />
    <glyph glyph-name="periodcentered" unicode="&#x2219;" horiz-adv-x="427" 
d="M90 302v100h150h100v-100h-150h-100v0z" />
    <glyph glyph-name="quotesinglbase" unicode="&#x201a;" horiz-adv-x="372" 
d="M60 0v102h150h94v-81q0 -31 -3.5 -54t-11.5 -38q-10 -20 -26.5 -35t-38.5 -25l-150 -1l-22 35q14 6 23.5 14.5t16.5 20.5q6 11 9.5 27t4.5 35h-46v0z" />
    <glyph glyph-name="quotedblbase" unicode="&#x201e;" horiz-adv-x="483" 
d="M42 0v102h150h94v-81q0 -31 -3.5 -54t-11.5 -38q-10 -20 -26.5 -35t-38.5 -25l-150 -1l-22 35q14 6 23.5 14.5t15.5 20.5q7 11 10.5 27t4.5 35h-46v0zM193 0v102h150h95v-81q0 -31 -4 -54t-12 -38q-10 -20 -26.5 -35t-38.5 -25l-150 -1l-21 35q13 6 22.5 14.5t16.5 20.5
q6 11 9.5 27t4.5 35h-46v0z" />
    <glyph glyph-name="perthousand" unicode="&#x2030;" horiz-adv-x="1150" 
d="M156 -26l293 754h150h64l-293 -754h-150h-64v0zM372 164q0 48 9.5 83.5t28.5 57.5q20 22 45 33t56 11h150q32 0 57.5 -11t44.5 -33q20 -22 29.5 -57t9.5 -82q0 -48 -8.5 -84t-25.5 -61q-17 -22 -43.5 -34t-61.5 -12l-150 -1q-31 1 -56.5 12t-45.5 32q-19 23 -29 59.5
t-10 86.5v0zM594 160q0 -37 5 -62t15 -38q9 -13 22 -19.5t29 -6.5h-150q14 0 25 5.5t19 16.5q11 14 16 40.5t5 64.5q0 37 -5.5 63t-16.5 42q-9 11 -20 17t-25 6h150q-16 0 -27.5 -6t-19.5 -17q-11 -15 -16.5 -41.5t-5.5 -64.5v0zM701 164q0 48 9.5 83.5t28.5 57.5
q20 22 45.5 33t56.5 11h150q31 0 56.5 -11t44.5 -33q20 -22 29.5 -57t9.5 -82q0 -48 -8.5 -84t-25.5 -61q-16 -22 -42.5 -34t-62.5 -12l-150 -1q-31 1 -56.5 12t-45.5 32q-19 23 -29 59.5t-10 86.5v0zM923 160q0 -37 5 -62t15 -38t22.5 -19.5t28.5 -6.5h-150q14 0 25.5 5.5
t18.5 16.5q11 14 16 40.5t5 64.5q0 37 -5 63t-16 42q-9 11 -20.5 17t-25.5 6h150q-15 0 -27 -6t-20 -17q-11 -15 -16.5 -41.5t-5.5 -64.5v0zM18 536q0 49 9.5 84t28.5 57q19 23 44.5 34t56.5 11h150q32 0 57.5 -11t44.5 -34q20 -22 29.5 -57t9.5 -82q0 -48 -8.5 -84
t-25.5 -60q-17 -25 -43.5 -37t-62.5 -12h-150q-31 0 -56 11.5t-45 34.5q-19 23 -29 59t-10 86v0zM240 532q0 -37 4.5 -62t14.5 -38t22.5 -19.5t28.5 -6.5h-150q14 0 25.5 5.5t19.5 16.5q11 15 16 41.5t5 63.5t-5.5 63t-16.5 42q-9 11 -20.5 17t-25.5 6h150q-15 0 -26.5 -5.5
t-19.5 -16.5q-11 -16 -16.5 -42.5t-5.5 -64.5v0z" />
    <glyph glyph-name="Acircumflex" unicode="&#xc2;" horiz-adv-x="816" 
d="M-1 0l274 715h150h102l293 -715h-150h-108l-83 216h-150l-78 -216h-150h-100v0zM355 293h92l-46 124l-46 -124v0zM482 842l-55 -83h-41l-54 83h150v0z" />
    <glyph glyph-name="Ecircumflex" unicode="&#xca;" horiz-adv-x="816" 
d="M79 0v715h150h517v-84h-423v-219h396v-84h-396v-244h440v-84h-150h-534v0zM495 842l-55 -83h-42l-53 83h150v0z" />
    <glyph glyph-name="Aacute" unicode="&#xc1;" horiz-adv-x="816" 
d="M-1 0l274 715h150h102l293 -715h-150h-108l-83 216h-150l-78 -216h-150h-100v0zM355 293h92l-46 124l-46 -124v0zM283 759l65 137h150h115l-107 -137h-150h-73v0z" />
    <glyph glyph-name="Edieresis" unicode="&#xcb;" horiz-adv-x="816" 
d="M79 0v715h150h517v-84h-423v-219h396v-84h-396v-244h440v-84h-150h-534v0zM207 759v100h150h92v-100h-150h-92v0zM389 759v100h150h92v-100h-150h-92v0z" />
    <glyph glyph-name="Egrave" unicode="&#xc8;" horiz-adv-x="816" 
d="M79 0v715h150h517v-84h-423v-219h396v-84h-396v-244h440v-84h-150h-534v0zM415 759h-71l-113 137h150h118l66 -137h-150v0z" />
    <glyph glyph-name="Iacute" unicode="&#xcd;" horiz-adv-x="427" 
d="M93 0v715h150h94v-715h-150h-94v0zM68 759l65 137h150h116l-108 -137h-150h-73v0z" />
    <glyph glyph-name="Icircumflex" unicode="&#xce;" horiz-adv-x="427" 
d="M93 0v715h150h94v-715h-150h-94v0zM290 842l-56 -83h-41l-53 83h150v0z" />
    <glyph glyph-name="Idieresis" unicode="&#xcf;" horiz-adv-x="427" 
d="M93 0v715h150h94v-715h-150h-94v0zM1 759v100h150h92v-100h-150h-92v0zM184 759v100h150h91v-100h-150h-91v0z" />
    <glyph glyph-name="Igrave" unicode="&#xcc;" horiz-adv-x="427" 
d="M93 0v715h150h94v-715h-150h-94v0zM209 759h-70l-113 137h150h118l65 -137h-150v0z" />
    <glyph glyph-name="Oacute" unicode="&#xd3;" horiz-adv-x="927" 
d="M48 348q0 89 24 159t72 120q47 50 109 75.5t138 25.5h150q50 0 94 -12t84 -35q40 -24 70.5 -57t51.5 -75q20 -43 30.5 -91t10.5 -102t-10.5 -102.5t-33.5 -91.5q-22 -43 -52.5 -75.5t-71.5 -55.5q-40 -22 -83.5 -32t-90.5 -10l-150 -1q-50 1 -95 12.5t-86 35.5
q-40 25 -70 58t-50 75q-20 43 -30.5 87.5t-10.5 91.5v0zM295 347q0 -65 18 -116t52 -88q22 -23 47 -39t53 -25q29 9 54 25t47 40q35 38 52 91t17 122q0 44 -7.5 82t-22.5 71q-14 32 -35.5 57.5t-50.5 43.5q-13 8 -26 14t-27 10q-27 -8 -51.5 -22.5t-46.5 -35.5
q-36 -34 -54.5 -92t-18.5 -138v0zM330 759l65 137h150h115l-107 -137h-150h-73v0z" />
    <glyph glyph-name="Ocircumflex" unicode="&#xd4;" horiz-adv-x="927" 
d="M48 348q0 89 24 159t72 120q47 50 109 75.5t138 25.5h150q50 0 94 -12t84 -35q40 -24 70.5 -57t51.5 -75q20 -43 30.5 -91t10.5 -102t-10.5 -102.5t-33.5 -91.5q-22 -43 -52.5 -75.5t-71.5 -55.5q-40 -22 -83.5 -32t-90.5 -10l-150 -1q-50 1 -95 12.5t-86 35.5
q-40 25 -70 58t-50 75q-20 43 -30.5 87.5t-10.5 91.5v0zM295 347q0 -65 18 -116t52 -88q22 -23 47 -39t53 -25q29 9 54 25t47 40q35 38 52 91t17 122q0 44 -7.5 82t-22.5 71q-14 32 -35.5 57.5t-50.5 43.5q-13 8 -26 14t-27 10q-27 -8 -51.5 -22.5t-46.5 -35.5
q-36 -34 -54.5 -92t-18.5 -138v0zM539 842l-55 -83h-41l-54 83h150v0z" />
    <glyph glyph-name="apple" unicode="&#xf000;" 
 />
    <glyph glyph-name="Ograve" unicode="&#xd2;" horiz-adv-x="927" 
d="M48 348q0 89 24 159t72 120q47 50 109 75.5t138 25.5h150q50 0 94 -12t84 -35q40 -24 70.5 -57t51.5 -75q20 -43 30.5 -91t10.5 -102t-10.5 -102.5t-33.5 -91.5q-22 -43 -52.5 -75.5t-71.5 -55.5q-40 -22 -83.5 -32t-90.5 -10l-150 -1q-50 1 -95 12.5t-86 35.5
q-40 25 -70 58t-50 75q-20 43 -30.5 87.5t-10.5 91.5v0zM295 347q0 -65 18 -116t52 -88q22 -23 47 -39t53 -25q29 9 54 25t47 40q35 38 52 91t17 122q0 44 -7.5 82t-22.5 71q-14 32 -35.5 57.5t-50.5 43.5q-13 8 -26 14t-27 10q-27 -8 -51.5 -22.5t-46.5 -35.5
q-36 -34 -54.5 -92t-18.5 -138v0zM447 759h-71l-113 137h150h118l66 -137h-150v0z" />
    <glyph glyph-name="Uacute" unicode="&#xda;" horiz-adv-x="872" 
d="M696 715h95v-413q0 -54 -6 -97t-18 -75q-13 -31 -34.5 -57t-53.5 -46q-32 -19 -74 -28.5t-94 -9.5l-150 -1q-50 1 -91 9.5t-73 24.5q-32 17 -55 42.5t-37 57.5q-13 33 -20 78t-7 102v413h150h95v-413q0 -46 4.5 -80.5t12.5 -56.5q9 -22 24 -39t36 -29q8 -4 16.5 -8
t17.5 -7q22 6 38.5 15.5t29.5 22.5q23 24 33.5 69.5t10.5 112.5v413h150v0zM299 759l65 137h150h115l-107 -137h-150h-73v0z" />
    <glyph glyph-name="Ucircumflex" unicode="&#xdb;" horiz-adv-x="872" 
d="M696 715h95v-413q0 -54 -6 -97t-18 -75q-13 -31 -34.5 -57t-53.5 -46q-32 -19 -74 -28.5t-94 -9.5l-150 -1q-50 1 -91 9.5t-73 24.5q-32 17 -55 42.5t-37 57.5q-13 33 -20 78t-7 102v413h150h95v-413q0 -46 4.5 -80.5t12.5 -56.5q9 -22 24 -39t36 -29q8 -4 16.5 -8
t17.5 -7q22 6 38.5 15.5t29.5 22.5q23 24 33.5 69.5t10.5 112.5v413h150v0zM509 842l-55 -83h-41l-54 83h150v0z" />
    <glyph glyph-name="Ugrave" unicode="&#xd9;" horiz-adv-x="872" 
d="M696 715h95v-413q0 -54 -6 -97t-18 -75q-13 -31 -34.5 -57t-53.5 -46q-32 -19 -74 -28.5t-94 -9.5l-150 -1q-50 1 -91 9.5t-73 24.5q-32 17 -55 42.5t-37 57.5q-13 33 -20 78t-7 102v413h150h95v-413q0 -46 4.5 -80.5t12.5 -56.5q9 -22 24 -39t36 -29q8 -4 16.5 -8
t17.5 -7q22 6 38.5 15.5t29.5 22.5q23 24 33.5 69.5t10.5 112.5v413h150v0zM416 759h-70l-113 137h150h118l65 -137h-150v0z" />
    <glyph glyph-name="dotlessi" unicode="&#x131;" horiz-adv-x="427" 
d="M96 0v518h150h88v-518h-150h-88v0z" />
    <glyph glyph-name="circumflex" unicode="&#x2dc;" horiz-adv-x="483" 
d="M218 598q-13 2 -29.5 9t-35.5 17q-16 8 -28 12.5t-20 4.5h150q-9 0 -15.5 -3t-11.5 -9q-6 -6 -8.5 -13.5t-1.5 -17.5v0z" />
    <glyph glyph-name="tilde" unicode="&#x2c6;" horiz-adv-x="483" 
d="M317 666l-55 -83h-41l-54 83h150v0z" />
    <glyph glyph-name="macron" unicode="&#x2c9;" 
 />
    <glyph glyph-name="breve" unicode="&#x2d8;" 
 />
    <glyph glyph-name="dotaccent" unicode="&#x2d9;" 
 />
    <glyph glyph-name="ring" unicode="&#x2da;" horiz-adv-x="483" 
d="M79 653q0 18 6.5 33t19.5 28q13 14 28.5 20t32.5 6h150q19 0 34.5 -6t28.5 -20q13 -13 19 -28.5t6 -34.5t-6 -34.5t-19 -29.5q-13 -13 -28.5 -19t-33.5 -6h-150q-18 0 -33.5 6.5t-29.5 19.5q-13 13 -19 29.5t-6 35.5v0zM266 652q0 -11 4 -20.5t11 -17.5q8 -8 17 -12
t19 -4h-150q11 0 20.5 4t16.5 12q8 8 11.5 17.5t3.5 19.5q0 11 -3.5 21t-11.5 17q-7 8 -16.5 12t-20.5 4h150q-10 0 -19 -4t-17 -12q-7 -7 -11 -16.5t-4 -20.5v0z" />
    <glyph glyph-name="cedilla" unicode="&#xb8;" horiz-adv-x="483" 
d="M105 -75l25 86h150h66l-16 -52q20 -1 36 -7.5t26 -16.5q11 -11 16 -22t5 -24q0 -19 -9 -35t-26 -30t-44 -21t-62 -7l-150 -1q-20 1 -37.5 2.5t-32.5 4.5l5 56h150q15 0 27 -0.5t19 -0.5l-150 -1q23 1 39 4.5t25 9.5q8 4 11.5 10t3.5 14v2.5t-1 2.5q0 3 -1.5 5.5t-3.5 4.5
q-3 4 -8 7t-13 5q-7 2 -20 3.5t-30 1.5v-1z" />
    <glyph glyph-name="hungarumlaut" unicode="&#x2ba;" 
 />
    <glyph glyph-name="ogonek" unicode="&#x2db;" 
 />
    <glyph glyph-name="caron" unicode="&#x2c7;" horiz-adv-x="483" 
d="M175 636l54 83h41l55 -83h-150v0z" />
    <glyph glyph-name="Lslash" unicode="&#x141;" 
 />
    <glyph glyph-name="lslash" unicode="&#x142;" 
 />
    <glyph glyph-name="Scaron" unicode="&#x160;" horiz-adv-x="816" 
d="M44 229l90 8h150q3 -27 10.5 -49t18.5 -39q12 -17 30 -31t42 -25q8 -4 16.5 -7t17.5 -5l6 2t5 2q3 0 5.5 1t5.5 2q21 8 36.5 19.5t25.5 25.5t15 29.5t5 31.5q0 17 -5 31.5t-15 27.5q-10 12 -25.5 23t-38.5 19q-14 5 -46 14t-81 21t-84 23.5t-55 21.5q-25 13 -44 30
t-32 36q-13 20 -19 42t-6 47q0 27 7.5 52.5t23.5 49.5q15 23 37.5 41t51.5 30q30 12 63 18.5t69 6.5h150q40 0 75 -6.5t65 -19.5q31 -13 54.5 -31.5t39.5 -44.5q16 -25 25 -52.5t10 -59.5l-91 -7h-150q-4 34 -16 59.5t-34 42.5q-10 9 -23.5 15.5t-29.5 10.5q-13 -4 -25 -9
t-22 -13q-19 -16 -29 -35t-10 -41q0 -19 7 -35.5t21 -28.5t49.5 -24.5t93.5 -26.5q58 -13 97.5 -24.5t60.5 -21.5q32 -14 55 -32t37 -41q15 -22 22.5 -47t7.5 -54q0 -28 -8 -55t-24 -53q-16 -25 -40 -45t-54 -34q-31 -13 -65.5 -19.5t-72.5 -6.5l-150 -1q-49 1 -89.5 8
t-73.5 20q-33 14 -58.5 35.5t-44.5 49.5q-19 29 -28.5 61t-11.5 67v0zM319 810l54 83h41l55 -83h-150v0z" />
    <glyph glyph-name="scaron" unicode="&#x161;" horiz-adv-x="650" 
d="M30 154l87 14h150q4 -26 14.5 -46t26.5 -34q5 -4 9.5 -7t9.5 -6q4 2 7.5 4.5t6.5 5.5q15 12 22.5 26.5t7.5 31.5q0 14 -6.5 25.5t-19.5 20.5q-9 6 -31.5 13.5t-58.5 16.5q-49 13 -82 23.5t-52 18.5q-19 9 -33 21.5t-24 28.5t-14.5 33t-4.5 36q0 17 4 33.5t12 31.5
q8 14 19 26.5t24 22.5q11 8 24.5 14t31.5 11t37 8t39 3h150q31 0 57.5 -4.5t49.5 -13.5t40 -20.5t28 -26.5t18.5 -35t11.5 -46l-86 -11h-150q-2 20 -10.5 35.5t-22.5 26.5l-2 2t-3 2q-1 0 -2 1t-3 2l-1.5 -1.5t-1.5 -0.5l-1.5 -1.5l-1.5 -1.5q-13 -10 -19.5 -21t-6.5 -25
q0 -9 2.5 -16.5t8.5 -14.5q5 -7 13 -13t20 -11q6 -2 25.5 -7.5t52.5 -14.5q47 -13 79 -23t51 -18q19 -7 33.5 -19t24.5 -27q11 -15 16 -33.5t5 -41.5q0 -22 -6.5 -42.5t-19.5 -40.5q-13 -19 -31 -34t-43 -26q-24 -9 -51 -14t-58 -5l-150 -1q-50 1 -89 10.5t-65 30.5t-43 52
t-25 72v0zM247 636l54 83h41l55 -83h-150v0z" />
    <glyph glyph-name="Zcaron" unicode="&#x17d;" 
 />
    <glyph glyph-name="zcaron" unicode="&#x17e;" 
 />
    <glyph glyph-name="brokenbar" unicode="&#xa6;" horiz-adv-x="409" 
d="M318 175v-385h-150h-77v385h150h77v0zM318 728v-386h-150h-77v386h150h77v0z" />
    <glyph glyph-name="Eth" unicode="&#xd0;" horiz-adv-x="872" 
d="M77 0v325h-78v65h78v325h150h247q41 0 73 -2.5t54 -7.5q30 -7 56.5 -20t48.5 -31q28 -24 49.5 -54.5t34.5 -68.5q14 -37 21 -79.5t7 -90.5q0 -55 -8.5 -101.5t-25.5 -86.5q-17 -39 -38 -68t-45 -46q-24 -18 -52 -30.5t-60 -20.5q-17 -4 -43 -6t-61 -2h-150h-258v0z
M321 84h3q36 0 64 3t48 10t35.5 16t27.5 21q17 17 30 39.5t23 50.5q9 29 14 63.5t5 74.5q0 42 -4.5 76t-14.5 59t-22 45t-27 35t-32 25.5t-35 16.5q-19 6 -47.5 9t-66.5 3h-1v-241h198v-65h-198v-241v0z" />
    <glyph glyph-name="eth" unicode="&#xf0;" horiz-adv-x="706" 
d="M300 715h106q2 -1 3.5 -2t2.5 -2l9 4h150l22 -49l-84 -41q78 -90 117.5 -183t39.5 -188q0 -61 -17 -110t-51 -85t-77 -53t-96 -17l-150 -1q-63 1 -111 24t-83 70q-23 31 -34.5 73.5t-11.5 96.5q0 64 16 113t47 84q32 35 71.5 52t86.5 17h150q14 0 26.5 -1.5t23.5 -4.5
t24 -8.5t29 -14.5h-150l-4 8l-4 8q-5 11 -10.5 20.5t-10.5 16.5l-24 -11h-150l-22 51l117 53q-24 22 -49 42t-52 38h150v0zM424 258q0 47 -10.5 82.5t-33.5 60.5q-7 8 -15.5 15.5t-17.5 12.5q-8 -5 -15.5 -12.5l-15.5 -15.5q-20 -25 -30.5 -62.5t-10.5 -88.5
q0 -48 10.5 -83.5t32.5 -59.5q7 -7 14.5 -14t15.5 -12q9 6 17.5 13t15.5 16q22 25 32.5 62t10.5 86v0z" />
    <glyph glyph-name="Yacute" unicode="&#xdd;" horiz-adv-x="816" 
d="M278 0v303l-276 412h150h116l140 -213q0 1 0.5 1.5l1.5 1.5l138 210h150h111l-286 -412v-303h-150h-95v0zM270 759l65 137h150h116l-108 -137h-150h-73v0z" />
    <glyph glyph-name="yacute" unicode="&#xfd;" horiz-adv-x="650" 
d="M62 -199l-10 82h150q14 -3 27 -5t23 -2l-150 -1q15 1 26.5 3.5t20.5 7.5t16 12t13 16q4 7 10.5 23t16.5 42q1 4 2.5 9t4.5 12l-196 518h150h94l71 -197l72 197h150h88l-198 -526q-16 -42 -28 -71.5t-21 -45.5q-11 -22 -24.5 -38t-29.5 -26q-15 -10 -33 -15t-39 -5
l-150 -1q-13 1 -27 4t-29 8v-1zM205 583l65 136h150h115l-108 -136h-150h-72v0z" />
    <glyph glyph-name="Thorn" unicode="&#xde;" horiz-adv-x="816" 
d="M77 0v715h150h94v-145h176q35 0 62.5 -2t46.5 -5q26 -4 48.5 -13t39.5 -21q18 -12 32.5 -29t25.5 -40q11 -22 16 -46.5t5 -51.5q0 -45 -14.5 -83.5t-43.5 -70.5q-29 -31 -81.5 -47t-128.5 -16h-184v-145h-150h-94v0zM321 229h35q47 0 79.5 9t51.5 26q20 17 29 40.5
t9 54.5q0 23 -5.5 42t-16.5 35q-11 17 -26 27.5t-34 15.5q-12 3 -34.5 4.5t-54.5 1.5h-33v-256v0z" />
    <glyph glyph-name="thorn" unicode="&#xfe;" horiz-adv-x="706" 
d="M65 -198v913h150h88v-252h-150q18 19 34 31.5t29 18.5q17 8 37.5 12.5t42.5 4.5h150q33 0 62.5 -8.5t54.5 -25.5q26 -17 45 -41t32 -56q13 -31 19.5 -65t6.5 -71q0 -40 -7.5 -76t-21.5 -68q-14 -31 -35 -55.5t-48 -41.5q-27 -16 -55.5 -24t-58.5 -8l-150 -1
q-20 1 -39 4.5t-36 10.5q-13 6 -29 18.5t-33 30.5h150v-251h-150h-88v0zM295 256q0 -50 10.5 -87t30.5 -61q5 -7 11 -12l12 -10q7 5 13 11t12 13q21 25 31.5 63t10.5 90q0 50 -10.5 87t-30.5 62q-5 6 -10.5 11.5t-11.5 9.5q-3 -3 -6 -5.5t-6 -5.5q-4 -3 -7 -6.5t-6 -7.5
q-22 -26 -32.5 -64t-10.5 -88v0z" />
    <glyph glyph-name="minus" unicode="&#x2212;" 
 />
    <glyph glyph-name="multiply" unicode="&#xd7;" horiz-adv-x="733" 
d="M78 199l154 154l-153 153l59 60h150l78 -78l78 77h150l59 -59l-152 -152l153 -154l-60 -59h-150l-78 78l-79 -79h-150l-59 59v0z" />
    <glyph glyph-name="onesuperior" unicode="&#xb9;" horiz-adv-x="483" 
d="M161 357v271h150q-25 -20 -52.5 -33.5t-56.5 -21.5h-150v60q15 5 31.5 13.5t35.5 21.5q19 14 34 27.5t26 28.5h150h53v-367h-150h-71v0z" />
    <glyph glyph-name="twosuperior" unicode="&#xb2;" horiz-adv-x="483" 
d="M12 357q2 14 7.5 28t15.5 28q15 21 40.5 44.5t60.5 48.5q35 26 55.5 42.5t27.5 23.5q9 10 13.5 20.5t4.5 20.5q0 11 -4 21t-13 17q-8 8 -20.5 11.5t-29.5 3.5h150q-16 0 -28 -2.5t-20 -8.5t-14.5 -16.5t-11.5 -27.5h-150l-74 8q7 27 19.5 46.5t29.5 32.5q17 14 42.5 20
t57.5 6h150q38 0 65 -7t44 -22q17 -14 25.5 -31.5t8.5 -38.5t-7.5 -40.5t-21.5 -37.5q-11 -13 -36 -34t-64 -49q-20 -15 -34.5 -27t-23.5 -21h189v-59h-150h-304v0z" />
    <glyph glyph-name="threesuperior" unicode="&#xb3;" horiz-adv-x="483" 
d="M16 453l71 7h150v-0.5v-0.5l0.5 -0.5l0.5 -0.5q1 3 1 6v7q0 12 -4.5 22t-13.5 17q-9 8 -24 11t-36 3h150h-3h-4q-2 -1 -4.5 -1h-4.5h-150h-6.5h-4.5l11 54q20 -1 34.5 3t23.5 11q9 8 13.5 16.5t4.5 18.5q0 9 -3.5 17t-10.5 14q-7 7 -18.5 10t-25.5 3h150q-13 0 -24 -3
t-19 -8q-7 -5 -14 -15t-12 -24h-150l-70 11q10 26 22.5 44.5t27.5 28.5q16 10 38.5 15t51.5 5h150q35 0 60.5 -6.5t41.5 -19.5t24 -29t8 -36q0 -13 -4.5 -25t-12.5 -23q-9 -10 -21.5 -17.5t-29.5 -12.5q22 -5 38 -14t26 -22q11 -12 16 -26.5t5 -31.5q0 -22 -9.5 -42
t-29.5 -37q-19 -16 -46.5 -24.5t-63.5 -8.5h-150q-34 0 -60 7t-44 20q-18 14 -29.5 33t-16.5 44v0z" />
    <glyph glyph-name="onehalf" unicode="&#xbd;" horiz-adv-x="983" 
d="M111 -27l537 755h150h77l-538 -755h-150h-76v0zM512 -15q2 14 7.5 27.5t15.5 27.5q15 21 40.5 44.5t60.5 48.5q35 26 55.5 42.5t27.5 23.5q9 10 13.5 20.5t4.5 20.5q0 11 -4 21t-13 17q-8 8 -20.5 11.5t-29.5 3.5h150q-16 0 -28 -3t-20 -9q-8 -5 -14.5 -16t-11.5 -27
h-150l-74 7q7 28 19.5 47.5t29.5 32.5q18 14 43 20t57 6h150q38 0 65 -7.5t44 -21.5t25.5 -31.5t8.5 -38.5t-7.5 -40.5t-21.5 -37.5q-11 -13 -36 -34t-63 -50q-21 -15 -35.5 -26.5t-23.5 -20.5h189v-58h-150h-304v0zM161 357v271h150q-25 -20 -52.5 -33.5t-56.5 -21.5h-150
v60q15 5 31.5 13.5t35.5 21.5q19 14 34 27.5t26 28.5h150h53v-367h-150h-71v0z" />
    <glyph glyph-name="onequarter" unicode="&#xbc;" horiz-adv-x="983" 
d="M123 -27l538 755h150h76l-538 -755h-150h-76v0zM698 -15v75h-187v60l197 231h150h60v-239h51v-52h-51v-75h-150h-70v0zM698 112v129h150l-113 -129h-150h113v0zM161 357v271h150q-25 -20 -52.5 -33.5t-56.5 -21.5h-150v60q15 5 31.5 13.5t35.5 21.5q19 14 34 27.5
t26 28.5h150h53v-367h-150h-71v0z" />
    <glyph glyph-name="threequarters" unicode="&#xbe;" horiz-adv-x="983" 
d="M123 -27l537 755h150h77l-538 -755h-150h-76v0zM697 -15v75h-186v60l197 231h150h60v-239h51v-52h-51v-75h-150h-71v0zM697 112v129h150l-112 -129h-150h112v0zM16 453l71 7h150v-0.5v-0.5l0.5 -0.5l0.5 -0.5q1 3 1 6v7q0 12 -4.5 22t-13.5 17q-9 8 -23.5 11t-34.5 3h150
q-13 -1 -20 -1h-9h-150l11 54q20 -1 34.5 3t23.5 11q9 8 13.5 16.5t4.5 18.5q0 9 -3.5 17t-10.5 14q-7 7 -18.5 10t-25.5 3h150q-13 0 -24 -3t-19 -8q-7 -5 -14 -15t-12 -24h-150l-70 11q10 26 22.5 44.5t27.5 28.5q16 10 38.5 15t51.5 5h150q35 0 60.5 -6.5t41.5 -19.5
t24 -29t8 -36q0 -13 -4.5 -25t-12.5 -23q-9 -10 -21.5 -17.5t-29.5 -12.5q22 -5 38 -14t26 -22q11 -12 16 -26.5t5 -31.5q0 -22 -9.5 -42t-29.5 -37q-19 -16 -46.5 -24.5t-63.5 -8.5h-150q-34 0 -60 7t-44 20q-18 14 -29.5 33t-16.5 44v0z" />
    <glyph glyph-name="franc" unicode="&#x20a3;" 
 />
    <glyph glyph-name="Gbreve" unicode="&#x11e;" 
 />
    <glyph glyph-name="gbreve" unicode="&#x11f;" 
 />
    <glyph glyph-name="Idot" unicode="&#x130;" 
 />
    <glyph glyph-name="Scedilla" unicode="&#x15e;" 
 />
    <glyph glyph-name="scedilla" unicode="&#x15f;" 
 />
    <glyph glyph-name="Cacute" unicode="&#x106;" 
 />
    <glyph glyph-name="cacute" unicode="&#x107;" 
 />
    <glyph glyph-name="Ccaron" unicode="&#x10c;" 
 />
    <glyph glyph-name="ccaron" unicode="&#x10d;" 
 />
    <glyph glyph-name="dslash" unicode="&#x111;" 
 />
    <glyph glyph-name="arrowright" unicode="&#x2192;" 
 />
    <glyph glyph-name="house" unicode="&#x2302;" 
 />
    <glyph glyph-name="endash" unicode="&#x2013;" horiz-adv-x="706" 
d="M-1 223v71h150h555v-71h-150h-555v0z" />
    <glyph glyph-name="sfthyphen" unicode="&#xad;" horiz-adv-x="483" 
d="M31 214v89h150h270v-89h-150h-270v0z" />
    <glyph glyph-name="filledbox" unicode="&#x25a0;" 
 />
    <glyph glyph-name="bullet" unicode="&#x2022;" horiz-adv-x="500" 
d="M53 350q0 26 9 47.5t27 39.5q18 19 40 28t47 9h150q26 0 48 -9t40 -28q18 -18 27 -39.5t9 -47.5q0 -25 -9 -47t-27 -41q-18 -18 -40 -27t-48 -9h-150q-25 0 -47 9t-40 27q-18 19 -27 41t-9 47v0z" />
    <glyph glyph-name="overstore" unicode="&#xaf;" horiz-adv-x="702" 
d="M-15 764v63h150h582v-63h-150h-582v0z" />
    <glyph glyph-name="degree" unicode="&#xb0;" horiz-adv-x="549" 
d="M62 592q0 29 10 53t30 43q20 20 43.5 30t51.5 10h150q29 0 53 -10t43 -30q20 -19 30 -43t10 -53q0 -28 -10 -52t-30 -44q-19 -19 -43 -29t-53 -10h-150q-28 0 -51.5 10t-43.5 29q-20 20 -30 44t-10 52v0zM265 592q0 -10 1.5 -18.5t5.5 -16.5q4 8 6 16.5t2 18.5t-1.5 19
t-6.5 17q-3 -8 -5 -17t-2 -19v0z" />
    <glyph glyph-name="middot" unicode="&#xb7;" horiz-adv-x="483" 
d="M242 311v100h150h100v-100h-150h-100v0z" />
    <glyph glyph-name="underscoredbl" unicode="&#x2017;" 
 />
    <glyph glyph-name="exclamdbl" unicode="&#x203c;" 
 />
    <glyph glyph-name="nsuperior" unicode="&#x207f;" 
 />
    <glyph glyph-name="peseta" unicode="&#x20a7;" 
 />
    <glyph glyph-name="Gamma" unicode="&#x393;" 
 />
    <glyph glyph-name="Theta" unicode="&#x398;" 
 />
    <glyph glyph-name="Phi" unicode="&#x3a6;" 
 />
    <glyph glyph-name="alpha" unicode="&#x3b1;" 
 />
    <glyph glyph-name="delta" unicode="&#x3b4;" 
 />
    <glyph glyph-name="epsilon" unicode="&#x3b5;" 
 />
    <glyph glyph-name="sigma" unicode="&#x3c3;" 
 />
    <glyph glyph-name="tau" unicode="&#x3c4;" 
 />
    <glyph glyph-name="phi" unicode="&#x3c6;" 
 />
    <glyph glyph-name="arrowleft" unicode="&#x2190;" 
 />
    <glyph glyph-name="arrowup" unicode="&#x2191;" 
 />
    <glyph glyph-name="arrowdown" unicode="&#x2193;" 
 />
    <glyph glyph-name="arrowboth" unicode="&#x2194;" 
 />
    <glyph glyph-name="arrowupdn" unicode="&#x2195;" 
 />
    <glyph glyph-name="arrowupdnbase" unicode="&#x21a8;" 
 />
    <glyph glyph-name="orthogonal" unicode="&#x221f;" 
 />
    <glyph glyph-name="intersection" unicode="&#x2229;" 
 />
    <glyph glyph-name="equivalence" unicode="&#x2261;" 
 />
    <glyph glyph-name="revlogicalnot" unicode="&#x2310;" 
 />
    <glyph glyph-name="integraltp" unicode="&#x2320;" 
 />
    <glyph glyph-name="integralbt" unicode="&#x2321;" 
 />
    <glyph glyph-name="filledrect" unicode="&#x25ac;" 
 />
    <glyph glyph-name="circle" unicode="&#x25cb;" 
 />
    <glyph glyph-name="triagup" unicode="&#x25b2;" 
 />
    <glyph glyph-name="triagrt" unicode="&#x25ba;" 
 />
    <glyph glyph-name="triagdn" unicode="&#x25bc;" 
 />
    <glyph glyph-name="triaglf" unicode="&#x25c4;" 
 />
    <glyph glyph-name="invbullet" unicode="&#x25d8;" 
 />
    <glyph glyph-name="invcircle" unicode="&#x25d9;" 
 />
    <glyph glyph-name="Rcaron" unicode="&#x158;" 
 />
    <glyph glyph-name="upblock" unicode="&#x2580;" 
 />
    <glyph glyph-name="dnblock" unicode="&#x2584;" 
 />
    <glyph glyph-name="block" unicode="&#x2588;" 
 />
    <glyph glyph-name="lfblock" unicode="&#x258c;" 
 />
    <glyph glyph-name="rtblock" unicode="&#x2590;" 
 />
    <glyph glyph-name="ltshade" unicode="&#x2591;" 
 />
    <glyph glyph-name="shade" unicode="&#x2592;" 
 />
    <glyph glyph-name="dkshade" unicode="&#x2593;" 
 />
    <glyph glyph-name="smileface" unicode="&#x263a;" 
 />
    <glyph glyph-name="invsmileface" unicode="&#x263b;" 
 />
    <glyph glyph-name="sun" unicode="&#x263c;" 
 />
    <glyph glyph-name="female" unicode="&#x2640;" 
 />
    <glyph glyph-name="male" unicode="&#x2642;" 
 />
    <glyph glyph-name="spade" unicode="&#x2660;" 
 />
    <glyph glyph-name="club" unicode="&#x2663;" 
 />
    <glyph glyph-name="heart" unicode="&#x2665;" 
 />
    <glyph glyph-name="diamond" unicode="&#x2666;" 
 />
    <glyph glyph-name="musicalnote" unicode="&#x266a;" 
 />
    <glyph glyph-name="musicalnotedbl" unicode="&#x266b;" 
 />
    <glyph glyph-name="Abreve" unicode="&#x102;" 
 />
    <glyph glyph-name="abreve" unicode="&#x103;" 
 />
    <glyph glyph-name="Aogonek" unicode="&#x104;" 
 />
    <glyph glyph-name="aogonek" unicode="&#x105;" 
 />
    <glyph glyph-name="Dcaron" unicode="&#x10e;" 
 />
    <glyph glyph-name="dcaron" unicode="&#x10f;" 
 />
    <glyph glyph-name="Dslash" unicode="&#x110;" 
 />
    <glyph glyph-name="Eogonek" unicode="&#x118;" 
 />
    <glyph glyph-name="eogonek" unicode="&#x119;" 
 />
    <glyph glyph-name="Ecaron" unicode="&#x11a;" 
 />
    <glyph glyph-name="ecaron" unicode="&#x11b;" 
 />
    <glyph glyph-name="Lacute" unicode="&#x139;" 
 />
    <glyph glyph-name="lacute" unicode="&#x13a;" 
 />
    <glyph glyph-name="Lcaron" unicode="&#x13d;" 
 />
    <glyph glyph-name="lcaron" unicode="&#x13e;" 
 />
    <glyph glyph-name="Nacute" unicode="&#x143;" 
 />
    <glyph glyph-name="nacute" unicode="&#x144;" 
 />
    <glyph glyph-name="Ncaron" unicode="&#x147;" 
 />
    <glyph glyph-name="ncaron" unicode="&#x148;" 
 />
    <glyph glyph-name="Odblacute" unicode="&#x150;" 
 />
    <glyph glyph-name="odblacute" unicode="&#x151;" 
 />
    <glyph glyph-name="Racute" unicode="&#x154;" 
 />
    <glyph glyph-name="racute" unicode="&#x155;" 
 />
    <glyph glyph-name="rcaron" unicode="&#x159;" 
 />
    <glyph glyph-name="Sacute" unicode="&#x15a;" 
 />
    <glyph glyph-name="sacute" unicode="&#x15b;" 
 />
    <glyph glyph-name="Tcedilla" unicode="&#x162;" 
 />
    <glyph glyph-name="tcedilla" unicode="&#x163;" 
 />
    <glyph glyph-name="Tcaron" unicode="&#x164;" 
 />
    <glyph glyph-name="tcaron" unicode="&#x165;" 
 />
    <glyph glyph-name="Uring" unicode="&#x16e;" 
 />
    <glyph glyph-name="uring" unicode="&#x16f;" 
 />
    <glyph glyph-name="Udblacute" unicode="&#x171;" 
 />
    <glyph glyph-name="udblacute" unicode="&#x170;" 
 />
    <glyph glyph-name="Zacute" unicode="&#x179;" 
 />
    <glyph glyph-name="zacute" unicode="&#x17a;" 
 />
    <glyph glyph-name="Zdot" unicode="&#x17b;" 
 />
    <glyph glyph-name="zdot" unicode="&#x17c;" 
 />
    <glyph glyph-name="Ldot" unicode="&#x13f;" 
 />
    <glyph glyph-name="ldot" unicode="&#x140;" 
 />
    <glyph glyph-name="2500" unicode="&#x2500;" 
 />
    <glyph glyph-name="2502" unicode="&#x2502;" 
 />
    <glyph glyph-name="250c" unicode="&#x250c;" 
 />
    <glyph glyph-name="2510" unicode="&#x2510;" 
 />
    <glyph glyph-name="2514" unicode="&#x2514;" 
 />
    <glyph glyph-name="2518" unicode="&#x2518;" 
 />
    <glyph glyph-name="251c" unicode="&#x251c;" 
 />
    <glyph glyph-name="2524" unicode="&#x2524;" 
 />
    <glyph glyph-name="252c" unicode="&#x252c;" 
 />
    <glyph glyph-name="2534" unicode="&#x2534;" 
 />
    <glyph glyph-name="253c" unicode="&#x253c;" 
 />
    <glyph glyph-name="2550" unicode="&#x2550;" 
 />
    <glyph glyph-name="2551" unicode="&#x2551;" 
 />
    <glyph glyph-name="2552" unicode="&#x2552;" 
 />
    <glyph glyph-name="2553" unicode="&#x2553;" 
 />
    <glyph glyph-name="2554" unicode="&#x2554;" 
 />
    <glyph glyph-name="2555" unicode="&#x2555;" 
 />
    <glyph glyph-name="2556" unicode="&#x2556;" 
 />
    <glyph glyph-name="2557" unicode="&#x2557;" 
 />
    <glyph glyph-name="2558" unicode="&#x2558;" 
 />
    <glyph glyph-name="2559" unicode="&#x2559;" 
 />
    <glyph glyph-name="255a" unicode="&#x255a;" 
 />
    <glyph glyph-name="255b" unicode="&#x255b;" 
 />
    <glyph glyph-name="255c" unicode="&#x255c;" 
 />
    <glyph glyph-name="255d" unicode="&#x255d;" 
 />
    <glyph glyph-name="255e" unicode="&#x255e;" 
 />
    <glyph glyph-name="255f" unicode="&#x255f;" 
 />
    <glyph glyph-name="2560" unicode="&#x2560;" 
 />
    <glyph glyph-name="2561" unicode="&#x2561;" 
 />
    <glyph glyph-name="2562" unicode="&#x2562;" 
 />
    <glyph glyph-name="2563" unicode="&#x2563;" 
 />
    <glyph glyph-name="2564" unicode="&#x2564;" 
 />
    <glyph glyph-name="2565" unicode="&#x2565;" 
 />
    <glyph glyph-name="2566" unicode="&#x2566;" 
 />
    <glyph glyph-name="2567" unicode="&#x2567;" 
 />
    <glyph glyph-name="2568" unicode="&#x2568;" 
 />
    <glyph glyph-name="2569" unicode="&#x2569;" 
 />
    <glyph glyph-name="256a" unicode="&#x256a;" 
 />
    <glyph glyph-name="256b" unicode="&#x256b;" 
 />
    <glyph glyph-name="256c" unicode="&#x256c;" 
 />
  </font>
</defs>
</svg>
