<?xml version="1.0" standalone="no"?>
<!DOCTYPE svg PUBLIC "-//W3C//DTD SVG 1.1//EN" "http://www.w3.org/Graphics/SVG/1.1/DTD/svg11.dtd" >
<svg xmlns="http://www.w3.org/2000/svg" xmlns:xlink="http://www.w3.org/1999/xlink" version="1.1">
<metadata>
Created by FontForge 20170910 at Mon May 18 00:38:05 2009
 By Jimmy Wärting
1998 Evert Bloemsma, published by FontShop International for the FontFont library. Cyrillic version - DA Regina | PDF-X by gtwsk.
</metadata>
<defs>
<font id="Cocon-Bold" horiz-adv-x="615" >
  <font-face 
    font-family="Cocon"
    font-weight="700"
    font-stretch="normal"
    units-per-em="1000"
    panose-1="0 0 0 0 0 0 0 0 0 0"
    ascent="800"
    descent="-200"
    x-height="550"
    cap-height="697"
    bbox="-60 -291 1470 964"
    underline-thickness="20"
    underline-position="-176"
    stemh="153"
    stemv="190"
    unicode-range="U+0020-FB02"
  />
<missing-glyph horiz-adv-x="230" 
 />
    <glyph glyph-name=".notdef" horiz-adv-x="230" 
 />
    <glyph glyph-name="space" unicode=" " horiz-adv-x="230" 
 />
    <glyph glyph-name="exclam" unicode="!" horiz-adv-x="314" 
d="M244 587l-12 -317h-62c-62 0 -97 42 -99 101l-12 318h89c60 0 96 -39 96 -97v-5zM56 107c0 59 48 107 107 107s107 -48 107 -107s-48 -107 -107 -107s-107 48 -107 107z" />
    <glyph glyph-name="quotedbl" unicode="&#x22;" horiz-adv-x="423" 
d="M401 587l-20 -183h-46c-57 0 -84 44 -90 99l-19 187h86c50 0 90 -33 90 -89c0 -4 0 -9 -1 -14zM191 587l-20 -183h-47c-57 0 -83 44 -89 99l-19 187h86c50 0 90 -33 90 -89c0 -4 0 -9 -1 -14z" />
    <glyph glyph-name="numbersign" unicode="#" 
d="M597 479c0 -48 -29 -78 -85 -78h-13l-17 -103h86v-45c0 -48 -29 -77 -85 -77h-22l-30 -176h-56c-53 0 -76 30 -76 71c0 9 0 17 2 27l14 78h-77l-31 -176h-56c-53 0 -75 31 -75 71c0 9 0 18 2 28l14 77h-76v44c0 48 20 78 76 78h20l17 103h-84v45c0 48 30 77 86 77h18
l29 166h45c55 0 86 -30 86 -77c0 -6 -1 -12 -2 -18l-12 -71h77l30 166h45c55 0 86 -33 86 -79c0 -6 -1 -13 -2 -20l-12 -67h78v-44zM358 401h-76l-17 -103h77z" />
    <glyph glyph-name="dollar" unicode="$" 
d="M563 219c0 -117 -69 -202 -196 -226v-124h-42c-51 0 -81 17 -81 67v56c-123 11 -188 69 -188 156v66h5c42 -44 132 -68 209 -68c97 0 113 23 113 64c0 34 -22 49 -143 70c-103 18 -200 62 -200 186c0 102 69 194 204 218v115h60c41 0 63 -25 63 -66v-48
c129 -14 178 -71 178 -133v-78h-5c-43 48 -128 66 -198 66c-108 0 -122 -31 -122 -62c0 -32 11 -40 140 -64c109 -20 203 -70 203 -195z" />
    <glyph glyph-name="percent" unicode="%" horiz-adv-x="1070" 
d="M415 481c0 -127 -66 -233 -197 -233c-122 0 -190 106 -190 219c0 127 66 235 197 235c122 0 190 -108 190 -221zM737 624c0 -18 -5 -38 -15 -58l-292 -566h-47c-39 0 -72 20 -72 63c0 18 5 38 15 58l295 572h47c39 0 69 -32 69 -69zM1032 218c0 -127 -66 -234 -197 -234
c-122 0 -190 107 -190 220c0 127 66 234 197 234c122 0 190 -107 190 -220zM274 467c0 88 -23 120 -56 120c-27 0 -50 -33 -50 -105c0 -87 23 -120 57 -120c28 0 49 33 49 105zM891 204c0 88 -23 119 -56 119c-27 0 -50 -32 -50 -104c0 -87 23 -121 57 -121
c28 0 49 34 49 106z" />
    <glyph glyph-name="ampersand" unicode="&#x26;" horiz-adv-x="708" 
d="M693 77c0 -53 -22 -93 -96 -93c-40 0 -73 12 -103 33c-12 9 -24 19 -36 31c-18 -19 -66 -64 -182 -64c-127 0 -247 64 -247 210c0 83 49 155 129 203c-29 40 -56 81 -56 124c0 100 77 186 211 186c117 0 185 -65 185 -166c0 -83 -62 -146 -136 -186
c19 -25 63 -78 98 -113c30 36 57 89 57 158h38c40 0 77 -29 77 -78c0 -54 -34 -121 -78 -173c41 -41 82 -56 139 -55v-17zM352 532c0 38 -13 49 -43 49c-23 0 -45 -13 -45 -54c0 -32 13 -54 30 -78c40 20 58 51 58 83zM360 147c-21 21 -98 108 -120 142
c-16 -14 -37 -36 -37 -77c0 -63 33 -90 89 -90c34 0 56 12 68 25z" />
    <glyph glyph-name="quoteright" unicode="&#x2019;" horiz-adv-x="277" 
d="M237 610c0 -115 -81 -209 -181 -209h-31v9c32 17 64 70 64 109c0 28 -15 45 -25 54c-9 8 -36 33 -36 68c0 63 41 99 100 99c68 0 109 -51 109 -130z" />
    <glyph glyph-name="parenleft" unicode="(" horiz-adv-x="398" 
d="M413 -170h-60c-84 0 -136 27 -178 75c-53 60 -125 186 -125 369c0 198 65 325 136 403c33 36 94 63 167 63h59v-5c-74 -63 -171 -224 -171 -442c0 -235 95 -401 172 -458v-5z" />
    <glyph glyph-name="parenright" unicode=")" horiz-adv-x="398" 
d="M-16 740h60c84 0 136 -28 178 -75c53 -60 125 -186 125 -369c0 -199 -65 -325 -136 -403c-33 -37 -94 -63 -167 -63h-59v5c74 63 171 224 171 442c0 235 -95 401 -172 458v5z" />
    <glyph glyph-name="asterisk" unicode="*" horiz-adv-x="554" 
d="M245 556c0 5 1 11 1 16c0 45 -16 105 -59 148c33 11 65 19 85 19c46 0 97 -23 97 -81c0 -36 -21 -70 -33 -103c44 10 102 53 127 103c29 -39 51 -75 51 -112c0 -51 -31 -83 -82 -83c-22 0 -45 4 -67 4h-9c18 -23 37 -47 60 -65c17 -13 35 -23 73 -22
c-26 -48 -54 -95 -105 -95c-25 0 -56 14 -71 36c-14 21 -20 58 -26 83c-2 7 -4 14 -7 20c-41 -52 -46 -87 -46 -147c-70 0 -128 31 -128 93c0 61 55 78 96 106c-28 10 -56 16 -86 16c-21 0 -41 -3 -73 -17c0 61 20 152 90 152c56 0 73 -44 112 -71z" />
    <glyph glyph-name="plus" unicode="+" horiz-adv-x="592" 
d="M564 294c0 -45 -40 -83 -102 -83h-85v-199h-69c-46 0 -87 38 -87 96v103h-191v74c0 39 35 76 86 76h105v182h77c41 0 79 -35 79 -83v-99h187v-67z" />
    <glyph glyph-name="comma" unicode="," horiz-adv-x="344" 
d="M276 79c0 -115 -81 -209 -181 -209h-31v9c32 17 64 70 64 109c0 28 -14 45 -25 54c-9 8 -36 34 -36 68c0 63 41 99 100 99c69 0 109 -51 109 -130z" />
    <glyph glyph-name="hyphen" unicode="-" horiz-adv-x="383" 
d="M345 369v-54c0 -38 -29 -72 -70 -72h-240v51c0 49 25 75 80 75h230z" />
    <glyph glyph-name="period" unicode="." horiz-adv-x="338" 
d="M56 107c0 59 48 107 107 107s107 -48 107 -107s-48 -107 -107 -107s-107 48 -107 107z" />
    <glyph glyph-name="slash" unicode="/" horiz-adv-x="483" 
d="M463 661c0 -19 -5 -39 -15 -59l-309 -602h-47c-39 0 -65 34 -65 79c0 19 5 39 15 59l309 602h47c39 0 65 -34 65 -79z" />
    <glyph glyph-name="zero" unicode="0" 
d="M588 359c0 -234 -74 -375 -285 -375c-140 0 -276 114 -276 349c0 261 110 373 288 373c156 0 273 -94 273 -347zM217 349c0 -163 39 -207 91 -207c63 0 90 37 90 207c0 156 -31 198 -90 198c-55 0 -91 -36 -91 -198z" />
    <glyph glyph-name="one" unicode="1" horiz-adv-x="468" 
d="M378 0h-89c-57 0 -101 39 -101 105v396l-63 -20c-14 -4 -28 -6 -41 -6c-40 0 -71 19 -77 52l-12 66c40 18 181 76 181 76c30 13 68 21 111 21c45 0 91 -32 91 -86v-604z" />
    <glyph glyph-name="two" unicode="2" 
d="M565 88c0 -55 -33 -88 -105 -88h-336c-49 0 -92 31 -92 81c0 63 47 120 122 179l159 124c31 24 45 53 45 84c0 53 -35 82 -99 82c-94 0 -161 -21 -209 -83h-5v61c0 92 67 178 255 178c157 0 251 -105 251 -217c0 -101 -35 -141 -155 -225l-106 -74
c-14 -10 -35 -28 -43 -37h318v-65z" />
    <glyph glyph-name="three" unicode="3" 
d="M554 210c0 -147 -106 -226 -288 -226c-109 0 -215 39 -215 148v73h5c42 -43 122 -68 207 -68c83 0 111 28 111 63c0 54 -23 75 -125 82c-51 3 -83 25 -83 72v42l95 8c104 9 109 38 109 74c0 41 -29 75 -128 75c-73 0 -139 -26 -183 -70h-5v77c0 71 74 146 241 146
c137 0 255 -76 255 -204c0 -78 -48 -128 -102 -154c52 -15 106 -72 106 -138z" />
    <glyph glyph-name="four" unicode="4" 
d="M593 234c0 -45 -30 -80 -79 -80h-26v-154h-91c-64 0 -97 25 -97 92v62h-187c-53 0 -105 34 -105 80c0 40 9 70 26 102c71 132 213 315 287 362h60c61 0 107 -41 107 -112v-278h105v-74zM300 306v183c-46 -57 -96 -137 -115 -183h115z" />
    <glyph glyph-name="five" unicode="5" 
d="M569 227c0 -155 -115 -243 -283 -243c-149 0 -227 48 -227 145v67h5c43 -41 109 -59 198 -59c91 0 124 34 124 83c0 42 -27 72 -142 72c-59 0 -125 -6 -174 -15v265c0 98 33 148 131 148h346v-57c0 -59 -40 -96 -115 -96h-184v-106c18 1 34 2 64 2
c137 0 257 -71 257 -206z" />
    <glyph glyph-name="six" unicode="6" 
d="M580 232c0 -116 -76 -248 -277 -248c-159 0 -264 113 -264 339c0 240 120 383 326 383c111 0 184 -54 184 -136v-62h-5c-38 31 -81 49 -169 49c-87 0 -145 -54 -149 -154c23 33 85 54 122 54c146 0 232 -83 232 -225zM223 247c0 -81 34 -114 95 -114c49 0 82 31 82 88
c0 69 -34 89 -89 89c-63 0 -88 -44 -88 -63z" />
    <glyph glyph-name="seven" unicode="7" 
d="M573 600c0 -36 -28 -96 -64 -157l-122 -203c-27 -46 -49 -114 -49 -159v-81h-89c-53 0 -104 19 -104 96c0 59 21 123 60 186l99 162c23 37 35 62 45 87h-317v57c0 62 35 102 105 102h331c67 0 105 -35 105 -90z" />
    <glyph glyph-name="eight" unicode="8" 
d="M570 203c0 -125 -87 -219 -268 -219c-164 0 -259 84 -259 213c0 61 53 131 106 150c-51 20 -102 73 -102 147c0 136 123 212 260 212c136 0 259 -69 259 -206c0 -75 -56 -132 -102 -147c44 -16 106 -84 106 -150zM306 559c-68 0 -80 -34 -80 -73c0 -34 19 -67 80 -67
s80 33 80 67c0 39 -12 73 -80 73zM390 214c0 34 -25 68 -84 68c-53 0 -84 -35 -84 -68c0 -43 19 -83 84 -83s84 40 84 83z" />
    <glyph glyph-name="nine" unicode="9" 
d="M575 377c0 -263 -96 -393 -291 -393c-132 0 -213 58 -213 142v72h5c44 -44 121 -65 195 -65c89 0 120 57 122 137c-19 -28 -63 -46 -102 -46c-109 0 -257 39 -257 224c0 139 97 258 282 258c130 0 259 -83 259 -329zM392 430c0 89 -28 122 -90 122c-51 0 -87 -33 -87 -92
c0 -61 38 -96 85 -96c63 0 92 40 92 66z" />
    <glyph glyph-name="colon" unicode=":" horiz-adv-x="343" 
d="M64 443c0 59 48 107 107 107s107 -48 107 -107s-48 -107 -107 -107s-107 48 -107 107zM64 107c0 59 48 107 107 107s107 -48 107 -107s-48 -107 -107 -107s-107 48 -107 107z" />
    <glyph glyph-name="semicolon" unicode=";" horiz-adv-x="343" 
d="M64 443c0 59 48 107 107 107s107 -48 107 -107s-48 -107 -107 -107s-107 48 -107 107zM284 79c0 -115 -81 -209 -181 -209h-31v9c32 17 64 70 64 109c0 28 -14 45 -25 54c-9 8 -36 34 -36 68c0 63 41 99 100 99c69 0 109 -51 109 -130z" />
    <glyph glyph-name="less" unicode="&#x3c;" horiz-adv-x="592" 
d="M548 497c0 -48 -27 -97 -88 -117c-67 -22 -159 -53 -218 -77c59 -31 241 -103 301 -120v-46c0 -59 -41 -71 -72 -71c-18 0 -59 7 -81 15c-93 33 -267 117 -359 181v30c0 52 34 74 67 90c111 54 316 140 450 169v-54z" />
    <glyph glyph-name="equal" unicode="=" 
d="M465 353h-406v60c0 46 40 76 91 76h405v-62c0 -44 -46 -74 -90 -74zM465 148h-406v58c0 47 40 76 91 76h405v-62c0 -50 -48 -72 -90 -72z" />
    <glyph glyph-name="greater" unicode="&#x3e;" horiz-adv-x="592" 
d="M41 118c0 48 27 97 88 117c67 22 159 53 218 77c-59 31 -241 103 -301 120v46c0 59 41 71 72 71c18 0 60 -7 81 -15c93 -33 267 -117 359 -181v-30c0 -52 -33 -74 -67 -90c-111 -54 -316 -140 -450 -169v54z" />
    <glyph glyph-name="question" unicode="?" horiz-adv-x="500" 
d="M391 421l-91 -69c-26 -19 -35 -35 -35 -68v-30h-66c-58 0 -85 32 -85 71c0 40 18 70 37 87l93 82c15 13 20 39 20 56c0 32 -27 57 -83 57c-66 0 -116 -20 -145 -60h-5v60c0 75 72 149 197 149c140 0 225 -88 225 -189c0 -58 -18 -112 -62 -146zM111 107
c0 59 48 107 107 107s107 -48 107 -107s-48 -107 -107 -107s-107 48 -107 107z" />
    <glyph glyph-name="at" unicode="@" horiz-adv-x="833" 
d="M606 270c27 0 80 40 80 159c0 128 -82 223 -239 223s-295 -118 -295 -311c0 -164 107 -254 257 -254c58 0 154 12 216 36v-34c0 -47 -18 -75 -65 -89c-30 -9 -98 -20 -171 -20c-192 0 -363 134 -363 353c0 225 171 425 432 425c205 0 351 -138 351 -325
c0 -163 -103 -276 -234 -276c-62 0 -84 45 -94 76c-24 -40 -65 -79 -125 -79c-74 0 -147 78 -147 180c0 139 103 253 247 253c67 0 153 -47 153 -96c0 -23 -6 -59 -13 -95c-7 -37 -14 -74 -14 -95c0 -17 11 -31 24 -31zM439 463c-38 0 -85 -44 -85 -118c0 -57 24 -63 34 -63
c53 0 71 52 90 170c-11 7 -21 11 -39 11z" />
    <glyph glyph-name="A" unicode="A" horiz-adv-x="670" 
d="M665 0h-86c-69 0 -105 20 -117 82c-5 25 -11 52 -19 81h-238c-15 -50 -27 -120 -35 -163h-77c-61 0 -88 34 -88 85c0 100 131 480 251 605h74c67 0 111 -34 134 -72c66 -110 170 -383 201 -618zM404 312c-20 68 -50 151 -78 206c-30 -57 -60 -138 -80 -206h158z" />
    <glyph glyph-name="B" unicode="B" horiz-adv-x="663" 
d="M623 213c0 -149 -130 -221 -265 -221h-75c-139 0 -223 59 -223 177v496c51 17 153 35 213 35h84c140 0 254 -71 254 -196c0 -64 -56 -127 -113 -142c67 -20 125 -89 125 -149zM423 488c0 42 -30 59 -85 59h-42c-11 0 -34 -2 -47 -4v-123h84c64 0 90 24 90 68zM433 218
c0 55 -24 73 -95 73h-88v-107c0 -20 12 -30 34 -30h61c64 0 88 25 88 64z" />
    <glyph glyph-name="C" unicode="C" horiz-adv-x="651" 
d="M626 471h-5c-35 45 -121 71 -197 71c-112 0 -194 -74 -194 -186c0 -141 86 -208 198 -208c74 0 156 28 190 64h5v-71c0 -89 -89 -157 -224 -157c-189 0 -359 136 -359 354c0 201 141 368 371 368c135 0 215 -67 215 -164v-71z" />
    <glyph glyph-name="D" unicode="D" horiz-adv-x="720" 
d="M680 356c0 -210 -136 -365 -334 -365h-68c-124 0 -218 47 -218 167v509c51 19 143 33 197 33h72c169 0 351 -109 351 -344zM490 341c0 137 -76 206 -170 206h-40c-7 0 -20 -2 -30 -4v-354c0 -24 15 -45 40 -45h31c110 0 169 79 169 197z" />
    <glyph glyph-name="E" unicode="E" horiz-adv-x="606" 
d="M575 92c0 -63 -39 -101 -161 -101h-78c-181 0 -281 92 -281 283v116c0 63 4 133 12 186c13 88 66 114 133 114h376v-45c0 -66 -35 -110 -115 -110h-210c-4 -34 -7 -84 -7 -117h267v-69c0 -50 -37 -78 -104 -78h-163v-25c0 -74 24 -100 120 -100h50c57 0 105 5 161 19v-73
z" />
    <glyph glyph-name="F" unicode="F" horiz-adv-x="539" 
d="M534 623c0 -40 -33 -89 -100 -89h-184v-129h243v-59c0 -52 -37 -86 -82 -86h-157v-260h-92c-60 0 -101 30 -101 94v471c0 85 47 125 139 125h334v-67z" />
    <glyph glyph-name="G" unicode="G" horiz-adv-x="701" 
d="M651 170c0 -114 -71 -186 -252 -186c-195 0 -359 139 -359 353c0 205 148 369 391 369c136 0 205 -70 205 -147v-69h-5c-36 33 -99 61 -205 61c-103 0 -196 -68 -196 -198c0 -149 82 -214 185 -214c55 0 59 18 59 43v77c0 29 -6 74 -13 95h97c61 0 93 -40 93 -92v-92z
" />
    <glyph glyph-name="H" unicode="H" horiz-adv-x="725" 
d="M665 0h-82c-52 0 -108 37 -108 107v175h-224v-282h-84c-52 0 -107 37 -107 107v583h98c50 0 92 -37 92 -89v-167h225v256h93c45 0 97 -33 97 -89v-601z" />
    <glyph glyph-name="I" unicode="I" horiz-adv-x="330" 
d="M260 0h-102c-43 0 -88 37 -88 107v583h106c37 0 84 -33 84 -89v-601z" />
    <glyph glyph-name="J" unicode="J" horiz-adv-x="449" 
d="M379 217c0 -141 -72 -227 -224 -227c-94 0 -150 44 -150 105v80h6c23 -19 51 -31 105 -31c53 0 73 31 73 75v471h67c70 0 123 -40 123 -109v-364z" />
    <glyph glyph-name="K" unicode="K" horiz-adv-x="717" 
d="M137 690c82 0 123 -54 123 -108v-183c62 87 119 168 194 245c39 40 64 46 121 46h139v-5c-87 -83 -203 -221 -273 -314c47 -66 93 -136 149 -195c40 -42 61 -66 118 -79c-21 -79 -52 -104 -115 -104c-38 0 -91 19 -120 51c-82 90 -140 174 -213 284v-328h-76
c-82 0 -114 56 -114 109v581h67z" />
    <glyph glyph-name="L" unicode="L" horiz-adv-x="556" 
d="M551 106c0 -70 -42 -114 -151 -114h-80c-175 0 -250 88 -250 262v436h80c75 0 110 -39 110 -117v-306c0 -90 24 -117 110 -117h30c55 0 118 9 146 21h5v-65z" />
    <glyph glyph-name="M" unicode="M" horiz-adv-x="985" 
d="M930 0h-81c-66 0 -114 36 -114 108c0 62 -6 239 -17 341l-95 -290c-14 -42 -43 -116 -69 -159h-53c-65 0 -116 49 -159 189l-35 115c-17 57 -38 118 -49 147c-12 -118 -21 -337 -21 -451h-71c-58 0 -111 40 -111 108c0 198 27 437 60 582h66c110 0 166 -52 191 -113
l54 -134c23 -58 52 -137 67 -195c15 51 36 112 57 162l66 158c25 59 58 101 83 122h35c100 0 148 -55 161 -154c18 -135 35 -347 35 -536z" />
    <glyph glyph-name="N" unicode="N" horiz-adv-x="725" 
d="M675 0h-75c-78 0 -142 34 -204 146l-117 212c-22 39 -34 67 -34 67v-425h-78c-52 0 -107 36 -107 106v584h92c101 0 168 -49 215 -142l84 -166l44 -84v392h84c45 0 96 -33 96 -89v-601z" />
    <glyph glyph-name="O" unicode="O" horiz-adv-x="764" 
d="M724 355c0 -229 -128 -371 -352 -371c-188 0 -332 136 -332 352c0 223 131 370 353 370c169 0 331 -126 331 -351zM534 338c0 151 -54 214 -160 214c-94 0 -144 -81 -144 -197c0 -146 56 -216 160 -216c86 0 144 72 144 199z" />
    <glyph glyph-name="P" unicode="P" horiz-adv-x="607" 
d="M597 476c0 -150 -114 -247 -257 -247c-34 0 -65 2 -90 10v-239h-85c-50 0 -105 35 -105 118v553c52 12 140 29 206 29h77c143 0 254 -80 254 -224zM407 460c0 72 -32 90 -81 90h-38c-9 0 -29 -3 -38 -5v-154c21 -7 45 -9 72 -9c60 0 85 28 85 78z" />
    <glyph glyph-name="Q" unicode="Q" horiz-adv-x="779" 
d="M698 -102c-130 0 -266 36 -385 88c-155 42 -273 159 -273 352c0 201 106 368 359 368c156 0 325 -121 325 -348c0 -181 -90 -262 -180 -293c41 -15 146 -30 220 -30v-61c0 -46 -29 -76 -66 -76zM534 339c0 162 -59 211 -159 211c-101 0 -145 -87 -145 -192
c0 -159 64 -229 166 -229c71 0 138 71 138 210z" />
    <glyph glyph-name="R" unicode="R" horiz-adv-x="658" 
d="M648 13c-23 -12 -61 -18 -102 -18c-64 0 -104 28 -124 73l-51 112c-27 59 -46 70 -91 76c-9 1 -19 2 -30 3v-259h-73c-74 0 -117 45 -117 109v561c48 17 154 30 207 30h77c148 0 253 -81 253 -206c0 -92 -60 -170 -126 -185c33 -15 50 -40 76 -95l53 -112
c20 -41 38 -72 48 -84v-5zM327 550h-39c-8 0 -24 -2 -38 -4v-152c23 -3 47 -3 76 -3c54 0 81 41 81 80c0 50 -25 79 -80 79z" />
    <glyph glyph-name="S" unicode="S" horiz-adv-x="616" 
d="M578 219c0 -143 -105 -235 -289 -235c-152 0 -234 58 -234 157v68h5c43 -44 133 -70 212 -70c88 0 116 21 116 67c0 42 -38 56 -143 77c-150 30 -208 85 -208 190c0 123 112 233 287 233c170 0 235 -77 235 -148v-73h-5c-46 46 -129 66 -201 66c-94 0 -126 -25 -126 -64
c0 -31 13 -48 141 -74c142 -29 210 -87 210 -194z" />
    <glyph glyph-name="T" unicode="T" horiz-adv-x="611" 
d="M601 623c0 -43 -48 -92 -106 -92h-98v-531h-83c-57 0 -107 26 -107 99v432h-197v66c0 42 37 92 107 92h484v-66z" />
    <glyph glyph-name="U" unicode="U" horiz-adv-x="742" 
d="M682 295c0 -174 -107 -311 -320 -311c-177 0 -302 119 -302 305v401h81c61 0 109 -36 109 -131v-264c0 -117 41 -155 130 -155c75 0 112 47 112 150v400h81c71 0 109 -36 109 -127v-268z" />
    <glyph glyph-name="V" unicode="V" horiz-adv-x="674" 
d="M617 458c-45 -136 -156 -377 -225 -466h-45c-46 0 -71 17 -100 61c-110 169 -202 406 -237 637h106c65 0 103 -47 111 -88c17 -89 63 -238 116 -351c56 114 113 300 135 439h96c47 0 85 -30 85 -79c0 -26 -17 -77 -42 -153z" />
    <glyph glyph-name="W" unicode="W" horiz-adv-x="1024" 
d="M1006 574c-37 -165 -137 -427 -237 -582h-52c-22 0 -58 7 -85 52c-42 69 -88 183 -117 295c-26 -105 -90 -262 -148 -347h-52c-21 0 -60 7 -87 52c-112 186 -184 395 -218 646h110c56 0 98 -31 109 -92c16 -95 41 -192 89 -311c49 118 94 273 113 379h66
c67 0 117 -29 134 -107c20 -93 42 -162 89 -272c48 121 86 250 108 403h96c49 0 85 -33 85 -85c0 -10 -1 -20 -3 -31z" />
    <glyph glyph-name="X" unicode="X" horiz-adv-x="732" 
d="M710 59c-38 -45 -65 -66 -126 -66c-72 0 -123 39 -190 135l-67 96c-77 -93 -103 -153 -122 -224h-82c-59 0 -75 41 -75 84c0 23 7 48 15 67c35 83 104 150 165 215c-24 33 -51 69 -77 105c-51 70 -99 142 -119 219h119c42 0 84 -15 153 -116l64 -94
c94 108 115 145 132 210h68c58 0 81 -37 81 -82c0 -55 -75 -151 -181 -270c33 -48 61 -88 89 -125c41 -54 84 -101 153 -154z" />
    <glyph glyph-name="Y" unicode="Y" horiz-adv-x="629" 
d="M619 629c0 -58 -143 -267 -207 -340v-289h-83c-52 0 -107 36 -107 106v184c-80 100 -168 249 -217 400h96c62 0 101 -30 114 -59c29 -64 72 -138 111 -194c43 61 100 156 131 253h90c44 0 72 -31 72 -61z" />
    <glyph glyph-name="Z" unicode="Z" horiz-adv-x="641" 
d="M605 91c0 -51 -43 -91 -100 -91h-380c-32 0 -89 33 -89 93c0 51 16 92 105 189l161 177c27 29 41 53 50 69h-314v57c0 65 41 105 124 105h315c69 0 116 -37 116 -95c0 -53 -11 -94 -70 -161l-160 -183c-33 -37 -59 -64 -78 -92h320v-68z" />
    <glyph glyph-name="bracketleft" unicode="[" horiz-adv-x="320" 
d="M318 -170h-248v910h184c27 0 64 -18 64 -70v-37h-128v-696h64c37 0 64 -24 64 -71v-36z" />
    <glyph glyph-name="backslash" unicode="\" horiz-adv-x="483" 
d="M458 0h-68c-50 0 -106 23 -135 99l-226 591h78c44 0 94 -19 116 -76z" />
    <glyph glyph-name="bracketright" unicode="]" horiz-adv-x="320" 
d="M13 740h248v-910h-184c-27 0 -64 18 -64 70v37h128v696h-64c-37 0 -64 24 -64 71v36z" />
    <glyph glyph-name="asciicircum" unicode="^" horiz-adv-x="491" 
d="M452 443h-57c-37 0 -61 10 -73 42c-11 30 -61 114 -76 131c-20 -24 -89 -127 -112 -178h-23c-41 0 -60 19 -60 47c0 8 9 25 13 33c27 56 98 164 158 223h24c22 0 45 -20 59 -37c41 -50 126 -202 147 -261z" />
    <glyph glyph-name="underscore" unicode="_" horiz-adv-x="565" 
d="M565 -291h-565v91h565v-91z" />
    <glyph glyph-name="quoteleft" unicode="&#x2018;" horiz-adv-x="277" 
d="M40 550c0 115 80 209 181 209h31v-9c-32 -17 -64 -70 -64 -109c0 -28 14 -45 25 -54c9 -8 36 -34 36 -68c0 -63 -41 -99 -100 -99c-69 0 -109 51 -109 130z" />
    <glyph glyph-name="a" unicode="a" horiz-adv-x="584" 
d="M539 242c0 -200 -64 -257 -264 -257c-106 0 -235 50 -235 175c0 122 88 184 288 184h27v23c0 45 -35 56 -110 56c-103 0 -141 -24 -180 -60h-5v67c0 68 71 136 228 136c152 0 251 -77 251 -239v-85zM359 185v41h-38c-72 0 -101 -18 -101 -55c0 -35 22 -53 75 -53
c34 0 64 17 64 67z" />
    <glyph glyph-name="b" unicode="b" horiz-adv-x="677" 
d="M637 283c0 -184 -126 -298 -302 -298c-188 0 -280 103 -280 265v490h46c105 0 138 -31 138 -120v-129c31 40 65 75 140 75c150 0 258 -104 258 -283zM447 263c0 111 -37 154 -103 154c-61 0 -104 -54 -104 -144c0 -108 42 -144 107 -144c60 0 100 49 100 134z" />
    <glyph glyph-name="c" unicode="c" horiz-adv-x="527" 
d="M502 370h-5c-17 18 -69 38 -122 38c-93 0 -145 -47 -145 -124c0 -94 52 -138 136 -138c59 0 100 12 133 31h2v-57c0 -73 -75 -132 -175 -132c-167 0 -286 113 -286 285c0 157 109 292 303 292c87 0 159 -57 159 -128v-67z" />
    <glyph glyph-name="d" unicode="d" horiz-adv-x="679" 
d="M627 288c0 -199 -81 -304 -300 -304c-162 0 -287 133 -287 282c0 185 114 300 260 300c70 0 122 -31 142 -74v248h68c76 0 117 -40 117 -133v-319zM438 262c0 123 -47 157 -115 157c-51 0 -94 -53 -94 -137c0 -108 50 -152 119 -152c59 0 90 46 90 132z" />
    <glyph glyph-name="e" unicode="e" 
d="M579 346c0 -110 -83 -139 -269 -139h-82c11 -55 56 -81 135 -81c88 0 143 14 174 35h7v-44c0 -70 -57 -133 -214 -133c-190 0 -290 128 -290 280c0 167 113 303 283 303c144 0 256 -81 256 -221zM403 367c0 28 -25 58 -80 58c-67 0 -95 -43 -100 -96h74
c90 0 106 14 106 38z" />
    <glyph glyph-name="f" unicode="f" horiz-adv-x="378" 
d="M408 602h-5c-21 11 -60 15 -85 15c-45 0 -76 -26 -76 -59v-65h126v-69c0 -37 -34 -61 -82 -61h-44v-363h-58c-90 0 -127 35 -127 118v379c0 198 119 253 223 253c93 0 128 -47 128 -104v-44z" />
    <glyph glyph-name="g" unicode="g" horiz-adv-x="646" 
d="M591 174c0 -13 1 -33 2 -59c1 -17 1 -36 1 -56c0 -134 -114 -241 -288 -241c-157 0 -218 70 -218 140v59h6c34 -31 98 -49 187 -49c80 0 123 44 123 103c0 9 -2 22 -2 32v19c-12 -35 -56 -69 -111 -69c-139 0 -251 70 -251 241c0 151 119 272 306 272
c167 0 245 -97 245 -247v-145zM319 413c-57 0 -90 -37 -90 -101c0 -82 38 -112 95 -112c53 0 82 41 82 103c0 81 -30 110 -87 110z" />
    <glyph glyph-name="h" unicode="h" horiz-adv-x="666" 
d="M614 0h-73c-100 0 -117 47 -117 115v184c0 78 -28 113 -82 113c-74 0 -92 -39 -92 -117v-295h-64c-91 0 -126 38 -126 115v625h61c79 0 124 -38 124 -109v-142c28 44 74 77 161 77c111 0 208 -86 208 -235v-331z" />
    <glyph glyph-name="i" unicode="i" horiz-adv-x="366" 
d="M256 675c0 -52 -44 -94 -99 -94s-100 42 -100 94s45 94 100 94s99 -42 99 -94zM356 80c0 -66 -50 -88 -109 -88c-101 0 -180 50 -180 180v361h47c108 0 143 -31 143 -131v-202c0 -49 23 -64 76 -64h23v-56z" />
    <glyph glyph-name="j" unicode="j" horiz-adv-x="325" 
d="M268 675c0 -52 -45 -94 -100 -94s-100 42 -100 94s45 94 100 94s100 -42 100 -94zM265 53c0 -144 -75 -241 -228 -241c-54 0 -97 29 -97 75v56l21 1c78 4 117 25 117 117v472h56c95 0 131 -54 131 -127v-353z" />
    <glyph glyph-name="k" unicode="k" horiz-adv-x="630" 
d="M133 740c86 0 117 -56 117 -111v-313c45 67 91 139 145 197c24 26 43 37 101 37h133v-5c-34 -35 -155 -176 -205 -248c32 -48 65 -101 103 -145c41 -47 57 -52 99 -62c-7 -61 -48 -95 -116 -95c-28 0 -75 11 -98 38c-62 72 -110 150 -162 229v-262h-75
c-70 0 -115 46 -115 112v628h73z" />
    <glyph glyph-name="l" unicode="l" horiz-adv-x="372" 
d="M369 80c0 -67 -64 -88 -124 -88c-101 0 -188 60 -188 190v558h67c83 0 123 -38 123 -131v-399c0 -49 27 -64 80 -64h42v-66z" />
    <glyph glyph-name="m" unicode="m" horiz-adv-x="967" 
d="M915 0h-66c-101 0 -124 43 -124 111v203c0 71 -24 97 -79 97c-53 0 -71 -39 -71 -94v-317h-66c-77 0 -118 25 -118 111v208c0 65 -25 92 -75 92c-53 0 -74 -27 -74 -95v-316h-66c-85 0 -124 41 -124 111v193c0 160 92 262 267 262c86 0 151 -53 169 -98
c26 42 93 98 172 98c160 0 255 -95 255 -267v-299z" />
    <glyph glyph-name="n" unicode="n" horiz-adv-x="658" 
d="M606 0h-80c-84 0 -110 28 -110 112v193c0 74 -25 107 -89 107c-55 0 -85 -37 -85 -104v-308h-64c-81 0 -126 32 -126 112v193c0 158 105 261 280 261c195 0 274 -103 274 -266v-300z" />
    <glyph glyph-name="o" unicode="o" horiz-adv-x="664" 
d="M40 263c0 182 126 302 299 302c150 0 285 -114 285 -284c0 -180 -109 -296 -299 -296c-157 0 -285 116 -285 278zM436 264c0 99 -43 151 -109 151c-52 0 -99 -55 -99 -130c0 -106 42 -152 109 -152c60 0 99 55 99 131z" />
    <glyph glyph-name="p" unicode="p" horiz-adv-x="678" 
d="M638 287c0 -188 -110 -303 -260 -303c-74 0 -117 34 -141 75v-229h-69c-76 0 -116 40 -116 133v291c0 197 109 312 304 312c161 0 282 -109 282 -279zM448 267c0 118 -36 154 -114 154c-52 0 -94 -50 -94 -131c0 -117 50 -158 115 -158c60 0 93 53 93 135z" />
    <glyph glyph-name="q" unicode="q" horiz-adv-x="678" 
d="M344 566c182 0 279 -106 279 -283v-453h-58c-93 0 -125 39 -125 123v109c-22 -41 -60 -78 -130 -78c-157 0 -271 106 -271 280c0 172 122 302 305 302zM327 421c-46 0 -98 -46 -98 -137c0 -111 48 -148 113 -148c51 0 96 41 96 135c0 109 -39 150 -111 150z" />
    <glyph glyph-name="r" unicode="r" horiz-adv-x="396" 
d="M396 408h-6c-24 9 -42 11 -67 11c-46 0 -82 -23 -82 -90v-329h-52c-82 0 -132 38 -132 130v239c0 111 75 199 200 199c95 0 139 -39 139 -90v-70z" />
    <glyph glyph-name="s" unicode="s" horiz-adv-x="540" 
d="M500 177c0 -118 -92 -193 -243 -193c-150 0 -204 55 -204 135v55h5c36 -27 91 -48 169 -48c69 0 91 16 91 43c0 25 -13 35 -127 51c-99 14 -151 59 -151 147c0 132 125 199 251 199c122 0 196 -49 196 -131v-57h-5c-37 27 -95 46 -169 46c-71 0 -94 -19 -94 -42
c0 -21 12 -28 127 -47c92 -15 154 -65 154 -158z" />
    <glyph glyph-name="t" unicode="t" horiz-adv-x="415" 
d="M57 529c0 50 29 90 66 118c25 19 59 37 99 37h20v-134h161v-67c0 -47 -50 -83 -93 -83h-68v-199c0 -37 23 -59 60 -59c45 0 66 4 86 12h5v-74c0 -46 -42 -88 -141 -88c-94 0 -195 45 -195 196v341z" />
    <glyph glyph-name="u" unicode="u" horiz-adv-x="660" 
d="M608 242c0 -176 -112 -258 -281 -258c-178 0 -275 87 -275 263v303h74c83 0 119 -28 119 -112v-196c0 -81 38 -106 90 -106c45 0 81 26 81 113v301h74c76 0 118 -32 118 -112v-196z" />
    <glyph glyph-name="v" unicode="v" horiz-adv-x="585" 
d="M549 357c-36 -105 -127 -292 -193 -365h-51c-63 0 -93 30 -125 80c-74 115 -151 317 -175 478h99c62 0 101 -44 108 -79c17 -88 66 -218 91 -265c35 65 84 221 104 344h91c48 0 77 -29 77 -75c0 -40 -13 -80 -26 -118z" />
    <glyph glyph-name="w" unicode="w" horiz-adv-x="885" 
d="M875 481c0 -24 -18 -87 -30 -125c-33 -107 -103 -281 -165 -364h-53c-47 0 -71 16 -85 38c-34 52 -75 155 -98 226c-22 -81 -76 -205 -123 -264h-47c-44 0 -68 7 -88 38c-76 117 -155 331 -181 520h101c63 0 97 -43 103 -78c14 -76 36 -153 69 -234c40 93 70 191 92 289
h74c48 0 95 -39 105 -82c11 -51 43 -143 72 -207c30 69 64 190 82 312h89c59 0 83 -37 83 -69z" />
    <glyph glyph-name="x" unicode="x" horiz-adv-x="586" 
d="M470 -5c-79 0 -121 48 -162 106c-15 21 -29 43 -44 64c-51 -55 -76 -96 -84 -165h-77c-39 0 -75 27 -75 65c0 62 27 115 107 195l34 34c-40 54 -81 105 -116 162c-16 27 -26 51 -28 94h102c27 0 53 -10 81 -36c13 -12 33 -38 51 -63c17 -24 33 -47 41 -58
c69 75 91 116 95 157h65c49 0 76 -31 76 -69c0 -30 -17 -71 -57 -121c-22 -28 -52 -58 -83 -92l49 -69c60 -84 79 -98 134 -113c0 -59 -43 -91 -109 -91z" />
    <glyph glyph-name="y" unicode="y" horiz-adv-x="583" 
d="M568 480c0 -58 -52 -218 -113 -335c-154 -296 -193 -326 -308 -326c-61 0 -112 33 -112 95v46l82 6c50 4 73 24 93 69c-79 118 -180 368 -202 515h99c47 0 96 -29 107 -78c19 -87 57 -193 86 -260c41 83 84 231 96 338h91c55 0 81 -26 81 -70z" />
    <glyph glyph-name="z" unicode="z" horiz-adv-x="558" 
d="M528 77c0 -40 -40 -77 -92 -77h-294c-57 0 -111 24 -111 93c0 33 20 74 67 120l164 160c8 8 23 27 27 36h-259v53c0 59 55 88 101 88h278c65 0 110 -39 110 -101c0 -39 -35 -89 -82 -135l-136 -132c-7 -7 -20 -24 -26 -37h253v-68z" />
    <glyph glyph-name="braceleft" unicode="{" horiz-adv-x="459" 
d="M135 557c0 116 72 183 169 183h56c40 0 79 -30 79 -76v-51h-84c-30 0 -51 -21 -51 -81c0 -19 0 -34 3 -56c3 -23 5 -36 5 -64c0 -71 -40 -107 -91 -121v-3c53 -15 91 -52 91 -125c0 -28 -3 -43 -5 -67c-2 -22 -3 -40 -3 -60c0 -52 19 -80 51 -80h16c34 0 68 -36 68 -66
v-60h-134c-101 0 -170 72 -170 181c0 28 0 51 3 81c3 23 7 48 7 71c0 34 -18 60 -46 65c-39 7 -59 29 -59 61v47l59 10c34 6 43 34 43 63c0 24 -1 45 -4 71c-3 29 -3 49 -3 77z" />
    <glyph glyph-name="bar" unicode="|" horiz-adv-x="257" 
d="M161 -170h-21c-19 0 -41 17 -41 45v866h20c20 0 42 -14 42 -40v-871z" />
    <glyph glyph-name="braceright" unicode="}" horiz-adv-x="459" 
d="M324 12c0 -116 -72 -183 -169 -183h-56c-40 0 -79 30 -79 76v51h84c30 0 51 21 51 81c0 19 0 34 -3 56c-3 24 -5 36 -5 64c0 71 40 107 91 121v3c-53 15 -91 52 -91 125c0 28 3 43 5 67c2 22 3 41 3 60c0 52 -19 80 -51 80h-16c-34 0 -68 36 -68 66v60h134
c101 0 170 -72 170 -181c0 -28 0 -51 -3 -81c-3 -23 -7 -48 -7 -71c0 -34 18 -60 46 -65c39 -7 59 -29 59 -61v-47l-59 -10c-34 -6 -43 -34 -43 -63c0 -24 1 -45 4 -71c3 -29 3 -49 3 -77z" />
    <glyph glyph-name="asciitilde" unicode="~" horiz-adv-x="591" 
d="M522 327c0 -69 -54 -123 -142 -123c-45 0 -76 19 -105 33c-24 12 -50 16 -62 16c-19 0 -32 -18 -32 -56h-48c-35 0 -66 33 -66 79c0 94 85 125 141 125c44 0 76 -16 103 -29c23 -11 53 -20 66 -20c23 0 32 13 32 54h55c32 0 58 -31 58 -79z" />
    <glyph glyph-name="exclamdown" unicode="&#xa1;" horiz-adv-x="314" 
d="M56 442c0 60 48 107 107 107s107 -47 107 -107c0 -59 -48 -107 -107 -107s-107 48 -107 107zM74 -78l13 358h62c62 0 97 -42 99 -101l11 -359h-89c-60 0 -96 39 -96 97v5z" />
    <glyph glyph-name="cent" unicode="&#xa2;" 
d="M531 370h-5c-17 18 -69 38 -122 38c-93 0 -145 -47 -145 -124c0 -94 52 -138 136 -138c59 0 100 12 133 31h2v-57c0 -59 -49 -102 -120 -117v-141h-41c-58 0 -92 21 -92 76v68c-125 27 -208 123 -208 267c0 129 74 237 208 271v139h50c56 0 83 -28 83 -85v-46
c69 -12 121 -55 121 -115v-67z" />
    <glyph glyph-name="sterling" unicode="&#xa3;" 
d="M289 150h272v-64c0 -50 -36 -86 -117 -86h-366v52c0 39 25 70 45 92c20 23 46 56 46 102c0 11 -1 19 -3 30h-123v45c0 51 28 83 90 83h6c-6 21 -12 47 -12 71c0 128 89 224 249 224c74 0 150 -49 150 -122v-75h-5c-39 34 -80 49 -132 49c-47 0 -87 -28 -87 -82
c0 -22 3 -45 8 -65h176v-48c0 -50 -36 -80 -92 -80h-70c1 -6 2 -15 2 -21c0 -38 -15 -75 -37 -105z" />
    <glyph glyph-name="fraction" unicode="&#x2044;" horiz-adv-x="483" 
d="M463 661c0 -19 -5 -39 -15 -59l-309 -602h-47c-39 0 -65 34 -65 79c0 19 5 39 15 59l309 602h47c39 0 65 -34 65 -79z" />
    <glyph glyph-name="yen" unicode="&#xa5;" 
d="M583 633c0 -40 -120 -196 -163 -240h147v-48c0 -40 -32 -63 -73 -63h-108v-70h181v-50c0 -37 -32 -62 -73 -62h-108v-100h-85c-40 0 -71 26 -71 75v25h-182v42c0 41 24 70 73 70h109v70h-182v45c0 41 24 66 73 66h67c-50 60 -129 196 -173 297h80c58 0 103 -26 116 -51
c33 -64 77 -141 103 -168c30 31 102 140 132 219h74c39 0 63 -27 63 -57z" />
    <glyph glyph-name="florin" unicode="&#x192;" 
d="M494 565c-50 0 -71 -37 -80 -100c0 0 -4 -29 -6 -41h150v-50c0 -39 -38 -72 -108 -72h-57l-30 -202c-22 -148 -78 -208 -208 -208c-84 0 -127 38 -127 81v72c22 -12 51 -18 90 -18c42 0 63 21 72 91l24 184h-129v48c0 44 47 73 90 73h56l6 45c17 128 89 227 236 227
c72 0 113 -37 113 -82v-68c-29 16 -71 20 -92 20z" />
    <glyph glyph-name="section" unicode="&#xa7;" 
d="M515 510c-43 40 -108 55 -174 55s-95 -18 -95 -43c0 -31 7 -44 116 -80c95 -32 203 -80 203 -186c0 -59 -47 -116 -75 -131c24 -17 56 -61 56 -108c0 -102 -75 -199 -262 -199c-137 0 -208 54 -208 127v72h6c49 -39 111 -70 207 -70c56 0 83 17 83 57
c0 28 -19 47 -156 90c-95 30 -164 93 -164 169c0 64 40 102 90 126c-39 18 -66 52 -66 120c0 93 82 184 262 184c96 0 181 -51 181 -113v-70h-4zM343 298c-47 16 -73 26 -107 40c-12 -8 -26 -27 -26 -50c0 -30 18 -54 75 -73c43 -14 72 -23 104 -36c8 6 20 23 20 56
c0 26 -14 45 -66 63z" />
    <glyph glyph-name="currency" unicode="&#xa4;" horiz-adv-x="726" 
d="M702 63c-5 -4 -10 -9 -15 -14c-28 -27 -56 -53 -88 -53c-18 0 -38 9 -60 32l-22 24c-42 -28 -97 -43 -161 -43c-63 0 -121 22 -166 60l-89 -84l-40 42c-14 15 -20 31 -20 47c0 30 21 62 50 91l22 21c-8 25 -12 52 -12 81c0 53 12 101 32 141l-116 104l48 45
c14 13 31 20 49 20c20 0 42 -9 62 -26l49 -42c41 25 90 39 144 39c39 0 75 -9 109 -25l96 90l48 -44c15 -14 22 -30 22 -47c0 -18 -8 -38 -27 -56l-35 -34c26 -41 42 -91 42 -148c0 -46 -8 -89 -22 -125zM494 266c0 109 -55 166 -141 166c-67 0 -128 -61 -128 -143
c0 -116 54 -166 141 -166c78 0 128 60 128 143z" />
    <glyph glyph-name="quotesingle" unicode="'" horiz-adv-x="314" 
d="M244 587l-19 -183h-47c-57 0 -83 44 -89 99l-19 187h85c50 0 90 -33 90 -89c0 -4 0 -9 -1 -14z" />
    <glyph glyph-name="quotedblleft" unicode="&#x201c;" horiz-adv-x="544" 
d="M297 550c0 115 81 209 181 209h31v-9c-32 -17 -64 -70 -64 -109c0 -28 15 -45 25 -54c9 -8 36 -34 36 -68c0 -63 -41 -99 -100 -99c-68 0 -109 51 -109 130zM30 550c0 115 80 209 181 209h31v-9c-32 -17 -64 -70 -64 -109c0 -28 14 -45 25 -54c9 -8 36 -34 36 -68
c0 -63 -41 -99 -100 -99c-69 0 -109 51 -109 130z" />
    <glyph glyph-name="guillemotleft" unicode="&#xab;" horiz-adv-x="643" 
d="M537 75c-59 0 -98 14 -124 55l-97 153l97 154c22 36 57 53 124 53h64l-125 -207l125 -208h-64zM269 75c-60 0 -97 17 -124 55l-108 153l108 154c23 33 57 53 124 53h65l-135 -207l135 -208h-65z" />
    <glyph glyph-name="guilsinglleft" unicode="&#x2039;" horiz-adv-x="339" 
d="M245 75c-60 0 -97 17 -124 55l-108 153l108 154c23 33 57 53 124 53h65l-135 -207l135 -208h-65z" />
    <glyph glyph-name="guilsinglright" unicode="&#x203a;" horiz-adv-x="339" 
d="M87 75h-65l135 208l-135 207h65c67 0 101 -20 124 -53l108 -154l-108 -153c-27 -38 -64 -55 -124 -55z" />
    <glyph glyph-name="fi" unicode="&#xfb01;" horiz-adv-x="731" 
d="M622 675c0 -52 -44 -94 -99 -94s-100 42 -100 94s45 94 100 94s99 -42 99 -94zM388 602h-5c-21 11 -50 15 -75 15c-40 0 -66 -26 -66 -59v-65h126v-69c0 -37 -34 -61 -82 -61h-44v-363h-58c-90 0 -127 35 -127 118v379c0 182 109 253 213 253c93 0 118 -47 118 -104v-44z
M722 80c0 -66 -50 -88 -109 -88c-101 0 -180 50 -180 180v361h47c108 0 143 -31 143 -131v-202c0 -49 23 -64 76 -64h23v-56z" />
    <glyph glyph-name="fl" unicode="&#xfb02;" horiz-adv-x="748" 
d="M398 602h-5c-21 11 -55 15 -80 15c-45 0 -71 -26 -71 -59v-65h126v-69c0 -37 -34 -61 -82 -61h-44v-363h-58c-90 0 -127 35 -127 118v379c0 198 118 253 218 253c93 0 123 -47 123 -104v-44zM745 80c0 -67 -64 -88 -124 -88c-101 0 -188 60 -188 190v558h67
c83 0 123 -38 123 -131v-399c0 -49 27 -64 80 -64h42v-66z" />
    <glyph glyph-name="endash" unicode="&#x2013;" 
d="M475 231h-425v59c0 50 40 86 99 86h415v-62c0 -46 -43 -83 -89 -83z" />
    <glyph glyph-name="dagger" unicode="&#x2020;" horiz-adv-x="552" 
d="M528 495c0 -48 -39 -97 -110 -97h-66v-551h-56c-45 0 -101 37 -101 117v434h-176v65c0 42 35 88 92 88h84v209h67c43 0 90 -34 90 -89v-120h176v-56z" />
    <glyph glyph-name="daggerdbl" unicode="&#x2021;" horiz-adv-x="552" 
d="M419 88h-69v-258h-64c-56 0 -88 38 -88 83v175h-167v59c0 37 31 83 88 83h79v177h-167v60c0 37 31 82 88 82h79v191h74c50 0 78 -35 78 -74v-117h168v-58c0 -52 -42 -84 -99 -84h-69v-177h168v-59c0 -52 -42 -83 -99 -83z" />
    <glyph glyph-name="periodcentered" unicode="&#xb7;" horiz-adv-x="250" 
d="M22 301c0 57 46 102 103 102s102 -45 102 -102s-45 -103 -102 -103s-103 46 -103 103z" />
    <glyph glyph-name="paragraph" unicode="&#xb6;" horiz-adv-x="531" 
d="M486 0h-38c-41 0 -69 13 -69 77v492c0 17 -2 21 -21 21h-8l-24 -1v-589h-33c-26 0 -74 13 -74 77v192h-21c-86 0 -175 77 -175 212c0 119 69 211 241 211h104c77 0 118 -39 118 -107v-585z" />
    <glyph glyph-name="bullet" unicode="&#x2022;" horiz-adv-x="380" 
d="M190 519c86 0 155 -65 155 -155c0 -89 -67 -155 -155 -155s-155 67 -155 155c0 89 70 155 155 155z" />
    <glyph glyph-name="quotesinglbase" unicode="&#x201a;" horiz-adv-x="277" 
d="M239 79c0 -115 -81 -209 -181 -209h-31v9c32 17 64 70 64 109c0 28 -14 45 -25 54c-9 8 -36 34 -36 68c0 63 41 99 100 99c69 0 109 -51 109 -130z" />
    <glyph glyph-name="quotedblbase" unicode="&#x201e;" horiz-adv-x="544" 
d="M506 79c0 -115 -81 -209 -181 -209h-31v9c32 17 64 70 64 109c0 28 -14 45 -25 54c-9 8 -36 34 -36 68c0 63 41 99 100 99c69 0 109 -51 109 -130zM246 79c0 -115 -81 -209 -181 -209h-31v9c32 17 64 70 64 109c0 28 -14 45 -25 54c-9 8 -36 34 -36 68c0 63 41 99 100 99
c69 0 109 -51 109 -130z" />
    <glyph glyph-name="quotedblright" unicode="&#x201d;" horiz-adv-x="544" 
d="M514 611c0 -115 -81 -209 -181 -209h-31v9c32 17 64 70 64 109c0 28 -14 45 -25 54c-9 8 -36 33 -36 68c0 63 41 99 100 99c69 0 109 -51 109 -130zM247 611c0 -115 -81 -209 -181 -209h-31v9c32 17 64 70 64 109c0 28 -15 45 -25 54c-9 8 -36 33 -36 68
c0 63 41 99 100 99c68 0 109 -51 109 -130z" />
    <glyph glyph-name="guillemotright" unicode="&#xbb;" horiz-adv-x="643" 
d="M368 75h-65l135 208l-135 207h65c67 0 101 -20 124 -53l108 -154l-108 -153c-27 -38 -64 -55 -124 -55zM100 75h-64l125 208l-125 207h64c66 0 101 -18 124 -53l97 -154l-97 -153c-26 -41 -65 -55 -124 -55z" />
    <glyph glyph-name="ellipsis" unicode="&#x2026;" horiz-adv-x="923" 
d="M656 107c0 59 48 107 107 107s107 -48 107 -107s-48 -107 -107 -107s-107 48 -107 107zM356 107c0 59 48 107 107 107s107 -48 107 -107s-48 -107 -107 -107s-107 48 -107 107zM56 107c0 59 48 107 107 107s107 -48 107 -107s-48 -107 -107 -107s-107 48 -107 107z" />
    <glyph glyph-name="perthousand" unicode="&#x2030;" horiz-adv-x="1519" 
d="M415 481c0 -127 -66 -233 -197 -233c-122 0 -190 106 -190 219c0 127 66 235 197 235c122 0 190 -108 190 -221zM737 624c0 -18 -5 -38 -15 -58l-292 -566h-47c-39 0 -72 20 -72 63c0 18 5 38 15 58l295 572h47c39 0 69 -32 69 -69zM1470 218c0 -127 -66 -234 -197 -234
c-122 0 -190 107 -190 220c0 127 66 234 197 234c122 0 190 -107 190 -220zM1032 218c0 -127 -66 -234 -197 -234c-122 0 -190 107 -190 220c0 127 66 234 197 234c122 0 190 -107 190 -220zM274 467c0 88 -23 120 -56 120c-27 0 -50 -33 -50 -105c0 -87 23 -120 57 -120
c28 0 49 33 49 105zM1329 204c0 88 -23 119 -56 119c-27 0 -50 -32 -50 -104c0 -87 23 -121 57 -121c28 0 49 34 49 106zM891 204c0 88 -23 119 -56 119c-27 0 -50 -32 -50 -104c0 -87 23 -121 57 -121c28 0 49 34 49 106z" />
    <glyph glyph-name="questiondown" unicode="&#xbf;" horiz-adv-x="500" 
d="M168 442c0 60 48 107 107 107s107 -47 107 -107c0 -59 -48 -107 -107 -107s-107 48 -107 107zM111 147l68 56c25 20 35 35 35 67v29h66c58 0 85 -36 85 -74c0 -40 -18 -71 -37 -88l-70 -64c-14 -13 -22 -30 -22 -47c0 -32 27 -57 83 -57c66 0 116 20 145 60h5v-60
c0 -84 -72 -147 -197 -147c-140 0 -225 87 -225 187c0 57 21 103 64 138z" />
    <glyph glyph-name="grave" unicode="`" horiz-adv-x="529" 
d="M350 635v-5h-46c-62 0 -114 7 -150 22c-31 13 -61 48 -61 89c0 33 23 59 64 59c45 0 85 -21 117 -54c30 -31 59 -70 76 -111z" />
    <glyph glyph-name="acute" unicode="&#xb4;" horiz-adv-x="442" 
d="M96 635c17 41 46 80 76 111c32 33 72 54 117 54c41 0 64 -26 64 -59c0 -41 -30 -76 -61 -89c-36 -15 -88 -22 -150 -22h-46v5z" />
    <glyph glyph-name="circumflex" unicode="&#x2c6;" horiz-adv-x="606" 
d="M484 592l-182 71l-180 -71v28c0 76 26 99 92 133l89 46l87 -45c68 -35 94 -59 94 -139v-23z" />
    <glyph glyph-name="tilde" unicode="&#x2dc;" horiz-adv-x="553" 
d="M465 703c0 -44 -35 -88 -100 -88c-41 0 -64 10 -87 28c-34 26 -45 32 -62 32c-18 0 -35 -14 -35 -39v-21h-22c-35 0 -71 35 -71 81c0 51 37 95 101 95c33 0 63 -11 86 -28c30 -22 43 -31 59 -31c22 0 38 10 38 36v23h20c35 0 73 -27 73 -88z" />
    <glyph glyph-name="macron" unicode="&#xaf;" horiz-adv-x="304" 
d="M293 746v-58c0 -35 -31 -58 -64 -58h-218v44c0 42 27 72 76 72h206z" />
    <glyph glyph-name="breve" unicode="&#x2d8;" horiz-adv-x="508" 
d="M87 763c34 -39 83 -74 154 -74c70 0 128 41 152 76v-36c0 -84 -71 -145 -153 -145c-84 0 -153 61 -153 150v29z" />
    <glyph glyph-name="dotaccent" unicode="&#x2d9;" horiz-adv-x="417" 
d="M106 717c0 57 46 102 103 102s102 -45 102 -102s-45 -103 -102 -103s-103 46 -103 103z" />
    <glyph glyph-name="dieresis" unicode="&#xa8;" horiz-adv-x="555" 
d="M487 714c0 -48 -41 -89 -89 -89s-86 41 -86 89s38 84 86 84s89 -36 89 -84zM243 714c0 -48 -40 -89 -88 -89s-87 41 -87 89s39 84 87 84s88 -36 88 -84z" />
    <glyph glyph-name="ring" unicode="&#x2da;" horiz-adv-x="400" 
d="M351 726c0 -74 -59 -125 -143 -125c-86 0 -147 51 -147 124c0 85 70 127 148 127c89 0 142 -51 142 -126zM255 726c0 22 -14 47 -48 47c-29 0 -47 -19 -47 -48c0 -19 14 -45 46 -45c34 0 49 24 49 46z" />
    <glyph glyph-name="cedilla" unicode="&#xb8;" horiz-adv-x="581" 
d="M245 14h78v-14c0 -21 -3 -37 -3 -37c61 -3 110 -28 110 -81c0 -72 -43 -105 -140 -105c-69 0 -111 26 -111 61v35h6c18 -15 52 -23 93 -23c36 0 49 11 49 28c0 18 -18 29 -55 29c-22 0 -51 -4 -51 -4c8 29 18 67 22 97z" />
    <glyph glyph-name="hungarumlaut" unicode="&#x2dd;" horiz-adv-x="372" 
d="M326 664c-27 -19 -87 -44 -113 -47l-29 -4v11c8 27 33 67 52 93c21 29 53 60 89 60c34 0 52 -12 52 -42c0 -28 -29 -56 -51 -71zM153 664c-27 -19 -87 -44 -113 -47l-29 -4v11c8 27 33 67 52 93c21 29 53 60 89 60c34 0 52 -12 52 -42c0 -28 -29 -56 -51 -71z" />
    <glyph glyph-name="ogonek" unicode="&#x2db;" horiz-adv-x="480" 
d="M253 -215c-67 0 -114 34 -114 93c0 56 46 98 95 122l20 10h76l-61 -55c-31 -28 -38 -37 -38 -66c0 -15 11 -27 37 -27c16 0 33 2 82 33v-48c0 -47 -49 -62 -97 -62z" />
    <glyph glyph-name="caron" unicode="&#x2c7;" horiz-adv-x="610" 
d="M124 812l182 -71l180 71v-28c0 -76 -26 -99 -92 -133l-89 -46l-87 45c-68 35 -94 59 -94 139v23z" />
    <glyph glyph-name="emdash" unicode="&#x2014;" horiz-adv-x="923" 
d="M806 237h-773v61c0 45 36 78 94 78h763v-63c0 -41 -40 -76 -84 -76z" />
    <glyph glyph-name="AE" unicode="&#xc6;" horiz-adv-x="951" 
d="M913 96c0 -66 -43 -104 -153 -104h-100c-156 0 -214 58 -239 172h-212c-16 -39 -38 -119 -47 -164h-86c-48 0 -71 28 -71 69c0 27 12 80 38 153c30 83 147 358 257 468h621v-53c0 -59 -44 -102 -113 -102h-261c5 -19 13 -81 18 -114h284v-62c0 -59 -39 -81 -97 -81h-175
l5 -43c8 -68 38 -88 119 -88h59c91 0 153 21 153 21v-72zM401 308c-6 76 -25 177 -36 227c-25 -34 -83 -159 -109 -227h145z" />
    <glyph glyph-name="ordfeminine" unicode="&#xaa;" horiz-adv-x="423" 
d="M197 314c-67 0 -152 32 -152 115c0 81 59 120 186 120h13v12c0 24 -18 32 -66 32c-64 0 -86 -15 -111 -38h-8v46c0 47 46 91 146 91c98 0 163 -50 163 -156v-54c0 -130 -42 -168 -171 -168zM246 468h-20c-45 0 -60 -12 -60 -32c0 -19 11 -29 44 -29c20 0 36 10 36 39v22z
" />
    <glyph glyph-name="Lslash" unicode="&#x141;" horiz-adv-x="556" 
d="M310 344l-50 -22v-55c0 -90 24 -117 110 -117h30c55 0 118 9 146 21h5v-65c0 -70 -42 -114 -151 -114h-80c-170 0 -245 83 -250 247l-79 -34v58c0 41 13 72 69 96l10 4v327h80c75 0 110 -39 110 -117v-128l122 53v-57c0 -46 -17 -73 -72 -97z" />
    <glyph glyph-name="Oslash" unicode="&#xd8;" horiz-adv-x="764" 
d="M632 706c25 0 47 -20 47 -48c0 -18 -7 -43 -18 -56l-13 -16c46 -58 76 -137 76 -231c0 -226 -128 -371 -352 -371c-61 0 -118 15 -167 42l-32 -42h-39c-25 0 -46 20 -46 52c0 18 6 43 17 56l9 11c-46 59 -74 140 -74 233c0 220 131 370 353 370c57 0 114 -16 164 -44
l37 44h38zM455 535c-22 12 -49 19 -81 19c-94 0 -144 -84 -144 -199c0 -34 3 -68 9 -94zM309 156c22 -13 50 -20 81 -20c86 0 144 76 144 202c0 35 -3 67 -9 93z" />
    <glyph glyph-name="OE" unicode="&#x152;" horiz-adv-x="1027" 
d="M997 90c0 -65 -50 -99 -176 -99h-47c-110 0 -176 22 -210 87c-49 -62 -114 -94 -204 -94c-177 0 -320 132 -320 350c0 214 114 371 339 371c56 0 135 -25 175 -73c12 28 42 58 76 58h363v-62c0 -53 -44 -91 -114 -91h-200c-6 -32 -11 -80 -11 -115h253v-64
c0 -58 -44 -84 -106 -84h-148v-30c0 -72 25 -101 126 -101h28c70 0 129 9 176 20v-73zM368 550c-85 0 -138 -87 -138 -195c0 -155 72 -217 155 -217c54 0 106 27 106 198c0 190 -44 214 -123 214z" />
    <glyph glyph-name="ordmasculine" unicode="&#xba;" horiz-adv-x="423" 
d="M209 316c-110 0 -171 88 -171 183c0 106 62 195 179 195c110 0 170 -88 170 -182c0 -106 -61 -196 -178 -196zM209 585c-32 0 -52 -23 -52 -73c0 -62 21 -86 60 -86c32 0 51 23 51 73c0 62 -20 86 -59 86z" />
    <glyph glyph-name="ae" unicode="&#xe6;" horiz-adv-x="910" 
d="M355 341v15c0 48 -23 66 -99 66c-99 0 -158 -23 -187 -59h-5v60c0 72 64 143 212 143c73 0 142 -21 178 -73c41 53 113 73 180 73c127 0 240 -84 240 -216c0 -116 -92 -141 -271 -139l-75 1c5 -52 50 -84 132 -84c75 0 136 12 174 38h6v-48c0 -83 -60 -133 -215 -133
c-74 0 -143 32 -180 77c-29 -45 -78 -77 -155 -77h-27c-126 0 -222 61 -222 172c0 118 87 184 270 184h44zM521 335h42c121 0 134 6 134 31c0 37 -27 59 -81 59c-66 0 -93 -50 -95 -90zM360 228h-43c-62 0 -97 -18 -97 -58c0 -31 17 -52 72 -52c43 0 68 28 68 74v36z" />
    <glyph glyph-name="dotlessi" unicode="&#x131;" horiz-adv-x="366" 
d="M354 80c0 -66 -50 -88 -109 -88c-101 0 -180 50 -180 180v361h47c108 0 143 -31 143 -131v-202c0 -49 23 -64 76 -64h23v-56z" />
    <glyph glyph-name="lslash" unicode="&#x142;" horiz-adv-x="381" 
d="M369 80c0 -67 -64 -88 -124 -88c-101 0 -188 60 -188 190v64l-96 -41v58c0 41 13 72 69 96l27 12v369h67c83 0 123 -38 123 -131v-156l105 45v-57c0 -46 -17 -73 -72 -97l-33 -15v-119c0 -49 27 -64 80 -64h42v-66z" />
    <glyph glyph-name="oslash" unicode="&#xf8;" horiz-adv-x="664" 
d="M615 527c0 -15 -4 -37 -14 -47l-27 -28c31 -45 50 -102 50 -170c0 -181 -109 -298 -299 -298c-59 0 -115 16 -161 46l-44 -46h-31c-20 0 -37 15 -37 41c0 18 4 37 14 47l26 27c-33 45 -52 102 -52 165c0 171 127 302 299 302c59 0 116 -14 163 -45l44 45h31
c20 0 38 -16 38 -39zM385 401c-17 11 -36 18 -58 18c-56 0 -101 -59 -101 -134c0 -16 1 -31 3 -44zM438 266c0 15 -1 29 -3 42l-155 -159c16 -11 36 -18 57 -18c63 0 101 51 101 135z" />
    <glyph glyph-name="oe" unicode="&#x153;" horiz-adv-x="1002" 
d="M966 346c0 -109 -83 -138 -269 -138h-82c10 -49 51 -80 119 -80c88 0 157 12 190 34h7v-43c0 -69 -57 -134 -214 -134c-84 0 -157 29 -204 76c-37 -47 -103 -76 -188 -76c-157 0 -285 118 -285 280c0 169 127 301 299 301c73 0 151 -26 198 -80c41 48 108 80 183 80
c134 0 246 -81 246 -220zM790 367c0 28 -25 57 -80 57c-67 0 -95 -42 -100 -95h74c90 0 106 14 106 38zM436 266c0 112 -47 150 -109 150c-56 0 -99 -61 -99 -130c0 -106 45 -151 109 -151c63 0 99 50 99 131z" />
    <glyph glyph-name="germandbls" unicode="&#xdf;" horiz-adv-x="674" 
d="M441 -8c-106 0 -142 40 -142 98v77h5c25 -20 58 -33 98 -33c38 0 57 19 57 44c0 34 -14 46 -68 71c-52 24 -81 58 -81 118c0 53 35 94 80 119c32 18 42 33 42 50c0 32 -16 49 -80 49c-77 0 -107 -36 -107 -133v-452h-55c-87 0 -130 46 -130 120v345
c0 172 135 265 298 265c138 0 261 -67 261 -183c0 -60 -26 -96 -77 -121c-55 -27 -68 -35 -68 -55c0 -21 10 -28 61 -50c76 -33 109 -79 109 -141c0 -108 -60 -188 -203 -188z" />
    <glyph glyph-name="Zcaron" unicode="&#x17d;" horiz-adv-x="641" 
d="M605 91c0 -51 -43 -91 -100 -91h-380c-32 0 -89 33 -89 93c0 51 16 92 105 189l161 177c27 29 41 53 50 69h-314v57c0 65 41 105 124 105h315c69 0 116 -37 116 -95c0 -53 -11 -94 -70 -161l-160 -183c-33 -37 -59 -64 -78 -92h320v-68zM130 949l182 -71l180 71v-28
c0 -76 -26 -99 -92 -133l-89 -46l-87 45c-68 35 -94 59 -94 139v23z" />
    <glyph glyph-name="zcaron" unicode="&#x17e;" horiz-adv-x="558" 
d="M528 77c0 -40 -40 -77 -92 -77h-294c-57 0 -111 24 -111 93c0 33 20 74 67 120l164 160c8 8 23 27 27 36h-259v53c0 59 55 88 101 88h278c65 0 110 -39 110 -101c0 -39 -35 -89 -82 -135l-136 -132c-7 -7 -20 -24 -26 -37h253v-68zM84 812l182 -71l180 71v-28
c0 -76 -26 -99 -92 -133l-89 -46l-87 45c-68 35 -94 59 -94 139v23z" />
    <glyph glyph-name="Euro" unicode="&#x20ac;" 
d="M513 319v-29c0 -41 -27 -70 -80 -70h-131c10 -61 58 -90 128 -90c72 0 126 29 153 60h4v-62c0 -88 -76 -142 -194 -142c-149 0 -258 97 -282 234h-88v40c0 37 20 59 63 59h15s-2 13 -2 21c0 9 2 23 2 23h-78v38c0 37 20 61 63 61h28c34 163 145 242 288 242
c104 0 185 -47 185 -148v-63h-4c-25 38 -73 67 -149 67c-71 0 -121 -35 -133 -98h212v-29c0 -41 -27 -70 -80 -70h-145s-2 -13 -2 -22s2 -22 2 -22h225z" />
    <glyph glyph-name="Scaron" unicode="&#x160;" horiz-adv-x="616" 
d="M578 219c0 -143 -105 -235 -289 -235c-152 0 -234 58 -234 157v68h5c43 -44 133 -70 212 -70c88 0 116 21 116 67c0 42 -38 56 -143 77c-150 30 -208 85 -208 190c0 123 112 233 287 233c170 0 235 -77 235 -148v-73h-5c-46 46 -129 66 -201 66c-94 0 -126 -25 -126 -64
c0 -31 13 -48 141 -74c142 -29 210 -87 210 -194zM137 950l182 -71l180 71v-28c0 -76 -26 -99 -92 -133l-89 -46l-87 45c-68 35 -94 59 -94 139v23z" />
    <glyph glyph-name="trademark" unicode="&#x2122;" horiz-adv-x="832" 
d="M749 305c-36 0 -64 22 -64 65c0 28 -2 99 -6 154c-16 -52 -45 -163 -77 -219h-31c-38 0 -65 31 -87 107c0 0 -20 70 -34 115c-5 -67 -8 -162 -8 -222h-42c-32 0 -63 24 -63 65c0 108 16 243 32 329h38c59 0 90 -30 103 -66l24 -65c11 -30 24 -70 33 -101
c17 60 35 101 59 161c13 33 29 57 44 71h20c55 0 81 -34 88 -90c11 -90 19 -195 19 -304h-48zM260 595h-45v-290h-48c-31 0 -61 16 -61 60v230h-101v42c0 27 22 57 61 57h254v-42c0 -27 -27 -57 -60 -57z" />
    <glyph glyph-name="scaron" unicode="&#x161;" horiz-adv-x="540" 
d="M500 177c0 -118 -92 -193 -243 -193c-150 0 -204 55 -204 135v55h5c36 -27 91 -48 169 -48c69 0 91 16 91 43c0 25 -13 35 -127 51c-99 14 -151 59 -151 147c0 132 125 199 251 199c122 0 196 -49 196 -131v-57h-5c-37 27 -95 46 -169 46c-71 0 -94 -19 -94 -42
c0 -21 12 -28 127 -47c92 -15 154 -65 154 -158zM104 812l182 -71l180 71v-28c0 -76 -26 -99 -92 -133l-89 -46l-87 45c-68 35 -94 59 -94 139v23z" />
    <glyph glyph-name="Ydieresis" unicode="&#x178;" horiz-adv-x="629" 
d="M619 629c0 -58 -143 -267 -207 -340v-289h-83c-52 0 -107 36 -107 106v184c-80 100 -168 249 -217 400h96c62 0 101 -30 114 -59c29 -64 72 -138 111 -194c43 61 100 156 131 253h90c44 0 72 -31 72 -61zM274 829c0 -48 -40 -89 -88 -89s-87 41 -87 89s39 84 87 84
s88 -36 88 -84zM517 829c0 -48 -40 -89 -88 -89s-87 41 -87 89s39 84 87 84s88 -36 88 -84z" />
    <glyph glyph-name="uni00A0" unicode="&#xa0;" horiz-adv-x="230" 
 />
    <glyph glyph-name="brokenbar" unicode="&#xa6;" horiz-adv-x="257" 
d="M156 322h-21c-19 0 -41 17 -41 45v353h20c20 0 42 -14 42 -40v-358zM156 -170h-21c-19 0 -41 17 -41 45v353h20c20 0 42 -14 42 -40v-358z" />
    <glyph glyph-name="copyright" unicode="&#xa9;" horiz-adv-x="806" 
d="M760 345c0 -200 -162 -362 -362 -362s-362 162 -362 362s162 362 362 362s362 -162 362 -362zM679 345c0 155 -126 281 -281 281s-281 -126 -281 -281s126 -281 281 -281s281 126 281 281zM542 409c-19 24 -66 38 -107 38c-59 0 -101 -39 -101 -96
c0 -72 45 -106 104 -106c40 0 83 14 102 34h11v-44c0 -53 -53 -91 -129 -91c-107 0 -205 75 -205 197c0 115 75 206 211 206c76 0 125 -37 125 -94v-44h-11z" />
    <glyph glyph-name="logicalnot" unicode="&#xac;" horiz-adv-x="584" 
d="M419 86v221h-391v136h529v-357h-138z" />
    <glyph glyph-name="minus" unicode="&#x2212;" horiz-adv-x="589" 
d="M508 366v-64c0 -42 -26 -66 -71 -66h-379v61c0 39 26 69 69 69h381z" />
    <glyph glyph-name="registered" unicode="&#xae;" horiz-adv-x="806" 
d="M398 -17c-200 0 -362 162 -362 362s162 362 362 362s362 -162 362 -362s-162 -362 -362 -362zM398 626c-155 0 -281 -126 -281 -281s126 -281 281 -281s281 126 281 281s-126 281 -281 281zM512 152c-68 0 -81 52 -104 100c-15 32 -24 35 -56 38v-138h-47
c-45 0 -72 27 -72 65v304c32 11 92 18 122 18h44c85 0 148 -47 148 -118c0 -45 -28 -85 -62 -100c18 -14 32 -43 42 -63c23 -43 35 -64 49 -72v-12c-16 -16 -40 -22 -64 -22zM389 445h-22c-3 0 -9 0 -15 -1v-70c11 -1 23 -1 37 -1c26 0 39 18 39 36c0 23 -12 36 -39 36z" />
    <glyph glyph-name="degree" unicode="&#xb0;" horiz-adv-x="415" 
d="M376 560c0 -89 -66 -158 -167 -158c-104 0 -170 69 -170 157s62 161 170 161c92 0 167 -53 167 -160zM265 559c0 33 -22 53 -56 53c-33 0 -56 -15 -56 -54c0 -28 22 -49 53 -49c36 0 59 18 59 50z" />
    <glyph glyph-name="plusminus" unicode="&#xb1;" 
d="M574 426c0 -45 -40 -84 -102 -84h-85v-176h-69c-46 0 -87 38 -87 97v79h-191v75c0 40 35 76 86 76h105v157h77c41 0 79 -34 79 -82v-75h187v-67zM555 70c0 -39 -34 -70 -70 -70h-432v48c0 40 29 73 70 73h432v-51z" />
    <glyph glyph-name="twosuperior" unicode="&#xb2;" horiz-adv-x="435" 
d="M312 265h-202c-34 0 -67 21 -67 59c0 43 33 79 78 113l95 72c16 12 23 25 23 39c0 17 -13 35 -57 35c-63 0 -90 -11 -120 -48h-8v47c0 62 45 116 162 116c100 0 163 -65 163 -137c0 -91 -78 -121 -144 -165c-8 -5 -17 -11 -27 -18h180v-50c0 -40 -28 -63 -76 -63z" />
    <glyph glyph-name="threesuperior" unicode="&#xb3;" horiz-adv-x="388" 
d="M173 264c-62 0 -131 23 -131 97v53h7c24 -24 66 -38 112 -38c45 0 61 15 61 23c0 20 -5 37 -60 38c-32 1 -58 13 -58 49v35l65 6c48 4 50 14 50 29c0 13 -16 30 -70 30c-38 0 -73 -13 -99 -39h-6v56c0 51 48 95 145 95c82 0 158 -46 158 -128c0 -39 -20 -68 -44 -86
c25 -16 46 -45 46 -79c0 -93 -69 -141 -176 -141z" />
    <glyph glyph-name="mu" unicode="&#xb5;" 
d="M235 -180h-83c-48 0 -99 38 -99 107v623h71c81 0 117 -28 117 -112v-206c0 -72 16 -97 78 -97c44 0 70 27 70 114v301h72c74 0 116 -32 116 -112v-196c0 -159 -84 -259 -246 -259c-41 0 -73 24 -96 52v-215z" />
    <glyph glyph-name="onesuperior" unicode="&#xb9;" horiz-adv-x="363" 
d="M280 274h-65c-41 0 -73 28 -73 73v220l-24 -7c-8 -2 -17 -3 -25 -3c-30 0 -57 15 -62 43l-7 37c38 16 118 48 118 48c20 8 44 13 71 13c32 0 67 -23 67 -62v-362z" />
    <glyph glyph-name="onequarter" unicode="&#xbc;" horiz-adv-x="900" 
d="M613 637c0 -10 -2 -32 -8 -44l-290 -593h-31c-33 0 -61 22 -61 62c0 16 6 38 14 55l280 573h41c29 0 55 -17 55 -53zM280 274h-65c-41 0 -73 28 -73 73v220l-24 -7c-39 -11 -81 5 -87 40l-7 37c38 16 118 48 118 48c20 8 44 13 71 13c32 0 67 -23 67 -62v-362zM811 87
h-22v-87h-67c-44 0 -71 18 -71 64v23h-99c-34 0 -75 21 -75 57c0 25 6 44 17 64c43 75 129 181 179 211h39c43 0 77 -28 77 -76v-151h82v-48c0 -32 -23 -57 -60 -57zM651 266c-19 -23 -46 -55 -59 -75h59v75z" />
    <glyph glyph-name="onehalf" unicode="&#xbd;" horiz-adv-x="900" 
d="M793 0h-201c-34 0 -68 21 -68 59c0 43 33 79 79 113l94 72c16 13 23 25 23 39c0 18 -13 36 -57 36c-62 0 -90 -12 -120 -49h-7v47c0 62 44 116 161 116c100 0 163 -65 163 -137c0 -91 -77 -121 -144 -164c-8 -6 -17 -11 -27 -19h180v-50c0 -40 -27 -63 -76 -63zM605 593
l-290 -593h-31c-33 0 -61 22 -61 62c0 16 6 38 14 55l280 573h41c29 0 55 -17 55 -53c0 -10 -2 -32 -8 -44zM215 274c-41 0 -73 28 -73 73v220l-24 -7c-8 -2 -17 -3 -25 -3c-30 0 -57 15 -62 43l-7 37c38 16 118 48 118 48c20 8 44 13 71 13c32 0 67 -23 67 -62v-362h-65z
" />
    <glyph glyph-name="threequarters" unicode="&#xbe;" horiz-adv-x="900" 
d="M891 144c0 -32 -23 -57 -60 -57h-22v-87h-67c-44 0 -71 18 -71 64v23h-99c-34 0 -75 21 -75 57c0 25 6 44 17 64c43 75 129 181 179 211h39c43 0 77 -28 77 -76v-151h82v-48zM643 637c0 -10 -2 -32 -8 -44l-290 -593h-31c-33 0 -61 22 -61 62c0 16 6 38 14 55l280 573h41
c29 0 55 -17 55 -53zM671 191v75c-19 -23 -46 -55 -59 -75h59zM173 264c-62 0 -131 23 -131 97v53h7c24 -24 66 -38 112 -38c45 0 61 15 61 23c0 20 -5 37 -60 38c-32 1 -58 13 -58 49v35l65 6c48 4 50 14 50 29c0 13 -16 30 -70 30c-38 0 -73 -13 -99 -39h-6v56
c0 51 48 95 145 95c82 0 158 -46 158 -128c0 -39 -20 -68 -44 -86c25 -16 46 -45 46 -79c0 -93 -69 -141 -176 -141z" />
    <glyph glyph-name="Agrave" unicode="&#xc0;" horiz-adv-x="670" 
d="M665 0h-86c-69 0 -105 20 -117 82c-5 25 -11 52 -19 81h-238c-15 -50 -27 -120 -35 -163h-77c-61 0 -88 34 -88 85c0 100 131 480 251 605h74c67 0 111 -34 134 -72c66 -110 170 -383 201 -618zM404 312c-20 68 -50 151 -78 206c-30 -57 -60 -138 -80 -206h158zM407 755
v-5h-46c-62 0 -114 7 -150 22c-31 13 -61 48 -61 89c0 33 23 59 64 59c45 0 85 -21 117 -54c30 -31 59 -70 76 -111z" />
    <glyph glyph-name="Aacute" unicode="&#xc1;" horiz-adv-x="670" 
d="M665 0h-86c-69 0 -105 20 -117 82c-5 25 -11 52 -19 81h-238c-15 -50 -27 -120 -35 -163h-77c-61 0 -88 34 -88 85c0 100 131 480 251 605h74c67 0 111 -34 134 -72c66 -110 170 -383 201 -618zM404 312c-20 68 -50 151 -78 206c-30 -57 -60 -138 -80 -206h158zM254 755
c17 41 46 80 76 111c32 33 72 54 117 54c41 0 64 -26 64 -59c0 -41 -30 -76 -61 -89c-36 -15 -88 -22 -150 -22h-46v5z" />
    <glyph glyph-name="Acircumflex" unicode="&#xc2;" horiz-adv-x="670" 
d="M665 0h-86c-69 0 -105 20 -117 82c-5 25 -11 52 -19 81h-238c-15 -50 -27 -120 -35 -163h-77c-61 0 -88 34 -88 85c0 100 131 480 251 605h74c67 0 111 -34 134 -72c66 -110 170 -383 201 -618zM404 312c-20 68 -50 151 -78 206c-30 -57 -60 -138 -80 -206h158zM498 716
l-182 71l-180 -71v28c0 76 26 99 92 133l89 46l87 -45c68 -35 94 -59 94 -139v-23z" />
    <glyph glyph-name="Atilde" unicode="&#xc3;" horiz-adv-x="670" 
d="M665 0h-86c-69 0 -105 20 -117 82c-5 25 -11 52 -19 81h-238c-15 -50 -27 -120 -35 -163h-77c-61 0 -88 34 -88 85c0 100 131 480 251 605h74c67 0 111 -34 134 -72c66 -110 170 -383 201 -618zM404 312c-20 68 -50 151 -78 206c-30 -57 -60 -138 -80 -206h158zM505 813
c0 -44 -35 -88 -100 -88c-41 0 -64 10 -87 28c-34 26 -45 32 -62 32c-18 0 -35 -14 -35 -39v-21h-22c-35 0 -71 35 -71 81c0 51 37 95 101 95c33 0 63 -11 86 -28c30 -22 43 -31 59 -31c22 0 38 10 38 36v23h20c35 0 73 -27 73 -88z" />
    <glyph glyph-name="Adieresis" unicode="&#xc4;" horiz-adv-x="670" 
d="M665 0h-86c-69 0 -105 20 -117 82c-5 25 -11 52 -19 81h-238c-15 -50 -27 -120 -35 -163h-77c-61 0 -88 34 -88 85c0 100 131 480 251 605h74c67 0 111 -34 134 -72c66 -110 170 -383 201 -618zM404 312c-20 68 -50 151 -78 206c-30 -57 -60 -138 -80 -206h158zM294 829
c0 -48 -40 -89 -88 -89s-87 41 -87 89s39 84 87 84s88 -36 88 -84zM537 829c0 -48 -40 -89 -88 -89s-87 41 -87 89s39 84 87 84s88 -36 88 -84z" />
    <glyph glyph-name="Aring" unicode="&#xc5;" horiz-adv-x="670" 
d="M665 0h-86c-69 0 -108 23 -117 82c-5 34 -9 57 -14 81h-245c-13 -50 -21 -95 -33 -163h-77c-61 0 -88 34 -88 85c0 89 104 402 212 557c-21 21 -33 50 -33 83c0 85 69 127 147 127c89 0 143 -51 143 -126c0 -33 -12 -61 -32 -82c9 -7 16 -16 22 -26
c66 -110 170 -383 201 -618zM378 726c0 22 -14 47 -48 47c-29 0 -48 -19 -48 -48c0 -19 15 -45 47 -45c34 0 49 24 49 46zM405 312c-20 68 -51 151 -79 206c-30 -57 -60 -138 -80 -206h159z" />
    <glyph glyph-name="Ccedilla" unicode="&#xc7;" horiz-adv-x="651" 
d="M422 -15l-2 -22c61 -3 110 -28 110 -81c0 -72 -43 -105 -140 -105c-69 0 -111 26 -111 61v35h6c18 -15 52 -23 93 -23c36 0 49 11 49 28c0 18 -18 29 -55 29c-22 0 -51 -4 -51 -4c5 18 14 54 21 85c-165 24 -302 154 -302 350c0 201 141 368 371 368
c135 0 215 -67 215 -164v-71h-5c-35 45 -121 71 -197 71c-112 0 -194 -74 -194 -186c0 -141 86 -208 198 -208c74 0 156 28 190 64h5v-71c0 -84 -79 -149 -201 -156z" />
    <glyph glyph-name="Egrave" unicode="&#xc8;" horiz-adv-x="606" 
d="M575 92c0 -63 -39 -101 -161 -101h-78c-181 0 -281 92 -281 283v116c0 63 4 133 12 186c13 88 66 114 133 114h376v-45c0 -66 -35 -110 -115 -110h-210c-4 -34 -7 -84 -7 -117h267v-69c0 -50 -37 -78 -104 -78h-163v-25c0 -74 24 -100 120 -100h50c57 0 105 5 161 19v-73
zM410 755v-5h-46c-62 0 -114 7 -150 22c-31 13 -61 48 -61 89c0 33 23 59 64 59c45 0 85 -21 117 -54c30 -31 59 -70 76 -111z" />
    <glyph glyph-name="Eacute" unicode="&#xc9;" horiz-adv-x="606" 
d="M575 92c0 -63 -39 -101 -161 -101h-78c-181 0 -281 92 -281 283v116c0 63 4 133 12 186c13 88 66 114 133 114h376v-45c0 -66 -35 -110 -115 -110h-210c-4 -34 -7 -84 -7 -117h267v-69c0 -50 -37 -78 -104 -78h-163v-25c0 -74 24 -100 120 -100h50c57 0 105 5 161 19v-73
zM223 755c17 41 46 80 76 111c32 33 72 54 117 54c41 0 64 -26 64 -59c0 -41 -30 -76 -61 -89c-36 -15 -88 -22 -150 -22h-46v5z" />
    <glyph glyph-name="Ecircumflex" unicode="&#xca;" horiz-adv-x="606" 
d="M575 92c0 -63 -39 -101 -161 -101h-78c-181 0 -281 92 -281 283v116c0 63 4 133 12 186c13 88 66 114 133 114h376v-45c0 -66 -35 -110 -115 -110h-210c-4 -34 -7 -84 -7 -117h267v-69c0 -50 -37 -78 -104 -78h-163v-25c0 -74 24 -100 120 -100h50c57 0 105 5 161 19v-73
zM504 717l-182 71l-180 -71v28c0 76 26 99 92 133l89 46l87 -45c68 -35 94 -59 94 -139v-23z" />
    <glyph glyph-name="Edieresis" unicode="&#xcb;" horiz-adv-x="606" 
d="M575 92c0 -63 -39 -101 -161 -101h-78c-181 0 -281 92 -281 283v116c0 63 4 133 12 186c13 88 66 114 133 114h376v-45c0 -66 -35 -110 -115 -110h-210c-4 -34 -7 -84 -7 -117h267v-69c0 -50 -37 -78 -104 -78h-163v-25c0 -74 24 -100 120 -100h50c57 0 105 5 161 19v-73
zM288 829c0 -48 -40 -89 -88 -89s-87 41 -87 89s39 84 87 84s88 -36 88 -84zM531 829c0 -48 -40 -89 -88 -89s-87 41 -87 89s39 84 87 84s88 -36 88 -84z" />
    <glyph glyph-name="Igrave" unicode="&#xcc;" horiz-adv-x="330" 
d="M260 0h-102c-43 0 -88 37 -88 107v583h106c37 0 84 -33 84 -89v-601zM260 755v-5h-46c-62 0 -114 7 -150 22c-31 13 -61 48 -61 89c0 33 23 59 64 59c45 0 85 -21 117 -54c30 -31 59 -70 76 -111z" />
    <glyph glyph-name="Iacute" unicode="&#xcd;" horiz-adv-x="330" 
d="M260 0h-102c-43 0 -88 37 -88 107v583h106c37 0 84 -33 84 -89v-601zM59 755c17 41 46 80 76 111c32 33 72 54 117 54c41 0 64 -26 64 -59c0 -41 -30 -76 -61 -89c-36 -15 -88 -22 -150 -22h-46v5z" />
    <glyph glyph-name="Icircumflex" unicode="&#xce;" horiz-adv-x="330" 
d="M260 0h-102c-43 0 -88 37 -88 107v583h106c37 0 84 -33 84 -89v-601zM345 715l-182 71l-180 -71v28c0 76 26 99 92 133l89 46l87 -45c68 -35 94 -59 94 -139v-23z" />
    <glyph glyph-name="Idieresis" unicode="&#xcf;" horiz-adv-x="330" 
d="M260 0h-102c-43 0 -88 37 -88 107v583h106c37 0 84 -33 84 -89v-601zM125 829c0 -48 -40 -89 -88 -89s-87 41 -87 89s39 84 87 84s88 -36 88 -84zM368 829c0 -48 -40 -89 -88 -89s-87 41 -87 89s39 84 87 84s88 -36 88 -84z" />
    <glyph glyph-name="Eth" unicode="&#xd0;" horiz-adv-x="720" 
d="M60 397v270c51 19 143 33 197 33h72c169 0 351 -109 351 -344c0 -210 -136 -365 -334 -365h-68c-124 0 -218 47 -218 167v131h-69v51c0 32 19 57 52 57h17zM355 397v-53c0 -34 -19 -55 -54 -55h-51v-100c0 -24 15 -45 40 -45h31c110 0 169 79 169 197
c0 137 -76 206 -170 206h-40c-7 0 -20 -2 -30 -4v-146h105z" />
    <glyph glyph-name="Ntilde" unicode="&#xd1;" horiz-adv-x="725" 
d="M675 0h-75c-78 0 -142 34 -204 146l-117 212c-22 39 -34 67 -34 67v-425h-78c-52 0 -107 36 -107 106v584h92c101 0 168 -49 215 -142l84 -166l44 -84v392h84c45 0 96 -33 96 -89v-601zM554 813c0 -44 -35 -88 -100 -88c-41 0 -64 10 -87 28c-34 26 -45 32 -62 32
c-18 0 -35 -14 -35 -39v-21h-22c-35 0 -71 35 -71 81c0 51 37 95 101 95c33 0 63 -11 86 -28c30 -22 43 -31 59 -31c22 0 38 10 38 36v23h20c35 0 73 -27 73 -88z" />
    <glyph glyph-name="Ograve" unicode="&#xd2;" horiz-adv-x="764" 
d="M724 355c0 -229 -128 -371 -352 -371c-188 0 -332 136 -332 352c0 223 131 370 353 370c169 0 331 -126 331 -351zM534 338c0 151 -54 214 -160 214c-94 0 -144 -81 -144 -197c0 -146 56 -216 160 -216c86 0 144 72 144 199zM443 755v-5h-46c-62 0 -114 7 -150 22
c-31 13 -61 48 -61 89c0 33 23 59 64 59c45 0 85 -21 117 -54c30 -31 59 -70 76 -111z" />
    <glyph glyph-name="Oacute" unicode="&#xd3;" horiz-adv-x="764" 
d="M724 355c0 -229 -128 -371 -352 -371c-188 0 -332 136 -332 352c0 223 131 370 353 370c169 0 331 -126 331 -351zM534 338c0 151 -54 214 -160 214c-94 0 -144 -81 -144 -197c0 -146 56 -216 160 -216c86 0 144 72 144 199zM286 755c17 41 46 80 76 111
c32 33 72 54 117 54c41 0 64 -26 64 -59c0 -41 -30 -76 -61 -89c-36 -15 -88 -22 -150 -22h-46v5z" />
    <glyph glyph-name="Ocircumflex" unicode="&#xd4;" horiz-adv-x="764" 
d="M724 355c0 -229 -128 -371 -352 -371c-188 0 -332 136 -332 352c0 223 131 370 353 370c169 0 331 -126 331 -351zM534 338c0 151 -54 214 -160 214c-94 0 -144 -81 -144 -197c0 -146 56 -216 160 -216c86 0 144 72 144 199zM564 716l-182 71l-180 -71v28
c0 76 26 99 92 133l89 46l87 -45c68 -35 94 -59 94 -139v-23z" />
    <glyph glyph-name="Otilde" unicode="&#xd5;" horiz-adv-x="764" 
d="M724 355c0 -229 -128 -371 -352 -371c-188 0 -332 136 -332 352c0 223 131 370 353 370c169 0 331 -126 331 -351zM534 338c0 151 -54 214 -160 214c-94 0 -144 -81 -144 -197c0 -146 56 -216 160 -216c86 0 144 72 144 199zM573 813c0 -44 -35 -88 -100 -88
c-41 0 -64 10 -87 28c-34 26 -45 32 -62 32c-18 0 -35 -14 -35 -39v-21h-22c-35 0 -71 35 -71 81c0 51 37 95 101 95c33 0 63 -11 86 -28c30 -22 43 -31 59 -31c22 0 38 10 38 36v23h20c35 0 73 -27 73 -88z" />
    <glyph glyph-name="Odieresis" unicode="&#xd6;" horiz-adv-x="764" 
d="M724 355c0 -229 -128 -371 -352 -371c-188 0 -332 136 -332 352c0 223 131 370 353 370c169 0 331 -126 331 -351zM534 338c0 151 -54 214 -160 214c-94 0 -144 -81 -144 -197c0 -146 56 -216 160 -216c86 0 144 72 144 199zM347 829c0 -48 -40 -89 -88 -89
s-87 41 -87 89s39 84 87 84s88 -36 88 -84zM590 829c0 -48 -40 -89 -88 -89s-87 41 -87 89s39 84 87 84s88 -36 88 -84z" />
    <glyph glyph-name="multiply" unicode="&#xd7;" horiz-adv-x="589" 
d="M507 88c-13 -13 -26 -18 -41 -18c-18 0 -36 8 -53 25l-120 120l-162 -161c-9 10 -35 40 -35 40c-10 11 -17 30 -17 50c0 17 5 34 17 46l111 111l-161 161l41 41c12 12 28 19 43 19c17 0 34 -8 50 -23l113 -112l154 154l41 -41c12 -12 19 -28 19 -43c0 -17 -8 -34 -23 -50
l-105 -106l171 -171z" />
    <glyph glyph-name="Ugrave" unicode="&#xd9;" horiz-adv-x="742" 
d="M682 295c0 -174 -107 -311 -320 -311c-177 0 -302 119 -302 305v401h81c61 0 109 -36 109 -131v-264c0 -117 41 -155 130 -155c75 0 112 47 112 150v400h81c71 0 109 -36 109 -127v-268zM430 755v-5h-46c-62 0 -114 7 -150 22c-31 13 -61 48 -61 89c0 33 23 59 64 59
c45 0 85 -21 117 -54c30 -31 59 -70 76 -111z" />
    <glyph glyph-name="Uacute" unicode="&#xda;" horiz-adv-x="742" 
d="M682 295c0 -174 -107 -311 -320 -311c-177 0 -302 119 -302 305v401h81c61 0 109 -36 109 -131v-264c0 -117 41 -155 130 -155c75 0 112 47 112 150v400h81c71 0 109 -36 109 -127v-268zM256 755c17 41 46 80 76 111c32 33 72 54 117 54c41 0 64 -26 64 -59
c0 -41 -30 -76 -61 -89c-36 -15 -88 -22 -150 -22h-46v5z" />
    <glyph glyph-name="Ucircumflex" unicode="&#xdb;" horiz-adv-x="742" 
d="M682 295c0 -174 -107 -311 -320 -311c-177 0 -302 119 -302 305v401h81c61 0 109 -36 109 -131v-264c0 -117 41 -155 130 -155c75 0 112 47 112 150v400h81c71 0 109 -36 109 -127v-268zM544 716l-182 71l-180 -71v28c0 76 26 99 92 133l89 46l87 -45
c68 -35 94 -59 94 -139v-23z" />
    <glyph glyph-name="Udieresis" unicode="&#xdc;" horiz-adv-x="742" 
d="M682 295c0 -174 -107 -311 -320 -311c-177 0 -302 119 -302 305v401h81c61 0 109 -36 109 -131v-264c0 -117 41 -155 130 -155c75 0 112 47 112 150v400h81c71 0 109 -36 109 -127v-268zM317 829c0 -48 -40 -89 -88 -89s-87 41 -87 89s39 84 87 84s88 -36 88 -84z
M560 829c0 -48 -40 -89 -88 -89s-87 41 -87 89s39 84 87 84s88 -36 88 -84z" />
    <glyph glyph-name="Yacute" unicode="&#xdd;" horiz-adv-x="629" 
d="M619 629c0 -58 -143 -267 -207 -340v-289h-83c-52 0 -107 36 -107 106v184c-80 100 -168 249 -217 400h96c62 0 101 -30 114 -59c29 -64 72 -138 111 -194c43 61 100 156 131 253h90c44 0 72 -31 72 -61zM247 754c17 41 46 80 76 111c32 33 72 54 117 54
c41 0 64 -26 64 -59c0 -41 -30 -76 -61 -89c-36 -15 -88 -22 -150 -22h-46v5z" />
    <glyph glyph-name="Thorn" unicode="&#xde;" horiz-adv-x="628" 
d="M60 690h112c41 0 75 -32 75 -84v-23c12 2 22 4 31 4h60c179 0 260 -97 260 -224c0 -146 -90 -245 -250 -245c-50 0 -81 7 -101 17v-136h-87c-29 0 -100 25 -100 99v592zM407 348c0 72 -32 90 -81 90h-38c-9 0 -29 -3 -38 -5v-154c21 -7 45 -9 72 -9c60 0 85 28 85 78z
" />
    <glyph glyph-name="agrave" unicode="&#xe0;" horiz-adv-x="584" 
d="M539 242c0 -200 -64 -257 -264 -257c-106 0 -235 50 -235 175c0 122 88 184 288 184h27v23c0 45 -35 56 -110 56c-103 0 -141 -24 -180 -60h-5v67c0 68 71 136 228 136c152 0 251 -77 251 -239v-85zM359 185v41h-38c-72 0 -101 -18 -101 -55c0 -35 22 -53 75 -53
c34 0 64 17 64 67zM370 635v-5h-46c-62 0 -114 7 -150 22c-31 13 -61 48 -61 89c0 33 23 59 64 59c45 0 85 -21 117 -54c30 -31 59 -70 76 -111z" />
    <glyph glyph-name="aacute" unicode="&#xe1;" horiz-adv-x="584" 
d="M539 242c0 -200 -64 -257 -264 -257c-106 0 -235 50 -235 175c0 122 88 184 288 184h27v23c0 45 -35 56 -110 56c-103 0 -141 -24 -180 -60h-5v67c0 68 71 136 228 136c152 0 251 -77 251 -239v-85zM359 185v41h-38c-72 0 -101 -18 -101 -55c0 -35 22 -53 75 -53
c34 0 64 17 64 67zM206 636c17 41 46 80 76 111c32 33 72 54 117 54c41 0 64 -26 64 -59c0 -41 -30 -76 -61 -89c-36 -15 -88 -22 -150 -22h-46v5z" />
    <glyph glyph-name="acircumflex" unicode="&#xe2;" horiz-adv-x="584" 
d="M539 242c0 -200 -64 -257 -264 -257c-106 0 -235 50 -235 175c0 122 88 184 288 184h27v23c0 45 -35 56 -110 56c-103 0 -141 -24 -180 -60h-5v67c0 68 71 136 228 136c152 0 251 -77 251 -239v-85zM359 185v41h-38c-72 0 -101 -18 -101 -55c0 -35 22 -53 75 -53
c34 0 64 17 64 67zM474 592l-182 71l-180 -71v28c0 76 26 99 92 133l89 46l87 -45c68 -35 94 -59 94 -139v-23z" />
    <glyph glyph-name="atilde" unicode="&#xe3;" horiz-adv-x="584" 
d="M539 242c0 -200 -64 -257 -264 -257c-106 0 -235 50 -235 175c0 122 88 184 288 184h27v23c0 45 -35 56 -110 56c-103 0 -141 -24 -180 -60h-5v67c0 68 71 136 228 136c152 0 251 -77 251 -239v-85zM359 185v41h-38c-72 0 -101 -18 -101 -55c0 -35 22 -53 75 -53
c34 0 64 17 64 67zM485 700c0 -44 -35 -88 -100 -88c-41 0 -64 10 -87 28c-34 26 -45 32 -62 32c-18 0 -35 -14 -35 -39v-21h-22c-35 0 -71 35 -71 81c0 51 37 95 101 95c33 0 63 -11 86 -28c30 -22 43 -31 59 -31c22 0 38 10 38 36v23h20c35 0 73 -27 73 -88z" />
    <glyph glyph-name="adieresis" unicode="&#xe4;" horiz-adv-x="584" 
d="M539 242c0 -200 -64 -257 -264 -257c-106 0 -235 50 -235 175c0 122 88 184 288 184h27v23c0 45 -35 56 -110 56c-103 0 -141 -24 -180 -60h-5v67c0 68 71 136 228 136c152 0 251 -77 251 -239v-85zM359 185v41h-38c-72 0 -101 -18 -101 -55c0 -35 22 -53 75 -53
c34 0 64 17 64 67zM244 709c0 -48 -40 -89 -88 -89s-87 41 -87 89s39 84 87 84s88 -36 88 -84zM487 709c0 -48 -40 -89 -88 -89s-87 41 -87 89s39 84 87 84s88 -36 88 -84z" />
    <glyph glyph-name="aring" unicode="&#xe5;" horiz-adv-x="584" 
d="M539 242c0 -200 -64 -257 -264 -257c-106 0 -235 50 -235 175c0 122 88 184 288 184h27v23c0 45 -35 56 -110 56c-103 0 -141 -24 -180 -60h-5v67c0 68 71 136 228 136c152 0 251 -77 251 -239v-85zM359 185v41h-38c-72 0 -101 -18 -101 -55c0 -35 22 -53 75 -53
c34 0 64 17 64 67zM438 726c0 -74 -59 -125 -143 -125c-86 0 -147 51 -147 124c0 85 70 127 148 127c89 0 142 -51 142 -126zM342 726c0 22 -14 47 -48 47c-29 0 -47 -19 -47 -48c0 -19 14 -45 46 -45c34 0 49 24 49 46z" />
    <glyph glyph-name="ccedilla" unicode="&#xe7;" horiz-adv-x="527" 
d="M502 370h-5c-17 18 -69 38 -122 38c-93 0 -145 -47 -145 -124c0 -94 52 -138 136 -138c59 0 100 12 133 31h2v-57c0 -73 -75 -132 -175 -132h-2c-1 -14 -2 -25 -2 -25c61 -3 110 -28 110 -81c0 -72 -43 -105 -140 -105c-69 0 -111 26 -111 61v35h6c18 -15 52 -23 93 -23
c36 0 49 11 49 28c0 18 -18 29 -55 29c-22 0 -51 -4 -51 -4c6 20 16 61 23 94c-124 31 -206 133 -206 276c0 157 109 292 303 292c87 0 159 -57 159 -128v-67z" />
    <glyph glyph-name="egrave" unicode="&#xe8;" 
d="M579 346c0 -110 -83 -139 -269 -139h-82c11 -55 56 -81 135 -81c88 0 143 14 174 35h7v-44c0 -70 -57 -133 -214 -133c-190 0 -290 128 -290 280c0 167 113 303 283 303c144 0 256 -81 256 -221zM403 367c0 28 -25 58 -80 58c-67 0 -95 -43 -100 -96h74
c90 0 106 14 106 38zM380 635v-5h-46c-62 0 -114 7 -150 22c-31 13 -61 48 -61 89c0 33 23 59 64 59c45 0 85 -21 117 -54c30 -31 59 -70 76 -111z" />
    <glyph glyph-name="eacute" unicode="&#xe9;" 
d="M579 346c0 -110 -83 -139 -269 -139h-82c11 -55 56 -81 135 -81c88 0 143 14 174 35h7v-44c0 -70 -57 -133 -214 -133c-190 0 -290 128 -290 280c0 167 113 303 283 303c144 0 256 -81 256 -221zM403 367c0 28 -25 58 -80 58c-67 0 -95 -43 -100 -96h74
c90 0 106 14 106 38zM227 635c17 41 46 80 76 111c32 33 72 54 117 54c41 0 64 -26 64 -59c0 -41 -30 -76 -61 -89c-36 -15 -88 -22 -150 -22h-46v5z" />
    <glyph glyph-name="ecircumflex" unicode="&#xea;" 
d="M579 346c0 -110 -83 -139 -269 -139h-82c11 -55 56 -81 135 -81c88 0 143 14 174 35h7v-44c0 -70 -57 -133 -214 -133c-190 0 -290 128 -290 280c0 167 113 303 283 303c144 0 256 -81 256 -221zM403 367c0 28 -25 58 -80 58c-67 0 -95 -43 -100 -96h74
c90 0 106 14 106 38zM504 591l-182 71l-180 -71v28c0 76 26 99 92 133l89 46l87 -45c68 -35 94 -59 94 -139v-23z" />
    <glyph glyph-name="edieresis" unicode="&#xeb;" 
d="M579 346c0 -110 -83 -139 -269 -139h-82c11 -55 56 -81 135 -81c88 0 143 14 174 35h7v-44c0 -70 -57 -133 -214 -133c-190 0 -290 128 -290 280c0 167 113 303 283 303c144 0 256 -81 256 -221zM403 367c0 28 -25 58 -80 58c-67 0 -95 -43 -100 -96h74
c90 0 106 14 106 38zM274 713c0 -48 -40 -89 -88 -89s-87 41 -87 89s39 84 87 84s88 -36 88 -84zM517 713c0 -48 -40 -89 -88 -89s-87 41 -87 89s39 84 87 84s88 -36 88 -84z" />
    <glyph glyph-name="igrave" unicode="&#xec;" horiz-adv-x="366" 
d="M354 80c0 -66 -50 -88 -109 -88c-101 0 -180 50 -180 180v361h47c108 0 143 -31 143 -131v-202c0 -49 23 -64 76 -64h23v-56zM250 635v-5h-46c-62 0 -114 7 -150 22c-31 13 -61 48 -61 89c0 33 23 59 64 59c45 0 85 -21 117 -54c30 -31 59 -70 76 -111z" />
    <glyph glyph-name="iacute" unicode="&#xed;" horiz-adv-x="366" 
d="M354 80c0 -66 -50 -88 -109 -88c-101 0 -180 50 -180 180v361h47c108 0 143 -31 143 -131v-202c0 -49 23 -64 76 -64h23v-56zM81 635c17 41 46 80 76 111c32 33 72 54 117 54c41 0 64 -26 64 -59c0 -41 -30 -76 -61 -89c-36 -15 -88 -22 -150 -22h-46v5z" />
    <glyph glyph-name="icircumflex" unicode="&#xee;" horiz-adv-x="366" 
d="M354 80c0 -66 -50 -88 -109 -88c-101 0 -180 50 -180 180v361h47c108 0 143 -31 143 -131v-202c0 -49 23 -64 76 -64h23v-56zM350 592l-182 71l-180 -71v28c0 76 26 99 92 133l89 46l87 -45c68 -35 94 -59 94 -139v-23z" />
    <glyph glyph-name="idieresis" unicode="&#xef;" horiz-adv-x="366" 
d="M354 80c0 -66 -50 -88 -109 -88c-101 0 -180 50 -180 180v361h47c108 0 143 -31 143 -131v-202c0 -49 23 -64 76 -64h23v-56zM124 714c0 -48 -40 -89 -88 -89s-87 41 -87 89s39 84 87 84s88 -36 88 -84zM367 714c0 -48 -40 -89 -88 -89s-87 41 -87 89s39 84 87 84
s88 -36 88 -84z" />
    <glyph glyph-name="eth" unicode="&#xf0;" horiz-adv-x="664" 
d="M624 279c0 -180 -121 -291 -299 -291c-159 0 -285 108 -285 272c0 174 111 285 285 285c45 0 77 -15 109 -41c-14 52 -55 101 -101 117l-105 -70c-18 13 -40 25 -40 50c0 28 13 38 47 60c-62 12 -82 28 -82 60v50c74 0 136 -5 207 -28l96 65c15 -12 41 -28 41 -49
c0 -30 -23 -48 -46 -62c128 -85 173 -222 173 -371v-47zM437 269c0 74 -21 147 -109 147c-74 0 -98 -67 -98 -131c0 -73 21 -150 109 -150c75 0 98 70 98 134z" />
    <glyph glyph-name="ntilde" unicode="&#xf1;" horiz-adv-x="658" 
d="M606 0h-80c-84 0 -110 28 -110 112v193c0 74 -25 107 -89 107c-55 0 -85 -37 -85 -104v-308h-64c-81 0 -126 32 -126 112v193c0 158 105 261 280 261c195 0 274 -103 274 -266v-300zM512 703c0 -44 -35 -88 -100 -88c-41 0 -64 10 -87 28c-34 26 -45 32 -62 32
c-18 0 -35 -14 -35 -39v-21h-22c-35 0 -71 35 -71 81c0 51 37 95 101 95c33 0 63 -11 86 -28c30 -22 43 -31 59 -31c22 0 38 10 38 36v23h20c35 0 73 -27 73 -88z" />
    <glyph glyph-name="ograve" unicode="&#xf2;" horiz-adv-x="664" 
d="M40 263c0 182 126 302 299 302c150 0 285 -114 285 -284c0 -180 -109 -296 -299 -296c-157 0 -285 116 -285 278zM436 264c0 99 -43 151 -109 151c-52 0 -99 -55 -99 -130c0 -106 42 -152 109 -152c60 0 99 55 99 131zM380 635v-5h-46c-62 0 -114 7 -150 22
c-31 13 -61 48 -61 89c0 33 23 59 64 59c45 0 85 -21 117 -54c30 -31 59 -70 76 -111z" />
    <glyph glyph-name="oacute" unicode="&#xf3;" horiz-adv-x="664" 
d="M40 263c0 182 126 302 299 302c150 0 285 -114 285 -284c0 -180 -109 -296 -299 -296c-157 0 -285 116 -285 278zM436 264c0 99 -43 151 -109 151c-52 0 -99 -55 -99 -130c0 -106 42 -152 109 -152c60 0 99 55 99 131zM236 635c17 41 46 80 76 111c32 33 72 54 117 54
c41 0 64 -26 64 -59c0 -41 -30 -76 -61 -89c-36 -15 -88 -22 -150 -22h-46v5z" />
    <glyph glyph-name="ocircumflex" unicode="&#xf4;" horiz-adv-x="664" 
d="M40 263c0 182 126 302 299 302c150 0 285 -114 285 -284c0 -180 -109 -296 -299 -296c-157 0 -285 116 -285 278zM436 264c0 99 -43 151 -109 151c-52 0 -99 -55 -99 -130c0 -106 42 -152 109 -152c60 0 99 55 99 131zM512 592l-182 71l-180 -71v28c0 76 26 99 92 133
l89 46l87 -45c68 -35 94 -59 94 -139v-23z" />
    <glyph glyph-name="otilde" unicode="&#xf5;" horiz-adv-x="664" 
d="M40 263c0 182 126 302 299 302c150 0 285 -114 285 -284c0 -180 -109 -296 -299 -296c-157 0 -285 116 -285 278zM436 264c0 99 -43 151 -109 151c-52 0 -99 -55 -99 -130c0 -106 42 -152 109 -152c60 0 99 55 99 131zM515 703c0 -44 -35 -88 -100 -88
c-41 0 -64 10 -87 28c-34 26 -45 32 -62 32c-18 0 -35 -14 -35 -39v-21h-22c-35 0 -71 35 -71 81c0 51 37 95 101 95c33 0 63 -11 86 -28c30 -22 43 -31 59 -31c22 0 38 10 38 36v23h20c35 0 73 -27 73 -88z" />
    <glyph glyph-name="odieresis" unicode="&#xf6;" horiz-adv-x="664" 
d="M40 263c0 182 126 302 299 302c150 0 285 -114 285 -284c0 -180 -109 -296 -299 -296c-157 0 -285 116 -285 278zM436 264c0 99 -43 151 -109 151c-52 0 -99 -55 -99 -130c0 -106 42 -152 109 -152c60 0 99 55 99 131zM292 712c0 -48 -40 -89 -88 -89s-87 41 -87 89
s39 84 87 84s88 -36 88 -84zM535 712c0 -48 -40 -89 -88 -89s-87 41 -87 89s39 84 87 84s88 -36 88 -84z" />
    <glyph glyph-name="divide" unicode="&#xf7;" 
d="M475 231h-425v59c0 50 40 86 99 86h415v-62c0 -46 -43 -83 -89 -83zM200 501c0 59 48 107 107 107s107 -48 107 -107s-48 -107 -107 -107s-107 48 -107 107zM200 107c0 59 48 107 107 107s107 -48 107 -107s-48 -107 -107 -107s-107 48 -107 107z" />
    <glyph glyph-name="ugrave" unicode="&#xf9;" horiz-adv-x="660" 
d="M608 242c0 -176 -112 -258 -281 -258c-178 0 -275 87 -275 263v303h74c83 0 119 -28 119 -112v-196c0 -81 38 -106 90 -106c45 0 81 26 81 113v301h74c76 0 118 -32 118 -112v-196zM394 635v-5h-46c-62 0 -114 7 -150 22c-31 13 -61 48 -61 89c0 33 23 59 64 59
c45 0 85 -21 117 -54c30 -31 59 -70 76 -111z" />
    <glyph glyph-name="uacute" unicode="&#xfa;" horiz-adv-x="660" 
d="M608 242c0 -176 -112 -258 -281 -258c-178 0 -275 87 -275 263v303h74c83 0 119 -28 119 -112v-196c0 -81 38 -106 90 -106c45 0 81 26 81 113v301h74c76 0 118 -32 118 -112v-196zM236 635c17 41 46 80 76 111c32 33 72 54 117 54c41 0 64 -26 64 -59
c0 -41 -30 -76 -61 -89c-36 -15 -88 -22 -150 -22h-46v5z" />
    <glyph glyph-name="ucircumflex" unicode="&#xfb;" horiz-adv-x="660" 
d="M608 242c0 -176 -112 -258 -281 -258c-178 0 -275 87 -275 263v303h74c83 0 119 -28 119 -112v-196c0 -81 38 -106 90 -106c45 0 81 26 81 113v301h74c76 0 118 -32 118 -112v-196zM504 592l-182 71l-180 -71v28c0 76 26 99 92 133l89 46l87 -45c68 -35 94 -59 94 -139
v-23z" />
    <glyph glyph-name="udieresis" unicode="&#xfc;" horiz-adv-x="660" 
d="M608 242c0 -176 -112 -258 -281 -258c-178 0 -275 87 -275 263v303h74c83 0 119 -28 119 -112v-196c0 -81 38 -106 90 -106c45 0 81 26 81 113v301h74c76 0 118 -32 118 -112v-196zM284 712c0 -48 -40 -89 -88 -89s-87 41 -87 89s39 84 87 84s88 -36 88 -84zM527 712
c0 -48 -40 -89 -88 -89s-87 41 -87 89s39 84 87 84s88 -36 88 -84z" />
    <glyph glyph-name="yacute" unicode="&#xfd;" horiz-adv-x="583" 
d="M568 480c0 -58 -52 -218 -113 -335c-154 -296 -193 -326 -308 -326c-61 0 -112 33 -112 95v46l82 6c50 4 73 24 93 69c-79 118 -180 368 -202 515h99c47 0 96 -29 107 -78c19 -87 57 -193 86 -260c41 83 84 231 96 338h91c55 0 81 -26 81 -70zM216 635
c17 41 46 80 76 111c32 33 72 54 117 54c41 0 64 -26 64 -59c0 -41 -30 -76 -61 -89c-36 -15 -88 -22 -150 -22h-46v5z" />
    <glyph glyph-name="thorn" unicode="&#xfe;" horiz-adv-x="678" 
d="M241 311v-48c0 -97 54 -131 114 -131s93 53 93 135c0 118 -36 154 -114 154c-47 0 -86 -42 -93 -110zM52 740h67c83 0 123 -38 123 -131v-59c34 11 71 16 114 16c161 0 282 -109 282 -279c0 -188 -110 -303 -260 -303c-74 0 -116 16 -141 61v-215h-69
c-76 0 -116 40 -116 133v777z" />
    <glyph glyph-name="ydieresis" unicode="&#xff;" horiz-adv-x="583" 
d="M568 480c0 -58 -52 -218 -113 -335c-154 -296 -193 -326 -308 -326c-61 0 -112 33 -112 95v46l82 6c50 4 73 24 93 69c-79 118 -180 368 -202 515h99c47 0 96 -29 107 -78c19 -87 57 -193 86 -260c41 83 84 231 96 338h91c55 0 81 -26 81 -70zM254 714
c0 -48 -40 -89 -88 -89s-87 41 -87 89s39 84 87 84s88 -36 88 -84zM497 714c0 -48 -40 -89 -88 -89s-87 41 -87 89s39 84 87 84s88 -36 88 -84z" />
    <glyph glyph-name="acute.lc" horiz-adv-x="664" 
d="M236 635c17 41 46 80 76 111c32 33 72 54 117 54c41 0 64 -26 64 -59c0 -41 -30 -76 -61 -89c-36 -15 -88 -22 -150 -22h-46v5z" />
    <glyph glyph-name="acute.uc" horiz-adv-x="764" 
d="M286 755c17 41 46 80 76 111c32 33 72 54 117 54c41 0 64 -26 64 -59c0 -41 -30 -76 -61 -89c-36 -15 -88 -22 -150 -22h-46v5z" />
    <glyph glyph-name="breve.lc" horiz-adv-x="508" 
d="M87 810c34 -39 83 -74 154 -74c70 0 128 41 152 76v-36c0 -84 -71 -145 -153 -145c-84 0 -153 61 -153 150v29z" />
    <glyph glyph-name="breve.uc" horiz-adv-x="508" 
d="M87 947c34 -39 83 -74 154 -74c70 0 128 41 152 76v-36c0 -84 -71 -145 -153 -145c-84 0 -153 61 -153 150v29z" />
    <glyph glyph-name="caron.lc" horiz-adv-x="558" 
d="M84 812l182 -71l180 71v-28c0 -76 -26 -99 -92 -133l-89 -46l-87 45c-68 35 -94 59 -94 139v23z" />
    <glyph glyph-name="caron.uc" horiz-adv-x="641" 
d="M130 949l182 -71l180 71v-28c0 -76 -26 -99 -92 -133l-89 -46l-87 45c-68 35 -94 59 -94 139v23z" />
    <glyph glyph-name="circumflex.lc" horiz-adv-x="664" 
d="M512 592l-182 71l-180 -71v28c0 76 26 99 92 133l89 46l87 -45c68 -35 94 -59 94 -139v-23z" />
    <glyph glyph-name="circumflex.uc" horiz-adv-x="764" 
d="M564 716l-182 71l-180 -71v28c0 76 26 99 92 133l89 46l87 -45c68 -35 94 -59 94 -139v-23z" />
    <glyph glyph-name="commaaccent" unicode="&#xf6c3;" horiz-adv-x="344" 
d="M159 -223l-59 27c-22 10 -33 27 -33 46c0 11 4 23 11 33l67 94l47 -22c27 -12 43 -31 43 -54c0 -12 -5 -25 -14 -38z" />
    <glyph glyph-name="commaturn" horiz-adv-x="344" 
d="M220 637h-68c-41 0 -68 36 -68 74v118h54c48 0 82 -31 82 -86v-106z" />
    <glyph glyph-name="diedot.lc" horiz-adv-x="664" 
d="M291 712c0 -48 -40 -89 -88 -89s-87 41 -87 89s39 84 87 84s88 -36 88 -84z" />
    <glyph glyph-name="diedot.uc" horiz-adv-x="764" 
d="M346 829c0 -48 -40 -89 -88 -89s-87 41 -87 89s39 84 87 84s88 -36 88 -84z" />
    <glyph glyph-name="dieresis.lc" horiz-adv-x="664" 
d="M535 712c0 -48 -41 -89 -89 -89s-86 41 -86 89s38 84 86 84s89 -36 89 -84zM291 712c0 -48 -40 -89 -88 -89s-87 41 -87 89s39 84 87 84s88 -36 88 -84z" />
    <glyph glyph-name="dieresis.uc" horiz-adv-x="764" 
d="M590 829c0 -48 -41 -89 -89 -89s-86 41 -86 89s38 84 86 84s89 -36 89 -84zM346 829c0 -48 -40 -89 -88 -89s-87 41 -87 89s39 84 87 84s88 -36 88 -84z" />
    <glyph glyph-name="dotaccent.lc" horiz-adv-x="417" 
d="M297 686c0 -48 -40 -89 -88 -89s-87 41 -87 89s39 84 87 84s88 -36 88 -84z" />
    <glyph glyph-name="dotaccent.uc" horiz-adv-x="417" 
d="M296 829c0 -48 -40 -89 -88 -89s-87 41 -87 89s39 84 87 84s88 -36 88 -84z" />
    <glyph glyph-name="dotmath" unicode="&#x22c5;" horiz-adv-x="250" 
d="M22 301c0 57 46 102 103 102s102 -45 102 -102s-45 -103 -102 -103s-103 46 -103 103z" />
    <glyph glyph-name="grave.lc" horiz-adv-x="664" 
d="M380 635v-5h-46c-62 0 -114 7 -150 22c-31 13 -61 48 -61 89c0 33 23 59 64 59c45 0 85 -21 117 -54c30 -31 59 -70 76 -111z" />
    <glyph glyph-name="grave.uc" horiz-adv-x="764" 
d="M443 755v-5h-46c-62 0 -114 7 -150 22c-31 13 -61 48 -61 89c0 33 23 59 64 59c45 0 85 -21 117 -54c30 -31 59 -70 76 -111z" />
    <glyph glyph-name="hungarumlaut.lc" horiz-adv-x="372" 
d="M326 681c-27 -19 -87 -44 -113 -47l-29 -4v11c8 27 33 67 52 93c21 29 53 60 89 60c34 0 52 -12 52 -42c0 -28 -29 -56 -51 -71zM153 681c-27 -19 -87 -44 -113 -47l-29 -4v11c8 27 33 67 52 93c21 29 53 60 89 60c34 0 52 -12 52 -42c0 -28 -29 -56 -51 -71z" />
    <glyph glyph-name="hungarumlaut.uc" horiz-adv-x="372" 
d="M326 801c-27 -19 -87 -44 -113 -47l-29 -4v11c8 27 33 67 52 93c21 29 53 60 89 60c34 0 52 -12 52 -42c0 -28 -29 -56 -51 -71zM153 801c-27 -19 -87 -44 -113 -47l-29 -4v11c8 27 33 67 52 93c21 29 53 60 89 60c34 0 52 -12 52 -42c0 -28 -29 -56 -51 -71z" />
    <glyph glyph-name="logicaland" unicode="&#x2227;" horiz-adv-x="250" 
d="M22 301c0 57 46 102 103 102s102 -45 102 -102s-45 -103 -102 -103s-103 46 -103 103z" />
    <glyph glyph-name="macron.lc" horiz-adv-x="304" 
d="M293 739v-58c0 -35 -31 -58 -64 -58h-218v44c0 42 27 72 76 72h206z" />
    <glyph glyph-name="macron.uc" horiz-adv-x="304" 
d="M293 856v-58c0 -35 -31 -58 -64 -58h-218v44c0 42 27 72 76 72h206z" />
    <glyph glyph-name="ring.lc" horiz-adv-x="584" 
d="M438 726c0 -74 -59 -125 -143 -125c-86 0 -147 51 -147 124c0 85 70 127 148 127c89 0 142 -51 142 -126zM342 726c0 22 -14 47 -48 47c-29 0 -47 -19 -47 -48c0 -19 14 -45 46 -45c34 0 49 24 49 46z" />
    <glyph glyph-name="ring.uc" horiz-adv-x="400" 
d="M351 838c0 -74 -59 -125 -143 -125c-86 0 -147 51 -147 124c0 85 70 127 148 127c89 0 142 -51 142 -126zM255 838c0 22 -14 47 -48 47c-29 0 -47 -19 -47 -48c0 -19 14 -45 46 -45c34 0 49 24 49 46z" />
    <glyph glyph-name="tilde.lc" horiz-adv-x="664" 
d="M515 703c0 -44 -35 -88 -100 -88c-41 0 -64 10 -87 28c-34 26 -45 32 -62 32c-18 0 -35 -14 -35 -39v-21h-22c-35 0 -71 35 -71 81c0 51 37 95 101 95c33 0 63 -11 86 -28c30 -22 43 -31 59 -31c22 0 38 10 38 36v23h20c35 0 73 -27 73 -88z" />
    <glyph glyph-name="tilde.uc" horiz-adv-x="764" 
d="M571 813c0 -44 -35 -88 -100 -88c-41 0 -64 10 -87 28c-34 26 -45 32 -62 32c-18 0 -35 -14 -35 -39v-21h-22c-35 0 -71 35 -71 81c0 51 37 95 101 95c33 0 63 -11 86 -28c30 -22 43 -31 59 -31c22 0 38 10 38 36v23h20c35 0 73 -27 73 -88z" />
    <glyph glyph-name="undercommaaccent" horiz-adv-x="344" 
d="M159 -223l-59 27c-22 10 -33 27 -33 46c0 11 4 23 11 33l67 94l47 -22c27 -12 43 -31 43 -54c0 -12 -5 -25 -14 -38z" />
    <glyph glyph-name="uni00AD" unicode="&#xad;" horiz-adv-x="383" 
d="M345 369v-54c0 -38 -29 -72 -70 -72h-240v51c0 49 25 75 80 75h230z" />
    <glyph glyph-name="uni2219" unicode="&#x2219;" horiz-adv-x="250" 
d="M22 301c0 57 46 102 103 102s102 -45 102 -102s-45 -103 -102 -103s-103 46 -103 103z" />
    <glyph glyph-name="uni2224" unicode="&#x2224;" horiz-adv-x="250" 
d="M22 301c0 57 46 102 103 102s102 -45 102 -102s-45 -103 -102 -103s-103 46 -103 103z" />
    <glyph glyph-name="afii10017" unicode="&#x410;" horiz-adv-x="670" 
d="M665 0h-86c-69 0 -105 20 -117 82c-5 25 -11 52 -19 81h-238c-15 -50 -27 -120 -35 -163h-77c-61 0 -88 34 -88 85c0 100 131 480 251 605h74c67 0 111 -34 134 -72c66 -110 170 -383 201 -618zM404 312c-20 68 -50 151 -78 206c-30 -57 -60 -138 -80 -206h158z" />
    <glyph glyph-name="afii10018" unicode="&#x411;" horiz-adv-x="647" 
d="M607 214c0 -144 -111 -224 -254 -224h-70c-139 0 -223 61 -223 179v396c0 85 47 125 139 125h374v-64c0 -40 -33 -89 -100 -89h-223v-99c25 8 66 10 100 10c143 0 257 -84 257 -234zM417 230c0 50 -30 78 -90 78c-27 0 -56 -2 -77 -9v-149c9 -2 34 -5 43 -5h38
c49 0 86 13 86 85z" />
    <glyph glyph-name="afii10019" unicode="&#x412;" horiz-adv-x="663" 
d="M623 213c0 -149 -130 -221 -265 -221h-75c-139 0 -223 59 -223 177v496c51 17 153 35 213 35h84c140 0 254 -71 254 -196c0 -64 -56 -127 -113 -142c67 -20 125 -89 125 -149zM423 488c0 42 -30 59 -85 59h-42c-11 0 -34 -2 -47 -4v-123h84c64 0 90 24 90 68zM433 218
c0 55 -24 73 -95 73h-88v-107c0 -20 12 -30 34 -30h61c64 0 88 25 88 64z" />
    <glyph glyph-name="afii10020" unicode="&#x413;" horiz-adv-x="524" 
d="M519 617c0 -40 -33 -89 -100 -89h-165v-528h-92c-60 0 -101 30 -101 94v471c0 85 47 125 139 125h319v-73z" />
    <glyph glyph-name="afii10021" unicode="&#x414;" horiz-adv-x="787" 
d="M772 -168h-63c-100 0 -117 47 -117 115v42c-29 5 -119 11 -172 11h-43c-53 0 -159 -8 -182 -11v-42c0 -68 -17 -115 -117 -115h-63v289c25 7 53 13 81 18c8 25 18 56 30 93c45 136 144 369 213 458h49c46 0 71 -17 100 -61c88 -135 156 -307 198 -489
c31 -5 60 -11 86 -19v-289zM486 155c-21 87 -55 198 -96 286c-37 -75 -72 -182 -98 -286c27 1 53 1 77 1h49c22 0 44 0 68 -1z" />
    <glyph glyph-name="afii10022" unicode="&#x415;" horiz-adv-x="606" 
d="M576 645c0 -66 -35 -110 -115 -110h-210c-4 -34 -7 -84 -7 -117h267v-69c0 -50 -37 -78 -104 -78h-163v-25c0 -74 24 -100 120 -100h50c57 0 105 5 161 19v-73c0 -63 -39 -101 -161 -101h-78c-181 0 -281 92 -281 283v116c0 63 4 133 12 186c13 88 66 114 133 114h376
v-45z" />
    <glyph glyph-name="afii10024" unicode="&#x416;" horiz-adv-x="1104" 
d="M1101 685c-87 -83 -203 -221 -273 -314c47 -66 93 -136 149 -195c40 -42 61 -66 118 -79c-21 -79 -52 -104 -115 -104c-38 0 -91 19 -120 51c-82 90 -140 174 -213 284v-328h-76c-82 0 -114 56 -114 109v219c-73 -110 -131 -194 -213 -284c-29 -32 -82 -51 -120 -51
c-63 0 -94 25 -115 104c57 13 78 37 118 79c56 59 102 129 149 195c-70 93 -186 231 -273 314v5h139c57 0 82 -6 121 -46c75 -77 132 -158 194 -245v291h67c82 0 123 -54 123 -108v-183c62 87 119 168 194 245c39 40 64 46 121 46h139v-5z" />
    <glyph glyph-name="afii10025" unicode="&#x417;" 
d="M554 210c0 -147 -106 -226 -288 -226c-109 0 -215 39 -215 148v73h5c42 -43 122 -68 207 -68c83 0 111 28 111 63c0 54 -23 75 -125 82c-51 3 -83 25 -83 72v51l95 -1c104 -1 109 38 109 74c0 41 -29 75 -128 75c-73 0 -139 -26 -183 -70h-5v77c0 71 74 146 241 146
c137 0 255 -76 255 -204c0 -78 -48 -128 -102 -154c52 -15 106 -72 106 -138z" />
    <glyph glyph-name="afii10026" unicode="&#x418;" horiz-adv-x="745" 
d="M685 0h-82c-52 0 -108 37 -108 107v318s-12 -28 -34 -67l-117 -212c-62 -112 -121 -146 -199 -146h-85v690h96c50 0 94 -37 94 -89v-303l44 84l84 166c47 93 109 142 210 142h97v-690z" />
    <glyph glyph-name="afii10027" unicode="&#x419;" horiz-adv-x="745" 
d="M527 837c0 -84 -71 -145 -153 -145c-84 0 -153 61 -153 150v29c34 -39 83 -74 154 -74c70 0 128 41 152 76v-36zM685 0h-82c-52 0 -108 37 -108 107v318s-12 -28 -34 -67l-117 -212c-62 -112 -121 -146 -199 -146h-85v690h96c50 0 94 -37 94 -89v-303l44 84l84 166
c47 93 109 142 210 142h97v-690z" />
    <glyph glyph-name="afii10028" unicode="&#x41a;" horiz-adv-x="717" 
d="M714 685c-87 -83 -203 -221 -273 -314c47 -66 93 -136 149 -195c40 -42 61 -66 118 -79c-21 -79 -52 -104 -115 -104c-38 0 -91 19 -120 51c-82 90 -140 174 -213 284v-328h-76c-82 0 -114 56 -114 109v581h67c82 0 123 -54 123 -108v-183c62 87 119 168 194 245
c39 40 64 46 121 46h139v-5z" />
    <glyph glyph-name="afii10029" unicode="&#x41b;" horiz-adv-x="674" 
d="M659 0h-106c-65 0 -103 47 -111 88c-17 89 -63 230 -116 343c-56 -114 -113 -292 -135 -431h-96c-47 0 -85 30 -85 79c0 26 17 77 42 153c45 136 156 369 225 458h45c46 0 71 -17 100 -61c110 -169 202 -398 237 -629z" />
    <glyph glyph-name="afii10030" unicode="&#x41c;" horiz-adv-x="985" 
d="M930 0h-81c-66 0 -114 36 -114 108c0 62 -6 239 -17 341l-95 -290c-14 -42 -43 -116 -69 -159h-53c-65 0 -116 49 -159 189l-35 115c-17 57 -38 118 -49 147c-12 -118 -21 -337 -21 -451h-71c-58 0 -111 40 -111 108c0 198 27 437 60 582h66c110 0 166 -52 191 -113
l54 -134c23 -58 52 -137 67 -195c15 51 36 112 57 162l66 158c25 59 58 101 83 122h35c100 0 148 -55 161 -154c18 -135 35 -347 35 -536z" />
    <glyph glyph-name="afii10031" unicode="&#x41d;" horiz-adv-x="725" 
d="M665 0h-82c-52 0 -108 37 -108 107v175h-224v-282h-84c-52 0 -107 37 -107 107v583h98c50 0 92 -37 92 -89v-167h225v256h93c45 0 97 -33 97 -89v-601z" />
    <glyph glyph-name="afii10032" unicode="&#x41e;" horiz-adv-x="764" 
d="M724 355c0 -229 -128 -371 -352 -371c-188 0 -332 136 -332 352c0 223 131 370 353 370c169 0 331 -126 331 -351zM534 338c0 151 -54 214 -160 214c-94 0 -144 -81 -144 -197c0 -146 56 -216 160 -216c86 0 144 72 144 199z" />
    <glyph glyph-name="afii10033" unicode="&#x41f;" horiz-adv-x="725" 
d="M665 0h-82c-52 0 -108 37 -108 107v335c0 74 -23 105 -119 105h-28c-22 0 -64 -5 -77 -7v-540h-84c-52 0 -107 37 -107 107v561c51 17 171 29 237 29h87c181 0 281 -92 281 -283v-414z" />
    <glyph glyph-name="afii10034" unicode="&#x420;" horiz-adv-x="607" 
d="M597 476c0 -150 -114 -247 -257 -247c-34 0 -65 2 -90 10v-239h-85c-50 0 -105 35 -105 118v553c52 12 140 29 206 29h77c143 0 254 -80 254 -224zM407 460c0 72 -32 90 -81 90h-38c-9 0 -29 -3 -38 -5v-154c21 -7 45 -9 72 -9c60 0 85 28 85 78z" />
    <glyph glyph-name="afii10035" unicode="&#x421;" horiz-adv-x="651" 
d="M626 471h-5c-35 45 -121 71 -197 71c-112 0 -194 -74 -194 -186c0 -141 86 -208 198 -208c74 0 156 28 190 64h5v-71c0 -89 -89 -157 -224 -157c-189 0 -359 136 -359 354c0 201 141 368 371 368c135 0 215 -67 215 -164v-71z" />
    <glyph glyph-name="afii10036" unicode="&#x422;" horiz-adv-x="611" 
d="M601 620c0 -43 -48 -92 -106 -92h-98v-528h-83c-57 0 -107 26 -107 99v429h-197v70c0 42 37 92 107 92h484v-70z" />
    <glyph glyph-name="afii10037" unicode="&#x423;" horiz-adv-x="667" 
d="M655 629c0 -77 -86 -251 -142 -344c-176 -288 -201 -292 -308 -292c-64 0 -114 25 -114 95v46l83 6c41 3 63 19 85 49c-89 122 -213 359 -247 501h99c57 0 103 -29 118 -78c26 -85 88 -202 123 -270c55 102 107 221 132 348h96c51 0 75 -23 75 -61z" />
    <glyph glyph-name="afii10038" unicode="&#x424;" horiz-adv-x="877" 
d="M852 356c0 -180 -79 -296 -269 -296c-15 0 -33 4 -53 11v-87h-95c-39 0 -79 30 -87 86c-19 -6 -37 -10 -54 -10c-190 0 -269 116 -269 296c0 170 105 284 255 284c23 0 46 -4 67 -11v77h99c35 0 78 -29 83 -78c22 8 45 12 68 12c150 0 255 -114 255 -284zM669 339
c0 99 -28 156 -94 156c-17 0 -33 -7 -45 -18v-256c14 -12 32 -18 55 -18c60 0 84 60 84 136zM347 221v256c-12 11 -28 18 -45 18c-66 0 -94 -57 -94 -156c0 -76 24 -136 84 -136c23 0 41 6 55 18z" />
    <glyph glyph-name="afii10039" unicode="&#x425;" horiz-adv-x="732" 
d="M710 59c-38 -45 -65 -66 -126 -66c-72 0 -123 39 -190 135l-67 96c-77 -93 -103 -153 -122 -224h-82c-59 0 -75 41 -75 84c0 23 7 48 15 67c35 83 104 150 165 215c-24 33 -51 69 -77 105c-51 70 -99 142 -119 219h119c42 0 84 -15 153 -116l64 -94
c94 108 115 145 132 210h68c58 0 81 -37 81 -82c1 -55 -75 -151 -181 -270c33 -48 61 -88 89 -125c41 -54 84 -101 153 -154z" />
    <glyph glyph-name="afii10040" unicode="&#x426;" horiz-adv-x="773" 
d="M768 -168h-63c-100 0 -117 47 -117 115v53h-251c-181 0 -281 92 -281 283v407h98c50 0 92 -37 92 -89v-342c0 -74 23 -100 119 -100h101v531h93c45 0 97 -33 97 -89v-442c88 0 112 -27 112 -115v-212z" />
    <glyph glyph-name="afii10041" unicode="&#x427;" horiz-adv-x="680" 
d="M620 0h-82c-52 0 -108 37 -108 107v161c-36 -16 -89 -29 -134 -29c-181 0 -251 89 -251 253v198h98c50 0 92 -37 92 -89v-103c0 -74 22 -100 109 -100c35 0 74 16 86 22v270h93c45 0 97 -33 97 -89v-601z" />
    <glyph glyph-name="afii10042" unicode="&#x428;" horiz-adv-x="1044" 
d="M984 283c0 -191 -100 -283 -281 -283h-366c-181 0 -281 92 -281 283v407h98c50 0 92 -37 92 -89v-342c0 -74 23 -100 119 -100h60v531h93c45 0 97 -33 97 -89v-442h60c96 0 119 26 119 100v431h93c45 0 97 -33 97 -89v-318z" />
    <glyph glyph-name="afii10043" unicode="&#x429;" horiz-adv-x="1101" 
d="M1096 -168h-63c-100 0 -117 47 -117 115v53h-579c-181 0 -281 92 -281 283v407h98c50 0 92 -37 92 -89v-342c0 -74 23 -100 119 -100h60v531h93c45 0 97 -33 97 -89v-442h179v531h93c45 0 97 -33 97 -89v-442c88 0 112 -27 112 -115v-212z" />
    <glyph glyph-name="afii10044" unicode="&#x42a;" horiz-adv-x="742" 
d="M717 214c0 -144 -111 -224 -254 -224h-60c-139 0 -223 61 -223 179v359h-170v70c0 42 37 92 107 92h161c50 0 92 -37 92 -89v-150c25 8 56 10 90 10c143 0 257 -97 257 -247zM527 233c0 50 -25 78 -85 78c-27 0 -51 -2 -72 -9v-154c9 -2 29 -5 38 -5h38c49 0 81 18 81 90
z" />
    <glyph glyph-name="afii10045" unicode="&#x42b;" horiz-adv-x="895" 
d="M835 0h-82c-52 0 -108 37 -108 107v583h93c45 0 97 -33 97 -89v-601zM597 214c0 -144 -111 -224 -254 -224h-60c-139 0 -223 61 -223 179v521h98c50 0 92 -37 92 -89v-150c25 8 56 10 90 10c143 0 257 -97 257 -247zM407 233c0 50 -25 78 -85 78c-27 0 -51 -2 -72 -9
v-154c9 -2 29 -5 38 -5h38c49 0 81 18 81 90z" />
    <glyph glyph-name="afii10046" unicode="&#x42c;" horiz-adv-x="622" 
d="M597 214c0 -144 -111 -224 -254 -224h-60c-139 0 -223 61 -223 179v521h98c50 0 92 -37 92 -89v-150c25 8 56 10 90 10c143 0 257 -97 257 -247zM407 233c0 50 -25 78 -85 78c-27 0 -51 -2 -72 -9v-154c9 -2 29 -5 38 -5h38c49 0 81 18 81 90z" />
    <glyph glyph-name="afii10047" unicode="&#x42d;" horiz-adv-x="651" 
d="M611 338c0 -218 -170 -354 -359 -354c-135 0 -224 68 -224 157v61h5c34 -36 116 -64 190 -64c101 0 170 46 197 133h-157c-67 0 -104 28 -104 78v69h264c-22 80 -89 134 -196 134c-76 0 -162 -26 -197 -71h-5v61c0 97 80 164 215 164c230 0 371 -167 371 -368z" />
    <glyph glyph-name="afii10048" unicode="&#x42e;" horiz-adv-x="1044" 
d="M1004 355c0 -229 -128 -371 -352 -371c-172 0 -307 114 -329 298h-72v-282h-84c-52 0 -107 37 -107 107v583h98c50 0 92 -37 92 -89v-167h79c34 167 156 272 344 272c169 0 331 -126 331 -351zM814 338c0 151 -54 214 -160 214c-94 0 -144 -81 -144 -197
c0 -146 56 -216 160 -216c86 0 144 72 144 199z" />
    <glyph glyph-name="afii10049" unicode="&#x42f;" horiz-adv-x="658" 
d="M598 0h-73c-74 0 -117 45 -117 109v143c-11 -1 -21 -2 -30 -3c-45 -6 -64 -17 -91 -76l-48 -105c-20 -45 -63 -73 -127 -73c-41 0 -79 6 -102 18v5c10 12 28 43 48 84l50 105c26 55 46 80 79 95c-66 15 -126 97 -126 189c0 125 105 209 253 209h77c53 0 159 -13 207 -30
v-670zM408 387v159c-14 2 -30 4 -38 4h-39c-55 0 -80 -32 -80 -82c0 -39 27 -84 81 -84c29 0 53 0 76 3z" />
    <glyph glyph-name="afii10065" unicode="&#x430;" horiz-adv-x="584" 
d="M539 242c0 -200 -64 -257 -264 -257c-106 0 -235 50 -235 175c0 122 88 184 288 184h27v23c0 45 -35 56 -110 56c-103 0 -141 -24 -180 -60h-5v67c0 68 71 136 228 136c152 0 251 -77 251 -239v-85zM359 185v41h-38c-72 0 -101 -18 -101 -55c0 -35 22 -53 75 -53
c34 0 64 17 64 67z" />
    <glyph glyph-name="afii10066" unicode="&#x431;" horiz-adv-x="646" 
d="M606 264c0 -172 -104 -276 -274 -276c-182 0 -280 121 -280 305c0 140 -5 292 77 375c72 73 172 72 283 72h136v-77c0 -41 -36 -75 -92 -75h-44c-64 0 -142 0 -174 -29c-40 -37 -44 -50 -46 -90h3c43 50 96 66 161 66c144 0 250 -110 250 -271zM418 252
c0 95 -40 139 -94 139c-41 0 -84 -48 -84 -118c0 -102 39 -140 94 -140c48 0 84 47 84 119z" />
    <glyph glyph-name="afii10067" unicode="&#x432;" horiz-adv-x="611" 
d="M568 172c0 -147 -116 -188 -254 -188c-149 0 -262 63 -262 210v329c56 19 156 43 255 43c137 0 252 -54 252 -168c0 -55 -33 -87 -69 -110c42 -25 78 -74 78 -116zM380 389c0 34 -30 46 -73 46c-23 0 -51 -5 -72 -8v-87h68c46 0 77 13 77 49zM388 178c0 29 -26 49 -81 49
h-71v-60c0 -38 61 -49 76 -49c50 0 76 23 76 60z" />
    <glyph glyph-name="afii10068" unicode="&#x433;" horiz-adv-x="540" 
d="M502 119c0 -80 -69 -135 -219 -135c-137 0 -233 64 -233 163c0 80 51 148 144 168c92 20 117 46 117 67c0 23 -23 42 -94 42c-74 0 -122 -19 -159 -46h-5v57c0 82 98 131 196 131c126 0 238 -55 238 -169c0 -88 -43 -139 -138 -157c-97 -18 -117 -46 -117 -71
c0 -27 27 -43 96 -43c78 0 133 21 169 48h5v-55z" />
    <glyph glyph-name="afii10069" unicode="&#x434;" horiz-adv-x="646" 
d="M591 59c0 -134 -111 -241 -285 -241c-157 0 -218 70 -218 140v59h6c34 -31 98 -49 187 -49c80 0 121 44 121 103v51c-12 -35 -56 -69 -111 -69c-139 0 -251 70 -251 241c0 151 119 272 306 272c167 0 245 -97 245 -247v-260zM406 303c0 81 -30 110 -87 110
s-90 -37 -90 -101c0 -82 38 -112 95 -112c53 0 82 41 82 103z" />
    <glyph glyph-name="afii10070" unicode="&#x435;" 
d="M579 346c0 -110 -83 -139 -269 -139h-82c11 -55 56 -81 135 -81c88 0 143 14 174 35h7v-44c0 -70 -57 -133 -214 -133c-190 0 -290 128 -290 280c0 167 113 303 283 303c144 0 256 -81 256 -221zM403 367c0 28 -25 58 -80 58c-67 0 -95 -43 -100 -96h74
c90 0 106 14 106 38z" />
    <glyph glyph-name="afii10072" unicode="&#x436;" horiz-adv-x="932" 
d="M930 545c-34 -35 -145 -176 -195 -248c32 -48 55 -101 93 -145c41 -47 57 -52 99 -62c-7 -61 -48 -95 -116 -95c-28 0 -75 11 -98 38c-62 72 -100 150 -152 229v-262h-75c-70 0 -115 46 -115 112v150c-52 -79 -90 -157 -152 -229c-23 -27 -70 -38 -98 -38
c-68 0 -109 34 -116 95c42 10 58 15 99 62c38 44 61 97 93 145c-50 72 -161 213 -195 248v5h133c58 0 77 -11 101 -37c54 -58 90 -130 135 -197v234h73c86 0 117 -56 117 -111v-123c45 67 81 139 135 197c24 26 43 37 101 37h133v-5z" />
    <glyph glyph-name="afii10073" unicode="&#x437;" horiz-adv-x="540" 
d="M496 174c0 -124 -95 -187 -246 -187c-135 0 -210 55 -210 135v55h5c36 -27 101 -48 179 -48c74 0 90 28 90 38c0 25 -9 42 -89 47c-45 3 -84 23 -84 72v51h85c63 0 85 21 85 41c0 15 -9 43 -85 43c-74 0 -142 -19 -179 -46h-5v57c0 82 93 131 221 131
c127 0 230 -60 230 -170c0 -52 -42 -101 -78 -114c40 -11 81 -60 81 -105z" />
    <glyph glyph-name="afii10074" unicode="&#x438;" horiz-adv-x="664" 
d="M612 28c-79 -28 -184 -44 -270 -44c-195 0 -284 102 -284 275v291h80c84 0 110 -28 110 -112v-193c0 -74 25 -107 89 -107c34 0 64 4 85 10v402h64c81 0 126 -32 126 -112v-410z" />
    <glyph glyph-name="afii10075" unicode="&#x439;" horiz-adv-x="664" 
d="M481 709c0 -84 -71 -145 -153 -145c-84 0 -153 61 -153 150v29c34 -39 83 -74 154 -74c70 0 128 41 152 76v-36zM612 28c-79 -28 -184 -44 -270 -44c-195 0 -284 102 -284 275v291h80c84 0 110 -28 110 -112v-193c0 -74 25 -107 89 -107c34 0 64 4 85 10v402h64
c81 0 126 -32 126 -112v-410z" />
    <glyph glyph-name="afii10076" unicode="&#x43a;" horiz-adv-x="630" 
d="M629 545c-34 -35 -155 -176 -205 -248c32 -48 65 -101 103 -145c41 -47 57 -52 99 -62c-7 -61 -48 -95 -116 -95c-28 0 -75 11 -98 38c-62 72 -110 150 -162 229v-262h-75c-70 0 -115 46 -115 112v438h73c86 0 117 -56 117 -111v-123c45 67 91 139 145 197
c24 26 43 37 101 37h133v-5z" />
    <glyph glyph-name="afii10077" unicode="&#x43b;" horiz-adv-x="585" 
d="M572 0h-99c-62 0 -101 44 -108 79c-17 88 -63 210 -88 257c-35 -65 -81 -213 -101 -336h-91c-48 0 -77 29 -77 75c0 40 13 80 26 118c36 105 124 284 190 357h51c63 0 93 -30 125 -80c74 -115 148 -309 172 -470z" />
    <glyph glyph-name="afii10078" unicode="&#x43c;" horiz-adv-x="825" 
d="M780 0h-78c-61 0 -110 33 -110 98c0 29 -8 150 -11 212c-29 -81 -69 -228 -109 -310h-45c-66 0 -110 48 -144 152c-12 35 -34 127 -46 162c-5 -82 -15 -237 -15 -314h-69c-55 0 -108 36 -108 98c0 146 30 330 60 452h67c148 0 162 -99 207 -203c11 -25 24 -87 34 -117
c23 61 47 150 73 209c21 46 49 89 77 111h35c90 0 135 -49 146 -129c14 -100 36 -263 36 -421z" />
    <glyph glyph-name="afii10079" unicode="&#x43d;" horiz-adv-x="666" 
d="M614 0h-73c-100 0 -117 47 -117 115v106h-174v-221h-64c-91 0 -126 38 -126 115v435h73c100 0 117 -47 117 -115v-84h174v199h64c91 0 126 -38 126 -115v-435z" />
    <glyph glyph-name="afii10080" unicode="&#x43e;" horiz-adv-x="664" 
d="M624 281c0 -180 -109 -296 -299 -296c-157 0 -285 116 -285 278c0 182 126 302 299 302c150 0 285 -114 285 -284zM436 264c0 99 -43 151 -109 151c-52 0 -99 -55 -99 -130c0 -106 42 -152 109 -152c60 0 99 55 99 131z" />
    <glyph glyph-name="afii10081" unicode="&#x43f;" horiz-adv-x="664" 
d="M612 0h-80c-84 0 -110 28 -110 112v193c0 74 -25 107 -89 107c-34 0 -64 -4 -85 -10v-402h-64c-81 0 -126 32 -126 112v410c79 28 184 44 270 44c195 0 284 -102 284 -275v-291z" />
    <glyph glyph-name="afii10082" unicode="&#x440;" horiz-adv-x="678" 
d="M638 287c0 -188 -110 -303 -260 -303c-74 0 -117 34 -141 75v-229h-69c-76 0 -116 40 -116 133v291c0 197 109 312 304 312c161 0 282 -109 282 -279zM448 267c0 118 -36 154 -114 154c-52 0 -94 -50 -94 -131c0 -117 50 -158 115 -158c60 0 93 53 93 135z" />
    <glyph glyph-name="afii10083" unicode="&#x441;" horiz-adv-x="527" 
d="M502 370h-5c-17 18 -69 38 -122 38c-93 0 -145 -47 -145 -124c0 -94 52 -138 136 -138c59 0 100 12 133 31h2v-57c0 -73 -75 -132 -175 -132c-167 0 -286 113 -286 285c0 157 109 292 303 292c87 0 159 -57 159 -128v-67z" />
    <glyph glyph-name="afii10084" unicode="&#x442;" horiz-adv-x="530" 
d="M525 483c0 -47 -50 -83 -93 -83h-75v-400h-52c-82 0 -132 38 -132 130v270h-168v67c0 47 50 83 93 83h427v-67z" />
    <glyph glyph-name="afii10085" unicode="&#x443;" horiz-adv-x="583" 
d="M568 480c0 -58 -52 -218 -113 -335c-154 -296 -193 -326 -308 -326c-61 0 -112 33 -112 95v46l82 6c50 4 73 24 93 69c-79 118 -180 368 -202 515h99c47 0 96 -29 107 -78c19 -87 57 -193 86 -260c41 83 84 231 96 338h91c55 0 81 -26 81 -70z" />
    <glyph glyph-name="afii10086" unicode="&#x444;" horiz-adv-x="914" 
d="M874 287c0 -172 -91 -294 -232 -294c-24 0 -69 11 -90 31v-194h-74c-76 0 -116 40 -116 133v61c-21 -20 -66 -31 -90 -31c-144 0 -232 122 -232 294c0 150 85 270 236 270c36 0 73 -11 86 -20v203h67c83 0 123 -38 123 -131v-72c13 9 50 20 86 20
c151 0 236 -120 236 -270zM687 287c0 93 -25 128 -97 128c-10 0 -28 -3 -41 -10v-263c10 -3 24 -6 33 -6c70 0 105 27 105 151zM365 142v263c-13 7 -31 10 -41 10c-72 0 -97 -35 -97 -128c0 -124 35 -151 105 -151c9 0 23 3 33 6z" />
    <glyph glyph-name="afii10087" unicode="&#x445;" horiz-adv-x="586" 
d="M579 86c0 -59 -43 -91 -109 -91c-79 0 -121 48 -162 106c-15 21 -29 43 -44 64c-51 -55 -76 -96 -84 -165h-77c-39 0 -75 27 -75 65c0 62 27 115 107 195l34 34c-40 54 -81 105 -116 162c-16 27 -26 51 -28 94h102c27 0 53 -10 81 -36c13 -12 33 -38 51 -63
c17 -24 33 -47 41 -58c69 75 91 116 95 157h65c49 0 76 -31 76 -69c0 -30 -17 -71 -57 -121c-22 -28 -52 -58 -83 -92l49 -69c60 -84 79 -98 134 -113z" />
    <glyph glyph-name="afii10088" unicode="&#x446;" horiz-adv-x="714" 
d="M709 -158h-58c-100 0 -114 47 -114 115v43h-205c-195 0 -274 103 -274 266v284h80c84 0 110 -28 110 -112v-186c0 -74 25 -107 89 -107h85v405h64c81 0 126 -32 126 -112v-293c75 0 97 -28 97 -100v-203z" />
    <glyph glyph-name="afii10089" unicode="&#x447;" horiz-adv-x="611" 
d="M556 0h-85c-61 0 -105 33 -105 98v93c-27 -8 -78 -14 -107 -14c-156 0 -219 76 -219 207v166h92c57 0 98 -40 98 -90v-71c0 -31 8 -57 68 -57c17 0 56 5 68 10v208h83c64 0 107 -50 107 -105v-445z" />
    <glyph glyph-name="afii10090" unicode="&#x448;" horiz-adv-x="963" 
d="M905 266c0 -163 -79 -266 -274 -266h-305c-195 0 -274 103 -274 266v284h77c84 0 110 -28 110 -112v-186c0 -74 25 -107 89 -107h57v405h61c81 0 126 -32 126 -112v-293h57c64 0 89 33 89 107v298h61c81 0 126 -32 126 -112v-172z" />
    <glyph glyph-name="afii10091" unicode="&#x449;" horiz-adv-x="1007" 
d="M1002 -158h-58c-100 0 -114 47 -114 115v43h-504c-195 0 -274 103 -274 266v284h77c84 0 110 -28 110 -112v-186c0 -74 25 -107 89 -107h57v405h61c81 0 126 -32 126 -112v-293h146v405h61c81 0 126 -32 126 -112v-293c75 0 97 -28 97 -100v-203z" />
    <glyph glyph-name="afii10092" unicode="&#x44a;" horiz-adv-x="665" 
d="M645 180c0 -120 -92 -193 -253 -193c-122 0 -245 23 -245 167v246h-142v67c0 47 50 83 93 83h146c50 0 94 -34 94 -84v-100c13 5 53 17 91 17c126 0 216 -79 216 -203zM463 189c0 34 -30 55 -73 55c-18 0 -44 -1 -57 -4v-109c17 -4 38 -7 60 -7c34 0 70 13 70 65z" />
    <glyph glyph-name="afii10093" unicode="&#x44b;" horiz-adv-x="857" 
d="M802 0h-64c-81 0 -126 32 -126 112v438h64c81 0 126 -32 126 -112v-438zM550 183c0 -120 -92 -196 -253 -196c-122 0 -245 23 -245 167v396h97c50 0 94 -35 94 -85v-96c14 6 53 17 91 17c132 0 216 -79 216 -203zM368 189c0 34 -30 58 -73 58c-18 0 -44 -1 -57 -4v-112
c17 -4 38 -7 60 -7c34 0 70 13 70 65z" />
    <glyph glyph-name="afii10094" unicode="&#x44c;" horiz-adv-x="570" 
d="M550 183c0 -120 -92 -196 -253 -196c-122 0 -245 23 -245 167v396h97c50 0 94 -35 94 -85v-96c14 6 53 17 91 17c132 0 216 -79 216 -203zM368 189c0 34 -30 58 -73 58c-18 0 -44 -1 -57 -4v-112c17 -4 38 -7 60 -7c34 0 70 13 70 65z" />
    <glyph glyph-name="afii10095" unicode="&#x44d;" horiz-adv-x="527" 
d="M487 273c0 -172 -119 -285 -286 -285c-100 0 -175 61 -175 127v52h5c33 -19 71 -31 130 -31c69 0 111 26 131 74h-106c-48 0 -88 32 -88 79v50h197c-18 48 -63 79 -143 79c-53 0 -105 -20 -122 -38h-5v62c0 65 72 123 159 123c194 0 303 -135 303 -292z" />
    <glyph glyph-name="afii10096" unicode="&#x44e;" horiz-adv-x="907" 
d="M867 281c0 -180 -100 -296 -290 -296c-143 0 -260 96 -279 236h-51v-221h-61c-91 0 -126 38 -126 115v435h70c100 0 117 -47 117 -115v-84h58c33 132 140 214 283 214c150 0 279 -114 279 -284zM682 264c0 99 -40 151 -106 151c-52 0 -96 -55 -96 -130
c0 -106 42 -152 109 -152c60 0 93 55 93 131z" />
    <glyph glyph-name="afii10097" unicode="&#x44f;" horiz-adv-x="616" 
d="M559 0h-80c-84 0 -110 28 -110 112v71c-27 0 -73 -7 -92 -45c-35 -73 -52 -142 -156 -142c-33 0 -87 4 -120 21v5c22 19 63 72 81 115c15 36 42 84 74 99c-40 11 -100 66 -100 146c0 144 145 182 259 182c74 0 174 -12 244 -35v-529zM369 313v110c-10 1 -50 4 -60 4
c-36 0 -73 -16 -73 -59c0 -32 23 -59 73 -59c17 0 44 2 60 4z" />
    <glyph glyph-name="afii10056" unicode="&#x407;" horiz-adv-x="330" 
d="M260 0h-102c-43 0 -88 37 -88 107v583h106c37 0 84 -33 84 -89v-601zM125 829c0 -48 -40 -89 -88 -89s-87 41 -87 89s39 84 87 84s88 -36 88 -84zM368 829c0 -48 -40 -89 -88 -89s-87 41 -87 89s39 84 87 84s88 -36 88 -84z" />
    <glyph glyph-name="afii10055" unicode="&#x406;" horiz-adv-x="330" 
d="M260 0h-102c-43 0 -88 37 -88 107v583h106c37 0 84 -33 84 -89v-601z" />
    <glyph glyph-name="afii10103" unicode="&#x456;" horiz-adv-x="366" 
d="M256 675c0 -52 -44 -94 -99 -94s-100 42 -100 94s45 94 100 94s99 -42 99 -94zM356 80c0 -66 -50 -88 -109 -88c-101 0 -180 50 -180 180v361h47c108 0 143 -31 143 -131v-202c0 -49 23 -64 76 -64h23v-56z" />
    <glyph glyph-name="afii10105" unicode="&#x458;" horiz-adv-x="325" 
d="M268 675c0 -52 -45 -94 -100 -94s-100 42 -100 94s45 94 100 94s100 -42 100 -94zM265 53c0 -144 -75 -241 -228 -241c-54 0 -97 29 -97 75v56l21 1c78 4 117 25 117 117v472h56c95 0 131 -54 131 -127v-353z" />
    <glyph glyph-name="afii10054" unicode="&#x405;" horiz-adv-x="616" 
d="M578 219c0 -143 -105 -235 -289 -235c-152 0 -234 58 -234 157v68h5c43 -44 133 -70 212 -70c88 0 116 21 116 67c0 42 -38 56 -143 77c-150 30 -208 85 -208 190c0 123 112 233 287 233c170 0 235 -77 235 -148v-73h-5c-46 46 -129 66 -201 66c-94 0 -126 -25 -126 -64
c0 -31 13 -48 141 -74c142 -29 210 -87 210 -194z" />
    <glyph glyph-name="afii10102" unicode="&#x455;" horiz-adv-x="540" 
d="M500 177c0 -118 -92 -193 -243 -193c-150 0 -204 55 -204 135v55h5c36 -27 91 -48 169 -48c69 0 91 16 91 43c0 25 -13 35 -127 51c-99 14 -151 59 -151 147c0 132 125 199 251 199c122 0 196 -49 196 -131v-57h-5c-37 27 -95 46 -169 46c-71 0 -94 -19 -94 -42
c0 -21 12 -28 127 -47c92 -15 154 -65 154 -158z" />
    <glyph glyph-name="afii10104" unicode="&#x457;" horiz-adv-x="366" 
d="M354 80c0 -66 -50 -88 -109 -88c-101 0 -180 50 -180 180v361h47c108 0 143 -31 143 -131v-202c0 -49 23 -64 76 -64h23v-56zM124 714c0 -48 -40 -89 -88 -89s-87 41 -87 89s39 84 87 84s88 -36 88 -84zM367 714c0 -48 -40 -89 -88 -89s-87 41 -87 89s39 84 87 84
s88 -36 88 -84z" />
    <glyph glyph-name="afii10071" unicode="&#x451;" 
d="M579 346c0 -110 -83 -139 -269 -139h-82c11 -55 56 -81 135 -81c88 0 143 14 174 35h7v-44c0 -70 -57 -133 -214 -133c-190 0 -290 128 -290 280c0 167 113 303 283 303c144 0 256 -81 256 -221zM403 367c0 28 -25 58 -80 58c-67 0 -95 -43 -100 -96h74
c90 0 106 14 106 38zM274 713c0 -48 -40 -89 -88 -89s-87 41 -87 89s39 84 87 84s88 -36 88 -84zM517 713c0 -48 -40 -89 -88 -89s-87 41 -87 89s39 84 87 84s88 -36 88 -84z" />
    <glyph glyph-name="afii10023" unicode="&#x401;" horiz-adv-x="606" 
d="M575 92c0 -63 -39 -101 -161 -101h-78c-181 0 -281 92 -281 283v116c0 63 4 133 12 186c13 88 66 114 133 114h376v-45c0 -66 -35 -110 -115 -110h-210c-4 -34 -7 -84 -7 -117h267v-69c0 -50 -37 -78 -104 -78h-163v-25c0 -74 24 -100 120 -100h50c57 0 105 5 161 19v-73
zM288 829c0 -48 -40 -89 -88 -89s-87 41 -87 89s39 84 87 84s88 -36 88 -84zM531 829c0 -48 -40 -89 -88 -89s-87 41 -87 89s39 84 87 84s88 -36 88 -84z" />
    <glyph glyph-name="afii10101" unicode="&#x454;" horiz-adv-x="517" 
d="M25 273c0 157 109 292 303 292c87 0 159 -58 159 -123v-62h-5c-17 18 -69 38 -122 38c-80 0 -125 -31 -143 -79h197v-50c0 -47 -40 -79 -88 -79h-106c20 -48 62 -74 131 -74c59 0 97 12 130 31h5v-52c0 -66 -75 -127 -175 -127c-167 0 -286 113 -286 285z" />
    <glyph glyph-name="afii10053" unicode="&#x404;" horiz-adv-x="651" 
d="M25 338c0 201 141 368 371 368c135 0 215 -67 215 -164v-61h-5c-35 45 -121 71 -197 71c-107 0 -174 -54 -196 -134h264v-69c0 -50 -37 -78 -104 -78h-157c27 -87 96 -133 197 -133c74 0 156 28 190 64h5v-61c0 -89 -89 -157 -224 -157c-189 0 -359 136 -359 354z" />
    <glyph glyph-name="afii10110" unicode="&#x45e;" horiz-adv-x="583" 
d="M568 480c0 -58 -52 -218 -113 -335c-154 -296 -193 -326 -308 -326c-61 0 -112 33 -112 95v46l82 6c50 4 73 24 93 69c-79 118 -180 368 -202 515h99c47 0 96 -29 107 -78c19 -87 57 -193 86 -260c41 83 84 231 96 338h91c55 0 81 -26 81 -70zM446 709
c0 -84 -71 -145 -153 -145c-84 0 -153 61 -153 150v29c34 -39 83 -74 154 -74c70 0 128 41 152 76v-36z" />
    <glyph glyph-name="afii10057" unicode="&#x408;" horiz-adv-x="449" 
d="M379 217c0 -141 -72 -227 -224 -227c-94 0 -150 44 -150 105v80h6c23 -19 51 -31 105 -31c53 0 73 31 73 75v471h67c70 0 123 -40 123 -109v-364z" />
    <glyph glyph-name="afii10062" unicode="&#x40e;" horiz-adv-x="667" 
d="M655 629c0 -77 -86 -251 -142 -344c-176 -288 -201 -292 -308 -292c-64 0 -114 25 -114 95v46l83 6c41 3 63 19 85 49c-89 122 -213 359 -247 501h99c57 0 103 -29 118 -78c26 -85 88 -202 123 -270c55 102 107 221 132 348h96c51 0 75 -23 75 -61zM499 837
c0 -84 -71 -145 -153 -145c-84 0 -153 61 -153 150v29c34 -39 83 -74 154 -74c70 0 128 41 152 76v-36z" />
    <glyph glyph-name="afii10109" unicode="&#x45c;" horiz-adv-x="630" 
d="M629 545c-34 -35 -155 -176 -205 -248c32 -48 65 -101 103 -145c41 -47 57 -52 99 -62c-7 -61 -48 -95 -116 -95c-28 0 -75 11 -98 38c-62 72 -110 150 -162 229v-262h-75c-70 0 -115 46 -115 112v438h73c86 0 117 -56 117 -111v-123c45 67 91 139 145 197
c24 26 43 37 101 37h133v-5zM186 635c17 41 46 80 76 111c32 33 72 54 117 54c41 0 64 -26 64 -59c0 -41 -30 -76 -61 -89c-36 -15 -88 -22 -150 -22h-46v5z" />
    <glyph glyph-name="afii10061" unicode="&#x40c;" horiz-adv-x="717" 
d="M714 685c-87 -83 -203 -221 -273 -314c47 -66 93 -136 149 -195c40 -42 61 -66 118 -79c-21 -79 -52 -104 -115 -104c-38 0 -91 19 -120 51c-82 90 -140 174 -213 284v-328h-76c-82 0 -114 56 -114 109v581h67c82 0 123 -54 123 -108v-183c62 87 119 168 194 245
c39 40 64 46 121 46h139v-5zM230 775c17 41 46 80 76 111c32 33 72 54 117 54c41 0 64 -26 64 -59c0 -41 -30 -76 -61 -89c-36 -15 -88 -22 -150 -22h-46v5z" />
    <glyph glyph-name="afii10052" unicode="&#x403;" horiz-adv-x="524" 
d="M519 617c0 -40 -33 -89 -100 -89h-165v-528h-92c-60 0 -101 30 -101 94v471c0 85 47 125 139 125h319v-73zM133 775c17 41 46 80 76 111c32 33 72 54 117 54c41 0 64 -26 64 -59c0 -41 -30 -76 -61 -89c-36 -15 -88 -22 -150 -22h-46v5z" />
    <glyph glyph-name="afii10100" unicode="&#x453;" horiz-adv-x="540" 
d="M502 119c0 -80 -69 -135 -219 -135c-137 0 -233 64 -233 163c0 80 51 148 144 168c92 20 117 46 117 67c0 23 -23 42 -94 42c-74 0 -122 -19 -159 -46h-5v57c0 82 98 131 196 131c126 0 238 -55 238 -169c0 -88 -43 -139 -138 -157c-97 -18 -117 -46 -117 -71
c0 -27 27 -43 96 -43c78 0 133 21 169 48h5v-55zM141 635c17 41 46 80 76 111c32 33 72 54 117 54c41 0 64 -26 64 -59c0 -41 -30 -76 -61 -89c-36 -15 -88 -22 -150 -22h-46v5z" />
    <glyph glyph-name="afii61352" unicode="&#x2116;" horiz-adv-x="1046" 
d="M583 0h-62c-77 0 -135 51 -190 178l-89 204c-9 22 -19 52 -23 65v-447h-69c-45 0 -90 37 -90 102v588h66c94 0 164 -59 195 -139l73 -190c8 -22 24 -62 34 -97v426h75c39 0 80 -33 80 -84v-606zM828 236c-110 0 -171 88 -171 183c0 106 62 195 179 195
c110 0 170 -88 170 -182c0 -106 -61 -196 -178 -196zM828 505c-32 0 -52 -23 -52 -73c0 -62 21 -86 60 -86c32 0 51 23 51 73c0 62 -20 86 -59 86zM1005 126v-54c0 -38 -29 -72 -70 -72h-277v51c0 49 25 75 80 75h267z" />
    </font>
</defs>
</svg>
