<?xml version="1.0" standalone="no"?>
<!DOCTYPE svg PUBLIC "-//W3C//DTD SVG 1.1//EN" "http://www.w3.org/Graphics/SVG/1.1/DTD/svg11.dtd" >
<svg>
<metadata>
Created by FontForge 20120731 at Thu Sep 19 10:54:09 2019
 By www-data
Created by Robert Wimmer,U-GTOFFICE\rwimm,S-1-5-21-832376421- with FontForge 2.0 (http://fontforge.sf.net)
</metadata>
<defs>
<font id="Georgia-BoldItalic" horiz-adv-x="1403" >
  <font-face 
    font-family="Georgia"
    font-weight="700"
    font-style="italic"
    font-stretch="normal"
    units-per-em="2048"
    panose-1="2 0 8 3 0 0 0 0 0 0"
    ascent="1639"
    descent="-409"
    x-height="986"
    cap-height="1419"
    bbox="-462.005 -444.012 2754 2135"
    underline-thickness="102"
    underline-position="-205"
    stemh="73"
    stemv="392"
    unicode-range="U+0020-2122"
  />
<missing-glyph horiz-adv-x="1024" 
d="M102 0v1092h820v-1092h-820zM204 102h616v888h-616v-888z" />
    <glyph glyph-name=".notdef" horiz-adv-x="1024" 
d="M102 0v1092h820v-1092h-820zM204 102h616v888h-616v-888z" />
    <glyph glyph-name="space" unicode=" " horiz-adv-x="520" 
 />
    <glyph glyph-name="exclam" unicode="!" horiz-adv-x="771" 
d="M650 1004l-51.999 -114.002l-20 -45c-50.667 -114.667 -103.334 -242.334 -158.001 -383.001h-77c8 170 12 307.333 12 412c-0.677734 31.333 -1.01074 107 -1 227c0.00585938 42.0029 0.672852 73.6699 2.00098 95c1.33496 21.3359 4.66797 44.0029 10 68.001
c13.334 56.667 41.667 101.334 85 134.001c43.334 32.667 93.334 49 150 49c29.333 0 56 -6.16699 80 -18.5s43 -29.5 57 -51.5c13.333 -22.6689 20 -47.002 20 -72.999c-0.00585938 -24.0029 -4.67285 -51.3359 -14 -82c-9.33496 -30.6689 -25.002 -69.3359 -47.001 -116z
M483.001 63.498c-17.333 -28.333 -40.999 -50.835 -70.999 -67.502c-28.667 -16.667 -60.334 -25 -95.001 -25c-53.333 0 -98.333 18.333 -135 55c-38.667 36 -58 79.333 -58 130c0 34 8.66699 65.333 26 94s41 51.334 71 68.001c28.667 16.667 60.667 25 96 25
c33.333 0 64.833 -8.5 94.5 -25.5s53.5 -39.833 71.5 -68.5c17.334 -29.333 26.001 -60.333 26 -93c0 -33.333 -8.66699 -64.166 -26 -92.499z" />
    <glyph glyph-name="quotedbl" unicode="&#x22;" horiz-adv-x="1044" 
d="M496 1043c-32 -60.667 -66.666 -134 -103.999 -220h-67c0 94 -1.66699 193.667 -5 299s-5 169.333 -5 192c0 38.667 8.5 74.5 25.5 107.5c17 33.0029 40.833 59.1699 71.5 78.5c30.667 19.3447 64.667 29.0117 102 29c42.667 0 77.667 -11.667 105 -35
c25.333 -24 38 -53 38 -87c-0.0078125 -18 -4.6748 -40 -14.001 -66c-12 -30.668 -30.333 -71.335 -55 -122zM969.001 1043c-32.001 -60.667 -66.667 -134 -103.999 -220h-67c-0.0126953 94 -1.67969 193.667 -5.00098 299c-3.3457 105.333 -5.0127 169.333 -5.00098 192
c0 38.667 8.5 74.5 25.5 107.5c17.001 33.0029 40.834 59.1699 71.5 78.5c30.667 19.3447 64.667 29.0117 102 29c42.667 0 77.667 -11.667 105 -35c25.3379 -24 38.0049 -53 38.001 -87c0 -20.667 -5 -44.667 -15 -72c-9.33301 -24.668 -27.333 -63.335 -54 -116z" />
    <glyph glyph-name="numbersign" unicode="#" horiz-adv-x="1440" 
d="M1335 908v-160h-269l-100 -257h273v-160h-335l-130 -331h-149l130 331h-230l-130 -331h-149l130 331h-207v160h269l101 257h-274v160h336l134 341h149l-134 -341h230l134 341h149l-134 -341h206zM818 489l102 261h-233l-101 -261h232z" />
    <glyph glyph-name="dollar" unicode="$" horiz-adv-x="1312" 
d="M612 521c-80.667 9.33301 -150.831 28.665 -210.498 57.998s-105.5 67.333 -137.5 114c-32.667 45.333 -49 98 -49 158c0 54 10.833 104.5 32.5 151.5c21.667 47.001 56.167 93.168 103.5 138.5c47.333 45.335 109 82.668 185 112c76 29.3379 159 47.0049 249 53l49 218
h99l-49 -218c128.001 -6 226.668 -33 296.001 -81c68 -49.333 102 -114.333 102 -195c0 -48 -14.167 -87.333 -42.5 -118s-65.5 -46 -111.5 -46c-49.333 0 -88.666 14.167 -117.999 42.5c-29.335 28.333 -44.002 65.5 -44 111.5c0.00390625 35.3359 5.33691 66.6689 16 94
c5.33301 14.667 13.666 39 24.999 73c-40 21.333 -87 33.333 -141 36l-92 -417c137.333 -22.001 241.333 -62.168 312 -120.5c70.667 -58.334 106 -134.167 106 -227.5c-0.00683594 -70 -15.8398 -134 -47.5 -192c-31.667 -58 -76.167 -107.333 -133.5 -148
c-54.667 -39.333 -118.334 -70.666 -191.001 -93.999s-148.334 -37.333 -227.001 -42l-62 -281h-99l62 281c-86.667 1.33301 -163.834 16.166 -231.501 44.499s-120.167 66.5 -157.5 114.5c-36.667 46.667 -55 97.667 -55 153c0 50.667 14.167 91.334 42.5 122.001
s67.5 46 117.5 46c52 0 93.333 -14.5 124 -43.5s46 -67.5 46 -115.5c-0.00195312 -28.667 -2.83496 -54.167 -8.5 -76.5c-5.66699 -22.333 -17.5 -56.166 -35.5 -101.499c62 -40 120.667 -60 176 -60zM767.003 1223c-94.667 -8.00195 -167.5 -31.8359 -218.5 -71.5
c-51 -39.668 -76.5 -90.501 -76.5 -152.5c0 -52 17.333 -93.5 52 -124.5s85.667 -50.5 153 -58.5zM877.003 449.498c-39.333 34.333 -95.332 54.833 -167.999 61.5l-98 -446c105.333 10 185.833 36.167 241.5 78.5c55.668 42.333 83.501 98.5 83.5 168.5
c-0.00292969 57.334 -19.6699 103.167 -59.001 137.5z" />
    <glyph glyph-name="percent" unicode="%" horiz-adv-x="1801" 
d="M924 928c-40.667 -66.667 -96 -119.335 -166 -158.002c-70.667 -38.667 -147.667 -58 -231 -58c-66 0 -124.667 13.167 -176 39.5s-91.333 63.5 -120 111.5c-28.667 46.667 -43 101.334 -43 164c0 78.667 20.667 151.334 62 218.001s97.333 119.334 168 158.001
c70 38 146 57 228 57c66.001 0 124.834 -13 176.5 -39c51.668 -26 91.835 -63 120.5 -111c28 -48 42 -103 42 -165c0 -78 -20.333 -150.333 -61 -217zM1587 1428h158l-1453 -1428h-155zM706.5 1347c-15.667 28 -40.167 42 -73.5 42
c-36.001 -0.0078125 -68.668 -19.3408 -98 -58c-29.333 -38.668 -52 -92.001 -68 -160c-16 -66.668 -24 -141.335 -24 -224.001c0 -54.667 8 -95.667 24 -123c16 -27.335 41 -41.002 75 -41c35.333 0 67.333 19 96 57s51.334 90.667 68 158c16 66.001 24 139.668 24 221
c0 57.335 -7.83301 100.002 -23.5 128.001zM1631 180.999c-40.668 -66.667 -96.002 -119.335 -166.001 -158.002c-70.667 -38.667 -147.667 -58 -231 -58c-66 0 -124.667 13.167 -176 39.5s-91.333 63.5 -120 111.5c-28.667 46.667 -43 101.334 -43 164.001
c0 78.667 20.667 151.334 62 218.001s97.333 119.334 168 158c70 38 146 57 228 57c66 0 124.833 -13 176.5 -39s91.834 -63 120.501 -111c28 -48 42 -103 42 -165c-0.00683594 -78 -20.3398 -150.333 -61 -217zM1413.5 599.998c-15.667 28 -40.1689 42.001 -73.502 42.001
c-36 0 -68.667 -19.333 -98 -58s-52 -92 -68 -160c-16 -66.667 -24 -141.334 -24 -224.001c0 -54.667 8 -95.667 24 -123s41 -41 75 -41c35.333 0 67.333 19 96 57s51.334 90.667 68.001 158c16 66 24 139.667 24 221c-0.0107422 57.333 -7.84375 100 -23.499 128z" />
    <glyph glyph-name="ampersand" unicode="&#x26;" horiz-adv-x="1637" 
d="M898 67c-22.0029 32.667 -38.665 59.666 -49.9961 80.999c-62 -47.333 -117.833 -84.333 -167.5 -111s-97.834 -45.334 -144.501 -56.001c-44.667 -10.667 -94.667 -16 -150 -16c-74 0 -139.167 12.667 -195.5 38s-99.833 61.333 -130.5 108
c-30.667 45.333 -46 99 -46 161c0 58 10.167 111.167 30.5 159.5s51.166 93.5 92.499 135.5c36.667 36.667 84.334 72.167 143.001 106.5s125 65.833 199 94.5c-34 60.667 -58.5 112.334 -73.5 155c-15 42.668 -22.5 84.001 -22.5 124c0 76 21.167 145.333 63.5 208
s100.5 112.334 174.5 149.001c74 35.3389 153.333 53.0059 237.999 53c62.667 0 118.167 -9.16699 166.5 -27.5c48.3359 -18.333 85.5029 -44.833 111.5 -79.5c26 -35.333 39 -76.666 39 -123.999c-0.00195312 -77.333 -27.835 -147.833 -83.499 -211.5
c-55.667 -63.667 -144.5 -126.5 -266.5 -188.5c49.333 -87.333 92.333 -160.333 129 -219l113 -179c36.667 38.667 71 80.334 103 125.001c32.002 44.667 57.6689 86 77 123.999c18.667 35.333 28 61 28 77c0 17.333 -14 31.333 -42 42
c-29.333 12 -67.666 22.667 -114.999 32l16 71h559l-16 -71c-44.6699 -4 -79.8369 -8.83301 -105.501 -14.5c-25.6729 -5.66699 -47.8398 -13.167 -66.501 -22.5c-20.6699 -11.335 -40.8369 -25.168 -60.501 -41.5c-19.667 -16.334 -41.167 -39.167 -64.5 -68.5l-163 -203
c-38.668 -46.667 -74.335 -86.334 -107.001 -119.001c50.667 -78 89 -131 115 -159c30.002 -34 57.1689 -58.167 81.5 -72.5c24.3369 -14.333 58.5039 -25.5 102.5 -33.5c47.333 -9.33301 92.333 -15.666 135 -18.999l-17 -75h-586zM979.005 1323
c-25.334 25.3389 -58.001 38.0049 -98 38c-32.667 0 -63.167 -8 -91.5 -24s-50.833 -38 -67.5 -66c-17.3369 -29.333 -26.0039 -62.666 -26 -99.999c0 -34.6709 7 -71.8379 21 -111.5c14 -39.667 39 -95.167 75 -166.5c70 41.333 124.667 91.166 164 149.499
s59 116.833 59 175.5c0 44 -12 79 -36 105zM653.005 467.998c-74 122.667 -120.999 201.002 -140.999 235.001c-54 -43.333 -94.667 -91.833 -122 -145.5s-41 -110.834 -41 -171.501c0.000976562 -48 10.168 -90.5 30.5 -127.5c20.333 -37 49.166 -65.833 86.499 -86.5
c36.667 -20.667 79.667 -31 129 -31c42 0 77.667 5 107 15s65 29 107 57z" />
    <glyph glyph-name="quotesingle" unicode="'" horiz-adv-x="551" 
d="M486 1043c-32 -60.667 -66.667 -134 -104 -220h-67c0 94 -1.66699 193.667 -5 299s-5 169.333 -5 192c0 38.667 8.5 74.5 25.5 107.5c17 33.0029 40.833 59.1699 71.5 78.5c30.667 19.3447 64.667 29.0117 102 29c42.667 0 77.667 -11.667 105 -35
c25.333 -24 38 -53 38 -87c0 -20.667 -5 -44.667 -15 -72c-9.33301 -24.668 -27.333 -63.335 -54 -116z" />
    <glyph glyph-name="parenleft" unicode="(" horiz-adv-x="915" 
d="M667 -328c-78 10.667 -151.499 32.3311 -220.499 64.998s-128.833 75.334 -179.5 128.001c-116.667 120.667 -175 281 -175 481c0 162.667 28.167 317 84.5 463s136.166 273 239.499 381c88.667 92.667 191.167 169.167 307.5 229.5s230.833 97.833 343.5 112.5l-20 -90
c-84.667 -15.333 -166.667 -59.5 -246 -132.5c-79.334 -73 -148.667 -168.167 -208 -285.5c-56.667 -112 -100.5 -237 -131.5 -375s-46.5 -276 -46.5 -414c0 -136.667 22.833 -245.667 68.5 -327s113.5 -130.666 203.5 -147.999z" />
    <glyph glyph-name="parenright" unicode=")" horiz-adv-x="915" 
d="M275 1532c78 -10.6729 151.503 -32.3389 220.503 -65c69 -32.6689 128.833 -75.3359 179.499 -128c56.667 -59.333 100 -129.333 130 -210s45 -171 45 -271c0 -165.333 -27.833 -320.166 -83.5 -464.499s-135.834 -270.833 -240.501 -379.5
c-88.667 -92.667 -191.334 -169.167 -308.001 -229.5s-231 -97.833 -343 -112.5l20 90c84 14.667 165.833 58.667 245.5 132s149.167 168.666 208.5 285.999c56.667 112.667 100.5 238 131.5 376s46.5 275.667 46.5 413c0 137.334 -22.667 246.501 -68 327.5
c-45.333 81.001 -113.333 130.168 -204 147.5z" />
    <glyph glyph-name="asterisk" unicode="*" horiz-adv-x="987" 
d="M1013.5 1018.5c-15.667 -14.3369 -37.832 -21.5 -66.499 -21.4961c-20 0.00390625 -54.333 7.33691 -103 22c-53.334 15.333 -109.001 26.333 -167.001 33c38.667 -50.667 81.334 -98.334 128 -143.001c46.667 -44.667 70 -82.667 69.999 -114
c0 -21.333 -9.33301 -40.333 -28 -57s-39.334 -25 -62.001 -25c-19.333 0 -35.333 5 -48 15s-23.167 25.167 -31.5 45.5c-8.33594 20.333 -17.5029 49.5 -27.5 87.5c-12.667 52 -30.667 105.333 -54 159.999c-22.667 -52.001 -40.667 -105.668 -54 -161.001
c-14.667 -54.667 -25.667 -87.667 -33 -99c-12 -18.667 -23 -31.334 -33 -38.001s-23.667 -10 -41 -10c-23.333 0 -44.166 8.16699 -62.499 24.5s-27.5 35.5 -27.5 57.5c0 31.333 23.333 69.333 70 114s89.334 92.334 128.001 143c-62.667 -7.33301 -117.667 -18 -165 -32
c-57.333 -15.3369 -92.333 -23.0039 -105 -23c-28 0.00390625 -50 7.33691 -66 22c-16 14.667 -24 36 -24 64c0 26 8.33301 46.833 24.999 62.5c16.667 15.667 38.334 23.5 65.001 23.5c17.333 0 50.666 -6.66699 99.999 -20c44.667 -14 101.334 -25 170.001 -33
c-44.667 56 -88.667 105.333 -132 148c-44 42 -66 78.333 -66 109c0 21.333 9.33301 40.333 28 57s39.334 25 62.001 25c20 0 36.167 -5 48.5 -15s22.833 -25.167 31.5 -45.5c8.66895 -20.333 18.002 -49.5 28 -87.5c10.668 -46.668 28.335 -100.001 53.001 -160
c22 55.333 40 109.333 54 162c14 53.333 25 86.333 33 99c8 14.667 18.5 26.167 31.5 34.5c13 8.35547 27.167 12.5225 42.5 12.5c23.333 0 44.166 -8.16699 62.499 -24.5s27.5 -35.5 27.5 -57.5c-0.00292969 -30 -20.6699 -65.667 -62.001 -107
c-42 -41.333 -87 -91.333 -135 -150c66.667 8.66699 124 19.667 172 33c50.001 13.3418 82.334 20.0088 97 20c28 0 50 -7.5 66 -22.5s24 -36.167 24 -63.5c-0.0078125 -28.667 -7.84082 -50.167 -23.5 -64.5z" />
    <glyph glyph-name="plus" unicode="+" horiz-adv-x="1440" 
d="M1275 656v-163h-473v-473h-165v473h-473v163h473v473h165v-473h473z" />
    <glyph glyph-name="comma" unicode="," horiz-adv-x="672" 
d="M454 -68.5c-38 -67 -90.666 -128.834 -157.999 -185.501c-68 -56.667 -141.667 -101.667 -221 -135l-32 71c51.333 24.667 90.166 45.5 116.499 62.5s52.166 38.167 77.499 63.5c57.333 53.333 96.333 117.333 117 192h-59c-60 0 -105.167 12 -135.5 36
s-45.5 58.333 -45.5 103c0 34.667 9.5 67.5 28.5 98.5s44.5 55.833 76.5 74.5c31.333 18.667 65.333 28 102 28c62 0 109.167 -18.333 141.5 -54.999c32.334 -36.667 48.501 -87.667 48.501 -153c0 -66.667 -19 -133.5 -57 -200.5z" />
    <glyph glyph-name="hyphen" unicode="-" horiz-adv-x="776" 
d="M721 654l-50 -219h-606l50 219h606z" />
    <glyph glyph-name="period" unicode="." horiz-adv-x="672" 
d="M477.5 69c-17.667 -30 -41.502 -53.666 -71.502 -70.999c-30.667 -18 -63.667 -27 -99 -27s-68.166 8.83301 -98.499 26.5s-54.5 41.5 -72.5 71.5c-18 28.667 -27 61 -27 97c0 35.333 9 68 27 98s42.333 54 73 72c30 18 62.667 27 98 27
c35.334 -0.000976562 68.001 -8.83398 98.001 -26.5c30 -17.667 54 -41.834 72 -72.501c18 -30 27 -62.667 27 -98c-0.000976562 -34.667 -8.83398 -67 -26.5 -97z" />
    <glyph glyph-name="slash" unicode="/" horiz-adv-x="966" 
d="M883 1523h185l-1034 -1947h-183z" />
    <glyph glyph-name="zero" unicode="0" horiz-adv-x="1436" 
d="M1380 666c0 -98 -19.668 -190.169 -59.001 -276.502s-94.666 -161.833 -165.999 -226.5c-72.668 -64 -154.168 -112.833 -244.5 -146.5c-90.334 -33.667 -187.167 -50.5 -290.5 -50.5c-82.667 0 -156.667 11.167 -222 33.5s-121 54.5 -167 96.5
c-42.667 38.667 -75 84.5 -97 137.5s-33 110.5 -33 172.5c0 92.667 17 180 51 262s84.667 156.667 152 224c68 68 150.167 121.167 246.5 159.5c96.333 38.3379 199.833 57.5049 310.5 57.501c84.667 -0.00390625 160.5 -11.8369 227.5 -35.499
c67 -23.6689 122.833 -57.1689 167.5 -100.5c82.667 -78.667 124 -181 124 -307zM992.499 519.498c17.6709 83.667 26.5039 170.166 26.5 259.499c-0.00195312 74.001 -13.6689 132.334 -41 175c-16 24 -34.833 42 -56.5 54s-47.5 18 -77.5 18
c-68 0 -126.5 -25.833 -175.5 -77.5s-87.833 -113.167 -116.5 -184.5c-28.667 -71.334 -50 -142.001 -64 -212.001c-17.333 -85.333 -26 -169.333 -26 -252c0 -41.333 3 -75.666 9 -102.999s16.333 -52.666 31 -75.999c14 -23.333 32.667 -41.333 56 -54s50 -19 80 -19
c53.333 0 104.5 21 153.5 63s90.5 100.333 124.5 175c33.333 72 58.833 149.833 76.5 233.5z" />
    <glyph glyph-name="one" unicode="1" horiz-adv-x="1003" 
d="M13 72l71.0029 7l27 3c44 4.66699 75.5 10.167 94.5 16.5s36.5 17.5 52.5 33.5c16 17.333 27 39.333 33 66l149 642h-253l21 91h28c54 0.00390625 105.5 5.83691 154.5 17.5c49 11.6689 92.5 27.502 130.5 47.499c30.001 15.3359 58.834 33.1689 86.5 53.499
c27.667 20.3379 49.834 39.5049 66.5 57.501h176l-42 -154c-14.667 -54 -27.334 -105.333 -38.001 -154l-133 -572c-5.33789 -22.667 -8.00488 -40.667 -8 -54c0.000976562 -30.667 13.334 -53 39.999 -67c12.667 -7.33301 38.167 -14.666 76.5 -21.999
s69.166 -11.333 92.499 -12l-16 -72h-825z" />
    <glyph glyph-name="two" unicode="2" horiz-adv-x="1283" 
d="M512.5 1084c66.333 16.667 137.173 25 212.506 25c152.667 0 274 -26 364 -78c89.334 -53.333 134.001 -131.333 134 -234c-0.00683594 -63.334 -14.3398 -117.501 -43 -162.501c-28.668 -45 -72.001 -82.5 -130 -112.5c-48.667 -26 -109.834 -49.833 -183.501 -71.499
c-73.667 -21.667 -165.834 -43.834 -276.501 -66.5c-111.333 -23.333 -212.333 -56 -303 -98l-4 -16h847l-62 -270h-1084l45 200c47.333 36.667 107.666 75.834 180.999 117.501s154.333 81.5 243 119.5c87.333 38.667 154.333 71.167 201 97.5s83 52.5 108.999 78.5
c29.333 29.333 50.666 61.666 63.999 96.999s20 75 20 119c0 60 -16 106 -48 138s-76.333 48 -133 48c-32 0 -59 -2.5 -81 -7.5c-22.001 -5 -48.668 -13.833 -80.001 -26.5l12 -35c13.333 -39.333 22 -67.333 26 -84s6 -38 6 -64c0 -31.334 -7.33301 -59.501 -22 -84.5
c-14.667 -25 -35.667 -44.5 -63 -58.5c-26.667 -14 -57.334 -21 -92 -21c-32 0 -60.667 7.5 -86 22.5s-44.666 35.5 -57.999 61.5c-13.334 25.333 -20.001 53.333 -20.001 84c0 38.667 11.833 76.167 35.5 112.5s58.167 69.5 103.5 99.5c44 30 99.167 53.333 165.5 70z" />
    <glyph glyph-name="three" unicode="3" horiz-adv-x="1279" 
d="M1000 1080c112.002 -38 181.674 -94.0029 209.006 -168.003c12.667 -32.001 19 -64.668 19 -98c-0.00976562 -36.667 -8.34277 -74.334 -25 -113.001c-16.6689 -38.667 -41.002 -74.667 -73 -108c-36.668 -37.334 -83.835 -70.167 -141.501 -98.5
c-57.667 -28.333 -123.834 -50.166 -198.501 -65.499l-4 -16c41.333 -0.666992 83 -7 125 -18.999c42 -12 78 -28 108 -48c35.3359 -23.333 62.6689 -53.5 82 -90.5c19.3418 -37 29.0088 -79.5 29 -127.5c0 -71.333 -19 -138.666 -57 -201.999
c-38.001 -63.333 -90.668 -116.333 -158.001 -159c-74.667 -47.333 -151.5 -81.833 -230.5 -103.5c-79 -21.666 -169.833 -32.499 -272.5 -32.499c-87.333 0 -165.5 13 -234.5 39s-122.5 62 -160.5 108c-38 44.667 -57 95.334 -57 152.001c0 32 7 60.833 21 86.5
s33.667 45.834 59 60.501c24.667 14.667 53.667 22 87 22c52.667 0 95.167 -15 127.5 -45c32.334 -30 48.501 -68.667 48.501 -116c0 -29.333 -3.5 -57.333 -10.5 -84s-18.5 -59.334 -34.5 -98.001c16 -9.33301 35.333 -17.166 58 -23.499s47 -9.5 73 -9.5
c46 0 90 9.33301 132 28s79.667 45.667 113 81c38.667 41.333 67.334 88.333 86 141c18.6699 52.667 28.0029 117 28 193c-0.00195312 59.333 -15.6689 104.5 -47 135.5c-31.333 31 -82.333 46.5 -153 46.5h-127l28 117h90c64 0 120 15 168 45
c48.001 30 85.334 73.333 112 129.999c26 56 39 122.667 39 200c-0.00195312 56 -14.6689 99.167 -44.001 129.5c-29.334 30.333 -73.001 45.5 -131.001 45.5c-28.001 -0.0078125 -58.168 -4.1748 -90.5 -12.5c-32.334 -8.33887 -60.167 -18.5059 -83.5 -30.5l26 -84
c10 -34 15 -65.333 15 -94c-0.00195312 -48.001 -15.6689 -86.668 -47.001 -116.001c-31.333 -29.335 -73.333 -44.002 -126 -44c-32 0 -60.667 7.5 -86 22.5s-44.666 35.5 -57.999 61.5c-13.334 25.333 -20.001 53.333 -20.001 84c0 51.333 24.833 100.666 74.5 147.999
c49.667 47.335 117.167 85.668 202.5 115c86 29.3379 178.667 44.0049 278 44.001c91.333 0 168.666 -9.66699 231.999 -29z" />
    <glyph glyph-name="four" unicode="4" horiz-adv-x="1330" 
d="M1244 217l-47 -207h-222l-88 -379h-329l88 379h-668l44 194l918 899h287l-205 -886h222zM187 217h506l150 643z" />
    <glyph glyph-name="five" unicode="5" horiz-adv-x="1227" 
d="M195.5 -329c-71.667 26.667 -128.503 62.6621 -170.503 107.995c-42 44.667 -63 93.334 -63 146.001c0 32 7 60.833 21 86.5s33.667 45.834 59 60.501c24.667 14.667 53.667 22 87 22c52 0 94.667 -14.667 128 -44c32 -30 48 -68.667 48 -116
c-0.000976562 -28 -2.83398 -54 -8.49902 -78c-5.66699 -24 -17.834 -62.333 -36.5 -115c14.667 -4.66602 35.5 -8.83301 62.5 -12.5c27 -3.66309 51.5 -5.49609 73.5 -5.49902c35.334 0 73.167 11.333 113.5 34s75.833 53.334 106.5 92.001
c40.668 50.667 70.335 103.334 89 158.001c18.6699 54.667 28.0029 119 28 193c0 76 -19.333 136 -58 180s-92 66 -160 66c-30.667 -0.00195312 -59 -3.83496 -85 -11.5c-26 -7.66699 -53.333 -19.5 -81.999 -35.5c-32 -20.667 -56.167 -37.167 -72.5 -49.5
s-32.833 -27.5 -49.5 -45.5l-74 27l256 746h845l-63 -275h-764l-109 -337c60.667 36 117.167 62 169.5 78s108.5 24 168.5 24c62.667 0 117.834 -6 165.5 -18c47.668 -12 92.835 -32.333 135.501 -61c100 -64.667 150 -159.334 150 -284.001
c0 -104.667 -30 -200.667 -90 -288s-142.333 -156.666 -247 -207.999c-104 -51.333 -216.667 -77 -338 -77c-85.333 0 -163.833 13.333 -235.5 40z" />
    <glyph glyph-name="six" unicode="6" horiz-adv-x="1327" 
d="M336.5 22.5c-74.333 38.333 -131.499 92.8369 -171.499 163.504c-40.667 69.333 -61 150.333 -61 243c0 116.667 20.5 228 61.5 334s100.333 202.833 178 290.499c77.667 87.667 171.5 163.167 281.5 226.5c164.667 94.667 355 154 571 178l5 -99l-109 -18
c-152.667 -40.667 -278.667 -114.667 -378 -222c-37.334 -41.333 -70.667 -89 -100 -143c-29.334 -54.001 -57.667 -118.668 -85 -194.001c52 43.333 109.167 76.166 171.5 98.499s132.5 33.5 210.5 33.5c66 0 126 -15.333 180 -46s96.333 -73.334 127 -128.001
s46 -116.667 46 -186c0 -104.667 -29.5 -202.167 -88.5 -292.5c-59.001 -90.333 -139.834 -162.5 -242.5 -216.5c-102.667 -53.333 -215.334 -80 -338.001 -80c-98 0 -184.167 19.167 -258.5 57.5zM870.501 670.504c-14.335 34.333 -34.5 60.832 -60.498 79.499
c-26 18 -55.333 27 -88 27c-44 0 -83.333 -8.5 -118 -25.5s-69.667 -45.833 -105 -86.5l-25 -119c-12 -58.667 -18 -131.334 -18 -218c0.000976562 -57.333 6.66797 -107.166 20 -149.499c13.334 -42.333 32.001 -74.5 56 -96.5c23.333 -22.667 51 -34 83 -34
c49.333 0 95.333 22.333 138 67s76.667 105.667 102 183c24.668 76 37.001 160 36.999 252c-0.00390625 46 -7.1709 86.167 -21.501 120.5z" />
    <glyph glyph-name="seven" unicode="7" horiz-adv-x="1160" 
d="M67 -369l946.999 1177h-535c-40 0 -69.833 -1.33301 -89.499 -4c-19.667 -2.66699 -39.5 -8.33398 -59.5 -17.001c-22.667 -9.33594 -44.334 -29.6689 -65 -60.999c-22.667 -32.667 -46.667 -80 -72 -142h-73l114 493h1055l-30 -129l-1022 -1317h-170z" />
    <glyph glyph-name="eight" unicode="8" horiz-adv-x="1385" 
d="M1267.5 934c-63.667 -62 -155.17 -110.002 -274.503 -144.002c102.667 -40 179.667 -88.667 231 -146c49.3359 -59.333 74.0029 -123.333 74.001 -192c0 -91.333 -30 -174 -90 -248c-60.001 -74 -143.334 -132.667 -250 -176c-108 -43.333 -228.667 -65 -362 -65
c-101.333 0 -190.333 13.833 -267 41.5s-136 66.834 -178 117.501c-42 50 -63 107.667 -63 173c0 98 34.5 180.667 103.5 248s170.833 116 305.5 146c-76.667 37.333 -134 84 -172 140s-57 118.667 -57 188c0 61.334 16.167 119.001 48.5 173
c32.333 54 78.833 102.333 139.5 145c54.667 38 122.167 68.333 202.5 91s162.166 34 245.499 34c90.667 -0.00585938 170.834 -12.8389 240.501 -38.5c69.667 -25.6719 123.834 -61.8389 162.501 -108.5c37.3389 -47.333 56.0059 -99.666 56.001 -156.999
c-0.00390625 -86 -31.8369 -160 -95.5 -222zM988.497 1320.5c-29.001 37 -69.167 55.499 -120.499 55.499c-44 0 -85.5 -12.167 -124.5 -36.5s-69.833 -56.833 -92.5 -97.5c-22.667 -40.668 -34 -84.335 -34 -131c0.00390625 -33.333 7.33691 -62.666 22 -87.999
c14.667 -25.334 37 -49.001 66.999 -71c28.667 -20 62.334 -40 101 -60l120 -66c30 46.667 55 102.5 75 167.5c20 65.001 30 125.168 30 180.5c0 60.667 -14.5 109.5 -43.5 146.5zM917.998 432.997c-18 26.667 -45.998 52.334 -83.998 77.001
c-39.334 24.667 -82.001 48 -128.001 69.999c-47.333 22.001 -95.333 46.334 -144 73c-23.333 -23.334 -45.333 -54.001 -66 -92c-20.667 -38 -37.667 -80 -51 -126c-14 -46.667 -21 -94.334 -21 -143.001c0 -75.333 19.667 -134.833 59 -178.5s92.333 -65.5 159 -65.5
c57.333 0 109.166 13 155.499 39s82.833 61.667 109.5 107c25.333 44.667 38 92.667 38 144c0 36.667 -9 68.334 -27 95.001z" />
    <glyph glyph-name="nine" unicode="9" horiz-adv-x="1327" 
d="M1140 161c-89.333 -144 -216.669 -262.331 -382.002 -354.998c-164 -92.667 -357 -153 -579 -181l-6 99l110 18c162 45.333 289 118 381 218c40.667 44 77.334 95.167 110 153.5c32.668 58.333 59.001 117.833 79 178.5c-62.667 -48 -124 -82 -184 -102
s-126.667 -30 -200 -30c-65.333 0 -125.166 16.333 -179.499 49s-97.166 77.667 -128.499 135s-47 120.666 -47 189.999c0 102 29.667 197.333 89 285.999c59.333 88.667 140.333 159 243 211c102 52 213.667 78 335 78c98 -0.00390625 184.5 -19.3369 259.5 -57.999
c75 -38.667 132.833 -93.334 173.5 -164.001c40 -70.667 60 -152.667 60 -246c0 -176 -44.667 -336 -134 -480zM903.997 895.002c-12.667 42.001 -31.001 74.3369 -55.001 97.002c-23.333 22 -50.333 33 -81 33c-50 -0.000976562 -96.5 -21.668 -139.5 -65
c-43.001 -43.334 -77.168 -103.001 -102.5 -179c-26 -74.667 -39 -157.334 -39 -248.001c0 -47.333 6.83301 -88.833 20.5 -124.5s33.167 -63.5 58.5 -83.5c24.667 -20 53.334 -30 86 -30c89.333 0 165.333 37 228 111c4.67383 18 10.3408 45 17.001 81l8 36
c12 56 18 130.333 18 222.999c0 57.333 -6.33301 107 -19 149z" />
    <glyph glyph-name="colon" unicode=":" horiz-adv-x="752" 
d="M647.5 702c-17.667 -30.001 -41.501 -53.6641 -71.501 -70.9971c-30.667 -18 -63.667 -27 -99 -27c-35.333 0.00390625 -68.166 8.83691 -98.499 26.5c-30.333 17.667 -54.5 41.5 -72.5 71.499c-18 29.333 -27 61.666 -27 96.999s9 68 27 98s42.333 54 73 72
c30 18 62.667 27 98 27s68 -8.83301 98 -26.5s54 -41.834 72 -72.501c18 -30.001 27 -62.668 27 -98c0 -34.667 -8.83301 -67 -26.5 -97zM507.499 69.0039c-17.667 -30 -41.502 -53.665 -71.502 -70.998c-30.667 -18 -63.667 -27 -99 -27s-68.166 8.83301 -98.499 26.5
s-54.5 41.5 -72.5 71.5c-18 29.333 -27 61.666 -27 96.999s9 68 27 98s42.333 54 73 72c30 18 62.667 27 98 27c35.334 -0.000976562 68.001 -8.83398 98.001 -26.5c30 -17.667 54 -41.834 72 -72.501c18 -30 27 -62.667 27 -98c0 -34.667 -8.83301 -67 -26.5 -97z" />
    <glyph glyph-name="semicolon" unicode=";" horiz-adv-x="752" 
d="M647.5 702c-17.667 -30.001 -41.501 -53.6641 -71.501 -70.9971c-30.667 -18 -63.667 -27 -99 -27c-35.333 0.00390625 -68.166 8.83691 -98.499 26.5c-30.333 17.667 -54.5 41.5 -72.5 71.499c-18 29.333 -27 61.666 -27 96.999s9 68 27 98s42.333 54 73 72
c30 18 62.667 27 98 27s68 -8.83301 98 -26.5s54 -41.834 72 -72.501c18 -30.001 27 -62.668 27 -98c0 -34.667 -8.83301 -67 -26.5 -97zM483.999 -68.4961c-38 -67 -90.665 -128.834 -157.998 -185.501c-68 -56.667 -141.667 -101.667 -221 -135l-32 71
c51.333 24.667 90.166 45.5 116.499 62.5s52.166 38.167 77.499 63.5c57.333 53.333 96.333 117.333 117 192h-59c-60 0 -105.167 12 -135.5 36s-45.5 58.333 -45.5 103c0 34.667 9.5 67.5 28.5 98.5s44.5 55.833 76.5 74.5c31.333 18.667 65.333 28 102 28
c62 0 109.167 -18.333 141.5 -54.999c32.333 -36.667 48.5 -87.667 48.5 -153c0 -66.667 -19 -133.5 -57 -200.5z" />
    <glyph glyph-name="less" unicode="&#x3c;" horiz-adv-x="1440" 
d="M1231 194v-188l-1000 500v139l1000 500v-188l-786 -382z" />
    <glyph glyph-name="equal" unicode="=" horiz-adv-x="1440" 
d="M1277 863v-163h-1070v163h1070zM1277 449v-163h-1070v163h1070z" />
    <glyph glyph-name="greater" unicode="&#x3e;" horiz-adv-x="1440" 
d="M1253 645v-139l-1000 -500v188l786 381l-786 382v188z" />
    <glyph glyph-name="question" unicode="?" horiz-adv-x="1123" 
d="M941.5 1407.5c65.6689 -29.6689 117.169 -71.5039 154.5 -125.501c37.3379 -55.333 56.0049 -118 56.001 -188c-0.00195312 -98 -25.835 -185.167 -77.499 -261.5c-51.667 -76.334 -125.167 -137.501 -220.5 -183.501s-205.333 -73 -330 -81l-29 -136h-86l77 389
c122.667 10 218.167 44.5 286.5 103.5s102.5 138.833 102.5 239.5c-0.00292969 64.667 -17.1699 114.667 -51.501 150c-34.334 35.3389 -82.167 53.0059 -143.5 53.001c-48 -0.00488281 -95.333 -14.3379 -142 -42.999c20.6689 -61.333 31.002 -114 31 -158
c0 -48 -15.333 -85.667 -46 -113s-72.667 -41 -126 -41c-47.333 0.00195312 -85.833 14.1689 -115.5 42.5c-29.667 28.333 -44.5 64.833 -44.5 109.5c0 52.001 21.5 100.168 64.5 144.5c43 44.3359 101.833 79.5029 176.5 105.5c74.667 25.3389 155.334 38.0059 242 38
c82 -0.00878906 155.833 -14.8418 221.499 -44.5zM571 63.498c-17.334 -28.333 -40.998 -50.835 -70.998 -67.502c-28.667 -16.667 -60.334 -25 -95.001 -25c-53.333 0 -98.333 18.333 -135 55c-38.667 36 -58 79.333 -58 130c0 34 8.66699 65.333 26 94
s41 51.334 71 68.001c28.667 16.667 60.667 25 96 25c33.333 0 64.833 -8.5 94.5 -25.5s53.5 -39.833 71.499 -68.5c17.333 -29.333 26 -60.333 26 -93c-0.00292969 -33.333 -8.66992 -64.166 -26 -92.499z" />
    <glyph glyph-name="at" unicode="@" horiz-adv-x="1980" 
d="M1806 965c29.3408 -78.667 44.002 -161.334 43.9951 -248.001c0 -110 -21.667 -211 -65 -303s-103 -165 -179 -219c-76.668 -53.333 -161.001 -80 -252.999 -80c-70.668 0 -130.501 12.167 -179.499 36.5c-49.002 24.333 -79.835 56.5 -92.5 96.5h-5
c-16 -18.667 -33.5 -36.667 -52.5 -54s-35.833 -30.333 -50.5 -39c-24.002 -14 -45.1689 -23.333 -63.5 -28c-18.334 -4.66699 -42.167 -7 -71.5 -7c-53.334 0 -99.667 11.667 -139 35s-69.333 56.333 -90 99c-20.667 42 -31 91.333 -31 148c0 63.334 13.667 129.334 41 198
c27.333 68.667 64 130.334 110 185c48 58 103.667 103.5 167 136.5c63.334 33 128.667 49.5 196 49.5c44 0 78.5 -8 103.5 -24s42.833 -41 53.5 -75h2l32 87h257l-201 -555c-4 -10 -8.5 -27.667 -13.5 -53s-7.5 -44.666 -7.5 -57.999c0 -58.667 25 -88 75 -88
c69.335 0 130.168 21.667 182.5 65c52.333 43.333 92.833 105 121.5 185c28.667 78 43 169 43 273c0 78.667 -13 150.834 -39 216.5c-26 65.668 -64.667 123.168 -116 172.5c-52.667 50.667 -118.167 89.834 -196.5 117.501s-165.5 41.5 -261.5 41.5
c-94.667 0 -186.834 -18.167 -276.5 -54.5c-89.667 -36.333 -170.5 -88.5 -242.5 -156.5c-76 -72.667 -134.667 -157.834 -176 -255.501s-62 -204.167 -62 -319.5s16.833 -218.333 50.5 -309s81.834 -166.334 144.501 -227.001c60 -60 131.5 -105.5 214.5 -136.5
s174.833 -46.5 275.499 -46.5c214.667 0 394.334 56.667 539.001 170l39 -62c-82.667 -67.333 -171.5 -117.833 -266.499 -151.5c-95 -33.666 -201.167 -50.499 -318.5 -50.499c-108.667 0 -215.334 17.333 -320.001 52s-196.667 84 -276 148
c-87.333 70 -154.833 156 -202.5 258s-71.5 216 -71.5 342c0 116 22.5 227.833 67.5 335.5s109.5 203.834 193.5 288.5c85.333 86 188.833 153.5 310.5 202.5s250.5 73.5 386.5 73.5c234.667 0 415.334 -68 542.001 -204c56.002 -60.001 98.6689 -129.334 128.001 -208z
M1208.99 760c-1.33301 38.667 -11.168 69.166 -29.501 91.499s-43.833 33.5 -76.5 33.5c-31.333 0 -62.666 -14.5 -93.999 -43.5c-31.335 -29 -60.002 -68.833 -86.001 -119.5c-24.002 -46.667 -43.1689 -101.167 -57.501 -163.5
c-14.3379 -62.333 -21.5049 -123.166 -21.5 -182.499c0.000976562 -93.333 27.334 -140 82 -140c24.6689 0 47.3359 6.66699 68.001 20c20.667 13.333 41.334 34.333 62.001 63z" />
    <glyph glyph-name="A" unicode="A" horiz-adv-x="1553" 
d="M749 73c66.667 4.66699 120.331 13.3262 160.997 25.9932c38 11.333 57 24 57 38l-2 31l-5 30l-50 279h-489c-25.333 -40 -45.333 -72.333 -60 -96.999l-62 -104c-26 -48 -40.667 -79 -44 -93c-4.66699 -14 -7 -24.667 -7 -32c0 -19.333 15.667 -35.666 47 -48.999
c34 -13.333 82 -23 144 -29l-17 -73h-596l17 73c20 0.666992 45.333 4.33398 76 11.001s54.334 14.334 71.001 23.001c58 30.667 107.333 78 148 142l59 91c84.667 128.667 189.334 290.667 314.001 486l394 613h198l8 -45c92.667 -545.333 162 -940.666 208 -1186
c2.66699 -20.667 9.33398 -38.667 20.001 -54c8.00488 -15.333 21.6719 -29.666 41 -42.999c19.3389 -13.333 40.6719 -22.666 64 -27.999c30 -6 51.333 -9.33301 64 -10l-17 -73h-759zM480.997 570.992h411l-87 517z" />
    <glyph glyph-name="B" unicode="B" horiz-adv-x="1555" 
d="M1026 1419c170.667 0 296.332 -21 376.999 -63s121 -107 121 -195c0 -54.6689 -12.167 -104.336 -36.5 -149c-24.333 -44.667 -58.833 -83 -103.5 -115c-76.001 -56 -181.334 -98 -316 -126l-4 -19c114.667 -12.667 207 -44.5 277 -95.5s105 -121.167 105 -210.5
c-0.00195312 -146 -61.335 -256.833 -183.999 -332.5c-122.667 -75.667 -303 -113.5 -541 -113.5h-776l17 73c28 1.33301 55.833 4 83.5 8s49.167 8.66699 64.5 14c48.667 18 78 51.333 88 100l229 992l7 35l2 21c0 28 -14 50 -42 66c-32 16 -78.333 28.333 -139 37l17 73
h754zM1071.5 1284.5c-39.667 32.3379 -95.499 48.5049 -167.499 48.5c-26.0029 -0.0410156 -41.6699 -0.374023 -47.001 -1l-25 -2c-9.33594 -0.0410156 -15.0029 -0.374023 -17 -1l-124 -534h67c75.333 0.00195312 141.333 14.335 198 43c56.667 28.667 100 69.334 130 122
c30 52.001 45 112.668 45 182c-0.00683594 62.667 -19.8398 110.167 -59.5 142.5zM978.499 646.5c-49.667 40.333 -122.5 60.5 -218.5 60.5c-26.667 0 -43 -0.333008 -49 -1l-41 -3l-122 -528c0.668945 -16 9.33594 -30.833 26 -44.5c16.667 -13.667 38.667 -24.5 66 -32.5
s55 -12 83 -12c58.667 0 113.334 16.5 164 49.5c50.668 33 91.001 78.5 121 136.5c30 58 45 123.667 45 197c-0.00195312 78 -24.835 137.167 -74.5 177.5z" />
    <glyph glyph-name="C" unicode="C" horiz-adv-x="1465" 
d="M466.5 2.5c-77.667 27 -144.836 65.832 -201.503 116.499c-58 52 -102.167 114.833 -132.5 188.5s-45.5 155.167 -45.5 244.5c0 119.333 22.333 233.333 67 342s108.334 206 191.001 292c82.667 84.667 181 151 295 199s232.667 72 356 72
c76 -0.0107422 154.333 -9.34375 235 -27.999c80.667 -18.6689 140 -40.3359 178 -65l75 55h87l-111 -518h-88c-13.333 150 -52.833 264.833 -118.5 344.5s-152.5 119.5 -260.499 119.5c-157.333 0 -286.666 -93.667 -387.999 -281
c-40 -77.333 -71.167 -166.833 -93.5 -268.5s-33.5 -200.5 -33.5 -296.5c0 -87.333 14.5 -162.666 43.5 -225.999c29.001 -63.333 70.834 -112 125.5 -146c53.333 -33.333 116 -50 188 -50c92 0 179 25.833 261 77.5c82.001 51.667 161.668 129.5 239 233.5l77 -52
c-36 -56 -77.167 -108 -123.5 -156s-95.833 -88.333 -148.5 -121c-66 -40.667 -131.333 -70.334 -196 -89.001s-139 -28 -223 -28c-92 0 -176.833 13.5 -254.5 40.5z" />
    <glyph glyph-name="D" unicode="D" horiz-adv-x="1708" 
d="M1624 1120c40.667 -74.667 61 -161.334 61 -260c-0.00292969 -125.333 -24.8359 -241.833 -74.499 -349.5c-49.6689 -107.667 -120.502 -199.5 -212.5 -275.5c-93.333 -77.333 -199.833 -135.833 -319.5 -175.5s-250.834 -59.5 -393.501 -59.5h-740l17 73
c73.333 5.33301 122.666 12 147.999 20c47.333 16.667 76.666 50.667 87.999 102l229 992l7 35l2 21c0 28 -14 50 -42 66c-32 16 -78.333 28.333 -139 37l17 73h727c82.667 0 162.667 -9.5 240 -28.5c77.335 -19.0039 147.002 -47.8369 209.001 -86.5
c76.667 -48.001 135.334 -109.334 176.001 -184zM1291 910c-0.00390625 134 -30.3369 237.998 -91 311.998c-60.667 74 -148 111 -262 111c-39.333 -0.0410156 -62.333 -0.374023 -69 -1l-33 -2c-12 -0.0410156 -19.333 -0.374023 -22 -1l-245 -1065
c-2.66699 -7.33301 -5 -18.166 -7 -32.499s-3 -25.833 -3 -34.5c0 -39.333 14.5 -67.666 43.5 -84.999s73.5 -26 133.5 -26c86.667 0 165.5 23 236.5 69s130.833 110.667 179.5 194c92.667 156.667 139 343.667 139 561z" />
    <glyph glyph-name="E" unicode="E" horiz-adv-x="1477" 
d="M1361 1057c-5.33301 40.002 -17.332 79.6709 -35.999 119.002c-18.667 39.333 -40.667 72.333 -66 99c-16 16.667 -31.167 28.834 -45.5 36.501s-27.333 12.667 -39 15c-11.667 2.35352 -27.167 4.18652 -46.5 5.49902c-29.333 1.37402 -57.333 2.04102 -84 2h-228
l-128 -555h136c44 0 81 5 111 15s58.667 26 86 48c18.0039 14 39.1709 40 63.5 78c24.333 38.001 42.833 73.334 55.5 106h76l-137 -592h-76v37c0 29.334 -3.33301 60.334 -10 93c-6.66699 32.667 -14 54.667 -22 66c-17.333 24.667 -40.333 41.667 -69 51
c-29.334 8 -62.001 12 -98 12h-136l-91 -395c-4.00391 -14.667 -8.1709 -34.834 -12.5 -60.5c-4.3457 -25.667 -6.5127 -43.834 -6.5 -54.501c0 -28 6 -48.833 18 -62.5s31.667 -22.834 59 -27.501c25.333 -4.66699 65.333 -7 120 -7c100.667 0 170.667 4.33301 210 13
c42.6689 8 75.6689 20.667 99 38c34.667 28.667 80.334 77 137.001 145s97 121.333 121 160h73l-129 -442h-1321l17 73c73.333 5.33301 122.666 12 147.999 20c47.333 16.667 76.666 50.667 87.999 102l229 992l7 35l2 21c0 28 -14 50 -42 66c-32 16 -78.333 28.333 -139 37
l17 73h1248l-83 -362h-76z" />
    <glyph glyph-name="F" unicode="F" horiz-adv-x="1375" 
d="M1383 1040c-4 40 -15.166 81.501 -33.499 124.501s-40.5 79.5 -66.5 109.5c-14.6719 16.667 -28.3389 28.834 -41.001 36.501c-12.667 7.66699 -25.167 12.667 -37.5 15s-29.166 3.83301 -50.499 4.5c-10 0 -18 0.333008 -24 1c-34.667 2 -65.667 3 -93 3h-221l-131 -565
h141c39.333 0 75 5.16699 107 15.5s62 26.833 90 49.5c20 16 42.5 43.167 67.5 81.5s42.5 72.5 52.5 102.5h76l-138 -597h-75v31c0 33.334 -3.33301 65.834 -10 97.5c-6.66699 31.667 -14.334 53.834 -23.001 66.5c-16 23.333 -37 40.333 -63 51
c-26 10.6689 -60.333 16.002 -103 15.999h-141l-106 -457c-6 -24.667 -9 -43 -9 -55c0.000976562 -30 12.334 -52 37 -66c26 -14.667 73 -25.334 141 -32.001l-17 -73h-767l17 73c28 1.33301 55.833 4 83.5 8s49.167 8.66699 64.5 14c48.667 18 78 51.333 88 100l229 992
l7 35l2 21c0 28 -14 50 -42 66c-32 16 -78.333 28.333 -139 37l17 73h1276l-88 -379h-77z" />
    <glyph glyph-name="G" unicode="G" horiz-adv-x="1653" 
d="M472 0c-78 26 -145.005 63.665 -201.005 112.998c-60 50.667 -105.667 112.334 -137 185.001s-47 153 -47 241c0 129.333 23 250.333 69 363s112 211.334 198 296.001c84.667 82.667 184.834 146.5 300.501 191.5s238.5 67.5 368.5 67.5c76 0 156.333 -9.66699 241 -29
c80.667 -20.6689 140.334 -42.002 179.001 -63.999l74 55h87l-110 -518h-88c-15.333 154 -56.333 270 -123 348c-68 77.3369 -155.667 116.004 -263 116c-80 0 -153.833 -24 -221.5 -72s-126.167 -115 -175.5 -201c-44 -77.334 -78.833 -170.501 -104.5 -279.501
s-38.5 -217.167 -38.5 -324.5c0 -89.333 11.833 -166.333 35.5 -231s58.334 -114.167 104 -148.5c45.667 -34.333 101.167 -51.5 166.5 -51.5c48.667 0 92.834 7.83301 132.5 23.5c39.667 15.667 78.167 38.834 115.5 69.501l63 271l7 34l2 24
c-0.00390625 28 -17.3369 50 -51.999 66c-37.334 16.001 -86.667 28.334 -148 37l17 73h768l-17 -73c-16 -0.666992 -38.667 -3.66699 -68 -9c-29.333 -5.33594 -52.666 -10.6689 -69.999 -16c-48.0039 -15.334 -77.3369 -49.001 -87.999 -101l-40 -173l-16 -79l-9 -47
l-5 -30c-52 -29.333 -116 -56.833 -192 -82.5s-154.667 -45.834 -236 -60.501c-84 -15.333 -159 -23 -225 -23c-90.667 0 -175 13 -253 39z" />
    <glyph glyph-name="H" unicode="H" horiz-adv-x="1870" 
d="M1977 1346c-15.333 -0.708008 -39.8311 -3.87402 -73.498 -9.5c-33.6738 -5.70703 -58.8408 -10.874 -75.5 -15.5c-48.0039 -17.333 -77.3369 -51.333 -88 -102l-229 -993c-6 -24.667 -9 -43 -9 -55c0 -30 13 -52 39 -66c22.001 -14 69.668 -24.667 143 -32l-17 -73h-767
l17 73l74 6c34 2.66699 60.5 7.66699 79.5 15s35.5 19.666 49.5 36.999c14.667 16.667 24.334 37.334 29.001 62.001l113 497h-596l-106 -464c-6 -24.667 -9 -43 -9 -55c0.000976562 -30 12.334 -52 37 -66c26 -14.667 73 -25.334 141 -32.001l-17 -73h-767l17 73
c73.333 5.33301 122.666 12 147.999 20c47.333 16.667 76.666 50.667 87.999 102l229 992l7 35l2 21c0 28 -14 50 -42 66c-32 16 -78.333 28.333 -139 37l17 73h767l-17 -73c-16.667 -0.666992 -40.667 -3.66699 -72 -9c-31.334 -5.33301 -55.667 -10.666 -72.999 -15.999
c-24.667 -8 -43.834 -20.5 -57.501 -37.5s-23.834 -38.5 -30.501 -64.5l-99 -431h596l92 399l7 35l2 21c0 28.002 -13.667 49.6689 -41 65c-24.668 14.0049 -70.001 26.6719 -136 38l17 73h767z" />
    <glyph glyph-name="I" unicode="I" horiz-adv-x="923" 
d="M-44 73c56.667 3.33301 100.498 8.16699 131.498 14.5s55.833 17.666 74.5 33.999s31.334 40.833 38.001 73.5l229 992l7 35l2 21c0 28 -15.333 50 -45.999 66c-34 16 -81.667 28.333 -143 37l17 73h787l-17 -73c-66 -5.33301 -118.333 -13.666 -157 -24.999
c-48 -17.333 -77.333 -51.333 -88 -102l-229 -993c-6 -24.667 -9 -43 -9 -55c0 -32.667 15.667 -55.667 47 -69c34 -13.333 81.667 -23 143 -29l-17 -73h-787z" />
    <glyph glyph-name="J" unicode="J" horiz-adv-x="1219" 
d="M947 432c-17.333 -72 -45.832 -138.334 -85.499 -199.001s-86.834 -111 -141.501 -151c-52 -38 -108.833 -67.5 -170.5 -88.5s-123.5 -31.5 -185.5 -31.5c-82.667 0 -155 13.333 -217 40s-109.667 65 -143 115c-34 50 -51 109 -51 177c0 42.667 8.5 80.667 25.5 114
s40.833 59.333 71.5 78c29.333 18.667 64.333 28 105 28c57.333 -0.000976562 102.833 -16.334 136.5 -49c33.667 -32.667 50.5 -75.334 50.5 -128c0 -28 -6.66699 -54.5 -20 -79.5s-35.333 -52.167 -66 -81.5l-62 -58v-13c6 -15.333 18.333 -27.333 37 -36
s39.667 -13 63 -13c70 0 129.333 29 178 87s86 144.667 111.999 260l181 784l7 35l2 21c0 28 -14.333 50 -43 66c-30.667 16 -77.334 28.333 -140.001 37l17 73h766l-17 -73c-15.333 -0.666992 -38.166 -3.66699 -68.499 -9s-54.5 -10.666 -72.5 -15.999
c-25.333 -8 -44.166 -19.5 -56.499 -34.5s-22.833 -37.5 -31.5 -67.5z" />
    <glyph glyph-name="K" unicode="K" horiz-adv-x="1673" 
d="M560 226c-6 -24.667 -9 -42.9971 -9 -54.9971c0.000976562 -30 12.334 -52 37 -66c26 -14.667 73 -25.334 141 -32.001l-17 -73h-767l17 73c73.333 5.33301 122.666 12 147.999 20c47.333 16.667 76.666 50.667 87.999 102l229 992l7 35l2 21c0 28 -14 50 -42 66
c-32 16 -78.333 28.333 -139 37l17 73h767l-17 -73c-16.667 -0.666992 -40.667 -3.66699 -72 -9c-31.334 -5.33301 -55.667 -10.666 -72.999 -15.999c-24.667 -8 -43.834 -20.5 -57.501 -37.5s-23.834 -38.5 -30.501 -64.5l-111 -483h42
c192 145.333 337.667 262.666 437 351.999c56.667 51.335 104.667 97.668 144 139c33.3408 37.3379 50.0078 64.6709 50 81.999c0 10 -10.667 18 -32 24c-27.333 6 -62.666 10.333 -105.999 13l17 73h617l-17 -73c-72 -8 -137.5 -23.667 -196.5 -47
s-116.5 -56.333 -172.5 -99c-94.001 -70.001 -173.334 -133.334 -237.999 -190c-45.333 -39.334 -115.333 -98.001 -210 -176.001c54.667 -91.333 110.334 -182.333 167.001 -273l197 -320c22.0029 -36.667 44.1699 -66 66.501 -88c22.333 -22 48.833 -40.667 79.5 -56
c24 -12 59.333 -20 106 -24l-17 -73h-532c-44 102.667 -89.333 196 -136 280s-121.334 209 -224.001 375h-61z" />
    <glyph glyph-name="L" unicode="L" horiz-adv-x="1404" 
d="M-55 0l17.001 73c28 1.33301 55.833 4 83.5 8s49.167 8.66699 64.5 14c48.667 16.667 78 50 88 100l229 992l7 35l2 21c0 28 -14 50 -42 66c-32 16 -78.333 28.333 -139 37l17 73h780l-17 -73c-24 -1.33301 -51.5 -4.5 -82.5 -9.5
c-31.001 -5 -56.168 -10.167 -75.5 -15.5c-24.667 -8 -43.834 -20.5 -57.501 -37.5s-23.834 -38.5 -30.501 -64.5l-217 -943c-3.33789 -11.333 -6.6709 -27.666 -10 -48.999c-3.3418 -21.333 -5.00879 -38 -5 -50c0.000976562 -38.667 14.334 -63.334 43 -74.001
c30.667 -11.333 88.334 -17 173 -17c64 0 120.333 4.5 168.999 13.5c48.668 9 84.668 23.167 108 42.5c38.667 30 83.334 75.333 134.001 136s93.334 119.667 128.001 177h73l-133 -455h-1307z" />
    <glyph glyph-name="M" unicode="M" horiz-adv-x="2116" 
d="M2229 1346c-16.667 -0.666992 -41.6689 -3.66699 -75.002 -9s-57.333 -10.666 -72 -15.999c-48.0039 -16 -77.3369 -50 -88 -102l-223 -993l-6 -30c-2 -10 -3 -18.333 -3 -25c0 -30 12.333 -52 37 -66c26 -14.667 74.333 -25.334 145 -32.001l-17 -73h-767l17 73
c79.335 10 128.002 18.333 146.001 25c26.667 10 47.5 23.5 62.5 40.5s25.5 39.167 31.5 66.5l240 1065h-10l-771 -1247h-126c-0.666992 26 -5.33398 68 -14.001 126l-22 162l-136 975h-10l-200 -869c-17.333 -74.667 -26 -135.334 -26 -182.001
c0.000976562 -24 2.66797 -43.667 8 -59c5.33301 -15.333 13.333 -29 24 -41c12 -12 35.333 -24.333 70 -37s66 -21 94 -25l-17 -73h-610l17 73c30.667 2.66699 63.834 8.5 99.501 17.5s64.5 19.833 86.5 32.5c29.333 19.333 54.333 51 75 95s40 107 58 189l162 701
c8.66699 40.667 13 71.334 13 92.001c-0.000976562 36.667 -9.33398 65.5 -27.999 86.5c-18.667 21 -42.667 35.833 -72 44.5c-26 6.66699 -55.667 11.667 -89 15l17 73h649l136 -937l465 761c16.667 28 33.5 59.833 50.5 95.5s28.5 62.5 34.5 80.5h661z" />
    <glyph glyph-name="N" unicode="N" horiz-adv-x="1699" 
d="M1866 1346c-2 -0.708008 -17.0049 -2.04297 -45.0049 -4.00195c-50.667 -4.00488 -97.667 -19.3379 -141 -45.999c-28.667 -18 -53.167 -48.667 -73.5 -92s-40.5 -108 -60.5 -194l-235 -1018h-168l-613 1137l-162 -710c-7.33301 -30 -13.666 -62.667 -18.999 -98
s-8 -63.666 -8 -84.999c0 -24.667 2.5 -44.667 7.5 -60s12.833 -29 23.5 -41c12.667 -12.667 36.834 -25.167 72.501 -37.5s66.834 -20.5 93.501 -24.5l-17 -73h-610l17 73l86 14c42.667 6.66699 77.834 19.834 105.501 39.501s50.5 49.167 68.5 88.5
c20 41.333 39.667 105.666 59 192.999l154 668l9 44c2 13.3379 3 25.6709 3 37c-0.000976562 42.667 -8.83398 76.167 -26.5 100.5c-17.667 24.333 -41.5 43.833 -71.5 58.5c-27.333 12 -60.666 22 -99.999 30l18 73h524l536 -1000l133 581l21 105c4 27.333 6 52.333 6 75
c0 30.667 -4 55 -12 73c-8 18.0049 -19.667 32.1719 -35 42.5c-15.333 10.333 -36.333 19.833 -63 28.5c-32.668 10 -61.335 17.333 -86 22l17 73h609z" />
    <glyph glyph-name="O" unicode="O" horiz-adv-x="1679" 
d="M1594.5 528c-44.333 -110 -107.83 -207.335 -190.497 -292.002c-85.333 -88.667 -185.333 -156.667 -300 -204s-240.334 -71 -377.001 -71c-123.333 0 -233.5 24.5 -330.5 73.5s-172.833 117.833 -227.5 206.5s-82 190 -82 304c0 124 24 242 72 354
c48 112.001 115.667 210.668 203 296.001c85.333 83.335 184.666 148.002 297.999 194c113.333 46 231.666 69 354.999 69c124.667 0 236.167 -24 334.5 -72s174.833 -116 229.5 -204c54.667 -87.333 82 -189.666 82 -306.999c0 -121.333 -22.167 -237 -66.5 -347z
M1238 644.998c22.667 106.667 34.001 215.667 34.001 327c-0.00195312 125.335 -23.835 222.168 -71.499 290.5c-47.668 68.3369 -116.835 102.504 -207.501 102.5c-77.334 0 -148.501 -25.667 -213.5 -77c-65 -51.333 -120.833 -124 -167.5 -218
c-43.333 -85.334 -76.833 -183.001 -100.5 -293.001s-35.5 -220.333 -35.5 -331c0 -122.667 24.333 -218.667 73 -288s117.667 -104 207 -104c76 0 146.833 26.333 212.499 79c65.667 52.667 122.167 125.334 169.5 218.001c44 89.333 77.333 187.333 100 294z" />
    <glyph glyph-name="P" unicode="P" horiz-adv-x="1446" 
d="M1475.5 902c-37.6689 -66 -91.835 -120.999 -162.499 -164.999c-136 -84 -309.333 -126 -520 -126h-144l-89 -385c-6 -24.667 -9 -43 -9 -55c0.000976562 -30 12.334 -52 37 -66c26 -14.667 74.333 -25.334 144.999 -32.001l-17 -73h-771l17 73
c28 1.33301 55.833 4 83.5 8s49.167 8.66699 64.5 14c48.667 18 78 51.333 88 100l229 992l7 35l2 21c0 28 -14 50 -42 66c-32 16 -78.333 28.333 -139 37l17 73h769c166 -0.00292969 289.333 -24.3359 370 -73c80.667 -48.667 121 -123.667 121 -225
c-0.00585938 -80 -18.8389 -153 -56.5 -219zM1076 1280c-40 35.3379 -102.333 53.0059 -187 53.001h-73l-146 -633h65c70 0 131.167 10.5 183.5 31.5s94.833 51.5 127.5 91.5c60 71.333 90 169.666 90 294.999c0 72.667 -20 126.667 -60 162z" />
    <glyph glyph-name="Q" unicode="Q" horiz-adv-x="1679" 
d="M1615 590.5c-30.6699 -93.667 -73.335 -178.502 -127.999 -254.502c-58.667 -80 -127.667 -148.333 -207 -205s-166.666 -99 -261.999 -127v-53c0 -72 17.333 -129.333 52 -172s81 -64 139 -64c29.3359 0 62.1689 2.33301 98.5 7c36.333 4.66699 65.833 10 88.5 16
l-16 -80c-48 -20 -112 -37.167 -192 -51.5s-154.667 -21.5 -224 -21.5c-100.667 0 -179 28 -235 84s-84 136 -84 240v57c-110.667 12 -208.167 43.167 -292.5 93.5s-149.5 116.833 -195.5 199.5c-46.667 82.667 -70 178 -70 286c0 124 24 242 72 354
c48 112.001 115.667 210.668 203 296.001c85.333 83.335 184.666 148.002 297.999 194c113.333 46 231.666 69 354.999 69c124.667 0 236.167 -24 334.5 -72s174.833 -116 229.5 -204c54.667 -87.333 82 -189.666 82 -306.999c-0.00683594 -96 -15.3398 -190.833 -46 -284.5
zM1200.5 1262.5c-47.668 68.3369 -116.834 102.504 -207.499 102.5c-77.334 0 -148.501 -25.667 -213.5 -77c-65 -51.333 -120.833 -124 -167.5 -218c-43.333 -85.334 -76.833 -183.001 -100.5 -293.001s-35.5 -220.333 -35.5 -331c0 -122.667 24.333 -218.667 73 -288
s117.667 -104 207 -104c76 0 146.833 26.333 212.499 79c65.667 52.667 122.167 125.334 169.5 218.001c44 89.333 77.333 187.333 100 294s34 215.667 34 327c-0.00292969 125.335 -23.8359 222.168 -71.5 290.5z" />
    <glyph glyph-name="R" unicode="R" horiz-adv-x="1633" 
d="M560 226c-6 -24.667 -9 -42.9971 -9 -54.9971c0.000976562 -30 12.334 -52 37 -66c26 -14.667 73 -25.334 141 -32.001l-17 -73h-767l17 73c28 1.33301 55.833 4 83.5 8s49.167 8.66699 64.5 14c48.667 18 78 51.333 88 100l229 992l7 35l2 21c0 28 -14 50 -42 66
c-32 16 -78.333 28.333 -139 37l17 73h782c326 0 489 -92.667 489 -278c-0.00488281 -108 -38.8379 -199.333 -116.5 -274c-77.667 -74.667 -190.5 -130 -338.499 -166c59.333 -108.667 128.333 -231.334 207 -368.001l42 -75c27.3389 -48 52.1719 -85.833 74.5 -113.5
c22.3359 -27.667 45.5029 -45.5 69.5 -53.5c14 -5.33301 33.333 -9.33301 58 -12l53 -6l-18 -73h-518c-62 142 -115.333 257 -160 345c-56.667 107.333 -112.334 206.666 -167.001 297.999h-72zM884 1333l-67.999 0.000976562l-139 -603h97
c73.333 0 138.166 15.5 194.499 46.5c56.334 31 100.167 75.833 131.499 134.499c31.3379 59.333 47.0049 129.333 47.001 210c0 141.335 -87.667 212.002 -263 212z" />
    <glyph glyph-name="S" unicode="S" horiz-adv-x="1337" 
d="M339.5 -9.5c-79 19 -149.493 45.5049 -211.493 79.5049l-86 -70h-85l106 513h86c8.66699 -54 24 -107.5 46 -160.5s49 -99.167 81 -138.5c35.333 -46.667 79.166 -83.5 131.499 -110.5s109.5 -40.5 171.5 -40.5c63.333 0 119.166 10.667 167.499 32
s85.833 51.666 112.5 90.999c26 39.333 39 83.666 39 132.999c-0.00292969 50.667 -16.6699 94.167 -50.001 130.5c-33.333 36.333 -86.333 68.166 -159 95.499l-135 49l-21 7c-48.667 16 -87.167 30.5 -115.5 43.5s-56.833 30.167 -85.5 51.5
c-36.667 28 -68.834 66.167 -96.501 114.5s-41.5 102.833 -41.5 163.5c0 62.001 14.667 122.168 44 180.5c29.333 58.333 70.333 109.833 123 154.5c55.333 47.333 121.666 83.833 198.999 109.5s161.333 38.5 252 38.5c46.667 0 96.167 -5 148.5 -15s101.5 -23 147.5 -39
c42.667 -14.6689 76.667 -29.3359 102 -44l75 60h87l-104 -484h-86c-10 64.6689 -23.5 121.169 -40.5 169.5c-17 48.3359 -38.5 90.1689 -64.5 125.5c-60.667 84.667 -145.667 127 -255 127c-53.334 -0.0107422 -101.501 -10.3438 -144.501 -31
c-43.001 -20.6689 -77.168 -49.002 -102.501 -84.999c-25.334 -37.333 -38.001 -78.333 -38 -123c0 -48.6689 16.5 -90.8359 49.5 -126.501c33 -35.667 84.5 -66.834 154.5 -93.501l171 -62c51.333 -19.335 89.666 -34.668 114.999 -46
c25.333 -11.333 51.333 -26.333 78 -45c28 -20.667 54.333 -45.667 79 -75c44.667 -54.667 67 -120 67 -196c-0.00683594 -70 -16.3398 -136.833 -48.999 -200.5c-32.6689 -63.667 -78.3359 -117.834 -137 -162.501c-62.667 -48.667 -135.5 -85.667 -218.5 -111
s-173.5 -38 -271.5 -38c-78 0 -156.5 9.5 -235.5 28.5z" />
    <glyph glyph-name="T" unicode="T" horiz-adv-x="1401" 
d="M1420 1013c-2.66699 26.002 -8.16602 55.668 -16.499 88.999c-8.33301 33.334 -18.5 65.667 -30.5 96.999c-15.333 38 -31.333 67.5 -48 88.5c-16.6719 21 -35.3389 33.5 -56 37.5c-16.667 2.66699 -41.167 5 -73.5 7s-60.166 3 -83.499 3h-50l-255 -1103
c-6 -24.667 -9 -43 -9 -55c0 -18 3.5 -32.667 10.5 -44s18.5 -20.666 34.5 -27.999c13.333 -6.66699 36.666 -13 69.999 -19c25.333 -6.66699 50.666 -11 75.999 -13l-17 -73h-791l17 73c18.667 0.666992 46.5 3.5 83.5 8.5s62.167 9.5 75.5 13.5
c25.334 11.333 45.167 25.833 59.5 43.5s23.833 38.834 28.5 63.501l262 1133h-39l-76 -2l-88 -8c-20 -2.00488 -43.167 -13.3379 -69.5 -34c-26.333 -20.6689 -58.833 -51.3359 -97.5 -92c-59.333 -65.333 -105.333 -127.333 -138 -186h-77l94 406h1375l-94 -406h-77z" />
    <glyph glyph-name="U" unicode="U" horiz-adv-x="1707" 
d="M462 5.5c-80 29.667 -140.669 73.498 -182.002 131.498c-41.333 57.333 -62 126.666 -62 207.999c0 20.667 1.16699 40.667 3.5 60s6.5 44.333 12.5 75l164 709c6 29.333 9 47.333 9 54c0 28.667 -13.333 50.334 -39.999 65.001
c-29.333 15.3379 -75.666 28.0049 -138.999 38l17 73h760l-17 -73c-16 -0.666992 -37.333 -3.16699 -64 -7.5s-51.334 -9.5 -74.001 -15.5c-24 -7.33301 -43 -19.5 -57 -36.5c-14 -17.002 -24 -38.835 -30 -65.499l-162 -699c-6.00684 -26 -11.1738 -55.833 -15.5 -89.499
c-4.34668 -33.667 -6.51367 -61.5 -6.5 -83.5c0 -168 96.667 -252 290 -252c75.333 0 145 17.167 209 51.5s118.333 83.166 163 146.499c43.3359 62.667 74.6689 136 94 220l112 486c18 81.333 27 141.333 27 180c0 30.667 -4 55 -12 73c-8 18.0049 -19.667 31.6719 -35 41
c-15.333 9.33789 -36.333 18.6709 -63 27.999c-37.333 12.667 -67 20.334 -89 23.001l17 73h615l-17 -73c-40.6699 -4 -75.8369 -9.66699 -105.5 -17c-29.6699 -7.33301 -56.8369 -18.333 -81.5 -33c-29.333 -17.333 -54 -47.666 -74 -90.999
c-19.333 -40 -39.666 -104.667 -60.999 -194l-123 -533c-26 -108.667 -71 -201.667 -135 -279s-143.667 -136.333 -239 -177c-94 -40.667 -199.333 -61 -316 -61c-115.333 0 -213 14.833 -293 44.5z" />
    <glyph glyph-name="V" unicode="V" horiz-adv-x="1561" 
d="M1787 1346c-21.333 -2 -42.002 -6.17188 -62.002 -12.5049s-43.667 -16.166 -71 -29.499c-30.0029 -14 -55.3359 -30.5 -76 -49.5c-20.6699 -19 -43.0029 -46.5 -67 -82.5l-128 -193l-439 -675l-205 -320h-201l-132 743c-32.667 182.667 -60.334 333 -83 451
c-8.00098 34.667 -17.834 60.667 -29.5 78c-11.667 17.3408 -29.834 34.0078 -54.5 50c-19.333 12 -38 21 -56 27s-38.333 10.333 -61 13l17 73h753l-18 -73c-54.001 -6 -94.668 -12 -122 -18c-30 -7.33301 -51 -14.666 -63 -21.999s-18 -18.666 -18 -33.999
c0.0107422 -22.667 1.34375 -39.667 4 -51l10 -63c11.333 -66.667 30.333 -173 57 -318.999c14.667 -74.667 45.334 -246.334 92 -515.001l244 388c76.001 120.667 143.668 229 203 325c0.666992 1.3418 4.33398 7.6748 11.001 19c33.3359 53.333 59.0029 98.333 77 135
c19.3496 40 29.0166 66.333 29.001 79c0 20.667 -17 37.334 -51 50.001c-38 13.3438 -87.667 22.0107 -149 26.001l18 73h589z" />
    <glyph glyph-name="W" unicode="W" horiz-adv-x="2307" 
d="M2531 1346c-19.3428 -2.02051 -39.1758 -6.35156 -59.499 -12.998c-20.333 -6.67676 -43.833 -16.3438 -70.5 -29c-30.0088 -15.333 -54.6758 -32.833 -74 -52.5c-19.333 -19.667 -38.333 -46.167 -57 -79.5c-48.667 -80.667 -144.667 -245.334 -288 -494.001l-400 -694
h-208l-128 1048l-576 -1048h-200c-40.667 365.333 -66.334 600.333 -77 705l-54 487c-5.33301 36 -12.833 62.333 -22.5 79s-27.5 34 -53.5 52c-30.667 21.333 -69.667 34.333 -117 39l17 73h742l-18 -73c-47.334 -4.67676 -84.667 -10.3438 -112 -17
c-23.333 -5.33301 -43.333 -12 -60 -20c-10 -6.00977 -16.5 -12.3428 -19.5 -19c-3 -6.67188 -4.5 -16.3389 -4.5 -29.001c0.015625 -17.333 2.34863 -52 6.99902 -104c4.66699 -62.667 14.667 -161.667 30 -297l48 -475l559 1034h213l129 -1066l31 56
c154 277.333 271.333 493.333 352 648c24 44.667 45.667 88.667 65 132c18 41.3359 27 67.6689 27 79c0 21.333 -17.333 38.333 -52 51s-86 21.667 -154 27l18 73h585z" />
    <glyph glyph-name="X" unicode="X" horiz-adv-x="1643" 
d="M1775 1346c-22.6729 -0.708008 -42.0078 -2.87402 -58.001 -6.5c-16.0029 -3.66699 -37.3359 -10.167 -63.999 -19.5c-34.667 -13.333 -66.167 -30.333 -94.5 -51c-28.333 -20.6689 -66.166 -52.3359 -113.499 -95c-8.01074 -6.00879 -15.3438 -12.3418 -21.999 -18.999
l-61 -55l-342 -315c65.335 -142 110.668 -238 136 -288l27 -54l38 -79c26 -52 42 -85 48 -99c20 -42 41 -76.5 63 -103.5s48 -47.167 78 -60.5c36.667 -16 80.334 -25.333 131.001 -28l-17 -73h-834l17 73c88 4.66699 145.667 12.667 173 24c26 11.333 39 26.666 39 45.999
c0 14 -2.33301 28 -7 42c-6.66699 25.333 -28.834 81.166 -66.501 167.499s-71.5 161.5 -101.5 225.5c-44.001 -40.667 -102.668 -96.667 -176.001 -168l-142 -141c-49.333 -49.333 -78.333 -82.666 -87 -99.999c-10 -18 -15 -31.333 -15 -40c0 -14 10.333 -25.333 31 -34
c20 -9.33301 59.333 -16.666 118 -21.999l-17 -73h-575l17 73c25.333 2 45.5 4.66699 60.5 8s35.167 9.33301 60.5 18c40.667 18 77.834 39.167 111.501 63.5s73.5 58.166 119.5 101.499l203 186l244 227c-48.667 107.333 -86.334 188 -113.001 242l-114 235
c-20 42 -41.167 76.333 -63.5 103s-49.166 46.667 -80.499 60c-18 8 -35.5 14 -52.5 18c-17 4.02051 -42.5 7.6875 -76.5 11l17 73h836l-17 -73c-68 -4.66699 -120.667 -11.667 -158 -21c-37.3359 -9.33301 -56.0029 -26.333 -56.001 -51
c0.0185547 -14 2.35156 -27 6.99902 -39c10 -34.002 34 -93.335 72 -178l18 -42l58 -132l174 168c51.333 49.334 94.333 93.001 129 131c37.3359 41.333 59.0029 68.333 65 81c4.66699 8.66699 7 18 7 28c0 14 -10 25 -30 33c-22.0039 9.34375 -62.3369 16.6768 -121 22
l17 73h577z" />
    <glyph glyph-name="Y" unicode="Y" horiz-adv-x="1499" 
d="M1753 1346c-28.667 -4 -51.6699 -8.66797 -69.0029 -14.001s-37.666 -14 -60.999 -26c-29.333 -14.6738 -57 -33.0068 -83 -55c-26 -22 -56.667 -52 -92 -90c-66 -71.333 -127.167 -139.166 -183.5 -203.499c-56.333 -64.334 -128.166 -148.167 -215.499 -251.5
c-38 -42.667 -65.5 -76.834 -82.5 -102.501c-17.002 -25.667 -29.1689 -49.834 -36.5 -72.501c-9.33691 -31.333 -18.6699 -69 -28 -113l-43 -186c-6 -24.667 -9 -43 -9 -55c0 -18 3.5 -32.667 10.5 -44s18.5 -20.666 34.5 -27.999c13.333 -6.66699 36.666 -13 69.999 -19
c25.333 -6.66699 50.666 -11 75.999 -13l-17 -73h-791l17 73c18.667 0.666992 46.334 3.5 83.001 8.5s62 9.5 76 13.5c24 9.33301 43.5 23.333 58.5 42s24.833 40.334 29.5 65.001l59 255l11 50c3.33301 18.668 5 31.001 5 37c0 12.668 -2.33301 27.001 -7 43
c-6 18.667 -17 50.334 -33 95l-13 38c-34.667 102 -61.167 178.167 -79.5 228.5s-46.166 123.5 -83.499 219.5c-24 64.667 -59 113 -105 145c-14.667 9.34863 -34.167 17.0156 -58.5 23c-24.333 6 -46.833 9.33301 -67.5 10l17 73h793l-17 -73
c-73.333 -2.01074 -124.333 -7.34375 -153 -16c-34 -8.66699 -51 -22.667 -51 -42c0 -8.66699 3 -25.667 9 -51c6 -28.6689 17.5 -70.002 34.5 -124c17 -54 37.5 -114 61.5 -180l56 -157l29 -82l232 271c142 166 218.333 261.333 229 286
c7.36523 16.667 11.0322 27 11.001 31c0 20.667 -15.667 36 -47 46c-32 8.66699 -70.667 14.667 -116 18l17 73h540z" />
    <glyph glyph-name="Z" unicode="Z" horiz-adv-x="1412" 
d="M363 87h339c108.667 0 186.334 5.66699 233 17c43.333 11.333 76.666 28 99.999 50c37.334 34.667 82.501 83.667 135.5 147c53 63.333 98.833 122.666 137.5 177.999h75l-159 -479h-1322l15 61l1186 1271h-291c-60.667 -0.0605469 -105.667 -1.89355 -135 -5.49902
c-29.334 -3.66699 -58.667 -11.167 -88 -22.5c-30.667 -11.333 -70.667 -41.666 -120 -90.999c-50 -50.668 -114.333 -126.335 -192.999 -227.001h-81l144 433h1224l-14 -61z" />
    <glyph glyph-name="bracketleft" unicode="[" horiz-adv-x="915" 
d="M673 -214l-22 -96h-662l422 1829h662l-22 -95h-347l-378 -1638h347z" />
    <glyph glyph-name="backslash" unicode="\" horiz-adv-x="966" 
d="M431 1523l347 -1947h-174l-349 1947h176z" />
    <glyph glyph-name="bracketright" unicode="]" horiz-adv-x="915" 
d="M959 1519l-422 -1829h-662l22 96h347l378 1638h-347l22 95h662z" />
    <glyph glyph-name="asciicircum" unicode="^" horiz-adv-x="1440" 
d="M830 1456l442 -696h-196l-317 513l-317 -513h-194l442 696h140z" />
    <glyph glyph-name="underscore" unicode="_" horiz-adv-x="1440" 
d="M1289 -181l-27 -120h-1450l27 120h1450z" />
    <glyph glyph-name="grave" unicode="`" horiz-adv-x="1024" 
d="M811 1101c-81.334 56 -157.002 103.999 -227.002 143.999c-57.333 33.333 -102.666 61.333 -135.999 84c-24.667 18 -42.334 35.333 -53 52c-10.667 16.667 -16 36 -15.999 58c0 16 5 32.5 15 49.5c10 17.0059 23.667 31.1729 41 42.5
c17.334 11.3447 36.667 17.0117 58 17c40.667 -0.0117188 73.167 -7.34473 97.5 -21.999c24.333 -14.6699 49.833 -42.0029 76.5 -82c19.333 -29.333 45.333 -71.333 78 -126c22.668 -38 60.001 -97.667 112 -179z" />
    <glyph glyph-name="a" unicode="a" horiz-adv-x="1352" 
d="M752 125c-29.334 -26 -53.665 -46.3311 -72.998 -60.998c-19.334 -14.667 -43.667 -29.334 -73 -44.001c-62 -34 -125.667 -51 -191 -51c-113.333 0 -200 33.167 -260 99.5s-90 160.833 -90 283.5c0 88 15.833 172.167 47.5 252.5s75.834 152.166 132.501 215.499
c56.667 62 122.167 110 196.5 144s151.5 51 231.5 51c114.667 0 204 -26 268 -78l307 63l14 -16l-147 -615c-17.333 -74.667 -26 -124 -26 -148c0 -38 8.5 -64.167 25.5 -78.5c17.0029 -14.333 47.1699 -21.5 90.5 -21.5c16.0049 0 37.1719 3.16699 63.501 9.5
c26.3379 6.33301 46.1709 12.833 59.499 19.5l-22 -90l-38 -15c-66.668 -26.667 -115.835 -44.167 -147.501 -52.5c-31.6689 -8.33301 -68.502 -12.5 -110.5 -12.5c-64.667 0 -118.334 12.667 -161.001 38s-72.334 61 -89.001 107h-8zM879.002 759.002
c0 19.333 -2.33105 38.335 -6.99805 57.002c-4.66699 18.668 -11.334 34.001 -20.001 45.999c-12.667 18.667 -28.334 32.167 -47.001 40.5s-42.667 12.5 -72 12.5c-41.333 -0.00195312 -80.833 -15.1689 -118.5 -45.501c-37.667 -30.334 -71.5 -73.167 -101.5 -128.5
c-28 -52.667 -50 -113.5 -66 -182.5s-24 -139.167 -24 -210.5c0 -32 2.83301 -62.5 8.5 -91.5s13.5 -52.5 23.5 -70.5c24 -43.333 65.667 -65 125 -65c29.333 0 57.833 8 85.5 24s56.167 39.667 85.5 71z" />
    <glyph glyph-name="b" unicode="b" horiz-adv-x="1329" 
d="M1218 373c-30.667 -80.667 -74.667 -150.667 -132 -210c-62.001 -63.333 -134.668 -111.666 -218.001 -144.999s-175.333 -50 -276 -50c-34 0 -73.833 3.16699 -119.5 9.5s-85.167 15.166 -118.5 26.499c-53.333 18.667 -100.333 43.5 -141 74.5s-76 69.833 -106 116.5
l251 1078c5.33496 25.333 8.00195 44.333 8.00098 57c0 21.3438 -4 39.1768 -12 53.5c-8 14.3389 -20 26.5059 -36 36.5c-14 7.33301 -29.5 12.833 -46.5 16.5s-43.833 7.5 -80.5 11.5l18 74l527 26l11 -16l-151 -648h7c20 17.333 38.667 32 56 44s39.333 24.667 66 38
c23.333 12.6689 54 24.002 92 34c38 10 70.667 15 98 15c115.334 0 202.667 -34 262 -102c58 -69.333 87 -163 87 -281c-0.00488281 -92 -15.3379 -178.333 -46 -259zM870.5 806.5c-23.667 37.668 -64.167 56.5029 -121.5 56.501
c-59.334 -0.000976562 -119.001 -31.668 -179.001 -95l-126 -558c0 -37.333 11.333 -71 34 -101c14.667 -20.667 30.334 -35.5 47.001 -44.5s38.667 -13.5 66 -13.5c44.001 0 85.834 16.333 125.5 49c39.668 32.667 73.501 77.334 101.5 134.001
c30 61.333 52.167 124 66.5 188s21.5 135.333 21.5 213.999c0 76 -11.833 132.833 -35.5 170.499z" />
    <glyph glyph-name="c" unicode="c" horiz-adv-x="1097" 
d="M295 19c-73.333 34.667 -128.999 84.3369 -166.999 149.004c-38.667 64.667 -58 141.334 -58 230.001c0 82 14 159.333 42 231.999c28 72.667 69.667 137.667 125 195c56.667 59.333 126.667 105.833 210 139.5c83.333 33.6689 173.333 50.502 270 50.5
c116 0 205.667 -21.333 269 -64c63.335 -42.667 95.002 -102.667 95 -180c0 -22.667 -3.66699 -46.5 -11 -71.5s-17 -45.5 -29 -61.5c-20 -24.667 -40 -41.834 -60 -51.501c-20.001 -9.66699 -47.668 -14.5 -83 -14.5c-31.334 0 -59.667 5.66699 -85 17
c-25.335 11.333 -45.002 26.666 -59 45.999c-14 18 -21 36.667 -21 56c0 29.333 5.66699 58.666 17 87.999s30.333 67.333 57 114c-9.33496 11.333 -23.668 21.333 -43 30c-19.334 8.67383 -41.001 13.0068 -65 13c-51.334 0 -97.501 -21.333 -138.501 -64
s-73.5 -102 -97.5 -178c-23.333 -76 -35 -159.333 -35 -250c0 -104.667 19.333 -184.667 58 -240s94.334 -83 167 -83c50 0 93.5 6.16699 130.5 18.5s71.5 32.166 103.5 59.499c32.668 27.333 66.001 64 100 110l72 -61c-56 -86 -129.167 -154.333 -219.5 -205
c-90.334 -50.667 -184.501 -76 -282.501 -76c-101.333 0 -188.666 17.333 -261.999 52z" />
    <glyph glyph-name="d" unicode="d" horiz-adv-x="1357" 
d="M758 125c-52 -46 -101.667 -80.999 -149 -104.999c-35.333 -18.667 -67.333 -31.834 -96 -39.501s-61.334 -11.5 -98 -11.5c-113.333 0 -200 33.167 -260 99.5s-90 160.833 -90 283.5c0 88.667 15.5 173.167 46.5 253.5s74.833 151.833 131.5 214.5
c56 62 120.833 110 194.5 144s150.5 51 230.5 51c58.667 0 108.667 -5.83301 150 -17.5s77 -29.5 107 -53.5l74 325l6 31l2 26c0 27.333 -7.33301 48.833 -22 64.5s-36.667 27.667 -66 36c-29.334 8.34961 -69.001 15.5166 -119 21.5l18 74l561 26l11 -16l-269 -1163
c-5.33301 -19.333 -11 -45.333 -17 -78s-9 -56 -9 -70c0 -38 8.5 -64.167 25.5 -78.5s46.833 -21.5 89.5 -21.5c16.0049 0 37.1719 3.16699 63.501 9.5c26.3359 6.33301 46.1689 12.833 59.5 19.5l-22 -90c-6 -2 -19 -7.33301 -39 -16
c-67.333 -26.667 -116.166 -44 -146.499 -52s-66.833 -12 -109.5 -12c-64.667 0 -118.334 12.667 -161.001 38s-72.334 61 -89.001 107h-8zM884 765.001c-0.00195312 42.667 -10.668 76.6689 -32 102.002c-14.667 18.668 -31.667 32.335 -51 41
c-19.333 8.67676 -43.333 13.0098 -72 12.999c-41.334 0 -80.501 -15.333 -117.5 -46c-37 -30.667 -70.5 -74.334 -100.5 -131.001c-26.667 -51.333 -48 -112.333 -64 -183s-24 -141.667 -24 -213c0 -32 2.83301 -62.5 8.5 -91.5s13.5 -52.5 23.5 -70.5
c24 -43.333 65.667 -65 125 -65c58.667 0 117.667 31.667 177 95z" />
    <glyph glyph-name="e" unicode="e" horiz-adv-x="1141" 
d="M338 -1.5c-61.333 21 -112.001 51.5 -152.001 91.5c-77.333 77.333 -116 179 -116 305c0 80 15 157 45 231s73.333 140 130 198c56.667 60 127.5 106.833 212.5 140.499c85 33.6689 176.167 50.502 273.5 50.5c120 -0.00195312 211 -19.1689 273 -57.5
c62 -38.334 93 -95.167 93 -170.5c0 -71.334 -26.5 -133.667 -79.5 -187c-53 -53.334 -126.833 -92.334 -221.5 -117c-66.667 -20.667 -126 -35.834 -178 -45.5c-52 -9.66699 -118.333 -18.834 -198.999 -27.5c2 -37.333 6.5 -73.166 13.5 -107.499s16.5 -62.833 28.5 -85.5
c35.334 -65.333 95.334 -98 180 -98c77.333 0 143.666 14.667 198.999 44s108.333 78 159 146l73 -61c-60.667 -86.667 -138 -155.167 -232 -205.5s-192 -75.5 -294 -75.5c-77.333 0 -146.666 10.5 -207.999 31.5zM740.999 889
c-20.667 30.6689 -49.334 46.0068 -86.001 46.0039c-34 -0.00292969 -67.333 -19.1699 -100 -57.501c-32.667 -38.334 -60.667 -91.167 -84 -158.5c-23.333 -65.334 -39.666 -141.001 -48.999 -227.001c58.667 8.66699 103 16 133 22c30.001 6.00195 55.334 13.335 76 22
c50 22 86 50.5 108 85.5s33 80.833 33 137.499c0 56 -10.333 99.333 -31 129.999z" />
    <glyph glyph-name="f" unicode="f" horiz-adv-x="1325" 
d="M859 440c-24.667 -122 -54.0049 -248.67 -88.0049 -380.003c-18.667 -70.667 -46 -134.334 -82 -191.001c-80.667 -126.667 -185 -217.667 -313 -273c-61.333 -26.666 -127 -39.999 -197 -39.999c-56 -0.000976562 -103.833 5.66602 -143.5 17
c-39.667 11.333 -70.5 27 -92.5 47c-35.333 32 -53 75 -53 129c0 26.667 6.33301 51.167 19 73.5s30.667 40.166 54 53.499s50 20 80 20c61.333 0 115 -32.333 161 -97c18.667 -26.667 35 -55.667 49 -87l34 -75c4.00098 -8.66504 8.66797 -12.998 14 -12.999
c16.667 0 37.667 40 63 120c26 82.667 49.667 175.334 71 278.001l179 846h-194l24 103h192l17 77c13.333 60.002 38.833 120.669 76.5 182.001c37.667 61.335 82.5 116.002 134.5 164.001c52.667 48.667 112.334 87.167 179 115.5c66.667 28.3389 132 42.5059 196 42.5
c57.335 0 105.002 -5 143.001 -15c38.0029 -10 68.6699 -25.667 92 -47c18.667 -16.6719 31.834 -35.3389 39.501 -56c7.66699 -20.6689 11.5 -44.3359 11.5 -71c0 -16.6689 -3 -33.8359 -9 -51.5c-6 -17.667 -14.667 -33.167 -26 -46.5
c-16 -20.0049 -32.667 -33.8379 -50 -41.5c-17.333 -7.69434 -40 -11.5273 -68 -11.5c-62 0 -115 32 -159 96c-21.333 31.335 -37.666 60.668 -48.999 88l-12 38c-5.33301 18.667 -8.66602 30 -9.99902 34c-3.33301 7.33301 -7 8.33301 -11 3
c-27.333 -31.333 -52.166 -77.333 -74.499 -138c-22.333 -60.668 -44.833 -143.001 -67.5 -247l-25 -115h253l-24 -103h-248z" />
    <glyph glyph-name="g" unicode="g" horiz-adv-x="1330" 
d="M742 105c-34.667 -26 -59.666 -44.002 -74.999 -54.002s-33.333 -19.667 -54 -29c-33.334 -16.667 -63.667 -28.334 -91 -35.001s-59.333 -10 -96 -10c-114.667 0 -203.5 33.5 -266.5 100.5s-94.5 160.833 -94.5 281.5c0 86.667 15.5 169.834 46.5 249.501
s74.833 150.834 131.5 213.5c56 61.333 120.667 108.833 194 142.5c73.334 33.6689 150.334 50.502 231 50.5c122 0 214.667 -26 278 -78l305 63l14 -16l-170 -813c-26.002 -117.333 -61.835 -215.833 -107.5 -295.5c-45.667 -79.667 -101.834 -144.167 -168.501 -193.5
c-64 -46.667 -130.667 -79.667 -200 -99c-70 -18 -143.333 -27 -219.999 -27c-75.333 0 -140 5.83301 -194 17.5s-95.667 27.834 -125 48.501c-24.667 17.333 -42.334 36.666 -53.001 58c-10.667 21.333 -16 45.333 -16 72c0 26 6.16699 50.167 18.5 72.5
s30.166 40.5 53.499 54.5c22.667 14 49.667 21 81 21c62 0 119 -33 171 -99c30.667 -41.333 61.334 -96 92.001 -164c38 6 71.167 16 99.5 30s54.833 35.333 79.5 64c29.333 35.333 55.833 82.833 79.5 142.5s45.167 136.834 64.5 231.501h-8zM884.001 759.998
c-0.00195312 42.667 -10.6699 76.666 -32.002 101.999c-14.667 18.668 -31.667 32.335 -51 41c-19.333 8.67676 -43.333 13.0098 -72 12.999c-82.667 0 -155 -57 -217 -171c-28 -52.667 -49.833 -113.167 -65.499 -181.5c-15.668 -68.333 -23.501 -138.166 -23.5 -209.499
c0 -71.333 13.833 -126.666 41.5 -165.999s69.834 -59 126.501 -59c29.333 0 61.333 9.16699 96 27.5s63.667 40.5 87 66.5z" />
    <glyph glyph-name="h" unicode="h" horiz-adv-x="1383" 
d="M1332 63l-43 -16.998c-66 -26.667 -114 -43.834 -144 -51.501s-66 -11.5 -108 -11.5c-79.334 0 -141.001 20 -185 60c-44.667 38.667 -67 87.667 -67 147c0 30 1.16699 55.167 3.5 75.5s7.83301 46.833 16.5 79.5l72 266c14.6719 61.333 22.0049 106 22 134
c0 34 -8 59.5 -24 76.5c-16.001 17 -41.668 25.5 -77.001 25.5c-28.667 0 -64.334 -10.5 -107.001 -31.5c-42.667 -21.001 -86.334 -52.168 -131.001 -93.5l-165 -722h-331l294 1273c5.33496 25.333 8.00195 44.333 8.00098 57c-0.000976562 22.667 -3.83398 41 -11.499 55
c-7.66699 14 -19.834 26 -36.5 36c-16 9.33301 -34.333 15.333 -54.999 18l-72 9l18 74l527 26l11 -16l-160 -692h7c66.667 59.333 133 103.333 199 132c66 28.6689 135.667 43.002 209 43c47.335 -0.00585938 89.002 -9.17285 125 -27.5
c36.002 -18.334 63.6689 -43.501 83 -75.5c18.667 -31.335 28 -66.668 28 -106c0 -24 -1.66699 -49.833 -5 -77.5s-8.33301 -52.834 -15 -75.501l-76 -281c-6.66699 -22 -12.667 -48.667 -18 -80s-8 -54 -8 -68c0 -38 8.5 -64.5 25.5 -79.5s46.833 -22.5 89.5 -22.5
c16.667 0 38 3.16699 64 9.5c26.0049 6.33301 45.6719 12.833 59 19.5z" />
    <glyph glyph-name="i" unicode="i" horiz-adv-x="749" 
d="M707.5 1272c-17.667 -28 -41.502 -50.002 -71.502 -66.002c-29.334 -16.6797 -62.001 -25.0127 -98 -24.999c-35.333 0.0136719 -68 8.18066 -98 24.5c-30 16.3359 -54 38.5029 -72 66.501c-18 28.002 -27 58.6689 -27 92c0 33.3369 8.83301 64.0039 26.5 92
c17.667 28 41.834 50.333 72.501 67c29.334 16.667 62.001 25 98.001 25c35.333 0 68 -8.16699 98 -24.5s54 -38.833 72 -67.5c17.333 -28.668 26 -59.335 26 -92c0 -33.333 -8.83301 -64 -26.5 -92zM690.998 52.998l-34.999 -13.999
c-67.334 -26 -117.501 -43.5 -150.501 -52.5s-69.5 -13.5 -109.5 -13.5c-80.667 0 -142.667 19.667 -186 59c-44.667 38.667 -67 88 -67 148c0 22 1.5 44.333 4.5 67s8.5 51.667 16.5 87l82 292c11.334 43.333 18.501 73.666 21.5 90.999c3 17.333 4.5 36.333 4.5 57
c0 26 -3.16699 46 -9.5 60c-6.33301 14.0029 -17.5 24.3359 -33.5 30.999c-16 6 -38.667 9 -68 9c-18 0 -36.167 -2.33301 -54.5 -7s-41.166 -12 -68.499 -22l22 90c66 27.333 122.167 47.5 168.5 60.5s88.5 19.5 126.5 19.5c77.333 -0.00195312 138 -18.6689 182 -56
c44 -37.334 66 -87.667 66 -150.999c-0.00878906 -23.334 -1.67578 -49.001 -5 -77c-3.33789 -28 -8.6709 -54 -16 -78l-82 -291c-6.66699 -22 -12.667 -48.667 -18 -80s-8 -54 -8 -68c0 -38 8.5 -64.167 25.5 -78.5s47.167 -21.5 90.5 -21.5
c16.667 0 38 3.16699 63.999 9.5c26 6.33301 45.667 12.833 59 19.5z" />
    <glyph glyph-name="j" unicode="j" horiz-adv-x="1150" 
d="M1115.5 1272c-17.6689 -28 -41.5029 -50.0039 -71.501 -66.0039c-29.334 -16.6797 -62.001 -25.0127 -98 -24.999c-34.001 0.0136719 -66.168 8.18066 -96.5 24.501c-30.334 16.3359 -54.501 38.5029 -72.5 66.501c-18.667 27.3359 -28 58.0029 -28 92.001
c0.00390625 33.3369 8.83691 64.0039 26.499 92c17.667 28 41.834 50.333 72.5 67c29.333 16.667 62 25 98 25c35.333 0 68 -8.16699 98 -24.5s54 -38.833 72 -67.5c17.3467 -28.668 26.0137 -59.335 26.001 -92c-0.0126953 -33.333 -8.8457 -64 -26.499 -92zM1025 755.996
c-0.674805 -14.667 -4.00781 -38.9971 -10 -72.9971c-18.667 -103.333 -35 -188.666 -49 -255.999l-13 -68c-20 -104.667 -42.833 -200.334 -68.5 -287.001s-53.5 -154.334 -83.5 -203.001c-35.334 -58 -80.167 -111.667 -134.5 -161
c-54.334 -49.333 -110.167 -87 -167.5 -113s-121.333 -39 -192 -39c-101.333 0 -174.166 17.333 -218.499 52s-66.5 81.667 -66.5 141c0 26.667 6.5 51.167 19.5 73.5s31.167 40.166 54.5 53.499s49.666 20 78.999 20c62.667 0 116.334 -32.333 161.001 -97
c16 -22 32.333 -51 49 -87l34 -75c24.667 44 46.834 95.333 66.501 154s40.5 135.667 62.5 231c28.667 126 53 238.333 72.999 337c12 58 23 115 33 171c8.00293 47.333 16.3359 90.333 25 129c10 55.333 15 93.666 15 114.999c0 34.668 -8.83301 60.001 -26.5 76
c-17.667 16 -46.834 24 -87.501 24c-25.334 0 -48.001 -3.33301 -68 -10l-60 -19l22 90c67.333 28.002 124.833 48.335 172.5 61c47.667 12.6709 91.5 19.0039 131.5 19c52 0 96.667 -8.5 134 -25.5s66 -41.5 86 -73.5c19.333 -31.333 29 -67.333 29 -108z" />
    <glyph glyph-name="k" unicode="k" horiz-adv-x="1313" 
d="M1273 770c-16 -28 -37.6729 -50.3311 -65.0059 -66.998c-27.333 -17.3359 -57.333 -26.0029 -90 -26c-35.333 0 -71.166 8.16699 -107.499 24.5c-36.334 16.333 -71.167 37.5 -104.5 63.5l-39 -25c-25.334 -18.667 -51.667 -40.334 -79 -65.001l101 -255
c42.668 -105.333 70.335 -169.333 83.001 -192c17.333 -33.333 32 -57.166 44 -71.499s27 -25.166 45 -32.499c20.002 -7.33301 45.6689 -11 77 -11c16.667 0 38.5 3.33301 65.5 10c27.0049 6.66699 48.1719 13.334 63.501 20.001l-22 -90
c-66 -27.333 -123.667 -47.5 -173 -60.5s-93.333 -19.5 -132 -19.5c-58 0 -103 6.33301 -135 19c-32.001 12.667 -59.668 31.334 -83.001 56.001c-18.667 19.333 -40.5 56.166 -65.5 110.499c-25.001 54.333 -44.168 101.166 -57.5 140.499l-52 142l-66 -62l-86 -379h-331
l294 1273c5.33496 25.333 8.00195 44.333 8.00098 57c-0.000976562 22.667 -3.83398 41 -11.499 55c-7.66699 14 -19.834 26 -36.5 36c-16 9.33301 -34.333 15.333 -54.999 18l-72 9l18 74l527 26l11 -16l-240 -1040h8c69.333 77.333 125 138.166 167 182.499
s90.333 93.166 144.999 146.499l28 28c44.668 43.333 82.335 76.666 113.001 99.999c30.667 23.333 59.334 40.333 86.001 51c27.333 10 56.333 15 87 15c50 0 88.5 -13.5 115.5 -40.5s40.5 -65.833 40.5 -116.5c0 -30.667 -8 -60 -24 -88z" />
    <glyph glyph-name="l" unicode="l" horiz-adv-x="726" 
d="M477 362c-6.00098 -22 -11.8389 -48.668 -17.5049 -80.001c-5.66797 -31.333 -8.50098 -54 -8.49902 -68c0 -37.333 9.33301 -63.333 28 -78s51 -22 97 -22c14 0 35.5 3.33301 64.5 10s50.5 13 64.5 19l-22 -90c-60.667 -24 -104.167 -40.5 -130.5 -49.5
c-26.334 -9 -53.167 -16.167 -80.5 -21.5c-29.333 -6 -60.666 -9 -93.999 -9c-52 0 -97.667 8.66699 -137 26s-69.333 42 -90 74c-20.667 30.667 -31 66.334 -31 107.001c0 19.333 1.16699 37.333 3.5 54c2.33398 16.667 5.83398 37 10.5 61l7 39l216 939
c5.33496 25.333 8.00195 44.333 8.00098 57c-0.000976562 22.667 -3.83398 41 -11.499 55c-7.66699 14 -19.834 26 -36.5 36c-16 9.33301 -34.333 15.333 -54.999 18l-72 9l18 74l527 26l11 -16z" />
    <glyph glyph-name="m" unicode="m" horiz-adv-x="2052" 
d="M2001 63l-39.0029 -15.9941c-67.333 -26.667 -116.166 -44 -146.499 -52s-66.833 -12 -109.5 -12c-51.333 0 -96 8.83301 -134 26.5s-67 42.5 -87 74.5c-20 31.333 -30 66.666 -30 105.999c0.0449219 28 1.21191 52.833 3.50098 74.5
c2.36719 21.667 7.53418 48.5 15.501 80.5l72 266c14.667 61.333 22 106 22 134c0 68 -34 102 -102 102c-25.333 -0.00195312 -57.833 -11.6689 -97.5 -35.001c-39.6719 -23.333 -78.8389 -53.333 -117.501 -90l-165 -722h-331l140 610l17 81c3.33301 28 5 46 5 54
c0 68 -34.333 102 -103 102c-23.334 0 -52.001 -8.33301 -86 -25c-38 -17.334 -84 -50.667 -138 -100l-165 -722h-331l142 615l16 74c6 31.333 9 56 9 74c0 26.6689 -3.16699 47.002 -9.5 61c-6.33398 14 -17.167 24 -32.5 30c-16 6 -38.333 9 -67 9
c-18 0 -36.167 -2.33301 -54.5 -7s-41.166 -12 -68.499 -22l22 90c66 27.333 122.167 47.5 168.5 60.5s88.5 19.5 126.5 19.5c74 0 130 -14.333 168 -43s66 -73.334 84 -134.001h7c73.333 67.333 140.666 115.5 201.999 144.5s129.666 43.5 204.999 43.5
c45.333 -0.00585938 85.833 -8.17285 121.5 -24.5c35.667 -16.335 63.834 -39.168 84.501 -68.499c20.667 -28.667 32.667 -61.334 36 -98.001h7c54 47.333 101.333 84.166 142 110.499s82.334 46.166 125.001 59.499c43.3359 14 90.6689 21 141.999 21
c47.335 0 89.168 -9 125.5 -27c36.3369 -18 64.1699 -43.333 83.5 -76c18.667 -31.335 28 -66.668 28 -106c0 -24 -1.66699 -49.833 -5 -77.5s-8.33301 -52.834 -15 -75.501l-76 -281c-6.66699 -22 -12.667 -48.667 -18 -80s-8 -54 -8 -68c0 -38 8.5 -64.167 25.5 -78.5
s46.833 -21.5 89.5 -21.5c16.667 0 38 3.16699 64 9.5c26.0078 6.33301 45.6748 12.833 59.001 19.5z" />
    <glyph glyph-name="n" unicode="n" horiz-adv-x="1413" 
d="M1362 63l-42.9971 -16.9951c-66 -26.667 -114 -43.834 -144 -51.501s-66 -11.5 -108 -11.5c-51.334 0 -96.001 8.83301 -134.001 26.5s-67 42.5 -87 74.5c-20 31.333 -30 66.666 -30 105.999c0 28 1.16699 52.833 3.5 74.5s7.5 48.5 15.5 80.5l72 266
c14.6719 61.333 22.0049 106 22 134c0 34 -8 59.5 -24 76.5c-16.001 17 -41.668 25.5 -77.001 25.5c-28.667 0 -64.334 -10.5 -107.001 -31.5c-42.667 -21.001 -86.334 -52.168 -131.001 -93.5l-165 -722h-331l142 615l16 73c6 30 9 55 9 75
c0 37.333 -7.66699 63.666 -23 78.999c-16 14 -44.667 21 -86 21c-18 0 -36.167 -2.33301 -54.5 -7s-41.166 -12 -68.499 -22l22 90c66 27.333 122.167 47.5 168.5 60.5s88.5 19.5 126.5 19.5c75.333 0 133 -14.333 173 -43s67 -73.334 81 -134.001h7
c69.333 63.333 138.5 110.5 207.5 141.5s141.5 46.5 217.5 46.5c47.335 -0.00585938 89.002 -9.17285 125 -27.5c36.002 -18.334 63.6689 -43.501 83 -75.5c18.667 -31.335 28 -66.668 28 -106c0 -24 -1.66699 -49.833 -5 -77.5s-8.33301 -52.834 -15 -75.501l-76 -281
c-6.66699 -22 -12.667 -48.667 -18 -80s-8 -54 -8 -68c0 -38 8.5 -64.167 25.5 -78.5s46.833 -21.5 89.5 -21.5c16.667 0 38 3.16699 64 9.5c26.0049 6.33301 45.6719 12.833 59 19.5z" />
    <glyph glyph-name="o" unicode="o" horiz-adv-x="1302" 
d="M1187 358.5c-32.001 -77 -77.3359 -143.834 -136.001 -200.501c-130.667 -126.667 -300.334 -190 -509.001 -190c-94 0 -176.833 17.167 -248.5 51.5s-127.167 83.5 -166.5 147.5c-40 63.333 -60 138 -60 224s16.167 167.167 48.5 243.5s78.833 143.833 139.5 202.5
c60.667 56.668 133.834 100.835 219.501 132.501c85.667 31.6689 176.834 47.502 273.501 47.5c100 0 186.5 -16.5 259.5 -49.5c73.001 -33 129.168 -80.833 168.5 -143.5c39.3379 -63.333 59.0049 -138.333 59 -225c0 -83.333 -16 -163.5 -48 -240.5zM728.998 938.999
c-52 0 -99 -20.5 -141 -61.5s-76.667 -101.167 -104 -180.5c-21.333 -62 -37.5 -130.167 -48.5 -204.5s-16.5 -146.5 -16.5 -216.5c0 -79.333 12.833 -137.5 38.5 -174.5s64.834 -55.5 117.5 -55.5c50.667 0 96.667 21 138 63s74.333 98.333 99 169
c22.667 64 40.167 134.167 52.5 210.5s18.5 150.833 18.5 223.5c0 151.333 -51.333 227 -154 227z" />
    <glyph glyph-name="p" unicode="p" horiz-adv-x="1357" 
d="M1244.5 378c-31.668 -82.667 -74.832 -153.33 -129.498 -211.997c-120 -128 -261.667 -192 -425 -192c-59.333 0 -109.333 5.83301 -150 17.5s-76 29.5 -106 53.5l-61 -266l-6 -29c-2 -11.333 -3 -19 -3 -23c0 -16.666 3.33301 -30.999 10 -42.999s16.667 -21 30 -27
c12.667 -6 36.5 -12.5 71.5 -19.5c35 -6.99902 61.833 -10.832 80.499 -11.5l-16 -70h-722l16 70c66 7.33301 107.333 13.666 124 19c43.333 13.333 69.333 46 78 98l198 872l7 33c7.33301 33.333 12.166 57.166 14.499 71.499c2.33691 14.333 3.50391 28.833 3.5 43.5
c0 36.667 -7.83301 62.5 -23.5 77.499c-15.667 15 -44.167 22.5 -85.5 22.5c-16.667 0 -37 -3 -61 -9c-24 -6.00293 -44.667 -12.6699 -62 -20l22 90c66 27.333 122.167 47.5 168.5 60.5s88.5 19.5 126.5 19.5c38.667 0 71.334 -3.33301 98.001 -10s51 -18 73 -34
c32 -23.334 56.667 -57.001 74 -101h8c119.333 104 234.666 156 345.999 156c116 0 203.333 -34 262 -102c58 -69.334 87 -163.001 87 -281.001c-0.0078125 -86.667 -15.8408 -171.334 -47.5 -254.001zM912.503 423.004c14.333 64.667 21.502 135.667 21.502 213
c-0.00195312 75.333 -12.1689 132 -36.501 170c-24.334 38 -64.501 57 -120.5 57c-30.667 0 -63 -9.5 -97 -28.5c-34 -19.001 -61.333 -41.168 -82 -66.501l-124 -549c0 -48.667 13.833 -87.5 41.5 -116.5s65.5 -43.5 113.5 -43.5c41.333 0 81 15.667 119 47
s71 75.333 99 132c29.333 58.667 51.166 120.334 65.499 185.001z" />
    <glyph glyph-name="q" unicode="q" horiz-adv-x="1331" 
d="M669 59c-44 -32 -87.833 -55.002 -131.5 -69.002s-84.5 -21 -122.5 -21c-113.333 0 -200 33.167 -260 99.5s-90 160.833 -90 283.5c0 88.667 15.5 173.167 46.5 253.5s74.833 151.833 131.5 214.5c56 62 120.833 110 194.5 144s150.5 51 230.5 51
c63.333 0 117 -6 161 -18c43.333 -13.333 82 -33.333 116 -60l306 63l14 -16l-277 -1205l-6 -30l-3 -22c0.0078125 -16.666 3.34082 -30.999 10 -42.999c6.66699 -12 16.667 -21 30 -27c12 -6 34.833 -12.5 68.5 -19.5c33.667 -6.99902 59.834 -10.832 78.501 -11.5l-16 -70
h-722l16 70l41 4l26 3c32.667 4.66699 57 10.167 72.999 16.5c16 6.33301 29.667 16.5 41 30.501c12.668 16.667 21.335 37.667 26 63l81 355h-8zM883 759.998c-0.00195312 42.667 -10.668 76.6689 -32 102.002c-14.667 18.668 -31.667 32.335 -51 41
c-19.333 8.67676 -43.333 13.0098 -72 12.999c-42 0 -81.333 -14.833 -118 -44.5s-70 -72.834 -100 -129.501c-28 -54 -49.5 -115.667 -64.5 -185s-22.5 -139 -22.5 -209c0 -32 2.83301 -62.5 8.5 -91.5s13.5 -52.5 23.5 -70.5c24 -43.333 65.667 -65 125 -65
c30.001 0 61.334 9.33301 94 28c32.667 18.667 60.667 41 84 67z" />
    <glyph glyph-name="r" unicode="r" horiz-adv-x="1093" 
d="M1054 648c-19.333 -23.333 -40.5029 -40.3281 -63.5029 -50.9951c-23.001 -10.667 -52.168 -16 -87.5 -16c-31.334 0 -59.167 5.5 -83.5 16.5c-24.335 11 -43.502 26.167 -57.5 45.5c-13.3359 18.6689 -20.0029 38.002 -20 58c0 23.333 2.16699 42.666 6.5 57.999
s14.833 41.333 31.5 78l14 32c-42.667 -18.001 -80 -39.668 -112 -65.001c-32.001 -25.333 -63.668 -57.333 -95 -96l-158 -708h-331l138 615l16 73c6 30 9 55 9 75c0 26.6689 -3.16699 47.002 -9.5 61c-6.33398 14 -17.167 24 -32.5 30c-16 6 -38.333 9 -67 9
c-18 0 -36.167 -2.33301 -54.5 -7s-41.166 -12 -68.499 -22l22 90c66 27.333 122.167 47.5 168.5 60.5s88.5 19.5 126.5 19.5c75.333 0 133 -14.333 173 -43s67 -73.334 81 -134.001h7c66 70 122.167 118.833 168.5 146.499c46.333 27.6689 95.5 41.502 147.5 41.5
c56.667 -0.00195312 101.334 -18.1689 134.001 -54.5c32.667 -36.334 49 -87.501 49 -153.501c-0.00390625 -67.333 -17.3369 -120.333 -51.999 -159z" />
    <glyph glyph-name="s" unicode="s" horiz-adv-x="1059" 
d="M234.5 -14c-57 12.667 -103.164 30.665 -138.497 53.998c-28.667 18.667 -50 39.834 -64 63.501s-21 48.167 -21 73.5c0 26 6.66699 50 20 72s32 39.667 56 53c24.667 13.334 52.334 20.001 83.001 20c70 0 126 -36.333 168 -109
c16.667 -28.667 30.667 -60.334 42 -95.001l24 -77c74 0 130.667 15.833 170 47.5s59 76.167 59 133.5c-0.00488281 22.667 -5.17188 42.334 -15.5 59.001c-10.334 16.667 -26.501 32.334 -48.5 47.001c-18.001 11.334 -42.668 23.001 -74.001 35.001l-89 32
c-84 28 -148.667 66.833 -194 116.5s-68 108.834 -68 177.5c0 80 26.667 143.833 80 191.499c53.333 47.668 119.666 83.501 198.999 107.5c63.334 18 137.334 27 222 27c56.667 -0.0078125 106.167 -3.1748 148.5 -9.5c42.333 -6.33691 80.166 -17.1699 113.499 -32.499
c35.333 -16.002 63 -36.6689 83 -62c19.333 -27.334 29 -58.667 29 -93.999c-0.00390625 -24.667 -6.1709 -47.167 -18.5 -67.5c-12.333 -20.335 -29.833 -36.502 -52.5 -48.501c-22.667 -12 -49 -18 -79 -18c-64.667 0 -117.667 33.667 -159 101
c-16.001 28.667 -28.668 57.667 -38 87l-23 74c-32.001 -2.66699 -62.168 -11.334 -90.501 -26.001c-28.334 -14.667 -51.167 -34 -68.5 -58c-17.333 -25.334 -26 -52.667 -26 -82c0 -25.335 4 -46.002 12 -62c8 -16.001 20.667 -30.668 38 -44
c17.333 -12 39.333 -23 66 -33c28.667 -12.667 61.334 -24.667 98 -36c96 -34 165.667 -73.5 209 -118.5s65 -102.833 65 -173.5c0 -48 -11.5 -94.333 -34.5 -139s-54.5 -81 -94.5 -109c-48.667 -33.333 -103.5 -57.833 -164.5 -73.5s-135.5 -23.5 -223.5 -23.5
c-76.667 0 -143.5 6.33301 -200.5 19z" />
    <glyph glyph-name="t" unicode="t" horiz-adv-x="854" 
d="M269.5 0.5c-40.333 17.667 -71.166 42.5029 -92.499 74.5029c-22 31.333 -33 66.666 -33 105.999c0 23.333 1.16699 44.166 3.5 62.499s8.16602 49.166 17.499 92.499l124 532h-183l24 103h187l72 303h324l-70 -303h271l-24 -103h-270l-122 -532
c-4.66699 -16 -9.16699 -37.5 -13.5 -64.5s-6.5 -45.5 -6.5 -55.5c0.000976562 -36 10.168 -61.833 30.5 -77.5c20.333 -15.667 52.833 -23.5 97.5 -23.5c18.001 0 43.834 3.33301 77.5 10c33.667 6.66699 61.834 14 84.5 22l-22 -90
c-60.667 -26.667 -120 -47.167 -178 -61.5s-111.333 -21.5 -160 -21.5c-52 0 -98.167 8.83301 -138.5 26.5z" />
    <glyph glyph-name="u" unicode="u" 
d="M796 159c-73.334 -67.333 -141.669 -115.497 -205.002 -144.497s-135 -43.5 -215 -43.5c-47.333 0 -88.666 9 -123.999 27s-62 43.333 -80 76c-18.667 30.667 -28 66 -28 106c0.000976562 27.333 1.33398 51 4 71c2.66699 20 8.66699 47.333 18 82l75 281
c5.33301 22.667 11 50 17 81.999c6 32 9 54 9 66c0 26 -3.16699 46 -9.5 60c-6.33301 14.0029 -17.166 24.3359 -32.499 30.999c-16 6 -38.667 9 -68 9c-18 0 -36.167 -2.33301 -54.5 -7s-41.166 -12 -68.499 -22l22 90c66 27.333 122.167 47.5 168.5 60.5
s88.5 19.5 126.5 19.5c50.667 0 94.834 -8.83301 132.501 -26.5s66.5 -42.5 86.499 -74.5c19.333 -31.334 29 -66.667 29 -106c0 -22 -1.83301 -48 -5.5 -78c-3.66699 -30.001 -8.5 -55.668 -14.5 -77.001l-73 -266c-6 -18.667 -11.167 -42 -15.5 -70s-6.5 -49.333 -6.5 -64
c0 -34 7.83301 -59.5 23.5 -76.5s40.5 -25.5 74.499 -25.5c28.667 0 64.167 11.167 106.5 33.5s83.833 52.833 124.5 91.5l165 722l319 14l12 -14l-142 -615c-6.00879 -22 -11.8418 -48.667 -17.5 -80c-5.68359 -31.333 -8.5166 -54 -8.49902 -68
c0 -38 8.5 -64.167 25.5 -78.5s46.833 -21.5 89.5 -21.5c16.667 0 38 3.16699 64 9.5c26.0049 6.33301 45.6719 12.833 59 19.5l-22 -90c-6 -2 -19 -7.33301 -39 -16c-67.333 -26.667 -116.166 -44 -146.499 -52s-66.833 -12 -109.5 -12c-70.667 0 -128.834 16 -174.501 48
s-73.834 75 -84.501 129h-7z" />
    <glyph glyph-name="v" unicode="v" horiz-adv-x="1254" 
d="M1161 479c-32.001 -96.667 -76.334 -181.994 -133 -255.994c-67.333 -84.667 -141.833 -148.334 -223.5 -191.001s-168.5 -64 -260.5 -64c-78.667 0 -147.167 12.5 -205.5 37.5s-103.166 61.5 -134.499 109.5c-32 48 -48 106 -48 174c0 24 3.66699 51.333 11 82
s20 73.334 38 128.001l7 22l38 125c11.334 44 17.001 82.667 17 116c0 36.667 -8.16699 62.5 -24.5 77.499c-16.333 15 -44.833 22.5 -85.5 22.5c-18 0 -36.167 -2.33301 -54.5 -7s-41.166 -12 -68.499 -22l22 90c66 27.333 122.167 47.5 168.5 60.5s88.5 19.5 126.5 19.5
c50.667 0 94.834 -8.83301 132.501 -26.5s66.5 -42.5 86.499 -74.5c19.333 -31.334 29 -66.667 29 -106c0 -35.333 -5 -76.833 -15 -124.5s-23 -95.834 -39 -144.501c-20.667 -67.333 -34.834 -116 -42.501 -146c-7.66895 -30 -11.502 -57 -11.5 -81
c0 -60 14.5 -106.167 43.5 -138.5s72.167 -48.5 129.5 -48.5c61.333 0 117.666 15.5 168.999 46.5s92 74.833 122 131.5c30 57.333 45 123 45 197c0 27.333 -3.33301 54.666 -10 81.999c-7.33789 15.333 -21.6709 31.666 -43 48.999c-27.333 22 -48.333 41 -63 57
s-28.667 36 -42 60c-14.667 24.667 -22 58.667 -22 102c0.00292969 32 5.83594 59.167 17.499 81.5c11.667 22.333 29.167 41.833 52.5 58.5c16.002 11.333 34.835 20.333 56.5 27c21.6689 6.6748 42.8359 10.0078 63.501 10c62.001 0 110.668 -22.333 146 -67
c35.3379 -44.667 53.0049 -105.334 53 -182.001c0 -94.667 -16 -190.334 -48 -287.001z" />
    <glyph glyph-name="w" unicode="w" horiz-adv-x="1912" 
d="M1819 476.5c-32 -95.667 -76.6719 -180.164 -134.005 -253.497c-63.333 -81.333 -136.5 -144.166 -219.5 -188.499s-174.167 -66.5 -273.5 -66.5c-96.667 0 -175.334 18.667 -236 56c-60.667 37.333 -102 92.333 -124 165c-70 -77.333 -139.333 -133 -208 -167
s-144.667 -51 -228 -51c-49.333 0 -93.166 10.833 -131.499 32.5s-67.5 51.834 -87.5 90.501c-20.667 37.333 -31 80.666 -31 129.999c0 22 2.66699 47.333 8 76l13 53l6 24l68 237c5.33301 22.667 11 50 17 81.999c6 32 9 54 9 66
c-0.000976562 37.333 -7.83398 63.333 -23.5 78c-15.667 14.6699 -44.5 22.0029 -86.5 22c-18 0 -36.167 -2.33301 -54.5 -7s-41.166 -12 -68.499 -22l22 90c66 27.333 122.167 47.5 168.5 60.5s88.5 19.5 126.5 19.5c51.334 0 95.667 -8.83301 133 -26.5s66 -42.5 86 -74.5
c19.333 -32.667 29 -69 29 -109c0 -23.334 -3.5 -56.001 -10.5 -98c-7.00293 -42 -14.1699 -74 -21.5 -96l-58 -194c-5.33301 -16 -10.833 -40.667 -16.5 -74c-5.66895 -33.333 -8.50195 -56.666 -8.5 -69.999c0.000976562 -36 10.168 -65.333 30.5 -88
c20.333 -22.667 45.166 -34 74.499 -34c30 0 57.5 5.5 82.5 16.5s52.5 27.5 82.5 49.5c25.333 18 49.333 40.333 72 67c0 12.667 1.66699 32.667 5 60s7.66602 52.333 12.999 75l132 579l319 14l12 -14l-132 -573c-4.01758 -13.333 -7.35059 -32.5 -9.99902 -57.5
c-2.70215 -25 -4.03516 -49.167 -4 -72.5c0.000976562 -112 54.668 -168 164 -168c60.667 0 116.334 15.667 167.001 47s91 75 121 131c30 57.333 45 122.333 45 195c-0.0253906 27.333 -3.3584 54.666 -10 81.999c-7.33301 15.333 -21 31 -41 47
c-27.333 21.333 -48.5 40.166 -63.5 56.499s-29.5 37.5 -43.5 63.5c-14.6777 26.667 -22.0107 60.334 -21.999 101c0 60.667 23.333 107.334 70 140c14.667 10.6719 33.5 19.5049 56.5 26.499c23.0068 7 44.1738 10.5 63.501 10.5c62.002 0 110.669 -22.333 146.001 -67
c35.3438 -44.667 53.0107 -105.334 53 -182.001c0 -97.333 -16 -193.833 -48 -289.5z" />
    <glyph glyph-name="x" unicode="x" horiz-adv-x="1195" 
d="M1193.5 767c-16.333 -28.667 -39.1621 -50.999 -68.4951 -66.999c-28.668 -16 -61.335 -24 -98.001 -24c-26.667 0 -53.5 3 -80.5 9s-58.5 15 -94.5 27c-18.667 -12 -57.667 -58 -117 -138c23.333 -98 42.666 -170.333 57.999 -217c14.667 -39.333 28.667 -83 42 -131
c12.667 -40 30.667 -68.833 54 -86.5s56.666 -26.5 99.999 -26.5c16.668 0 38.501 3.33301 65.5 10c27.0059 6.66699 48.1729 13.334 63.5 20.001l-22 -90c-66.001 -27.333 -123.668 -47.5 -173.001 -60.5s-93.333 -19.5 -132 -19.5c-64.667 0 -117.334 12.333 -158.001 37
c-26 16 -47.333 35.333 -64 58s-30.667 52.334 -42 89.001c-4.66699 14.667 -12 42.667 -22 84c-7.33301 33.333 -14 61 -20 83l-42 -64l-38 -59c-39.333 -59.333 -72.5 -104.5 -99.5 -135.5s-53.833 -53.167 -80.5 -66.5c-27.333 -14.667 -59.333 -22 -96 -22
c-26.667 0 -51.167 6.16699 -73.5 18.5s-40.166 29.833 -53.499 52.5c-13.333 23.333 -20 49 -20 77c0 37.333 8.33301 70.666 25 99.999s39.667 52 69 68c28.667 16 61 24 97 24c26 -0.000976562 51.833 -2.83398 77.5 -8.49902c25.667 -5.66699 58.167 -15.167 97.5 -28.5
c28.667 22.667 67 67.334 115 134.001c-17.333 72 -32.666 130.167 -45.999 174.5s-30.333 98.5 -51 162.5c-12.667 38.667 -31 67.167 -55 85.5s-57 27.5 -99 27.5c-17.333 0 -35.5 -2.33301 -54.5 -7s-43.833 -12.334 -74.5 -23.001l22 90
c56.667 25.333 112.5 45 167.5 59s100.833 21 137.5 21c34.667 0 63.167 -2.5 85.5 -7.5s46.5 -14.833 72.5 -29.5c26.667 -16.667 48.667 -36.834 66 -60.501s30.666 -52.5 39.999 -86.5c1.33301 -4.66699 2.66602 -9.16699 3.99902 -13.5
c1.33301 -4.33691 2.33301 -8.16992 3 -11.5l15 -58l17 -74l44 66l38 60c34.667 55.333 66.334 99.166 95 131.499c28.667 32.333 57.667 56.166 87 71.499c29.335 15.333 60.668 23 94 23c42 0 77 -14 105 -42c28 -28.001 42 -63.668 42 -107
c0 -37.333 -8.16699 -70.333 -24.5 -99z" />
    <glyph glyph-name="y" unicode="y" horiz-adv-x="1371" 
d="M796 160c-72 -66 -140.002 -113.001 -204.002 -141.001s-135.333 -42 -213.999 -42c-46.667 0 -88 9.16699 -124 27.5s-63.333 43.833 -82 76.5c-18.667 31.333 -28 67 -28 107c0.000976562 27.333 1.33398 51 4 71c2.66699 20 8.66699 47.333 18 82l75 273
c5.33301 22.667 11 50 17 81.999c6 32 9 54 9 66c0 26.6689 -3.16699 47.002 -9.5 61c-6.33301 14 -17.166 24 -32.499 30c-14.667 6 -37.334 9 -68.001 9c-18 0 -36.167 -2.33301 -54.5 -7s-41.166 -12 -68.499 -22l22 90c66 27.333 122.167 47.5 168.5 60.5
s88.5 19.5 126.5 19.5c50.667 0 94.834 -8.83301 132.501 -26.5s66.5 -42.5 86.499 -74.5c19.333 -31.334 29 -66.667 29 -106c0 -22 -1.83301 -48 -5.5 -78c-3.66699 -30.001 -8.5 -55.668 -14.5 -77.001l-73 -260c-6 -17.333 -11.167 -40.166 -15.5 -68.499
s-6.5 -49.833 -6.5 -64.5c0.000976562 -34.667 8.16797 -60.334 24.5 -77.001c16.333 -16.667 42.166 -25 77.499 -25c31.333 0 69 11.333 113 34s85 52.334 123 89.001l152 717l317 14l14 -16l-175 -813c-26 -116 -62 -213.667 -108 -293s-103 -144.666 -171 -195.999
c-56.667 -42 -120.5 -73.5 -191.5 -94.5s-144.5 -31.5 -220.5 -31.5c-75.333 0 -140.166 5.83301 -194.499 17.5s-96.166 27.834 -125.499 48.501c-24.667 17.333 -42.334 36.666 -53.001 58c-10.667 21.333 -16 45.333 -16 72c0 26 6.5 50.333 19.5 73s30.833 41 53.5 55
c23.333 13.333 50 20 80 20c62 0 119 -33 171 -99c16 -18.667 30.667 -40.334 44 -65.001c13.334 -24.667 29.667 -57.667 49 -99c12.667 2 28.334 6.5 47.001 13.5c18.668 7 34.001 14.5 45.999 22.5c16 10.667 30.667 22 44 34s28 28.667 44 50.001
c34.667 48 64.667 104.667 90 170s47 143 65 233h-7z" />
    <glyph glyph-name="z" unicode="z" horiz-adv-x="1059" 
d="M361 84c57.334 -1.33301 109.666 -2 156.999 -2c41.333 0 65.666 0.333008 72.999 1l96 6c50.001 6.66699 88.334 35 115 85c9.33301 18 26 46 50 84c20.668 33.333 39.335 68.333 56 105h70l-71 -363h-934l18 83l697 819h-118
c-64.667 -0.0273438 -108.167 -1.19434 -130.5 -3.5c-22.333 -2.33691 -49.166 -9.16992 -80.499 -20.5c-23.333 -9.33398 -50.166 -34.501 -80.499 -75.5c-30.333 -41 -55.5 -85.833 -75.5 -134.5h-71l62 318h890l-15 -72z" />
    <glyph glyph-name="braceleft" unicode="{" horiz-adv-x="1024" 
d="M777 -333c-180.667 0 -308.999 16 -384.999 48c-48.667 22 -85 51.833 -109 89.5s-36 85.834 -36 144.501c0 15.333 1 30.666 3 45.999l7 52c4 28.667 13.333 70.334 28 125.001c14.667 56 24.5 98.167 29.5 126.5s7.5 54.833 7.5 79.5c0 36 -7.16699 64.5 -21.5 85.5
s-39.166 37.5 -74.499 49.5c-36 12 -87.333 20 -154 24l34 150c82 5.33301 148.167 15.5 198.5 30.5c50.334 15 90.001 38.667 119.001 71s48.167 77.166 57.5 134.499c6.66699 38.668 11.667 77.001 15 115c4.00195 42.0029 8.16895 78.1699 12.5 108.5
c4.33301 30.333 12.666 64.333 24.999 102s29.5 71.834 51.5 102.501c35.333 48.667 80.333 87 135 115s120 47 196 57c76.002 9.36816 160.669 14.0352 254.001 14l-15 -83l-20 -2c-40.6699 -2.7002 -71.0029 -6.5332 -91 -11.5c-20.001 -5 -43.668 -14.5 -71 -28.5
c-30.667 -16.667 -54.5 -39.167 -71.5 -67.5c-17.002 -28.333 -31.1689 -69.5 -42.501 -123.5l-34 -190c-13.334 -68.667 -34.501 -126.167 -63.5 -172.5c-29 -46.334 -66.833 -85.167 -113.5 -116.5c-39.334 -25.335 -82.001 -46.002 -128.001 -62
c-46 -16 -100 -29.333 -162 -40l-18 -76c96.667 -21.334 167.334 -54.834 212.001 -100.5c44.667 -45.667 67 -106.5 66.999 -182.5c0 -14 -1 -31.833 -3 -53.5c-2.00488 -21.667 -4.67188 -39.834 -8.00098 -54.501l-40 -190c-3.3418 -14.667 -5.00879 -34.667 -5 -60
c0 -35.333 6 -64 18 -86c12.002 -22 30.335 -40 55 -54c34.667 -18 86.667 -29 156 -33z" />
    <glyph glyph-name="bar" unicode="|" horiz-adv-x="794" 
d="M505 1523v-1947h-171v1947h171z" />
    <glyph glyph-name="braceright" unicode="}" horiz-adv-x="1024" 
d="M942 516c-66.667 -4.66699 -116.331 -10.166 -148.998 -16.499s-65.667 -17.5 -99 -33.5c-68.667 -34.667 -111 -96.667 -127 -186c-7.33301 -39.333 -12.333 -77.333 -15 -114c-4.66699 -66.667 -13.5 -126 -26.5 -178s-33.5 -98 -61.5 -138
c-38.667 -55.333 -87.334 -96.333 -146.001 -123c-58.667 -26.666 -119 -43.499 -181 -50.499s-134.667 -10.5 -218 -10.5h-41l15 83c42 2.66602 77.167 6.99902 105.5 12.999s54.166 15.667 77.499 29c58 33.333 95.667 97 113 191l34 190
c12 66.667 32.667 123.334 62 170.001c29.334 46.667 67.667 86.334 115 119.001c62 40.667 158.667 74.667 290 102l18 76c-45.333 9.33301 -82.333 21 -111 35c-34 14 -63.667 32.667 -89 56s-44.666 50 -57.999 80c-14 31.333 -21 68.666 -21 111.999
c0 19.333 0.833008 36.166 2.5 50.499s4.5 33.5 8.5 57.5l40 190c3.33691 18.667 5.00391 38.667 5 60c-0.000976562 43.335 -8.83398 77.168 -26.499 101.5c-17.667 24.3418 -42.667 41.5088 -75 51.501c-32.333 10.0107 -74.833 16.6777 -127.5 20l15 83
c93.333 0 170.166 -3.5 230.499 -10.5s111.833 -19.5 154.5 -37.5c48.667 -22.0029 85 -51.8359 108.999 -89.5c24 -37.6689 36 -85.8359 36 -144.5c0 -31.333 -3.33301 -64 -10 -98c-6.66699 -36.667 -15.667 -76.667 -27 -120c-12 -46.667 -22 -91.334 -30 -134.001
c-5.33887 -33.334 -8.00586 -59.001 -8 -77c0.00292969 -38.001 8.83594 -68.168 26.5 -90.5c17.667 -22.335 44.834 -38.502 81.5 -48.5c32.667 -10.0029 80 -16.6699 142 -20.001z" />
    <glyph glyph-name="asciitilde" unicode="~" horiz-adv-x="1440" 
d="M1317 735c-11.333 -31.334 -28.998 -68.999 -52.998 -112.998c-53.333 -89.334 -115 -153.334 -185 -192c-38.667 -22.667 -81 -34 -127 -34c-43.333 0 -84.333 6.83301 -123 20.5s-84 35.834 -136 66.501c-50.001 29.333 -91.668 51.333 -125.001 66
c-33.334 14.6689 -62.667 22.002 -88 22c-43.333 -0.000976562 -81.333 -15.668 -114 -47c-32.667 -31.333 -64.334 -82 -95.001 -152l-104 42c12.667 36 30 72.833 52 110.5s47.333 72.834 76 105.5c33.333 37.333 70.666 67.166 111.999 89.499
c41.334 22.333 83.001 33.5 125.001 33.5c46 0 87.667 -6.83301 125 -20.5s82.666 -36.167 135.999 -67.5c46 -27.335 81 -47.002 105 -59.001c32.668 -18.667 68.001 -28 106 -28c43.333 0 81.833 16.5 115.5 49.5s64.834 82.833 93.501 149.499z" />
    <glyph glyph-name="uni00A0" unicode="&#xa0;" horiz-adv-x="520" 
 />
    <glyph glyph-name="exclamdown" unicode="&#xa1;" horiz-adv-x="771" 
d="M728 1170.5c-17.334 -29 -41.002 -52.1689 -71.001 -69.502c-30.667 -17.333 -62.667 -26 -96 -26c-33.334 0 -64.667 8.5 -94 25.5c-29.333 17.002 -53 40.1689 -71 69.5c-18 29.3369 -27 60.0039 -27 92.001c0.000976562 33.3359 8.66797 64.1689 26.001 92.5
c17.334 28.333 41.001 50.833 71.001 67.5c28.667 16.667 60.334 25 95 25c34.001 -0.0166016 65.834 -8.34961 95.5 -25c29.667 -16.6689 53.5 -39.002 71.499 -66.999c17.333 -29.333 26 -60.333 26 -93c-0.00390625 -32 -8.6709 -62.5 -26 -91.5zM534.999 955.998
c-7.33887 -162.667 -11.0068 -285.333 -11.001 -368v-271c0 -32 -1 -63.833 -3 -95.5s-5 -54.167 -9 -67.5c-14 -57.333 -42.333 -102.166 -84.999 -134.499c-42.667 -32.333 -92.667 -48.5 -150 -48.5c-30 0 -56.833 6.33301 -80.5 19s-42.167 30 -55.5 52
c-14 21.333 -21 45.333 -21 72c0 23.333 4.66699 50.166 14 80.499s25 69.5 47 117.5l121 266c55.333 122 107.333 248 156 378h77z" />
    <glyph glyph-name="cent" unicode="&#xa2;" horiz-adv-x="1240" 
d="M1124 262c-52.667 -75.333 -110.332 -135.334 -172.998 -180.001c-39.335 -27.333 -80.502 -49.166 -123.501 -65.499c-43 -16.333 -91.5 -28.166 -145.5 -35.499l-61 -280h-99l61 278c-99.333 1.33301 -184 18.166 -254 50.499s-123.333 78.833 -160 139.5
c-36.667 59.333 -55 131.666 -55 216.999c0 110 29.5 212.667 88.5 308s141.5 172.333 247.5 231s226.667 90.667 362 96l57 255h99l-57 -256c47.333 -5.33496 88.166 -14.168 122.499 -26.499c34.3359 -12.335 64.5029 -28.502 90.5 -48.5
c20.0068 -16 35.6738 -34.333 47.001 -55c11.3428 -20.667 17.0098 -41 17.001 -61c-0.0136719 -32.001 -7.84668 -60.668 -23.5 -86c-15.6689 -25.333 -38.502 -45.333 -68.5 -60c-30.6689 -15.3359 -66.3359 -23.0029 -107.001 -23c-20 0 -39.333 5.5 -58 16.5
s-34.334 26.5 -47.001 46.5c-14 22.001 -21.333 46.334 -22 73l-149 -678c70.667 0 132.834 15.333 186.5 46c53.667 30.667 106.834 80.667 159.5 150zM794.002 937.999c-36 -4.00195 -72.5 -17.667 -109.5 -40.998c-37 -23.333 -71.5 -55.333 -103.5 -96
c-36 -46.667 -63.833 -102.834 -83.5 -168.501c-19.668 -65.667 -29.501 -138.834 -29.5 -219.501c0 -72.667 13 -132.5 39 -179.5s63 -79.833 111 -98.5z" />
    <glyph glyph-name="sterling" unicode="&#xa3;" horiz-adv-x="1413" 
d="M1021 1372c-20.667 0 -39.333 -3.16895 -56 -9.50195s-36.334 -18.833 -59.001 -37.5c-26.667 -24 -49.667 -55 -69 -93c-19.335 -38 -35.002 -87 -47 -147c-8.00293 -38.667 -17.6699 -96 -29 -172c-10 -70 -20 -128 -30 -174h394l-25 -111h-384
c-20.001 -63.333 -43.668 -115.833 -71.001 -157.5c-27.334 -41.667 -59.667 -76.834 -97 -105.5c-36 -28 -83.333 -56 -142 -84v-16h835l-61 -265h-1171l44 188c62.667 20 114.334 45 155.001 75s73 65.667 97 107c20 36.667 35.333 75.5 46 116.5
s18.334 88.167 23.001 141.5h-200l25 111h190l15 113l19 131c14 89.333 51 170.333 111 243s136.333 130 228.999 172c92.667 41.3389 193 62.0059 301 62c65.335 0 124.502 -11 177.5 -33c53 -22 94.5 -52.667 124.5 -92c30 -38.667 45 -82.667 45 -132
c-0.0078125 -58 -15.3408 -104.667 -45.999 -140c-30.6719 -35.333 -71.3389 -53 -122.001 -53c-52.002 0 -94.335 14.5 -126.999 43.5c-32.6709 29.002 -49.0039 67.1689 -49 114.5c0 24.667 3.5 50.334 10.5 77.001s19.5 64.667 37.5 114
c-18 6.66699 -32.667 10.334 -44 11.001z" />
    <glyph glyph-name="currency" unicode="&#xa4;" horiz-adv-x="1440" 
d="M925 276c-36.667 -18.667 -68.5029 -32.167 -95.5029 -40.5c-27 -8.33398 -56.5 -12.501 -88.5 -12.5c-28.667 0.000976562 -59 4.83398 -91 14.5c-32 9.66699 -62.333 22.5 -91 38.5l-238 -233l-106 115l231 233c-16 26 -28.833 55.333 -38.499 88
c-9.66797 32.667 -14.501 63.334 -14.499 92c0.00195312 29.333 4.66895 60 14.001 92c9.33301 32.001 22.333 62.334 39 91l-231 237l110 109l234 -234c26.667 16 56.334 29 89 39c32.667 10 63.667 15 93 15c28.667 0 58.834 -4.5 90.5 -13.5
c31.668 -9 61.501 -21.833 89.5 -38.5l234 232l112 -109l-231 -237c15.3369 -27.334 28.0039 -57.501 38 -90.5c10 -33 15 -63.833 15 -92.5c0 -26.667 -5.16699 -57.167 -15.5 -91.5s-22.833 -63.833 -37.5 -88.5l231 -235l-106 -111zM916.997 674.5
c-18.001 31.667 -42.667 56.832 -73.999 75.498c-30.667 18.6699 -64.667 28.0029 -102 28c-37.334 0 -71.667 -9 -103 -27c-31.334 -18 -56.001 -43 -74 -75c-18.667 -31.333 -28 -66.333 -28 -105c0 -36 9.16699 -69.667 27.5 -101s43.5 -56.666 75.5 -75.999
c31.333 -19.333 65.333 -29 102 -29c36 0.000976562 69.5 9.16797 100.5 27.5c31.001 18.334 55.834 43.501 74.5 75.501c18.6699 30.667 28.0029 65 27.999 103c0 37.333 -9 71.833 -27 103.5z" />
    <glyph glyph-name="yen" unicode="&#xa5;" horiz-adv-x="1500" 
d="M1684 1347c-35.333 -4 -70.5039 -14.5039 -105.504 -31.5039s-67.5 -38.167 -97.5 -63.5c-24 -20.0029 -54 -49.3359 -90 -87.999c-60.002 -65.333 -135.335 -150.333 -226 -255l-253 -294l-9 -34h434l-26 -112h-431l-54 -236l-6 -28c-2 -10.667 -3 -21 -3 -31
c0 -33.333 14.667 -56.666 44 -69.999c12 -5.33301 33.167 -11.333 63.5 -18s57.833 -11.334 82.5 -14.001l-17 -72h-779l17 72c18.667 0.666992 46.334 3.5 83.001 8.5s62 9.5 76 13.5c48.667 20.667 78.334 56.334 89.001 107.001l61 268h-431l26 112h433l5 22
c-70.667 203.333 -138.667 392.666 -204 567.999c-14.667 37.333 -30.334 67.333 -47 90c-16.667 22.667 -36.334 40.334 -59 53.001c-15.333 8.66699 -34.333 16.167 -57 22.5s-41.667 9.83301 -57 10.5l17 72h763l-17 -72l-54 -2
c-22.001 -0.728516 -44.168 -3.06152 -66.5 -7c-22.335 -4 -40.168 -9.66699 -53.5 -17c-15.3359 -9.33301 -23.0029 -20.666 -23 -33.999c0 -10 2 -24 6 -42c4.00098 -30.667 31.334 -115.667 82 -255l31 -86l16 -44l41 -113l210 244c121.335 144 190.002 228.333 206 253
c10 16 15 29.333 15 40c-0.00488281 18.667 -11.3379 33 -33.999 43c-26.002 9.34375 -66.335 16.0107 -120.999 20.001l17 72h520z" />
    <glyph glyph-name="brokenbar" unicode="&#xa6;" horiz-adv-x="794" 
d="M505 1523v-800h-171v800h171zM505 386v-810h-171v810h171z" />
    <glyph glyph-name="section" unicode="&#xa7;" horiz-adv-x="1154" 
d="M55 -102.5c-10.667 23 -15.9961 46.835 -15.9961 71.502c0 36.667 12 66.834 36 90.501s55 35.5 93 35.5c27.333 0 51.5 -7 72.5 -21s39.833 -35 56.5 -63c12.667 -22.667 24 -48.334 34 -77.001l29 -83c5.33301 0 8.33301 -0.333008 9 -1h8c80.667 0 142 15.333 184 46
s63 75.667 63 135c-0.00195312 24 -5.66895 45.333 -17 64c-11.333 18.667 -29.333 36.667 -54 54c-25.334 17.333 -53.667 33.666 -85 48.999l-108 49c-78 36 -135.667 76.667 -173 122s-56 98 -56 158c0 55.333 10.833 103.666 32.5 144.999s56.167 78.333 103.5 111
c46.667 32.667 110.334 62.667 191.001 90c-112.667 52 -169 129.667 -169 233c0 65.335 22.833 124.668 68.5 178c45.667 53.3359 108.834 95.0029 189.501 125c80 30 169.667 45 269 45c120 0 209.333 -23 268 -69c21.333 -18.0049 37.333 -38.3379 48 -60.999
c10.667 -22.6689 16 -46.3359 16 -71c-0.00390625 -37.333 -11.3369 -67.666 -33.999 -90.999c-22.668 -23.333 -54.335 -35 -95.001 -35c-27.334 0.00878906 -51.501 7.17578 -72.5 21.5c-21 14.3379 -39.833 35.1709 -56.5 62.5
c-16.002 27.3359 -27.6689 53.6689 -35.001 79c-8.66699 28 -18 55 -28 81c-0.666992 0.666992 -3.33398 1 -8.00098 1h-8c-73.334 0 -132.501 -16 -177.501 -48s-67.5 -75.667 -67.5 -131c0.00195312 -29.333 7.83496 -54.333 23.5 -75
c15.667 -20.6729 34.334 -37.5059 56 -50.5c21.667 -13 50.5 -27.5 86.499 -43.5c26.667 -14 55.667 -27.333 87 -40l19 -9c79.333 -36.001 137.333 -76.168 174 -120.5c36.667 -44.334 55 -97.167 55 -158.5c-0.00195312 -80.667 -25.835 -148.834 -77.5 -204.501
c-51.667 -55.667 -134.834 -103.167 -249.501 -142.5c52 -22.667 92 -53.334 120 -92.001s42 -83 42 -133c0 -66.667 -21.833 -127.167 -65.5 -181.5s-105.5 -96.833 -185.5 -127.5c-82 -31.333 -175 -47 -279 -47c-122.667 0 -211.667 23 -267 69
c-22.667 17.333 -39.334 37.5 -50.001 60.5zM780.004 675.502c-12.001 21 -30.668 41.5029 -56 61.5029c-20.667 15.333 -43.834 29.833 -69.501 43.5c-25.667 13.6689 -65.834 33.502 -120.501 59.5c-40 -26.667 -72.167 -59.834 -96.5 -99.501s-36.5 -79.167 -36.5 -118.5
c0.000976562 -26.667 6.66797 -51.834 20.001 -75.501c13.334 -23.667 32.001 -44.5 56 -62.5c19.334 -15.333 41.001 -29.333 65.001 -42c21.333 -12 62 -32 122 -60c47.333 32 81.5 65.5 102.5 100.5s31.5 75.5 31.5 121.5c0 26.667 -6 50.5 -18 71.499z" />
    <glyph glyph-name="dieresis" unicode="&#xa8;" horiz-adv-x="1024" 
d="M539 1268c-14.667 -26 -34 -46.6709 -58 -62.0039c-24.667 -15.333 -50.667 -23 -78 -23c-28 0 -54.167 7.5 -78.5 22.5c-24.333 15.0049 -43.5 35.1719 -57.5 60.501c-14 25.3359 -21 53.0029 -21 83.001c0 30.0029 7 57.6699 21 83.001c14 25.3359 33 45.6689 57 61
c23.334 14.667 49.667 22 79 22c28 0 54.167 -7.5 78.5 -22.5c24.334 -15 43.834 -35.5 58.5 -61.5c14 -24.6689 21 -52.002 21 -81.999c0 -28 -7.33301 -55 -22 -81zM1034.5 1267.5c-14.335 -25 -33.5 -45.5 -57.498 -61.5c-24.667 -15.333 -50.667 -23 -78 -23
c-28.001 0 -54.168 7.5 -78.501 22.5c-24.335 15 -43.502 35.5 -57.5 61.5c-14.667 24.667 -22 52 -22 82c0 30.0029 7 57.6699 21 83.001c14.002 25.3359 33.335 45.6689 58 60.999c23.333 14.667 49.666 22 78.999 22c28 0 54.167 -7.5 78.5 -22.5
s43.5 -35.167 57.5 -60.5c14 -24.6689 21 -52.3359 21 -83c0 -29.333 -7.16699 -56.5 -21.5 -81.5z" />
    <glyph glyph-name="copyright" unicode="&#xa9;" horiz-adv-x="1929" 
d="M1815.5 298.5c-35.667 -97 -86.667 -184.832 -153 -263.499s-144.5 -144.334 -234.5 -197.001c-135.333 -79.333 -283 -119 -443 -119c-105.333 0 -206.5 17.833 -303.5 53.5s-185 86.667 -264 153s-144.833 144.5 -197.5 234.5
c-79.333 135.333 -119 282.666 -119 441.999c0 105.333 17.833 206.5 53.5 303.5s86.667 184.833 153 263.5s144.5 144.334 234.5 197.001c135.333 79.3379 283 119.005 443 119.001c105.334 -0.00878906 206.501 -17.8418 303.5 -53.5c97 -35.668 185 -86.501 264 -152.5
c79 -66 144.833 -144 197.5 -234c79.3389 -135.334 119.006 -283.001 119 -443.001c-0.0107422 -105.333 -17.8438 -206.5 -53.5 -303.5zM1724 876.501c-31.333 87.667 -76.167 166.999 -134.5 237.998c-58.333 71.001 -127.5 130.168 -207.5 177.5
c-120.667 70.667 -253 106 -397 106c-94.667 0 -185.334 -16 -272.001 -48s-165 -77.667 -235 -137s-128 -129.666 -174 -210.999c-70 -122 -105 -255.333 -105 -400c0 -95.333 15.667 -186.666 47 -273.999s76.333 -166.5 135 -237.5s128 -130.167 208 -177.5
c120.667 -71.333 252.667 -107 396 -107c94.667 0 185.334 16 272.001 48s165 77.833 235 137.5s128.333 130.167 175 211.5c69.3369 121.333 104.004 254.333 104 399c0 95.333 -15.667 186.833 -47 274.5zM1413 381c-36.668 -85.333 -87.3369 -148.67 -152.002 -190.003
c-38 -26 -78.167 -45.167 -120.5 -57.5s-90.166 -18.5 -143.499 -18.5c-68.667 0 -133.667 10.833 -195 32.5s-114.333 52.834 -159 93.501c-97.334 89.333 -146.001 206.333 -146.001 351c0 96.667 22.5 183.334 67.5 260.001s107.5 136.667 187.5 180
c78.667 42.667 167.667 64 267 64c44 0 87.333 -5.66699 130 -17s81.334 -26.333 116.001 -45l35 51h65l4 -370h-69c-24 72.667 -48.5 130.5 -73.5 173.5s-53.167 75.167 -84.5 96.5c-32.667 21.333 -70.667 32 -114 32c-77.333 0 -137.333 -35.333 -180 -106
s-64 -169 -64 -295s23 -222.667 69 -290s112 -101 198 -101c65.333 0 121.333 15.333 168 46s89.334 79.334 128.001 146.001z" />
    <glyph glyph-name="ordfeminine" unicode="&#xaa;" horiz-adv-x="1130" 
d="M1189 683c-67.333 -26.667 -116.165 -44.165 -146.498 -52.498c-30.334 -8.33789 -64.167 -12.5049 -101.499 -12.5c-53.334 0 -98.501 10.667 -135.501 32s-61.833 49.666 -74.5 84.999h-7c-48 -42.667 -93.5 -74.334 -136.5 -95.001s-89.5 -31 -139.5 -31
c-94.667 0.000976562 -166.5 26.834 -215.5 80.5c-49 53.667 -73.5 130.5 -73.5 230.499c0 96 22.667 185.333 68 268s107 148.334 185 197.001c76.667 48 159.667 72 249 72c47.333 -0.0107422 88.666 -5.34375 123.999 -15.999
c35.333 -10.6719 66.666 -26.3389 93.999 -47l258 51l11 -13l-118 -494c-4.6709 -18.001 -9.50391 -40.168 -14.5 -66.5c-5 -26.334 -7.5 -44.167 -7.5 -53.499c0 -30.667 7 -51.834 21 -63.501s39.333 -17.5 76 -17.5c12.0059 0 29.1729 2.66699 51.5 8
c22.333 5.33301 39.833 10.666 52.5 15.999zM826.001 1245c-0.00292969 38.667 -8.66992 69.333 -26 92c-17.333 22.667 -47.333 34 -90 34c-45.335 0 -87.168 -20 -125.5 -60c-38.334 -40 -68.501 -95 -90.5 -165c-22 -68.668 -33 -143.668 -33 -225
c0 -64.667 10 -111.5 30 -140.5s52 -43.5 96 -43.5s90 27 138 81z" />
    <glyph glyph-name="guillemotleft" unicode="&#xab;" horiz-adv-x="1250" 
d="M343 275c-62.667 52 -110.666 94.002 -143.999 126.002c-30 27.333 -45 60.666 -45 99.999c0 41.333 8.33301 76.166 24.999 104.499c16.667 28.333 45.334 56.5 86.001 84.5c17.333 12 70.666 47 159.999 105l30 19c63.333 40.001 160.333 100.334 291 181l41 -43
l-391 -419l223 -394l-61 -43zM782.001 275.002c-63.333 52 -111.331 94.002 -143.998 126.002c-30 27.333 -45 60.666 -45 99.999c0.00195312 41.333 8.33496 76.166 24.999 104.499c16.667 28.333 45.334 56.5 86 84.5c17.333 12 70.666 47 159.999 105l30 19
c63.333 40.001 160.333 100.334 291 181l41 -43l-391 -419l223 -394l-61 -43z" />
    <glyph glyph-name="logicalnot" unicode="&#xac;" horiz-adv-x="1440" 
d="M1288 686v-636h-170v473h-932v163h1102z" />
    <glyph glyph-name="registered" unicode="&#xae;" horiz-adv-x="1929" 
d="M1815.5 298.5c-35.667 -97 -86.667 -184.832 -153 -263.499s-144.5 -144.334 -234.5 -197.001c-135.333 -79.333 -283 -119 -443 -119c-105.333 0 -206.5 17.833 -303.5 53.5s-185 86.667 -264 153s-144.833 144.5 -197.5 234.5
c-79.333 135.333 -119 282.666 -119 441.999c0 105.333 17.833 206.5 53.5 303.5s86.667 184.833 153 263.5s144.5 144.334 234.5 197.001c135.333 79.3379 283 119.005 443 119.001c105.334 -0.00878906 206.501 -17.8418 303.5 -53.5c97 -35.668 185 -86.501 264 -152.5
c79 -66 144.833 -144 197.5 -234c79.3389 -135.334 119.006 -283.001 119 -443.001c-0.0107422 -105.333 -17.8438 -206.5 -53.5 -303.5zM1724 876.501c-31.333 87.667 -76.167 166.999 -134.5 237.998c-58.333 71.001 -127.5 130.168 -207.5 177.5
c-120.667 70.667 -253 106 -397 106c-94.667 0 -185.334 -16 -272.001 -48s-165 -77.667 -235 -137s-128 -129.666 -174 -210.999c-70 -122 -105 -255.333 -105 -400c0 -95.333 15.667 -186.666 47 -273.999s76.333 -166.5 135 -237.5s128 -130.167 208 -177.5
c120.667 -71.333 252.667 -107 396 -107c94.667 0 185.334 16 272.001 48s165 77.833 235 137.5s128.333 130.167 175 211.5c69.3369 121.333 104.004 254.333 104 399c0 95.333 -15.667 186.833 -47 274.5zM1232 145c-62.001 95.333 -113.335 170.834 -154.001 226.501
c-40.6699 55.667 -90.6699 118.834 -150 189.501h-34v-269c0 -18 3 -32 9 -42c6.00195 -10 17.335 -18.667 34 -26l36 -12c14.6689 -4.66699 28.3359 -7.66699 41.001 -9v-58h-482v58c46.667 7.33301 75.667 13 87 17c15.333 6 26.166 14.667 32.499 26s9.5 25.333 9.5 42
v636c0 19.333 -2.5 33.333 -7.5 42c-5 8.67188 -16.5 17.0049 -34.5 24.999c-19.334 8 -35.001 13.667 -47 17c-12 3.33301 -25.333 6.33301 -40 9v58h515c117.334 -0.00390625 206.001 -18.3369 266 -54.999c60 -36.667 90 -91.667 90 -165
c0 -64.667 -18.667 -117 -56 -157s-93.666 -71 -168.999 -93l22 -29c7.33789 -8.00098 30.6709 -37.668 70 -89.001c36 -46.667 81 -103.667 135 -171c14 -18.667 33 -38.334 57 -59c24 -20.667 44 -34 60 -40c6.66699 -3.33398 18.667 -6.50098 36 -9.50098
s29.333 -4.5 36 -4.5v-58h-362zM1094.5 965.001c-33 26.6689 -83.167 40.002 -150.5 40h-50v-376h48c134.667 0 202 69 202 207c0 59.333 -16.5 102.333 -49.5 129z" />
    <glyph glyph-name="macron" unicode="&#xaf;" horiz-adv-x="1440" 
d="M235 1724h1450l-28 -120h-1450z" />
    <glyph glyph-name="degree" unicode="&#xb0;" horiz-adv-x="860" 
d="M811.5 961c-29 -50.001 -69.498 -89.6689 -121.498 -119.001c-53.334 -29.3359 -113.001 -44.0029 -179.001 -44.001c-66 0 -125 14.5 -177 43.5s-92.667 69.167 -122 120.5s-44 107 -44 167c0 62 14.833 118.333 44.5 169s70.834 90.334 123.501 119.001
c51.333 28.667 109.666 43 174.999 43c65.333 -0.00585938 124.166 -14.3389 176.499 -43c52.333 -28.6689 93.5 -68.3359 123.5 -119c29.333 -51.333 44 -107.666 44 -168.999c0 -62 -14.5 -118 -43.5 -168zM631.502 1304.5c-29 43 -69.5 64.498 -121.5 64.498
c-50 -0.00292969 -89.5 -21.3359 -118.5 -64c-29 -42.668 -43.5 -100.335 -43.5 -173c0 -76.668 14.5 -136.501 43.5 -179.499c29 -43 69.833 -64.5 122.5 -64.5c30.667 0 58.167 9.5 82.5 28.5c24.333 19.001 43.5 45.834 57.5 80.5c14 35.3379 21 76.6709 21 124
c0 79.335 -14.5 140.502 -43.5 183.501z" />
    <glyph glyph-name="plusminus" unicode="&#xb1;" horiz-adv-x="1440" 
d="M1297 163v-163h-1111v163h473v395h-473v163h473v473h165v-473h473v-163h-473v-395h473z" />
    <glyph glyph-name="uni00B2" unicode="&#xb2;" horiz-adv-x="1130" 
d="M598.5 1373c-11.667 -2.67676 -30.165 -8.01074 -55.498 -16l22 -60c7.33301 -24 11 -49.667 11 -77c0 -34.667 -12.333 -63.167 -37 -85.5s-56.667 -33.5 -96 -33.5c-36 0 -65.833 12.833 -89.499 38.5c-23.667 25.667 -35.5 56.834 -35.5 93.501
c0 38.0039 16.167 74.1709 48.5 108.501c32.333 34.3359 76.5 62.1689 132.5 83.5c56.667 21.3389 120 32.0059 190 32c82 0 152.833 -9.66699 212.499 -29c59.667 -19.333 105.167 -47 136.5 -83c31.3369 -36.6689 47.0039 -79.3359 47 -128c0 -112 -46 -203.333 -138 -274
c-34 -24.667 -70.833 -46.5 -110.5 -65.5s-89.167 -39.5 -148.5 -61.5l-95 -35c-9.33691 -4.00879 -19.0039 -7.67578 -29.001 -11l-23 -9c-29.333 -10.667 -77.666 -29.334 -144.999 -56.001l-3 -12h629l-47 -203h-824l35 151c36 30 101 72 195 126
c72 40.001 125.833 70.834 161.5 92.499c35.667 21.668 69 45.335 99.999 71c31 25.667 58.5 54.834 82.5 87.5c24.667 32.667 43.167 66.167 55.5 100.5s18.5 71.833 18.5 112.5c-0.00195312 50 -13.6689 86.833 -41.001 110.5c-27.334 23.667 -68.001 35.5 -122 35.5
c-13.333 -0.0419922 -25.833 -1.375 -37.5 -4z" />
    <glyph glyph-name="uni00B3" unicode="&#xb3;" horiz-adv-x="1130" 
d="M732 679c11.333 34.668 17.001 76.3389 17.001 125.004c0 42.001 -12.5 73.334 -37.5 94c-25.001 20.6699 -63.168 31.0029 -114.501 30.999h-88l23 96h62c66.667 0 118.834 20.333 156.5 61c37.6689 40.667 56.502 97.667 56.5 171c0 36.667 -14 66 -42 88
c-29.334 21.3389 -65.001 32.0059 -107 32.001c-14 0 -30.5 -1.66699 -49.5 -5c-19.002 -3.33301 -37.1689 -8 -54.501 -14l21 -58c7.33301 -24.0029 11 -49.3359 11 -76c0 -34.667 -11.333 -62.667 -34 -84s-53.667 -32 -93 -32c-36 0 -65.833 12.5 -89.499 37.5
c-23.667 25 -35.5 55.833 -35.5 92.5c0 37.3369 17.333 73.0039 52 107c34.667 34 81.334 61.333 140.001 82c58 20 119.667 30 185 30c66 0 123.833 -6.16699 173.499 -18.5c49.668 -12.333 89.501 -29.833 119.5 -52.5c48.667 -36 73 -80 73 -132
c-0.0166016 -26.6709 -4.84961 -52.8379 -14.5 -78.5c-9.6709 -25.6689 -23.8379 -48.8359 -42.5 -69.5c-26 -26.6689 -55.333 -48.3359 -88 -65.001c-36 -20.667 -84.667 -36.334 -146 -47.001v-11c38.668 -4 69.501 -9.33301 92.5 -16
c23.001 -6.66699 46.834 -17.334 71.5 -32.001c26.6699 -17.335 46.5029 -37.502 59.5 -60.5c13 -23 19.5 -51.833 19.5 -86.5c0 -64 -20.5 -121.833 -61.5 -173.5s-97.833 -91.5 -170.5 -119.5c-71.334 -28.667 -151.001 -43 -239.001 -43
c-74 0.000976562 -140 9.66797 -198 29c-58 19.334 -103 46.001 -135 80.001c-32 33.333 -48 70.666 -48 111.999c0 39.333 11.333 71.166 34 95.499s53 36.5 91 36.5c40 0 72 -11 96 -33s36 -51 36 -87c0 -21.335 -2.16699 -40.168 -6.5 -56.5
c-4.33301 -16.334 -12.833 -40.167 -25.5 -71.5c12.001 -6 28.168 -11.5 48.501 -16.5c20.334 -5 38.501 -7.5 54.5 -7.5c34.001 0 66.834 5 98.5 15c31.667 10.001 56.834 24.334 75.5 43c24 24.001 41.667 53.334 53 88z" />
    <glyph glyph-name="acute" unicode="&#xb4;" horiz-adv-x="1024" 
d="M924 1390c-12.667 -18.6768 -34.999 -38.3438 -66.999 -59c-33.334 -22 -85.001 -52 -155.001 -90c-50.667 -28 -130.667 -74.667 -240 -140l-42 38c48 62.667 93.333 125 136 187l83 118c28 39.3359 55.167 66.5029 81.5 81.5c26.333 15 58.833 22.5 97.5 22.5
c20.667 0 40.667 -4 60 -12s35 -18.667 47 -32c12 -14 18 -28.667 18 -44c0 -28.0029 -6.33301 -51.3359 -19 -70z" />
    <glyph glyph-name="uni00B5" unicode="&#xb5;" horiz-adv-x="1386" 
d="M1280 1000l12.0029 -14.002l-142 -615c-6.00879 -22 -11.8418 -48.667 -17.5 -80c-5.68359 -31.333 -8.5166 -54 -8.5 -68c0 -38 8.5 -64.167 25.5 -78.5s46.833 -21.5 89.5 -21.5c16.667 0 38 3.16699 64 9.5c26.0078 6.33301 45.6748 12.833 59 19.5l-22 -90
c-6 -2 -19 -7.33301 -39 -16c-67.333 -26.667 -116.166 -44 -146.499 -52s-66.833 -12 -109.5 -12c-70.667 0 -128.834 16 -174.501 48s-73.834 75 -84.501 129h-7c-26 -36.667 -56.833 -69 -92.5 -97s-72.834 -49.667 -111.501 -65c-38 -15.333 -72.333 -23 -102.999 -23
c-48.667 0 -87.334 5 -116.001 15s-54.667 28 -78 54h-11c-2.00293 -12 -3.83594 -29 -5.5 -51c-1.6709 -22 -2.50391 -41.667 -2.5 -59c0.000976562 -14.667 2.66797 -41.667 8 -81c5.33398 -39.333 8.00098 -68 8 -86c0 -65.333 -18.333 -116.666 -54.999 -153.999
c-36.667 -37.333 -86.334 -56 -149.001 -56c-41.333 0 -74.5 11.5 -99.5 34.5s-37.5 54.5 -37.5 94.5c0 30 14.667 78 44 144c42.667 90.667 74.667 166.667 96 228c9.33301 32.667 17.333 62.334 24 89.001l194 840l317 14l12 -14l-149 -643c-8 -34.667 -12 -65 -12 -91
c0 -40 8.5 -69.333 25.5 -88s44.5 -28 82.5 -28c28.667 0 53 3 72.999 9c20 6 41.667 18 65 36c24 17.333 54 45 90 83l165 722z" />
    <glyph glyph-name="paragraph" unicode="&#xb6;" horiz-adv-x="1274" 
d="M1169 1323l-365 -1559h-110l366 1559h-173l-365 -1559h-110l214 900h-38c-144 0.000976562 -249.333 38.334 -316 115c-50.667 60.667 -76 135 -76 222.999c0 55.333 10.833 106.833 32.5 154.5s54.834 92.5 99.501 134.5c44 40 98 71.333 162 94s132.333 34 204.999 34
h718l-23 -96h-221z" />
    <glyph glyph-name="periodcentered" unicode="&#xb7;" horiz-adv-x="692" 
d="M562 486c-2 -13.333 -6.33398 -23.666 -13.001 -30.999c-6 -8.66699 -19.833 -23.5 -41.5 -44.5s-37.834 -35.5 -48.5 -43.5c-9.33301 -7.33301 -19.666 -11.666 -30.999 -12.999c-11.333 -2 -31.666 -3 -60.999 -3c-30.667 0 -51.334 1 -62 3
c-11.333 1.33496 -21.666 5.66797 -30.999 13c-8.66699 6 -23.667 19.667 -45 41c-21.333 21.334 -36 37.001 -44 47.001c-7.33398 9.33301 -11.667 19.333 -13 30c-2 11.333 -3 31.666 -3 60.999c0 30.001 1 50.334 3 61c1.33301 11.333 5.66602 21.666 12.999 30.999
c8.66699 10.668 23.5 26.835 44.5 48.5c21 21.668 35.833 35.501 44.5 41.5c7.33398 6.6748 17.667 11.0078 31 12.999c20 1.33301 40.667 2 62 2c20.667 -0.0224609 41 -0.689453 61 -2c13.334 -2 23.667 -6.33301 31 -13c8.66699 -6 23.667 -20 45 -42
s36.333 -38.333 45 -49c6.6709 -8.66699 11.0039 -18.667 13 -30c1.33301 -20 2 -40.333 2 -61c-0.0175781 -20 -0.68457 -40 -2.00098 -60z" />
    <glyph glyph-name="cedilla" unicode="&#xb8;" horiz-adv-x="1024" 
d="M445.5 -433.5c-57.667 -7 -130.167 -10.501 -217.5 -10.501l18 78h38c40 -0.00585938 70.833 0.661133 92.5 2c21.667 1.33203 41.167 3.99902 58.5 8c53.334 9.33301 80.001 36 80.001 80c0 19.333 -10.667 33.166 -32 41.499s-52.333 12.5 -93 12.5l53 239h86l-24 -113
c68 0 121 -11.167 159 -33.5s57 -54.166 57 -95.499c-0.000976562 -83.333 -42.668 -141.666 -128 -174.999c-40.667 -15.333 -89.834 -26.5 -147.501 -33.5z" />
    <glyph glyph-name="uni00B9" unicode="&#xb9;" horiz-adv-x="1130" 
d="M224 561c29.333 2.00391 58.499 4.83789 87.499 8.5c29 3.66699 48.833 7.16699 59.5 10.5c36.667 12.001 58.334 36.334 65.001 73l132 584h-197l19 83h40c39.333 0.0205078 76.833 4.1875 112.5 12.501c35.667 8.33887 67.834 20.1719 96.5 35.5
c24.667 14 45.167 27 61.5 39s32.5 26 48.5 42h134l-5 -19c-11.333 -38.0029 -20.333 -71.3359 -27 -100l-27 -107l-117 -506l-10 -44c-4 -18.667 -6 -30.334 -6 -35.001c0 -21.335 7 -36.502 21 -45.5c14.001 -9.00293 36.334 -16.1699 67 -21.5
c23.333 -4 47.333 -7.33301 72 -10l-17 -71h-627z" />
    <glyph glyph-name="ordmasculine" unicode="&#xba;" horiz-adv-x="1130" 
d="M1058.5 858.5c-48.334 -77.667 -116.166 -139.168 -203.499 -184.501c-87.333 -45.334 -186.333 -68.001 -297 -68c-118.667 0 -213.334 31 -284.001 93c-72 61.333 -108 144.666 -108 249.999c0 96.001 23.833 182.668 71.5 260.001
c47.667 77.335 114.5 138.002 200.5 182.001c85.333 44 182.333 66 291 66c86.667 -0.00585938 160.334 -13.8389 221 -41.5c60.667 -27.667 106 -67.167 136 -118.5s45 -111 45 -179c0 -95.333 -24.167 -181.833 -72.5 -259.5zM838.001 1205
c-0.00488281 59.3359 -10.1719 103.668 -30.5 132.999c-20.334 29.3418 -52.167 44.0088 -95.5 44.001c-42 -0.0078125 -80.5 -16.3408 -115.5 -49c-35 -32.668 -63.5 -79.001 -85.5 -139c-16 -42 -28.5 -94.5 -37.5 -157.5s-13.5 -121.5 -13.5 -175.5
c0.000976562 -63.334 10.168 -109.167 30.5 -137.5c20.334 -28.335 52.501 -42.502 96.501 -42.501c42 0 79.667 16 113 48s60.666 76 81.999 132c37.333 104.001 56 218.668 56 344.001z" />
    <glyph glyph-name="guillemotright" unicode="&#xbb;" horiz-adv-x="1250" 
d="M652.5 485.5c-18.334 -31 -46.167 -59.167 -83.5 -84.5l-204 -132c-98.667 -64 -191 -121.667 -277 -173l-41 43l391 419l-223 394l61 43l215 -179c62.667 -52.667 110.667 -94.667 144 -126c14.6689 -14.002 25.8359 -29.6689 33.5 -47
c7.6748 -17.334 11.5078 -35.001 11.5 -53c-0.00390625 -38.667 -9.1709 -73.5 -27.5 -104.5zM1091.5 485.5c-18.333 -31 -46.168 -59.167 -83.501 -84.5l-204 -132c-98.667 -64 -191 -121.667 -277 -173l-41 43l391 419l-223 394l61 43l215 -179
c63.333 -53.333 111.333 -95.333 144 -126c14.667 -14.002 25.834 -29.6689 33.501 -47c7.66699 -17.334 11.5 -35.001 11.5 -53c0 -38.667 -9.16699 -73.5 -27.5 -104.5z" />
    <glyph glyph-name="onequarter" unicode="&#xbc;" horiz-adv-x="2194" 
d="M163 561c28.667 2.00391 57.332 4.83789 85.999 8.5c28.667 3.66699 49 7.16699 61 10.5c36.667 12.001 58.334 36.334 65.001 73l132 584h-197l19 83h40c39.333 0.0205078 76.833 4.1875 112.5 12.501c35.667 8.33887 67.834 20.1719 96.5 35.5
c24.667 14 45.167 27 61.5 39s32.5 26 48.5 42h134l-5 -19c-11.333 -38.0029 -20.333 -71.3359 -27 -100l-27 -107l-117 -506l-10 -44c-4 -18.667 -6 -30.334 -6 -35.001c0 -21.335 7 -36.502 21 -45.5c14.001 -9.00293 36.334 -16.1699 67 -21.5
c23.333 -4 47.333 -7.33301 72 -10l-17 -71h-627zM1578 1429h158l-1090 -1429h-156zM1919 373.001h155l-34 -147h-155l-57 -246h-231l57 246h-499l33 145l653 594h214zM1688 373.001l98 424l-474 -424h376z" />
    <glyph glyph-name="onehalf" unicode="&#xbd;" horiz-adv-x="2194" 
d="M153 561c29.333 2.00391 58.499 4.83789 87.499 8.5c29 3.66699 48.833 7.16699 59.5 10.5c36.667 12.001 58.334 36.334 65.001 73l132 584h-197l19 83h40c39.333 0.0205078 76.833 4.1875 112.5 12.501c35.667 8.33887 67.834 20.1719 96.5 35.5
c24.667 14 45.167 27 61.5 39s32.5 26 48.5 42h134l-5 -19c-11.333 -38.0029 -20.333 -71.3359 -27 -100l-27 -107l-117 -506l-10 -44c-4 -18.667 -6 -30.334 -6 -35.001c0 -21.335 7 -36.502 21 -45.5c14.001 -9.00293 36.334 -16.1699 67 -21.5
c23.333 -4 47.333 -7.33301 72 -10l-17 -71h-627zM1558 1429h158l-1090 -1429h-156zM1665.5 883.001c-11.667 -2.66699 -30.1709 -7.99609 -55.5039 -15.9961l22 -60c7.37109 -24.001 11.0381 -49.668 11 -77.001c-0.00585938 -34.667 -12.3389 -63.167 -36.999 -85.5
c-24.667 -22.334 -56.667 -33.501 -96 -33.5c-36.0039 0.000976562 -65.8369 12.834 -89.499 38.499c-23.6719 25.667 -35.5049 56.834 -35.499 93.5c0.00488281 38 16.1719 74.167 48.5 108.5c32.335 34.333 76.502 62.166 132.5 83.499c56.667 21.333 120 32 190 32
c82 -0.00585938 152.833 -9.67285 212.5 -29.001c59.667 -19.334 105.167 -47.001 136.5 -83c31.333 -36.667 47 -79.334 47 -128.001c0 -112 -46 -203.333 -138 -274c-34.0039 -24.667 -70.8369 -46.5 -110.5 -65.5c-39.667 -19 -89.167 -39.5 -148.5 -61.5l-95 -35
c-9.33301 -4 -19 -7.66699 -29 -11l-23 -9c-29.333 -10.667 -77.666 -29.334 -144.999 -56l-3 -12h629l-47 -203h-824l35 151c36 30 101 72 195 126c72 40 125.833 70.833 161.5 92.5s69 45.334 100 71.001s58.5 54.834 82.5 87.501c24.667 32.667 43.167 66.167 55.5 100.5
c12.3477 34.333 18.5146 71.833 18.5 112.5c0 50.001 -13.667 86.834 -41 110.5c-27.333 23.668 -68 35.501 -122 35.499c-13.333 0 -25.833 -1.33301 -37.5 -4z" />
    <glyph glyph-name="threequarters" unicode="&#xbe;" horiz-adv-x="2194" 
d="M702 679c11.333 34.668 17.001 76.3389 17.001 125.004c0 42.001 -12.5 73.334 -37.5 94c-25.001 20.6699 -63.168 31.0029 -114.5 30.999h-88l23 96h62c66.667 0 118.834 20.333 156.5 61c37.6689 40.667 56.502 97.667 56.5 171c0 36.667 -14 66 -42 88
c-29.334 21.3389 -65.001 32.0059 -107 32.001c-14 0 -30.5 -1.66699 -49.5 -5c-19.002 -3.33301 -37.1689 -8 -54.501 -14l21 -58c7.33301 -24.0029 11 -49.3359 11 -76c0 -34.667 -11.333 -62.667 -34 -84s-53.667 -32 -93 -32c-36 0 -65.833 12.5 -89.499 37.5
c-23.667 25 -35.5 55.833 -35.5 92.5c0 37.3369 17.333 73.0039 52 107c34.667 34 81.334 61.333 140.001 82c58 20 119.667 30 185 30c66.001 0 123.834 -6.16699 173.5 -18.5c49.668 -12.333 89.501 -29.833 119.5 -52.5c48.668 -36 73.001 -80 73 -132
c-0.015625 -26.6709 -4.84863 -52.8379 -14.499 -78.5c-9.66699 -25.6689 -23.834 -48.8359 -42.501 -69.5c-26 -26.6689 -55.333 -48.3359 -88 -65.001c-36 -20.667 -84.667 -36.334 -146 -47.001v-11c38.667 -4 69.5 -9.33301 92.499 -16
c23.001 -6.66699 46.834 -17.334 71.5 -32.001c26 -17.335 45.667 -37.502 59 -60.5c13.333 -23 20 -51.833 20 -86.5c0 -64 -20.5 -121.833 -61.5 -173.5s-97.833 -91.5 -170.5 -119.5c-71.334 -28.667 -151.001 -43 -239.001 -43c-74 0.000976562 -140 9.66797 -198 29
c-58 19.334 -103 46.001 -135 80.001c-32 33.333 -48 70.666 -48 111.999c0 39.333 11.333 71.166 34 95.499s53 36.5 91 36.5c40 0 72 -11 96 -33s36 -51 36 -87c0 -21.335 -2.16699 -40.168 -6.5 -56.5c-4.33301 -16.334 -12.833 -40.167 -25.5 -71.5
c12 -6 28.167 -11.5 48.5 -16.5c20.334 -5 38.501 -7.5 54.5 -7.5c34.001 0 66.834 5 98.5 15c31.667 10.001 56.834 24.334 75.5 43c24 24.001 41.667 53.334 53 88zM1705 1429h158l-1090 -1429h-156zM1969 373.004h155l-34 -147h-155l-57 -246h-231l57 246h-499l33 145
l653 594h214zM1738 373.004l98 424l-474 -424h376z" />
    <glyph glyph-name="questiondown" unicode="&#xbf;" horiz-adv-x="1123" 
d="M966 1175.5c-17.334 -29 -40.999 -52.167 -70.998 -69.5c-30.667 -17.333 -62.667 -26 -96 -26c-33.334 0 -64.667 8.5 -94 25.5c-29.334 17.002 -53.001 40.1689 -71 69.5c-18 29.3369 -27 60.0039 -27 92c0 33.3359 8.66699 64.1689 26 92.5
c17.333 28.333 41 50.833 71 67.5c28.667 16.667 60.334 25 95 25c51.333 0 96.666 -18 135.999 -54c38 -36.6689 57 -80.3359 57 -131c-0.00390625 -32 -8.6709 -62.5 -26.001 -91.5zM902.502 115c-43 -44 -101.832 -78.999 -176.499 -104.999
c-74 -26 -154.667 -39 -242 -39c-81.333 0 -154.833 14.833 -220.5 44.5s-117.167 71.834 -154.5 126.501c-38 54 -57 116.333 -57 187c0 98 25.833 185.167 77.5 261.5s125.167 137.833 220.5 184.5c96 45.333 206 72 330 80l29 136h86l-77 -389
c-123.333 -10.001 -219 -44.168 -287 -102.5c-68 -58.333 -102 -138.5 -102 -240.5c0 -65.333 17 -115.5 51 -150.5s82 -52.5 144 -52.5c48 0 95.333 14.333 141.999 43c-7.33301 21.333 -14.333 48.166 -21 80.499s-10 58.166 -10 77.499c0 47.333 15.667 84.833 47 112.5
s73 41.5 125 41.5c47.333 0 85.833 -14.167 115.5 -42.5c29.6699 -28.333 44.5029 -64.833 44.5 -109.5c0 -52 -21.5 -100 -64.5 -144z" />
    <glyph glyph-name="Agrave" unicode="&#xc0;" horiz-adv-x="1553" 
d="M1177 1485c-51.333 24.0059 -93.666 43.1719 -126.999 57.499c-33.334 14.333 -73.667 30.833 -120.999 49.5c-56.667 22.667 -105 42.667 -145 60c-22.667 10.667 -36.667 17.5 -42 20.5c-5.33496 3.01953 -13.668 10.1865 -25 21.501
c-12.667 12 -20.167 20.5 -22.5 25.5c-2.36523 5.01953 -3.53223 15.1865 -3.50098 30.5c0 14.667 0.666992 28 2 40c0.666992 6.66699 3.66699 13 9 19c4.00293 5.34668 13.3359 14.0137 28 26c14.667 12 25.667 20 33 24c6.66992 4.02832 15.0029 6.69531 25 8
c4.66699 0.666992 25.667 1 63 1c14.6699 -0.0566406 25.0029 -0.889648 31 -2.49902c6.00488 -1.69531 16.3379 -6.8623 30.999 -15.501c16.6689 -10 27.8359 -17.5 33.501 -22.5c5.66699 -5.00684 16.167 -16.8398 31.5 -35.5c38.667 -45.333 118 -134 237.999 -266z
M749 72.999c54.667 4 88.166 6.99707 100.499 8.99707s32.5 7.66699 60.5 17l38 12c9.33301 3.33301 14.833 6.33301 16.5 9c1.69629 2.66699 2.5293 8.33398 2.5 17.001c-0.0292969 4.66699 -0.696289 15 -2 31l-5 30l-50 279h-489c-36 -56 -76.667 -123 -122 -201l-10 -19
l-14 -25c-5.33301 -8 -8.66602 -14 -9.99902 -18c-3.33301 -8 -7 -19.333 -11 -34s-6 -24.334 -6 -29.001c0 -12 0.666992 -19.833 2 -23.5s5 -6.83398 11 -9.50098c10 -5.33301 24.667 -11.833 44 -19.5c19.334 -7.66699 33.667 -12.5 43 -14.5
c10.667 -2.66699 41 -6.33398 91 -11.001l-17 -73h-596l17 73c17.333 0.666992 38.833 3.33398 64.5 8.00098s43.167 8.33398 52.5 11.001c6 2 18 7.83301 36 17.5s30.333 16.834 37 21.501c6 4.66699 18.333 15.834 37 33.501s31 30.167 37 37.5
c11.333 16.667 21.666 32.334 30.999 47.001l59 91c73.333 111.333 178 273.333 314 486l394 613h198l128 -741c36.667 -215.333 66 -378.666 88 -489.999c2.66699 -14.667 4.83398 -24.334 6.50098 -29.001s6.16699 -13 13.5 -25
c7.33301 -12.667 12.833 -20.834 16.5 -24.501s13.5 -11.167 29.5 -22.5c12 -8 20.5 -13 25.5 -15c5.00488 -2 16.1719 -5 33.5 -9c21.3389 -5.33301 42.6719 -8.66602 64 -9.99902l-17 -73h-759zM480.999 570.996h411l-87 517z" />
    <glyph glyph-name="Aacute" unicode="&#xc1;" horiz-adv-x="1553" 
d="M1337.5 1726.5c-2.33301 -5.67969 -9.83301 -14.8516 -22.5 -27.5049c-14 -14.0195 -24 -22.8525 -30 -26.5c-6 -3.67969 -21 -10.5127 -45 -20.5c-43.333 -17.333 -99.333 -38.666 -168 -63.999c-79.333 -29.333 -158.333 -60.666 -237 -93.999l-23 -9l-33 41l158 151
c24.667 23.335 61.667 61.668 111 115c17.3369 19.333 29.0039 31.333 35 36c6.00391 4.66699 18.6709 12.334 38 23.001c17.3379 8.66699 29.1709 13.667 35.5 15c6.34277 1.39062 19.1758 2.05762 38.5 2.00098c29.3379 -0.0566406 46.0049 -0.389648 50 -0.999023
c10 -1.33301 17.333 -3 22 -5c5.34277 -2.66699 16.1758 -9.66699 32.499 -21c16.3438 -11.333 26.5107 -19 30.501 -23c4.66699 -4.68066 7.66699 -10.0137 9 -16c1.37402 -12 2.04102 -26 2 -42c0 -16.6729 -1.16699 -27.8398 -3.5 -33.5zM749 72.9951
c54.667 4 88.166 6.99707 100.499 8.99707s32.5 7.66699 60.5 17l38 12c9.33301 3.33301 14.833 6.33301 16.5 9c1.69629 2.66699 2.5293 8.33398 2.5 17.001c-0.0292969 4.66699 -0.696289 15 -2 31l-5 30l-50 279h-489c-36 -56 -76.667 -123 -122 -201l-10 -19l-14 -25
c-5.33301 -8 -8.66602 -14 -9.99902 -18c-3.33301 -8 -7 -19.333 -11 -34s-6 -24.334 -6 -29.001c0 -12 0.666992 -19.833 2 -23.5s5 -6.83398 11 -9.50098c10 -5.33301 24.667 -11.833 44 -19.5c19.334 -7.66699 33.667 -12.5 43 -14.5
c10.667 -2.66699 41 -6.33398 91 -11.001l-17 -73h-596l17 73c17.333 0.666992 38.833 3.33398 64.5 8.00098s43.167 8.33398 52.5 11.001c6 2 18 7.83301 36 17.5s30.333 16.834 37 21.501c6 4.66699 18.333 15.834 37 33.501s31 30.167 37 37.5
c11.333 16.667 21.666 32.334 30.999 47.001l59 91c73.333 111.333 178 273.333 314 486l394 613h198l128 -741c36.667 -215.333 66 -378.666 88 -489.999c2.66699 -14.667 4.83398 -24.334 6.50098 -29.001s6.16699 -13 13.5 -25
c7.33301 -12.667 12.833 -20.834 16.5 -24.501s13.5 -11.167 29.5 -22.5c12 -8 20.5 -13 25.5 -15c5.00488 -2 16.1719 -5 33.5 -9c21.3389 -5.33301 42.6719 -8.66602 64 -9.99902l-17 -73h-759zM480.999 570.992h411l-87 517z" />
    <glyph glyph-name="Acircumflex" unicode="&#xc2;" horiz-adv-x="1553" 
d="M1007 1687l-384 -203.001l-32 29c70 73.333 135.333 139.333 195.999 198c43.333 40.667 75.333 72.667 96 96c14 15.3545 23.5 25.0215 28.5 29.001c5.00195 4.01367 15.835 9.68066 32.5 17c16.667 8 28.667 12.5 36 13.5s29 1.5 65 1.5
c20.0039 0 33.1709 -0.666992 39.5 -2c6.3418 -1.33301 15.5088 -5.33301 27.5 -12c11.333 -6.02832 18.833 -10.8613 22.5 -14.5c3.66699 -3.66699 10.834 -13.167 21.501 -28.5l65 -98l131 -200l-34 -29zM749 72.999c54.667 4 88.166 6.99707 100.499 8.99707
s32.5 7.66699 60.5 17l38 12c9.33301 3.33301 14.833 6.33301 16.5 9c1.69629 2.66699 2.5293 8.33398 2.5 17.001c-0.0292969 4.66699 -0.696289 15 -2 31l-5 30l-50 279h-489c-36 -56 -76.667 -123 -122 -201l-10 -19l-14 -25c-5.33301 -8 -8.66602 -14 -9.99902 -18
c-3.33301 -8 -7 -19.333 -11 -34s-6 -24.334 -6 -29.001c0 -12 0.666992 -19.833 2 -23.5s5 -6.83398 11 -9.50098c10 -5.33301 24.667 -11.833 44 -19.5c19.334 -7.66699 33.667 -12.5 43 -14.5c10.667 -2.66699 41 -6.33398 91 -11.001l-17 -73h-596l17 73
c17.333 0.666992 38.833 3.33398 64.5 8.00098s43.167 8.33398 52.5 11.001c6 2 18 7.83301 36 17.5s30.333 16.834 37 21.501c6 4.66699 18.333 15.834 37 33.501s31 30.167 37 37.5c11.333 16.667 21.666 32.334 30.999 47.001l59 91c73.333 111.333 178 273.333 314 486
l394 613h198l128 -741c36.667 -215.333 66 -378.666 88 -489.999c2.66699 -14.667 4.83398 -24.334 6.50098 -29.001s6.16699 -13 13.5 -25c7.33301 -12.667 12.833 -20.834 16.5 -24.501s13.5 -11.167 29.5 -22.5c12 -8 20.5 -13 25.5 -15c5.00488 -2 16.1719 -5 33.5 -9
c21.3389 -5.33301 42.6719 -8.66602 64 -9.99902l-17 -73h-759zM480.999 570.996h411l-87 517z" />
    <glyph glyph-name="Atilde" unicode="&#xc3;" horiz-adv-x="1553" 
d="M1506 1849c-8.67773 -20.667 -15.0098 -34.6729 -18.998 -42.0059c-4.01172 -7.33301 -9.84473 -16.833 -17.5 -28.5c-7.66699 -11.667 -13.167 -20.167 -16.5 -25.5c-16.0059 -25.333 -27.3389 -42.166 -34 -50.499c-6.66699 -8.33301 -21.667 -24.166 -45 -47.499
c-24 -24.0059 -40.167 -39.3389 -48.5 -45.999c-8.33301 -6.68457 -24.833 -17.0176 -49.5 -30.999l-39 -22c-8.00879 -3.33301 -16.3418 -5.33301 -24.999 -6c-16 -1.33301 -31.667 -2 -47 -2c-32 0 -52.667 0.833008 -62 2.5s-26.666 7.5 -51.999 17.5
c-28 10.0059 -56 22.6729 -84 38c-28.667 14.667 -54 26.667 -76 36c-20.667 8.66699 -34.334 13.667 -41.001 15c-6.66699 1.38379 -19.667 2.05078 -39 2c-14 0 -27 -0.666992 -39 -2c-5.33594 -0.691406 -11.6689 -4.02441 -18.999 -9.99902
c-7.33594 -7.33301 -16.0029 -18.333 -26 -33l-73 -103l-71 30c10.001 22 23.334 45.333 39.999 70l14 22c18.667 28 31.167 46 37.5 54s19.166 22.333 38.499 43c20.668 22.667 34.835 37.167 42.5 43.5c7.66699 6.33984 24.834 17.5068 51.5 33.5l41 24
c8 3.41699 16 5.58398 24 6.5c8.00195 1 22.335 1.5 43 1.5c25.333 0 42.166 -0.666992 50.499 -2s24.166 -6 47.499 -14c34.667 -12 65 -24.667 91 -38l80 -39c16.667 -8 28.167 -12.667 34.5 -14c6.34277 -1.33301 20.1758 -2 41.5 -2c20.667 0 33.667 0.333008 39 1
s14.333 3.33398 27 8.00098c11.3486 4.02637 18.5156 7.19336 21.5 9.5c3 2.33301 8.83301 7.83301 17.5 16.5c10 12 20.333 28 31 48l33 60zM749.001 72.9941c54.667 4 88.165 6.99707 100.498 8.99707s32.5 7.66699 60.5 17l38 12c9.33301 3.33301 14.833 6.33301 16.5 9
c1.69629 2.66699 2.5293 8.33398 2.5 17.001c-0.0292969 4.66699 -0.696289 15 -2 31l-5 30l-50 279h-489c-36 -56 -76.667 -123 -122 -201l-10 -19l-14 -25c-5.33301 -8 -8.66602 -14 -9.99902 -18c-3.33301 -8 -7 -19.333 -11 -34s-6 -24.334 -6 -29.001
c0 -12 0.666992 -19.833 2 -23.5s5 -6.83398 11 -9.50098c10 -5.33301 24.667 -11.833 44 -19.5c19.334 -7.66699 33.667 -12.5 43 -14.5c10.667 -2.66699 41 -6.33398 91 -11.001l-17 -73h-596l17 73c17.333 0.666992 38.833 3.33398 64.5 8.00098
s43.167 8.33398 52.5 11.001c6 2 18 7.83301 36 17.5s30.333 16.834 37 21.501c6 4.66699 18.333 15.834 37 33.501s31 30.167 37 37.5c11.333 16.667 21.666 32.334 30.999 47.001l59 91c73.333 111.333 178 273.333 314 486l394 613h198l128 -741
c36.667 -215.333 66 -378.666 88 -489.999c2.66699 -14.667 4.83398 -24.334 6.50098 -29.001s6.16699 -13 13.5 -25c7.33301 -12.667 12.833 -20.834 16.5 -24.501s13.5 -11.167 29.5 -22.5c12 -8 20.5 -13 25.5 -15c5.00586 -2 16.1729 -5 33.501 -9
c21.3389 -5.33301 42.6719 -8.66602 64 -9.99902l-17 -73h-759zM480.999 570.991h411l-87 517z" />
    <glyph glyph-name="Adieresis" unicode="&#xc4;" horiz-adv-x="1553" 
d="M897 1651c-1.33984 -9.33301 -4.66699 -18.002 -9.99316 -26.002c-6.00195 -8 -17.6689 -21.167 -35.001 -39.5c-17.335 -18.333 -29.668 -30.5 -37 -36.5c-8 -6 -16.333 -9.66699 -25 -11c-16 -1.33301 -32.333 -2 -49 -2c-16.667 0.046875 -33 0.713867 -49 2
c-9.33594 1.35645 -17.6689 5.02344 -25 11c-8 6 -20.5 18 -37.5 36c-17.001 18 -28.168 31 -33.5 39c-5.33789 8.0127 -8.6709 16.6797 -10 26c-1.35156 16 -2.01855 33.333 -2.00098 52c0 18 0.666992 35 2 51c1.33301 9.34668 4.66602 18.0137 9.99902 26
c5.33301 8.00684 16.5 21.1738 33.5 39.5c17 18.3398 29.167 30.5068 36.5 36.5c7.33301 6.04297 15.666 9.70996 24.999 11.001c16 1.39062 32.667 2.05762 50 2.00098c16.6689 0 33.002 -0.666992 49 -2c8.6709 -1.33301 17.0039 -5 24.999 -11
c7.33301 -6 19.666 -18.167 36.999 -36.5s29 -31.5 35 -39.5c5.33301 -8 8.66602 -16.667 9.99902 -26c1.33301 -16 2 -33 2 -51c-0.0273438 -18 -0.694336 -35 -2 -51zM1433.01 1651c-1.33301 -9.33301 -4.67383 -18.002 -10.0068 -26.002s-16.666 -21.167 -33.999 -39.5
s-29.666 -30.5 -36.999 -36.5c-8.00977 -6 -16.3428 -9.66699 -24.999 -11c-16.0049 -1.33301 -32.3379 -2 -49 -2c-17.333 0.046875 -34 0.713867 -50 2c-9.33301 1.35645 -17.666 5.02344 -24.999 11c-7.33301 6 -19.666 18.333 -36.999 37s-28.666 32 -33.999 40
c-5.33301 7.3457 -8.66602 15.6787 -9.99902 25c-1.33301 16 -2 33 -2 51c0.0341797 18 0.701172 35 2 51c1.35059 9.34668 4.68359 18.0137 10 26c5.33789 8.00684 16.6709 21.1738 34 39.5c17.3379 18.3398 29.6709 30.5068 37 36.5
c7.33789 6.04297 15.6709 9.70996 25 11.001c16.0068 1.39062 32.6738 2.05762 50 2.00098c16.667 0 33 -0.666992 49 -2c8.66699 -1.33301 17 -5 25 -11c7.33887 -6 19.6719 -18.167 37 -36.5c17.3389 -18.333 28.6719 -31.5 34 -39.5c5.35547 -8 8.68848 -16.667 10 -26
c1.37695 -16 2.04395 -33 2 -51c0 -18 -0.666992 -35 -2 -51zM748.998 72.9961c54.667 4 88.166 6.99707 100.499 8.99707s32.5 7.66699 60.5 17l38 12c9.33301 3.33301 14.833 6.33301 16.5 9c1.69629 2.66699 2.5293 8.33398 2.5 17.001
c-0.0292969 4.66699 -0.696289 15 -2 31l-5 30l-50 279h-489c-36 -56 -76.667 -123 -122 -201l-10 -19l-14 -25c-5.33301 -8 -8.66602 -14 -9.99902 -18c-3.33301 -8 -7 -19.333 -11 -34s-6 -24.334 -6 -29.001c0 -12 0.666992 -19.833 2 -23.5s5 -6.83398 11 -9.50098
c10 -5.33301 24.667 -11.833 44 -19.5c19.334 -7.66699 33.667 -12.5 43 -14.5c10.667 -2.66699 41 -6.33398 91 -11.001l-17 -73h-596l17 73c17.333 0.666992 38.833 3.33398 64.5 8.00098s43.167 8.33398 52.5 11.001c6 2 18 7.83301 36 17.5s30.333 16.834 37 21.501
c6 4.66699 18.333 15.834 37 33.501s31 30.167 37 37.5c11.333 16.667 21.666 32.334 30.999 47.001l59 91c73.333 111.333 178 273.333 314 486l394 613h198l128 -741c36.667 -215.333 66 -378.666 88 -489.999c2.66699 -14.667 4.83398 -24.334 6.50098 -29.001
s6.16699 -13 13.5 -25c7.33301 -12.667 12.833 -20.834 16.5 -24.501s13.5 -11.167 29.5 -22.5c12 -8 20.5 -13 25.5 -15c5.00488 -2 16.1719 -5 33.5 -9c21.3389 -5.33301 42.6719 -8.66602 64 -9.99902l-17 -73h-759zM480.997 570.993h411l-87 517z" />
    <glyph glyph-name="Aring" unicode="&#xc5;" horiz-adv-x="1553" 
d="M749 73c66.667 4.66699 120.334 13.3262 161 25.9932c38 11.333 57 24 57 38l-2 31l-5 30l-50 279h-489c-25.333 -40 -45.333 -72.333 -60 -96.999l-62 -104c-26 -48 -40.667 -79 -44 -93c-4.66699 -14 -7 -24.667 -7 -32c0 -19.333 15.667 -35.666 47 -48.999
c34 -13.333 82 -23 144 -29l-17 -73h-596l17 73c20 0.666992 45.333 4.33398 76 11.001s54.334 14.334 71.001 23.001c58 30.667 107.333 78 148 142l58 89c200.667 311.333 302.667 469.333 306 474l147 228c66.001 101.334 132.334 205.001 199 311.001l39 60
c-56 10 -99.5 31.5 -130.5 64.5s-46.5 73.833 -46.5 122.5c0 51.3369 14.667 97.6699 44 139c29.333 41.335 69.666 73.668 120.999 97c49.333 22.667 103.666 34 162.999 34c48.001 -0.0146484 90.668 -7.84766 128 -23.5c37.335 -15.667 66.668 -38.167 88 -67.5
c21.3379 -29.333 32.0049 -63 32 -101c0 -55.333 -16.167 -104.833 -48.5 -148.5c-32.333 -43.668 -76.833 -75.835 -133.5 -96.5l128 -738c33.333 -199.333 62.333 -361 87 -485c2.66699 -20.667 9.33398 -38.667 20.001 -54c8.00488 -15.333 21.6719 -29.666 41 -42.999
c19.3389 -13.333 40.6719 -22.666 64 -27.999c30 -6 51.333 -9.33301 64 -10l-17 -73h-759zM1104.5 1765.49c-19.6689 21.667 -46.501 32.498 -80.499 32.498c-49.334 0 -88.667 -18.167 -118 -54.5c-29.3359 -36.333 -44.0029 -84.5 -44.001 -144.5
c0 -39.333 9.5 -69.833 28.5 -91.5c19 -21.6719 46.5 -32.5049 82.5 -32.499c49.333 0.00585938 88.5 18.6729 117.5 56c29 37.333 43.5 86.333 43.5 147c-0.00878906 36.667 -9.8418 65.834 -29.5 87.501zM481.001 570.99h411l-87 517z" />
    <glyph glyph-name="AE" unicode="&#xc6;" horiz-adv-x="2201" 
d="M680 0l16.9971 72.9951c18 0.666992 44 3.33398 78 8.00098s57.667 9.33398 71 14.001c26.668 10 46.501 23 59.499 39c13 16 22.5 37.333 28.5 64l91 396h-489c-42.667 -52 -98.334 -122.667 -167.001 -212l-84 -108c-36.667 -49.333 -58 -81 -64 -95
c-8 -16.667 -12 -28 -12 -34c0 -12 6 -22.667 18 -32s28 -16.333 48 -21c23.334 -6.66699 61.001 -13 113.001 -19l-17 -73h-589l17 73c26 2 52.167 6.16699 78.5 12.5s47.166 13.5 62.499 21.5c34.667 18 64.334 37.167 89.001 57.5s52 48.5 82 84.5l318 390l54 67l62 76
l422 520c-15.334 10.667 -41.001 20 -77 28c-36 8 -72 13.333 -108 16l17 73h1446l-84 -362h-76c-4 35.333 -14.5 72.333 -31.5 111s-38.167 72.334 -63.5 101.001c-16.6738 18.667 -32.8408 32.334 -48.5 41.001c-15.6777 8.66699 -30.5107 14.167 -44.5 16.5
c-14 2.35352 -33 4.18652 -57 5.5c-36 1.37402 -70.667 2.04102 -104 2h-186l-129 -555h126c42.0049 0.00585938 78.1719 4.83887 108.501 14.5c30.3369 9.66699 60.1699 26.167 89.5 49.5c17.333 14 38.333 40 63 78s43.334 73 56.001 105h76l-137 -592h-76
c0.666992 3.33301 1 13.333 1 30c0 29.334 -3.16699 60.834 -9.5 94.5c-6.33301 33.668 -14.166 56.835 -23.499 69.501c-19.333 24.667 -42 41.667 -68 51s-59 14 -99 14h-126l-96 -417c-10.6768 -47.333 -16.0098 -81.666 -16 -102.999
c0 -36.667 14.333 -60.334 43 -71.001c25.335 -10.667 75.668 -16 151 -16c102.667 0 173.334 5.33301 212.001 16c42.667 10.667 74 24 94 40c34.667 29.333 79 75.833 133 139.5s95 117.167 123 160.5h73l-129 -442h-1310zM611.997 687.995h435l149 646h-68z" />
    <glyph glyph-name="Ccedilla" unicode="&#xc7;" horiz-adv-x="1465" 
d="M644 -34c-82 9.33301 -153.501 26.498 -214.501 51.498s-115.833 58.833 -164.5 101.5c-58 52 -102.167 114.833 -132.5 188.5s-45.5 155.167 -45.5 244.5c0 119.333 22.333 233.333 67 342s108.334 206 191.001 292c82.667 84.667 181 151 295 199s232.667 72 356 72
c76 -0.0107422 154.333 -9.34375 235 -27.999c80.667 -18.6689 140 -40.3359 178 -65l75 55h87l-111 -518h-88c-13.333 150 -52.833 264.833 -118.5 344.5s-152.5 119.5 -260.499 119.5c-157.333 0 -286.666 -93.667 -387.999 -281
c-40.001 -77.333 -71.168 -166.833 -93.501 -268.5s-33.5 -200.5 -33.5 -296.5c0 -87.333 14.5 -162.666 43.5 -225.999c29.001 -63.333 70.834 -112 125.5 -146c53.333 -33.333 116 -50 188 -50c92 0 179 25.833 261 77.5c82.001 51.667 161.668 129.5 239 233.5l77 -52
c-36 -56 -77.167 -108 -123.5 -156s-95.833 -88.333 -148.5 -121c-63.333 -39.333 -126 -68.5 -188 -87.5s-136 -28.5 -222 -28.5l-13 -59c68 0 121 -11.167 159 -33.5s57 -54.166 57 -95.499c0 -52 -13.833 -92.333 -41.5 -121c-27.667 -28.666 -60.5 -48.833 -98.5 -60.5
c-38 -11.666 -83 -20.499 -135 -26.5c-60.667 -7.33301 -133.334 -11 -218.001 -11l18 78h38c40.001 -0.00585938 70.834 0.661133 92.5 2c21.667 1.33203 41.167 3.99902 58.5 8c53.333 11.333 80 38 80 80c-0.000976562 19.333 -10.668 33.166 -32 41.499
c-21.333 8.33301 -52.333 12.5 -93 12.5z" />
    <glyph glyph-name="Egrave" unicode="&#xc8;" horiz-adv-x="1477" 
d="M1057 1485c-51.334 24.0059 -93.667 43.1709 -126.999 57.498c-33.334 14.333 -73.667 30.833 -121 49.5c-56.667 22.667 -105 42.667 -145 60c-22.667 10.667 -36.667 17.5 -42 20.5c-5.33594 3.01953 -13.6689 10.1865 -25 21.501
c-12.667 10.667 -20.167 18.334 -22.5 23.001c-2.35938 4.66699 -3.52637 13.667 -3.5 27c0 16 0.666992 31.333 2 46c0.666992 6.66699 3.66699 13 9 19c4.00293 5.34668 13.3359 14.0137 27.999 26c14.667 12 25.667 20 33 24c6.6709 4.02832 15.0039 6.69531 25 8
c4.66699 0.666992 25.667 1 63 1c14.6709 -0.0566406 25.0039 -0.889648 31 -2.49902c6.00293 -1.69531 16.3359 -6.8623 31 -15.501c15.333 -8.68066 25.833 -15.5137 31.5 -20.5c5.66797 -5 16.835 -17.5 33.5 -37.5c38.667 -45.333 118 -134 238 -266zM1361 1057
c-5.33301 36.667 -9.33398 61.332 -12.001 73.999c-2.66699 13.333 -7.66699 26.333 -15 39c-11.333 17.3359 -26 39.5029 -44 66.501c-18 27.0049 -30.667 45.1719 -38 54.5c-8.00977 9.34375 -16.3428 16.0107 -25 20.001c-8.67383 4 -24.0068 8.33301 -46 13
c-13.333 3.39453 -24.666 5.56152 -33.999 6.50098c-9.33301 1 -25 1.83301 -47 2.5l-88 1h-196l-128 -555h136c37.333 0 61 0.666992 71 2s25.667 6.33301 47 15c22 8.00293 36.167 13.8359 42.5 17.5c6.33301 3.66699 18.5 13.167 36.5 28.5
c14.667 12.667 24 21.667 28 27c5.33691 5.33301 17.6699 23.5 36.999 54.5c19.333 31.0029 31.333 50.8359 36 59.5c4.66699 9.33301 10.667 23.666 18 42.999h76l-137 -592h-76v37c0 22.667 -0.333008 37.834 -1 45.501c-0.666992 7.66797 -3.33398 23.501 -8.00098 47.5
c-4 21.333 -7 35 -9 41c-2.00781 6.00195 -6.6748 14.335 -14.001 24.999c-7.33301 11.333 -14.333 21 -21 29c-3.33301 3.33301 -8.33301 7 -15 11c-10 4 -23.5 8.5 -40.5 13.5c-17.002 5.00488 -29.1689 7.83789 -36.501 8.49902c-6 0.6875 -24 1.02051 -54 0.999023h-136
l-91 -395c-4.00391 -15.333 -8.1709 -35.5 -12.5 -60.5c-4.3457 -25 -6.5127 -43.167 -6.5 -54.5c0 -17.333 0.666992 -33.333 2 -48c1.33301 -8.66699 4.33301 -14.334 9 -17.001c4.00293 -4 14.3359 -9.16699 30.999 -15.5c16.6689 -6.33301 29.3359 -10.166 38 -11.499
c6.66797 -1.33301 20.001 -2.66602 40 -3.99902c8.66699 -0.666992 34.334 -1 77 -0.999023c58 0 103 0.666992 135 2c16.668 0.666992 41.335 4 74.001 10c32.667 6 53.667 11 63 15c8.66699 3.33301 21 11.333 37 24c30 25.333 50.833 44.333 62.5 57
s38.834 44.667 81.501 96c45.3359 54.667 71.0029 86.667 77.001 96l12 17c13.3389 19.333 21.6719 32.333 25 39h73l-129 -442h-1321l17 73c13.333 0.666992 38.333 3 75 7c14.667 1.33301 27.834 2.83301 39.501 4.5s22.834 4.5 33.501 8.5
c19.333 6.66699 31.5 11.667 36.5 15s12.833 11.666 23.5 24.999c10 13.333 16.167 22.666 18.5 27.999s5.5 16.666 9.5 33.999l229 992c6 24.0068 9 42.6738 9 56c0 10.667 -0.666992 21.334 -2 32.001c-0.666992 5.33301 -3.66699 10.333 -9 15
c-6.66699 4.66699 -19.167 11.834 -37.5 21.501s-32.5 16.167 -42.5 19.5c-12 3.33301 -42 8.33301 -90 15l17 73h1248l-83 -362h-76z" />
    <glyph glyph-name="Eacute" unicode="&#xc9;" horiz-adv-x="1477" 
d="M1277.5 1726.5c-2.33301 -5.67969 -9.83301 -14.8516 -22.5 -27.5049c-11.333 -13.333 -20.333 -21.833 -27 -25.5c-6.66699 -3.67285 -22.667 -10.8398 -48 -21.5c-43.333 -17.333 -99.333 -38.666 -168 -63.999c-79.333 -29.333 -158.333 -60.666 -237 -93.999l-23 -9
l-33 41l158 151c24.667 23.335 61.667 61.668 111 115c17.333 19.333 29 31.333 35 36c6.00391 4.66699 18.6709 12.334 38 23.001c17.3369 8.66699 29.1699 13.667 35.499 15c6.33789 1.39062 19.1709 2.05762 38.5 2.00098
c29.3379 -0.0566406 46.0049 -0.389648 50.001 -0.999023c10 -1.33301 17.333 -3 22 -5c5.34277 -2.66699 16.1758 -9.66699 32.5 -21c16.3428 -11.333 26.5098 -19 30.5 -23c4.66699 -4.68066 7.66699 -10.0137 9 -16c1.37207 -12 2.03906 -26 2 -42
c0 -16.6729 -1.16699 -27.8398 -3.5 -33.5zM1361 1057c-5.33301 36.667 -9.33398 61.333 -12.001 74c-2.66699 13.333 -7.66699 26.333 -15 39c-11.333 17.3359 -26 39.5029 -44 66.501c-18 27.0049 -30.667 45.1719 -38 54.5c-8.00977 9.34375 -16.3428 16.0107 -25 20.001
c-8.67383 4 -24.0068 8.33301 -46 13c-13.333 3.39453 -24.666 5.56152 -33.999 6.50098c-9.33301 1 -25 1.83301 -47 2.5l-88 1h-196l-128 -555h136c37.333 0 61 0.666992 71 2s25.667 6.33301 47 15c22 8.00293 36.167 13.8359 42.5 17.499
c6.33301 3.66699 18.5 13.167 36.5 28.5c14.667 12.667 24 21.667 28 27c5.33691 5.33301 17.6699 23.5 36.999 54.5c19.333 31.0029 31.333 50.8359 36 59.5c4.66699 9.33301 10.667 23.666 18 42.999h76l-137 -592h-76v37c0 22.667 -0.333008 37.834 -1 45.501
c-0.666992 7.66797 -3.33398 23.501 -8.00098 47.5c-4 21.333 -7 35 -9 41c-2.00781 6.00195 -6.6748 14.335 -14.001 24.999c-7.33301 11.333 -14.333 21 -21 29c-3.33301 3.33301 -8.33301 7 -15 11c-10 4 -23.5 8.5 -40.5 13.5
c-17.002 5.00488 -29.1689 7.83789 -36.501 8.49902c-6 0.6875 -24 1.02051 -54 0.999023h-136l-91 -395c-4.00391 -15.333 -8.1709 -35.5 -12.5 -60.5c-4.3457 -25 -6.5127 -43.167 -6.5 -54.5c0 -17.333 0.666992 -33.333 2 -48
c1.33301 -8.66699 4.33301 -14.334 9 -17.001c4.00293 -4 14.3359 -9.16699 30.999 -15.5c16.6689 -6.33301 29.3359 -10.166 38 -11.499c6.66797 -1.33301 20.001 -2.66602 40 -3.99902c8.66699 -0.666992 34.334 -1 77 -0.999023c58 0 103 0.666992 135 2
c16.668 0.666992 41.335 4 74.001 10c32.667 6 53.667 11 63 15c8.66699 3.33301 21 11.333 37 24c30 25.333 50.833 44.333 62.5 57s38.834 44.667 81.501 96c45.3359 54.667 71.0029 86.667 77.001 96l12 17c13.3389 19.333 21.6719 32.333 25 39h73l-129 -442h-1321
l17 73c13.333 0.666992 38.333 3 75 7c14.667 1.33301 27.834 2.83301 39.501 4.5s22.834 4.5 33.501 8.5c19.333 6.66699 31.5 11.667 36.5 15s12.833 11.666 23.5 24.999c10 13.333 16.167 22.666 18.5 27.999s5.5 16.666 9.5 33.999l229 992c6 24.0068 9 42.6738 9 56
c0 10.667 -0.666992 21.334 -2 32.001c-0.666992 5.33301 -3.66699 10.333 -9 15c-6.66699 4.66699 -19.167 11.834 -37.5 21.501s-32.5 16.167 -42.5 19.5c-12 3.33301 -42 8.33301 -90 15l17 73h1248l-83 -362h-76z" />
    <glyph glyph-name="Ecircumflex" unicode="&#xca;" horiz-adv-x="1477" 
d="M964 1687l-384 -203.002l-32 29c70 73.333 135.333 139.333 195.999 198c43.333 40.667 75.333 72.667 96 96c14 15.3545 23.5 25.0215 28.5 29.001c5.00195 4.01367 15.835 9.68066 32.5 17c16 7.34766 27.667 11.6807 35 13c7.33301 1.39062 25 2.05762 53 2.00098
c25.333 0 41.5 -0.666992 48.5 -2s17.5 -5.33301 31.5 -12c11.333 -6.02832 18.833 -10.8613 22.5 -14.5c3.66699 -3.66699 10.834 -13.167 21.501 -28.5l65 -98l131 -200l-34 -29zM1361 1057c-5.33301 36.667 -9.33398 61.332 -12.001 73.999
c-2.66699 13.333 -7.66699 26.333 -15 39c-11.333 17.3359 -26 39.5029 -44 66.501c-18 27.0049 -30.667 45.1719 -38 54.5c-8.00977 9.34375 -16.3428 16.0107 -25 20.001c-8.67383 4 -24.0068 8.33301 -46 13c-13.333 3.39453 -24.666 5.56152 -33.999 6.50098
c-9.33301 1 -25 1.83301 -47 2.5l-88 1h-196l-128 -555h136c37.333 0 61 0.666992 71 2s25.667 6.33301 47 15c22 8.00293 36.167 13.8359 42.5 17.5c6.33301 3.66699 18.5 13.167 36.5 28.5c14.667 12.667 24 21.667 28 27c5.33691 5.33301 17.6699 23.5 36.999 54.5
c19.333 31.0029 31.333 50.8359 36 59.5c4.66699 9.33301 10.667 23.666 18 42.999h76l-137 -592h-76v37c0 22.667 -0.333008 37.834 -1 45.501c-0.666992 7.66797 -3.33398 23.501 -8.00098 47.5c-4 21.333 -7 35 -9 41c-2.00781 6.00195 -6.6748 14.335 -14.001 24.999
c-7.33301 11.333 -14.333 21 -21 29c-3.33301 3.33301 -8.33301 7 -15 11c-10 4 -23.5 8.5 -40.5 13.5c-17.002 5.00488 -29.1689 7.83789 -36.501 8.49902c-6 0.6875 -24 1.02051 -54 0.999023h-136l-91 -395c-4.00391 -15.333 -8.1709 -35.5 -12.5 -60.5
c-4.3457 -25 -6.5127 -43.167 -6.5 -54.5c0 -17.333 0.666992 -33.333 2 -48c1.33301 -8.66699 4.33301 -14.334 9 -17.001c4.00293 -4 14.3359 -9.16699 30.999 -15.5c16.6689 -6.33301 29.3359 -10.166 38 -11.499c6.66797 -1.33301 20.001 -2.66602 40 -3.99902
c8.66699 -0.666992 34.334 -1 77 -0.999023c58 0 103 0.666992 135 2c16.668 0.666992 41.335 4 74.001 10c32.667 6 53.667 11 63 15c8.66699 3.33301 21 11.333 37 24c30 25.333 50.833 44.333 62.5 57s38.834 44.667 81.501 96c45.3359 54.667 71.0029 86.667 77.001 96
l12 17c13.3389 19.333 21.6719 32.333 25 39h73l-129 -442h-1321l17 73c13.333 0.666992 38.333 3 75 7c14.667 1.33301 27.834 2.83301 39.501 4.5s22.834 4.5 33.501 8.5c19.333 6.66699 31.5 11.667 36.5 15s12.833 11.666 23.5 24.999
c10 13.333 16.167 22.666 18.5 27.999s5.5 16.666 9.5 33.999l229 992c6 24.0068 9 42.6738 9 56c0 10.667 -0.666992 21.334 -2 32.001c-0.666992 5.33301 -3.66699 10.333 -9 15c-6.66699 4.66699 -19.167 11.834 -37.5 21.501s-32.5 16.167 -42.5 19.5
c-12 3.33301 -42 8.33301 -90 15l17 73h1248l-83 -362h-76z" />
    <glyph glyph-name="Edieresis" unicode="&#xcb;" horiz-adv-x="1477" 
d="M812 1651c-1.33984 -9.33301 -4.66992 -18.002 -9.99707 -26.002c-6.00195 -8 -17.6689 -21.167 -35.001 -39.5c-17.335 -18.333 -29.668 -30.5 -37 -36.5c-8 -6 -16.333 -9.66699 -25 -11c-16 -1.33301 -32.333 -2 -49 -2c-16.667 0.046875 -33 0.713867 -49 2
c-9.33496 1.35645 -17.668 5.02344 -25 11c-8 6 -20.5 18 -37.5 36c-17.001 18 -28.168 31 -33.5 39c-5.33301 8.0127 -8.66602 16.6797 -9.99902 26c-1.33301 16 -2 33.333 -2 52c0.0078125 18 0.674805 35 2.00098 51c1.33691 9.34668 4.66992 18.0137 9.99902 26
c5.33301 8.00684 16.5 21.1738 33.5 39.5c17 18.3398 29.167 30.5068 36.5 36.5c7.33301 6.04297 15.666 9.70996 24.999 11.001c16 1.39062 32.667 2.05762 50 2.00098c16.668 0 33.001 -0.666992 49 -2c8.6709 -1.33301 17.0039 -5 25 -11
c7.33301 -6 19.666 -18.167 36.999 -36.5s29 -31.5 35 -39.5c5.33301 -8 8.66602 -16.667 9.99902 -26c1.33301 -16 2 -33 2 -51c-0.0244141 -18 -0.691406 -35 -2 -51zM1348 1651c-1.33301 -9.33301 -4.67188 -18.002 -10.0049 -26.002s-16.666 -21.167 -33.999 -39.5
s-29.666 -30.5 -36.999 -36.5c-8.00977 -6 -16.3428 -9.66699 -25 -11c-16.0068 -1.33301 -32.3398 -2 -48.999 -2c-17.333 0.046875 -34 0.713867 -50 2c-9.33301 1.35645 -17.666 5.02344 -24.999 11c-7.33301 6 -19.666 18.333 -36.999 37s-28.666 32 -33.999 40
c-5.33301 7.3457 -8.66602 15.6787 -9.99902 25c-1.33301 16 -2 33 -2 51c0.03125 18 0.698242 35 2 51c1.36523 9.34668 4.69824 18.0137 10 26c5.3418 8.00684 16.6748 21.1738 34 39.5c17.3418 18.3398 29.6748 30.5068 37 36.5
c7.3418 6.04297 15.6748 9.70996 24.999 11.001c16.0039 1.39062 32.6709 2.05762 50 2.00098c16.667 0 33 -0.666992 49 -2c8.66699 -1.33301 17 -5 25 -11c7.34277 -6 19.6758 -18.167 36.999 -36.5c17.3438 -18.333 28.6768 -31.5 34 -39.5
c5.35352 -8 8.68652 -16.667 9.99902 -26c1.375 -16 2.04199 -33 2.00098 -51c0 -18 -0.666992 -35 -2 -51zM1361 1057c-5.33301 36.667 -9.33301 61.332 -12 73.999c-2.66699 13.333 -7.66699 26.333 -15 39c-11.333 17.3359 -26 39.5029 -44 66.501
c-18 27.0049 -30.667 45.1719 -38 54.5c-8.00977 9.34375 -16.3428 16.0107 -25 20.001c-8.67383 4 -24.0068 8.33301 -46 13c-13.333 3.39453 -24.666 5.56152 -33.999 6.50098c-9.33301 1 -25 1.83301 -47 2.5l-88 1h-196l-128 -555h136c37.333 0 61 0.666992 71 2
s25.667 6.33301 47 15c22 8.00293 36.167 13.8359 42.5 17.5c6.33301 3.66699 18.5 13.167 36.5 28.5c14.667 12.667 24 21.667 28 27c5.33691 5.33301 17.6699 23.5 36.999 54.5c19.333 31.0029 31.333 50.8359 36 59.5c4.66699 9.33301 10.667 23.666 18 42.999h76
l-137 -592h-76v37c0 22.667 -0.333008 37.834 -1 45.501c-0.666992 7.66797 -3.33398 23.501 -8.00098 47.5c-4 21.333 -7 35 -9 41c-2.00781 6.00195 -6.6748 14.335 -14.001 24.999c-7.33301 11.333 -14.333 21 -21 29c-3.33301 3.33301 -8.33301 7 -15 11
c-10 4 -23.5 8.5 -40.5 13.5c-17.002 5.00488 -29.1689 7.83789 -36.501 8.49902c-6 0.6875 -24 1.02051 -54 0.999023h-136l-91 -395c-4.00391 -15.333 -8.1709 -35.5 -12.5 -60.5c-4.3457 -25 -6.5127 -43.167 -6.5 -54.5c0 -17.333 0.666992 -33.333 2 -48
c1.33301 -8.66699 4.33301 -14.334 9 -17.001c4.00293 -4 14.3359 -9.16699 30.999 -15.5c16.6689 -6.33301 29.3359 -10.166 38 -11.499c6.66797 -1.33301 20.001 -2.66602 40 -3.99902c8.66699 -0.666992 34.334 -1 77 -0.999023c58 0 103 0.666992 135 2
c16.668 0.666992 41.335 4 74.001 10c32.667 6 53.667 11 63 15c8.66699 3.33301 21 11.333 37 24c30 25.333 50.833 44.333 62.5 57s38.834 44.667 81.501 96c45.3359 54.667 71.0029 86.667 77.001 96l12 17c13.3379 19.333 21.6709 32.333 24.999 39h73l-129 -442h-1321
l17 73c13.333 0.666992 38.333 3 75 7c14.667 1.33301 27.834 2.83301 39.501 4.5s22.834 4.5 33.501 8.5c19.333 6.66699 31.5 11.667 36.5 15s12.833 11.666 23.5 24.999c10 13.333 16.167 22.666 18.5 27.999s5.5 16.666 9.5 33.999l229 992c6 24.0068 9 42.6738 9 56
c0 10.667 -0.666992 21.334 -2 32.001c-0.666992 5.33301 -3.66699 10.333 -9 15c-6.66699 4.66699 -19.167 11.834 -37.5 21.501s-32.5 16.167 -42.5 19.5c-12 3.33301 -42 8.33301 -90 15l17 73h1248l-83 -362h-76z" />
    <glyph glyph-name="Igrave" unicode="&#xcc;" horiz-adv-x="913" 
d="M881 1485c-51.334 24.0059 -93.665 43.1689 -126.998 57.4961c-33.335 14.333 -73.668 30.833 -121 49.5c-56.667 22.667 -105 42.667 -145 60c-4 2 -11.5 5.5 -22.5 10.5c-11.001 5 -19.334 9.83301 -24.999 14.5c-5.66699 4.66699 -12.167 10.334 -19.5 17.001
c-12.667 10.667 -20.167 18.334 -22.5 23.001s-3.5 13.667 -3.5 27c0.00585938 16 0.672852 31.333 2 46c0.666992 6.66699 3.66699 13 9 19c4 5.34668 13.333 14.0137 28 26c14.667 12 25.667 20 33 24c6.66699 4.02832 15 6.69531 25 8c4.66699 0.666992 25.667 1 63 1
c14.6699 -0.0566406 25.0029 -0.889648 31 -2.49902c6.00195 -1.69531 16.335 -6.8623 30.999 -15.501c13.333 -7.33301 22.666 -13.166 27.999 -17.499s12 -11.166 20 -20.499l17 -20c38.667 -45.333 118 -134 237.999 -266zM-43.998 72.9961
c14.667 0.666992 34.999 2.33008 60.999 4.99707s48 5.33398 66 8.00098c10 2.66699 22.5 6.33398 37.5 11.001s24.5 8.66699 28.5 12c4.66699 3.33301 12.167 11.666 22.5 24.999s16.833 22.666 19.5 27.999c2 5.33301 5 16.333 9 33l229 992c6 24.0068 9 42.6738 9 56
c0 10.667 -0.666992 21.334 -2 32.001c-1.33301 4.66699 -4.66602 9.66699 -9.99902 15c-7.33301 5.34766 -21.333 13.0146 -42 23c-20.667 10 -35.667 16 -45 18c-12 3.33301 -42 8.33301 -90 15l17 73h787l-17 -73c-21.334 -0.666992 -48.667 -3.66699 -81.999 -9l-20 -4
c-21.333 -4 -40.833 -8.5 -58.5 -13.5s-29.167 -9.5 -34.5 -13.5c-4.66699 -3.33301 -12 -11.666 -22 -24.999s-16 -22.666 -18 -27.999c-2 -3.33301 -5.33301 -14.666 -10 -33.999l-229 -993c-6 -26.667 -9 -45 -9 -55c0 -14 0.666992 -26.333 2 -37
c1.33301 -7.33301 5 -12.333 11 -15c6 -4.66699 19.167 -11.167 39.5 -19.5s36.166 -13.5 47.499 -15.5c8.66699 -2.66699 38.667 -6.33398 90 -11.001l-17 -73h-787z" />
    <glyph glyph-name="Iacute" unicode="&#xcd;" horiz-adv-x="913" 
d="M1007.5 1726.5c-2.33301 -5.67969 -9.82812 -14.8516 -22.4951 -27.5049c-11.333 -13.333 -20.333 -21.833 -27 -25.5c-6.66699 -3.67285 -22.667 -10.8398 -48 -21.5c-43.333 -17.333 -99.333 -38.666 -168 -63.999c-79.333 -29.333 -158.333 -60.666 -237 -93.999
l-23 -9l-33 41l158 151c24.667 23.335 61.667 61.668 111 115c17.333 19.333 29 31.333 35 36s18.667 12.334 38 23.001c17.333 8.66699 29.166 13.667 35.499 15c6.33301 1.39062 19.166 2.05762 38.499 2.00098c29.333 -0.0566406 46 -0.389648 50 -0.999023
c10.0049 -1.33301 17.3379 -3 21.999 -5c5.33301 -2.66699 16.166 -9.66699 32.499 -21s26.5 -19 30.5 -23c4.66699 -4.68066 7.66699 -10.0137 9 -16c1.33301 -12 2 -26 2 -42c-0.03125 -16.6729 -1.19824 -27.8398 -3.50098 -33.5zM-43.9951 72.9951
c14.667 0.666992 34.999 2.3291 60.999 4.99609s48 5.33398 66 8.00098c10 2.66699 22.5 6.33398 37.5 11.001s24.5 8.66699 28.5 12c4.66699 3.33301 12.167 11.666 22.5 24.999s16.833 22.666 19.5 27.999c2 5.33301 5 16.333 9 33l229 992c6 24.0068 9 42.6738 9 56
c0 10.667 -0.666992 21.334 -2 32.001c-1.33301 4.66699 -4.66602 9.66699 -9.99902 15c-7.33301 5.34863 -21.333 13.0156 -42 23.001c-20.667 10 -35.667 16 -45 18c-12 3.33301 -42 8.33301 -90 15l17 73h787l-17 -73c-21.334 -0.666992 -48.667 -3.66699 -81.999 -9
l-20 -4c-21.333 -4 -40.833 -8.5 -58.5 -13.5s-29.167 -9.5 -34.5 -13.5c-4.66699 -3.33301 -12 -11.666 -22 -24.999s-16 -22.666 -18 -27.999c-2 -3.33301 -5.33301 -14.666 -10 -33.999l-229 -993c-6 -26.667 -9 -45 -9 -55c0 -14 0.666992 -26.333 2 -37
c1.33301 -7.33301 5 -12.333 11 -15c6 -4.66699 19.167 -11.167 39.5 -19.5s36.166 -13.5 47.499 -15.5c8.66699 -2.66699 38.667 -6.33398 90 -11.001l-17 -73h-787z" />
    <glyph glyph-name="Icircumflex" unicode="&#xce;" horiz-adv-x="913" 
d="M687 1687l-384 -203.002l-32 29c70 73.333 135.333 139.333 196 198c43.334 41.333 75.334 73.333 96 96c14 15.3545 23.5 25.0215 28.5 29.001c5.00098 4.01367 15.834 9.68066 32.499 17c16 7.34766 27.667 11.6807 35 13c7.33301 1.39062 25 2.05762 53 2.00098
c25.333 0 41.5 -0.666992 48.5 -2s17.5 -5.33301 31.5 -12c11.333 -6.02832 18.833 -10.8613 22.5 -14.5c3.66992 -3.66699 10.8369 -13.167 21.501 -28.5l65 -98l131 -200l-34 -29zM-44 72.998c14.667 0.666992 34.999 2.33008 60.999 4.99707s48 5.33398 66 8.00098
c10 2.66699 22.5 6.33398 37.5 11.001s24.5 8.66699 28.5 12c4.66699 3.33301 12.167 11.666 22.5 24.999s16.833 22.666 19.5 27.999c2 5.33301 5 16.333 9 33l229 992c6 24.0068 9 42.6738 9 56c0 10.667 -0.666992 21.334 -2 32.001
c-1.33301 4.66699 -4.66602 9.66699 -9.99902 15c-7.33301 5.34766 -21.333 13.0146 -42 23c-20.667 10 -35.667 16 -45 18c-12 3.33301 -42 8.33301 -90 15l17 73h787l-17 -73c-21.334 -0.666992 -48.667 -3.66699 -81.999 -9l-20 -4c-21.333 -4 -40.833 -8.5 -58.5 -13.5
s-29.167 -9.5 -34.5 -13.5c-4.66699 -3.33301 -12 -11.666 -22 -24.999s-16 -22.666 -18 -27.999c-2 -3.33301 -5.33301 -14.666 -10 -33.999l-229 -993c-6 -26.667 -9 -45 -9 -55c0 -14 0.666992 -26.333 2 -37c1.33301 -7.33301 5 -12.333 11 -15
c6 -4.66699 19.167 -11.167 39.5 -19.5s36.166 -13.5 47.499 -15.5c8.66699 -2.66699 38.667 -6.33398 90 -11.001l-17 -73h-787z" />
    <glyph glyph-name="Idieresis" unicode="&#xcf;" horiz-adv-x="923" 
d="M583 1619c-14.667 -26 -34 -46.668 -58 -62.001c-24.667 -15.333 -50.667 -23 -78 -23c-28 0 -54.167 7.5 -78.5 22.5c-24.333 15.0059 -43.5 35.1729 -57.5 60.5c-14 25.3369 -21 53.0039 -21 83.001c0 30.0029 7 57.6699 21 83c14 25.3369 33 45.6699 57 61
c23.334 14.667 49.667 22 79 22c28 0 54.167 -7.5 78.5 -22.5s43.833 -35.5 58.5 -61.5c14 -24.6699 21 -52.0029 21 -82c0 -28 -7.33301 -55 -22 -81zM1078.5 1618.5c-14.333 -25 -33.4971 -45.5 -57.4971 -61.5c-24.667 -15.333 -50.667 -23 -78 -23
c-28.001 0 -54.168 7.5 -78.5 22.5c-24.3359 15 -43.5029 35.5 -57.501 61.5c-14.667 24.667 -22 52 -22 82c0 30.0029 7 57.6699 21 83c14.002 25.3369 33.335 45.6699 57.999 61c23.333 14.667 49.666 22 78.999 22c28 0 54.167 -7.5 78.5 -22.5
c24.3389 -15 43.5059 -35.167 57.5 -60.5c14 -24.6699 21 -52.3369 21 -83c0 -29.333 -7.16699 -56.5 -21.5 -81.5zM-43.9971 72.999c14.667 0.666992 34.999 2.3291 60.999 4.99609s48 5.33398 66 8.00098c10 2.66699 22.5 6.33398 37.5 11.001s24.5 8.66699 28.5 12
c4.66699 3.33301 12.167 11.666 22.5 24.999s16.833 22.666 19.5 27.999c2 5.33301 5 16.333 9 33l229 992c6 24.0068 9 42.6738 9 56c0 10.667 -0.666992 21.334 -2 32.001c-1.33301 4.66699 -4.66602 9.66699 -9.99902 15c-7.33301 5.34863 -21.333 13.0156 -42 23.001
c-20.667 10 -35.667 16 -45 18c-12 3.33301 -42 8.33301 -90 15l17 73h787l-17 -73c-21.334 -0.666992 -48.667 -3.66699 -81.999 -9l-20 -4c-21.333 -4 -40.833 -8.5 -58.5 -13.5s-29.167 -9.5 -34.5 -13.5c-4.66699 -3.33301 -12 -11.666 -22 -24.999
s-16 -22.666 -18 -27.999c-2 -3.33301 -5.33301 -14.666 -10 -33.999l-229 -993c-6 -26.667 -9 -45 -9 -55c0 -14 0.666992 -26.333 2 -37c1.33301 -7.33301 5 -12.333 11 -15c6 -4.66699 19.167 -11.167 39.5 -19.5s36.166 -13.5 47.499 -15.5
c8.66699 -2.66699 38.667 -6.33398 90 -11.001l-17 -73h-787z" />
    <glyph glyph-name="Eth" unicode="&#xd0;" horiz-adv-x="1708" 
d="M1624 1120c40.667 -74.667 61 -161.334 61 -260c-0.00292969 -125.333 -24.8359 -241.833 -74.499 -349.5c-49.6689 -107.667 -120.502 -199.5 -212.5 -275.5c-93.333 -77.333 -199.833 -135.833 -319.5 -175.5s-250.834 -59.5 -393.501 -59.5h-740l17 73
c73.333 5.33301 122.666 12 147.999 20c47.333 16.667 76.666 50.667 87.999 102l114 494h-195l23 100h195l92 398l7 35l2 21c0 28 -14 50 -42 66c-32 16 -78.333 28.333 -139 37l17 73h727c82.667 0 162.667 -9.5 240 -28.5
c77.335 -19.0039 147.002 -47.8369 209.001 -86.5c76.667 -48.001 135.334 -109.334 176.001 -184zM1200 1222c-60.667 74 -148 110.998 -262 110.998c-39.333 -0.0410156 -62.333 -0.374023 -69 -1l-33 -2c-12 -0.0400391 -19.333 -0.373047 -22 -0.999023l-124 -540h304
l-23 -100h-304l-98 -425l-6 -36c-2.66699 -10 -4 -20.333 -4 -31c0 -39.333 14.5 -67.666 43.5 -84.999s73.5 -26 133.5 -26c86.667 0 165.5 23 236.5 69s130.833 110.667 179.5 194c92.667 156.667 139 343.667 139 561c-0.00390625 134 -30.3369 238 -91 312z" />
    <glyph glyph-name="Ntilde" unicode="&#xd1;" horiz-adv-x="1699" 
d="M1525 1849c-8.67773 -20.667 -15.0107 -34.6699 -18.999 -42.0029c-4.01172 -7.33301 -9.84473 -16.833 -17.5 -28.5c-7.66699 -11.667 -13.167 -20.167 -16.5 -25.5c-17.333 -27.333 -29.166 -44.833 -35.499 -52.5c-6.33301 -7.67285 -20.833 -22.8398 -43.5 -45.5
c-24.6719 -24.667 -41.0049 -40.167 -49 -46.5c-8.00488 -6.33301 -24.3379 -16.5 -48.999 -30.5l-39 -22c-8.00977 -3.33301 -16.3428 -5.33301 -25 -6c-16 -1.33301 -31.667 -2 -47 -2c-32 0 -52.667 0.833008 -62 2.5s-26.666 7.5 -51.999 17.5
c-29.333 10.667 -57.333 23.334 -84 38.001c-28.667 14.667 -54 26.667 -76 36c-20.667 8.66699 -34.334 13.667 -41.001 15c-6.66699 1.38379 -19.667 2.05078 -39 2c-14 0 -27 -0.666992 -39 -2c-7.33594 -1.33301 -13.6689 -4.66602 -18.999 -9.99902
c-7.33594 -7.33301 -16.0029 -18.333 -26 -33l-73 -103l-71 30c14.667 29.3379 32.667 60.0049 54 92c18.667 28 31.167 46 37.5 54s19.166 22.333 38.499 43c20.668 22.667 34.835 37.167 42.5 43.5c7.66797 6.33984 24.835 17.5068 51.5 33.5l41 24
c8 3.41699 16 5.58398 24 6.5c8.00195 1 22.335 1.5 43 1.5c25.333 0 42.166 -0.666992 50.499 -2s24.166 -6 47.499 -14c34.667 -12 65 -24.667 91 -38l80 -39c16.667 -8 28.167 -12.667 34.5 -14c6.33789 -1.33301 20.1709 -2 41.499 -2c20.667 0 33.667 0.333008 39 1
s14.333 3.33398 27 8.00098c11.3486 4.02637 18.5156 7.19336 21.5 9.5c3 2.33301 8.83301 7.83301 17.5 16.5c10 12 20.333 28 31 48l33 60zM1785 1336c-26.6729 -4 -44.5117 -7.66992 -53.5049 -11.0029c-9 -3.33301 -26.167 -13 -51.5 -29
c-16.6729 -10.6816 -27.8398 -18.5146 -33.5 -23.5c-5.69141 -5 -10.8584 -11.5 -15.5 -19.5c-8 -15.333 -18 -36.5 -30 -63.5s-20 -47.167 -24 -60.5c-10.0117 -34.6689 -20.3447 -74.3359 -30.999 -119.001l-235 -1018h-168l-613 1137l-162 -710
c-7.33301 -29.333 -14 -64.333 -20 -105l-4 -30c-2 -14.667 -3 -30.667 -3 -48c0 -20 0.333008 -32.667 1 -38s3 -13.666 7 -24.999s7 -18.666 9 -21.999c2.00098 -3.33398 6.66797 -8.66699 14 -16c12.667 -12 22.167 -19.667 28.5 -23s23.833 -9 52.5 -17
c35.333 -10.667 63.666 -18 84.999 -22l-17 -73h-610l17 73l86 14c6.66699 1.33398 17.667 3.50098 33 6.50098s26.833 6.33301 34.5 10s18.5 10.167 32.5 19.5c14.667 9.33301 26.334 17.666 35.001 24.999c6 5.33301 11 11.666 15 18.999
c29.333 56.667 47.333 96.334 54 119.001l20 82l9 40l154 668l9 44c2 13.3379 3 25.6709 3 37c-0.0126953 14.667 -0.345703 24.5 -1 29.5c-0.666992 5 -2.66699 14.5 -6 28.5c-3.33301 13.3379 -6.16602 22.1709 -8.49902 26.5
c-2.33301 4.33789 -8.16602 12.1709 -17.499 23.499c-13.333 17.333 -22.666 27.833 -27.999 31.5s-19 10.834 -41 21.501c-20.667 9.34375 -35 15.1768 -43 17.5c-8 2.33301 -25.667 5.83301 -53 10.5l18 73h524l536 -1000l133 581l21 105c4 25.333 6 50.333 6 75
c-0.0439453 19.3379 -0.376953 31.6709 -0.999023 37c-0.710938 5.33301 -3.04395 14.333 -7 27c-4.68848 12.0098 -8.02148 19.6768 -10 23.001c-2 3.34277 -7 9.00977 -15 17c-12.0107 12.0146 -21.3438 19.6816 -28 23c-6.6748 3.34375 -23.0078 9.01074 -49 17.001
c-34.668 11.3438 -63.335 18.6768 -86 22l17 73h609l-17 -73z" />
    <glyph glyph-name="Ograve" unicode="&#xd2;" horiz-adv-x="1679" 
d="M1237 1485c-51.333 24.0059 -93.665 43.1699 -126.998 57.4971c-33.333 14.333 -73.666 30.833 -120.999 49.5c-56.667 22.667 -105 42.667 -145 60c-4 2 -11.5 5.5 -22.5 10.5s-19.333 9.83301 -25 14.5s-12.167 10.334 -19.5 17.001
c-12.667 12 -20.167 20.5 -22.5 25.5c-2.36816 5.01953 -3.53516 15.1865 -3.50098 30.5c0 14.667 0.666992 28 2 40c0.666992 6.66699 3.66699 13 9 19c4.00391 5.34668 13.3369 14.0137 27.999 26c14.667 12 25.667 20 33 24c6.67188 4.02832 15.0049 6.69531 25 8
c4.66699 0.666992 25.667 1 63 1c14.6719 -0.0566406 25.0049 -0.889648 31 -2.49902c6.00391 -1.69531 16.3369 -6.8623 31 -15.501c13.333 -7.33301 22.666 -13.166 27.999 -17.499s12 -11.166 20 -20.499l17 -20c38.667 -45.333 118 -134 238 -266zM1658 735.997
c-2 -26.667 -7.00195 -52.3379 -15.002 -77.0049c-8.00977 -25.333 -24.3428 -68.833 -49 -130.5c-24.6729 -61.667 -43.0059 -104.5 -55 -128.5c-12 -23.333 -26 -45 -42 -65c-17.333 -20.667 -48.833 -54.334 -94.5 -101c-45.667 -46.667 -78.167 -78 -97.5 -94
c-18.6719 -16.667 -40.3389 -31.667 -65.001 -45c-26.001 -14 -70.334 -34.5 -132.999 -61.5c-62.668 -27 -106.001 -44.5 -130 -52.5c-24.667 -8.66699 -53 -14 -85 -16c-24 -2.66699 -79 -4 -165 -4c-109.333 0 -180.333 2.33301 -213 7
c-26.667 3.33301 -50.167 9.5 -70.5 18.5s-42.833 23.167 -67.5 42.5c-34 26.667 -77.667 64.167 -131 112.5s-90 85.5 -110 111.5c-21.333 27.334 -34.666 58.667 -39.999 94c-5.33301 39.333 -8 105.333 -8 198c0 71.333 1 120.333 3 147c2 28.001 7 54.334 15 79
c8 24.667 26 68.334 54 131c23.333 52.667 43.666 95.667 60.999 129c10.667 20.002 25.334 41.6689 44.001 65c17.333 20 49.666 52.833 96.999 98.5c47.334 45.667 81.001 76.834 101.001 93.501c18 15.3359 40 29.6689 66 43c26.667 13.3389 71.167 33.0059 133.5 59.001
c62.333 26.0059 105.5 42.6729 129.5 50.001c25.333 8 51.666 13 78.999 15c26.667 2 75 3 145 3c108.667 -0.0664062 180.334 -2.39941 215.001 -6.99902c26.667 -3.33301 50 -9.33301 70 -18c20 -8.67188 43 -22.3389 69 -41c28.001 -20.6709 71.168 -57.0039 129.5 -109
c58.3369 -52 96.5039 -89 114.501 -111c21.3398 -27.333 34.6729 -58.666 40 -93.999c5.3584 -41.333 8.02539 -109 8 -203c0 -66.667 -1 -113 -3 -139zM1190 460.993c8 19.333 14.835 39.8359 20.502 61.5029c5.66699 21.668 14.5 61.501 26.5 119.5
c12.667 62.667 21.334 108 26.001 136c4.66699 25.333 7.33398 48.666 8.00098 69.999c0.666992 15.333 1 56.666 1 123.999c0 68 -1 114.333 -3 139c-2 24.0039 -7.16699 45.1709 -15.5 63.5c-8.33301 18.333 -25.5 46.833 -51.5 85.5
c-22.667 34.002 -41.667 59.6689 -57 77c-12.6689 12.667 -28.3359 20.667 -47 24c-15.333 2.66699 -50.333 4 -105 4c-46 0 -77.333 -1 -94 -3c-17.333 -3.33301 -33.333 -9.33301 -48 -18c-14 -9.33301 -38.833 -29.166 -74.5 -59.499s-60.834 -52.833 -75.501 -67.5
c-14 -14 -26 -29.667 -36 -47c-12 -21.333 -30.333 -56 -55 -104s-40.667 -81 -48 -99c-7.33496 -16.667 -14.668 -38.667 -21.999 -66c-6 -20.667 -15.333 -61.334 -28 -122.001s-21.334 -105 -26 -133c-4 -20.001 -6.66699 -44.668 -8 -74.001
c-1.33301 -29.334 -2 -71.334 -2 -126c0 -65.333 1 -110 3 -134s7 -45 15 -63s25.333 -47 51.999 -87c26.002 -40 45.335 -66.333 58 -79c12.001 -13.333 27.334 -21.333 45.999 -24c23.333 -3.33301 58.666 -5 105.999 -5c48.667 0 79.667 1.33301 93 4
c17.333 2 33.666 8 48.999 18c14 9.33301 39 29.333 75 60s62 54 78 70c14 14 26 29.667 36 47c8 13.333 25 46 51 98c25.3379 52 42.6709 88.667 52 110z" />
    <glyph glyph-name="Oacute" unicode="&#xd3;" horiz-adv-x="1679" 
d="M1297.5 1726.5c-2.33301 -5.67969 -9.83203 -14.8506 -22.499 -27.5039c-11.333 -13.333 -20.333 -21.833 -27 -25.5c-6.66699 -3.67285 -22.667 -10.8398 -48 -21.5c-43.333 -17.333 -99.333 -38.666 -168 -63.999c-79.333 -29.333 -158.333 -60.666 -237 -93.999
l-23 -9l-33 41l158 151c24.667 23.335 61.667 61.668 111 115c20 22 32.833 35.333 38.5 40s17.167 11 34.5 19c17.3418 8.66699 29.1748 13.667 35.5 15c6.33789 1.39062 19.1709 2.05762 38.5 2.00098c29.3379 -0.0566406 46.0049 -0.389648 50 -0.999023
c10 -1.33301 17.333 -3 22 -5c5.33789 -2.66699 16.1709 -9.66699 32.499 -21c16.3477 -11.333 26.5146 -19 30.5 -23c4.66699 -4.68066 7.66699 -10.0137 9 -16c1.37305 -12 2.04004 -26 2 -42c0 -16.6729 -1.16699 -27.8398 -3.5 -33.5zM1658 735.996
c-2 -26.667 -7.00195 -52.3389 -15.002 -77.0059c-8.00977 -25.333 -24.3428 -68.833 -49 -130.5c-24.6729 -61.667 -43.0059 -104.5 -55 -128.5c-12 -23.333 -26 -45 -42 -65c-17.333 -20.667 -48.833 -54.334 -94.5 -101c-45.667 -46.667 -78.167 -78 -97.5 -94
c-18.6719 -16.667 -40.3389 -31.667 -65.001 -45c-26.001 -14 -70.334 -34.5 -132.999 -61.5c-62.668 -27 -106.001 -44.5 -130 -52.5c-24.667 -8.66699 -53 -14 -85 -16c-24 -2.66699 -79 -4 -165 -4c-109.333 0 -180.333 2.33301 -213 7
c-26.667 3.33301 -50.167 9.5 -70.5 18.5s-42.833 23.167 -67.5 42.5c-34 26.667 -77.667 64.167 -131 112.5s-90 85.5 -110 111.5c-21.333 27.334 -34.666 58.667 -39.999 94c-5.33301 39.333 -8 105.333 -8 198c0 71.333 1 120.333 3 147c2 28.001 7 54.334 15 79
c8 24.667 26 68.334 54 131c23.333 52.667 43.666 95.667 60.999 129c10.667 20.002 25.334 41.6689 44.001 65c17.333 20 49.666 52.833 96.999 98.5c47.334 45.667 81.001 76.834 101.001 93.501c18 15.3359 40 29.6689 66 43c26.667 13.3389 71.167 33.0059 133.5 59.001
c62.333 26.0059 105.5 42.6729 129.5 50.001c25.333 8 51.666 13 78.999 15c26.667 2 75 3 145 3c108.667 -0.0664062 180.334 -2.39941 215.001 -6.99902c26.667 -3.33301 50 -9.33301 70 -18c20 -8.67188 43 -22.3389 69 -41
c28.001 -20.6699 71.168 -57.0029 129.5 -108.999c58.3369 -52 96.5039 -89 114.501 -111c21.3398 -27.333 34.6729 -58.666 40 -93.999c5.3584 -41.333 8.02539 -109 8 -203c0 -66.667 -1 -113 -3 -139zM1190 460.991c8 19.333 14.835 39.8359 20.502 61.5029
c5.66699 21.668 14.5 61.501 26.5 119.5c12.667 62.667 21.334 108 26.001 136c4.66699 25.333 7.33398 48.666 8.00098 69.999c0.666992 15.333 1 56.666 1 123.999c0 68 -1 114.333 -3 139c-2 24.0039 -7.16699 45.1709 -15.5 63.5
c-8.33301 18.333 -25.5 46.833 -51.5 85.5c-22.667 34.002 -41.667 59.6689 -57 77c-12.6689 12.667 -28.3359 20.667 -47 24c-15.333 2.66699 -50.333 4 -105 4c-46 0 -77.333 -1 -94 -3c-17.333 -3.33301 -33.333 -9.33301 -48 -18
c-14 -9.33301 -38.833 -29.166 -74.5 -59.499s-60.834 -52.833 -75.501 -67.5c-14 -14 -26 -29.667 -36 -47c-12 -21.333 -30.333 -56 -55 -104s-40.667 -81 -48 -99c-7.33496 -16.667 -14.668 -38.667 -21.999 -66c-6 -20.667 -15.333 -61.334 -28 -122.001
s-21.334 -105 -26 -133c-4 -20.001 -6.66699 -44.668 -8 -74.001c-1.33301 -29.334 -2 -71.334 -2 -126c0 -65.333 1 -110 3 -134s7 -45 15 -63s25.333 -47 51.999 -87c26.002 -40 45.335 -66.333 58 -79c12.001 -13.333 27.334 -21.333 45.999 -24
c23.333 -3.33301 58.666 -5 105.999 -5c48.667 0 79.667 1.33301 93 4c17.333 2 33.666 8 48.999 18c14 9.33301 39 29.333 75 60s62 54 78 70c14 14 26 29.667 36 47c8 13.333 25 46 51 98c25.3379 52 42.6709 88.667 52 110z" />
    <glyph glyph-name="Ocircumflex" unicode="&#xd4;" horiz-adv-x="1679" 
d="M1033 1687l-384 -203.002l-32 29c70 73.333 135.333 139.333 195.999 198c42.667 40.667 74.667 72.667 96 96c14 15.3545 23.5 25.0215 28.5 29.001c5.00195 4.01367 15.835 9.68066 32.5 17c16.6709 8 28.8379 12.5 36.501 13.5c7.66992 1 29.1699 1.5 64.5 1.5
c20.0039 0 33.1709 -0.666992 39.5 -2c6.3457 -1.33301 15.5127 -5.33301 27.5 -12c13.3379 -8.66699 21.6709 -14.667 25 -18c3.34277 -3.33301 9.67578 -11.666 19 -24.999l65 -98l131 -200l-34 -29zM1658 735.998c-2 -26.667 -7.00098 -52.3389 -15.001 -77.0059
c-8.00977 -25.333 -24.3428 -68.833 -49 -130.5c-24.6729 -61.667 -43.0059 -104.5 -55 -128.5c-12 -23.333 -26 -45 -42 -65c-17.333 -20.667 -48.833 -54.334 -94.5 -101c-45.667 -46.667 -78.167 -78 -97.5 -94c-18.6719 -16.667 -40.3389 -31.667 -65.001 -45
c-26.001 -14 -70.334 -34.5 -132.999 -61.5c-62.668 -27 -106.001 -44.5 -130 -52.5c-24.667 -8.66699 -53 -14 -85 -16c-24 -2.66699 -79 -4 -165 -4c-109.333 0 -180.333 2.33301 -213 7c-26.667 3.33301 -50.167 9.5 -70.5 18.5s-42.833 23.167 -67.5 42.5
c-34 26.667 -77.667 64.167 -131 112.5s-90 85.5 -110 111.5c-21.333 27.334 -34.666 58.667 -39.999 94c-5.33301 39.333 -8 105.333 -8 198c0 71.333 1 120.333 3 147c2 28.001 7 54.334 15 79c8 24.667 26 68.334 54 131c23.333 52.667 43.666 95.667 60.999 129
c10.667 20.002 25.334 41.6689 44.001 65c17.333 20 49.666 52.833 96.999 98.5c47.334 45.667 81.001 76.834 101.001 93.501c18 15.3359 40 29.6689 66 43c26.667 13.3389 71.167 33.0059 133.5 59.001c62.333 26.0059 105.5 42.6729 129.5 50.001
c25.333 8 51.666 13 78.999 15c26.667 2 75 3 145 3c108.667 -0.0664062 180.334 -2.39941 215.001 -6.99902c26.667 -3.33301 50 -9.33301 70 -18c20 -8.67188 43 -22.3389 69 -41c28.001 -20.6699 71.168 -57.0029 129.5 -108.999c58.3359 -52 96.5029 -89 114.5 -111
c21.3398 -27.333 34.6729 -58.666 40 -93.999c5.3584 -41.333 8.02539 -109 8 -203c0 -66.667 -1 -113 -3 -139zM1190 460.993c8 19.333 14.835 39.8359 20.502 61.5029c5.66699 21.668 14.5 61.501 26.5 119.5c12.667 62.667 21.334 108 26.001 136
c4.66699 25.333 7.33398 48.666 8.00098 69.999c0.666992 15.333 1 56.666 1 123.999c0 68 -1 114.333 -3 139c-2 24.0039 -7.16699 45.1709 -15.5 63.5c-8.33301 18.333 -25.5 46.833 -51.5 85.5c-22.667 34.002 -41.667 59.6689 -57 77
c-12.6689 12.667 -28.3359 20.667 -47 24c-15.333 2.66699 -50.333 4 -105 4c-46 0 -77.333 -1 -94 -3c-17.333 -3.33301 -33.333 -9.33301 -48 -18c-14 -9.33301 -38.833 -29.166 -74.5 -59.499s-60.834 -52.833 -75.501 -67.5c-14 -14 -26 -29.667 -36 -47
c-12 -21.333 -30.333 -56 -55 -104s-40.667 -81 -48 -99c-7.33496 -16.667 -14.668 -38.667 -21.999 -66c-6 -20.667 -15.333 -61.334 -28 -122.001s-21.334 -105 -26 -133c-4 -20.001 -6.66699 -44.668 -8 -74.001c-1.33301 -29.334 -2 -71.334 -2 -126
c0 -65.333 1 -110 3 -134s7 -45 15 -63s25.333 -47 51.999 -87c26.002 -40 45.335 -66.333 58 -79c12.001 -13.333 27.334 -21.333 45.999 -24c23.333 -3.33301 58.666 -5 105.999 -5c48.667 0 79.667 1.33301 93 4c17.333 2 33.666 8 48.999 18c14 9.33301 39 29.333 75 60
s62 54 78 70c14 14 26 29.667 36 47c8 13.333 25 46 51 98c25.3379 52 42.6709 88.667 52 110z" />
    <glyph glyph-name="Otilde" unicode="&#xd5;" horiz-adv-x="1679" 
d="M1505 1849c-11.333 -26.667 -23.998 -50.6729 -37.998 -72.0059l-15 -24c-16.0059 -25.333 -27.3389 -42.166 -34 -50.499c-6.66699 -8.33301 -21.667 -24.166 -45 -47.499c-24 -24.0059 -40.167 -39.3389 -48.5 -45.999
c-8.33301 -6.68457 -24.833 -17.0176 -49.5 -30.999l-39 -22c-8.00879 -3.33301 -16.3418 -5.33301 -24.999 -6c-16 -1.33301 -31.667 -2 -47 -2c-32 0 -52.667 0.833008 -62 2.5s-26.666 7.5 -51.999 17.5c-28 10.0059 -56 22.6729 -84 38
c-28.667 14.667 -54 26.667 -76 36c-20.667 8.66699 -34.334 13.667 -41.001 15c-6.66699 1.38379 -19.667 2.05078 -39 2c-14 0 -27 -0.666992 -39 -2c-5.33594 -0.691406 -11.6689 -4.02441 -18.999 -9.99902c-7.33594 -7.33301 -16.0029 -18.333 -26 -33l-73 -103l-71 30
c10.001 22 23.334 45.333 40 70l14 22c18.667 28 31.167 46 37.5 54s19.166 22.333 38.499 43c20.668 22.667 34.835 37.167 42.5 43.5c7.66699 6.33984 24.834 17.5068 51.5 33.5l41 24c8 3.41699 16 5.58398 24 6.5c8.00195 1 22.335 1.5 43 1.5
c25.333 0 42.166 -0.666992 50.499 -2s24.166 -6 47.499 -14c34.667 -12 65 -24.667 91 -38l80 -39c16.667 -8 28.167 -12.667 34.5 -14c6.33789 -1.33301 20.1709 -2 41.499 -2c20.667 0 33.667 0.333008 39 1s14.333 3.33398 27 8.00098
c11.3486 4.02637 18.5156 7.19336 21.5 9.5c3 2.33301 8.83301 7.83301 17.5 16.5c10 12 20.333 28 31 48l33 60zM1658 735.994c-2 -26.667 -7.00098 -52.3389 -15.001 -77.0059c-8.00977 -25.333 -24.3428 -68.833 -49 -130.5c-24.6729 -61.667 -43.0059 -104.5 -55 -128.5
c-12 -23.333 -26 -45 -42 -65c-17.333 -20.667 -48.833 -54.334 -94.5 -101c-45.667 -46.667 -78.167 -78 -97.5 -94c-18.6719 -16.667 -40.3389 -31.667 -65.001 -45c-26.001 -14 -70.334 -34.5 -132.999 -61.5c-62.668 -27 -106.001 -44.5 -130 -52.5
c-24.667 -8.66699 -53 -14 -85 -16c-24 -2.66699 -79 -4 -165 -4c-109.333 0 -180.333 2.33301 -213 7c-26.667 3.33301 -50.167 9.5 -70.5 18.5s-42.833 23.167 -67.5 42.5c-34 26.667 -77.667 64.167 -131 112.5s-90 85.5 -110 111.5
c-21.333 27.334 -34.666 58.667 -39.999 94c-5.33301 39.333 -8 105.333 -8 198c0 71.333 1 120.333 3 147c2 28.001 7 54.334 15 79c8 24.667 26 68.334 54 131c23.333 52.667 43.666 95.667 60.999 129c10.667 20.002 25.334 41.6689 44.001 65
c17.333 20 49.666 52.833 96.999 98.5c47.334 45.667 81.001 76.834 101.001 93.501c18 15.3359 40 29.6689 66 43c26.667 13.3389 71.167 33.0059 133.5 59.001c62.333 26.0059 105.5 42.6729 129.5 50.001c25.333 8 51.666 13 78.999 15c26.667 2 75 3 145 3
c108.667 -0.0664062 180.334 -2.39941 215.001 -6.99902c26.667 -3.33301 50 -9.33301 70 -18c20 -8.67188 43 -22.3389 69 -41c28.001 -20.6699 71.168 -57.0029 129.5 -108.999c58.3359 -52 96.5029 -89 114.5 -111c21.3398 -27.333 34.6729 -58.666 40 -93.999
c5.3584 -41.333 8.02539 -109 8 -203c0 -66.667 -1 -113 -3 -139zM1190 460.989c8 19.333 14.835 39.8359 20.502 61.5029c5.66699 21.668 14.5 61.501 26.5 119.5c12.667 62.667 21.334 108 26.001 136c4.66699 25.333 7.33398 48.666 8.00098 69.999
c0.666992 15.333 1 56.666 1 123.999c0 68 -1 114.333 -3 139c-2 24.0039 -7.16699 45.1709 -15.5 63.5c-8.33301 18.333 -25.5 46.833 -51.5 85.5c-22.667 34.002 -41.667 59.6689 -57 77c-12.6689 12.667 -28.3359 20.667 -47 24c-15.333 2.66699 -50.333 4 -105 4
c-46 0 -77.333 -1 -94 -3c-17.333 -3.33301 -33.333 -9.33301 -48 -18c-14 -9.33301 -38.833 -29.166 -74.5 -59.499s-60.834 -52.833 -75.501 -67.5c-14 -14 -26 -29.667 -36 -47c-12 -21.333 -30.333 -56 -55 -104s-40.667 -81 -48 -99
c-7.33496 -16.667 -14.668 -38.667 -21.999 -66c-6 -20.667 -15.333 -61.334 -28 -122.001s-21.334 -105 -26 -133c-4 -20.001 -6.66699 -44.668 -8 -74.001c-1.33301 -29.334 -2 -71.334 -2 -126c0 -65.333 1 -110 3 -134s7 -45 15 -63s25.333 -47 51.999 -87
c26.002 -40 45.335 -66.333 58 -79c12.001 -13.333 27.334 -21.333 45.999 -24c23.333 -3.33301 58.666 -5 105.999 -5c48.667 0 79.667 1.33301 93 4c17.333 2 33.666 8 48.999 18c14 9.33301 39 29.333 75 60s62 54 78 70c14 14 26 29.667 36 47c8 13.333 25 46 51 98
c25.3379 52 42.6709 88.667 52 110z" />
    <glyph glyph-name="Odieresis" unicode="&#xd6;" horiz-adv-x="1679" 
d="M907 1651c-1.34668 -9.33301 -4.6748 -18.002 -9.99414 -26.002c-6.00195 -8 -17.6689 -21.167 -35.001 -39.5c-17.335 -18.333 -29.668 -30.5 -37 -36.5c-8 -6 -16.333 -9.66699 -25 -11c-16 -1.33301 -32.333 -2 -49 -2c-16.667 0.046875 -33 0.713867 -49 2
c-9.33496 1.35645 -17.668 5.02344 -25 11c-8 6 -20.5 18 -37.5 36c-17.001 18 -28.168 31 -33.5 39c-5.33789 8.0127 -8.6709 16.6797 -10 26c-1.35156 16 -2.01855 33.333 -2 52c0 18 0.666992 35 2 51c1.33301 9.34668 4.66602 18.0137 9.99902 26
c5.33301 8.00684 16.5 21.1738 33.5 39.5c17 18.3398 29.167 30.5068 36.5 36.5c7.33301 6.04297 15.666 9.70996 24.999 11.001c16 1.39062 32.667 2.05762 50 2.00098c16.6689 0 33.002 -0.666992 49 -2c8.6709 -1.33301 17.0039 -5 24.999 -11
c7.33301 -6 19.666 -18.167 36.999 -36.5s29 -31.5 35 -39.5c5.33301 -8 8.66602 -16.667 9.99902 -26c1.33301 -16 2 -33 2 -51c-0.0273438 -18 -0.694336 -35 -2 -51zM1443 1651c-1.33301 -9.33301 -4.67188 -18.002 -10.0049 -26.002s-16.666 -21.167 -33.999 -39.5
s-29.666 -30.5 -36.999 -36.5c-8.00977 -6 -16.3428 -9.66699 -24.999 -11c-16.0078 -1.33301 -32.3408 -2 -49 -2c-17.333 0.046875 -34 0.713867 -50 2c-9.33301 1.35645 -17.666 5.02344 -24.999 11c-7.33301 6 -19.666 18.333 -36.999 37s-28.666 32 -33.999 40
c-5.33301 7.3457 -8.66602 15.6787 -9.99902 25c-1.33301 16 -2 33 -2 51c0.0341797 18 0.701172 35 2 51c1.35059 9.34668 4.68359 18.0137 10 26c5.3418 8.00684 16.6748 21.1738 33.999 39.5c17.3428 18.3398 29.6758 30.5068 37 36.5
c7.34277 6.04297 15.6758 9.70996 25 11.001c16.0049 1.39062 32.6719 2.05762 50 2.00098c16.667 0 33 -0.666992 49 -2c8.66699 -1.33301 17 -5 25 -11c7.34375 -6 19.6768 -18.167 37 -36.5c17.3438 -18.333 28.6768 -31.5 33.999 -39.5
c5.37695 -8 8.70996 -16.667 9.99902 -26c1.37793 -16 2.04492 -33 2.00098 -51c0 -18 -0.666992 -35 -2 -51zM1658 735.996c-2 -26.667 -7.00195 -52.3389 -15.002 -77.0059c-8.00977 -25.333 -24.3428 -68.833 -49 -130.5c-24.6729 -61.667 -43.0059 -104.5 -55 -128.5
c-12 -23.333 -26 -45 -42 -65c-17.333 -20.667 -48.833 -54.334 -94.5 -101c-45.667 -46.667 -78.167 -78 -97.5 -94c-18.6719 -16.667 -40.3389 -31.667 -65.001 -45c-26.001 -14 -70.334 -34.5 -132.999 -61.5c-62.668 -27 -106.001 -44.5 -130 -52.5
c-24.667 -8.66699 -53 -14 -85 -16c-24 -2.66699 -79 -4 -165 -4c-109.333 0 -180.333 2.33301 -213 7c-26.667 3.33301 -50.167 9.5 -70.5 18.5s-42.833 23.167 -67.5 42.5c-34 26.667 -77.667 64.167 -131 112.5s-90 85.5 -110 111.5
c-21.333 27.334 -34.666 58.667 -39.999 94c-5.33301 39.333 -8 105.333 -8 198c0 71.333 1 120.333 3 147c2 28.001 7 54.334 15 79c8 24.667 26 68.334 54 131c23.333 52.667 43.666 95.667 60.999 129c10.667 20.002 25.334 41.6689 44.001 65
c17.333 20 49.666 52.833 96.999 98.5c47.334 45.667 81.001 76.834 101.001 93.501c18 15.3359 40 29.6689 66 43c26.667 13.3389 71.167 33.0059 133.5 59.001c62.333 26.0059 105.5 42.6729 129.5 50.001c25.333 8 51.666 13 78.999 15c26.667 2 75 3 145 3
c108.667 -0.0664062 180.334 -2.39941 215.001 -6.99902c26.667 -3.33301 50 -9.33301 70 -18c20 -8.67188 43 -22.3389 69 -41c28.001 -20.6699 71.168 -57.0029 129.5 -108.999c58.3369 -52 96.5039 -89 114.501 -111c21.3398 -27.333 34.6729 -58.666 40 -93.999
c5.3584 -41.333 8.02539 -109 8 -203c0 -66.667 -1 -113 -3 -139zM1190 460.991c8 19.333 14.835 39.8359 20.502 61.5029c5.66699 21.668 14.5 61.501 26.5 119.5c12.667 62.667 21.334 108 26.001 136c4.66699 25.333 7.33398 48.666 8.00098 69.999
c0.666992 15.333 1 56.666 1 123.999c0 68 -1 114.333 -3 139c-2 24.0039 -7.16699 45.1709 -15.5 63.5c-8.33301 18.333 -25.5 46.833 -51.5 85.5c-22.667 34.002 -41.667 59.6689 -57 77c-12.6689 12.667 -28.3359 20.667 -47 24c-15.333 2.66699 -50.333 4 -105 4
c-46 0 -77.333 -1 -94 -3c-17.333 -3.33301 -33.333 -9.33301 -48 -18c-14 -9.33301 -38.833 -29.166 -74.5 -59.499s-60.834 -52.833 -75.501 -67.5c-14 -14 -26 -29.667 -36 -47c-12 -21.333 -30.333 -56 -55 -104s-40.667 -81 -48 -99
c-7.33496 -16.667 -14.668 -38.667 -21.999 -66c-6 -20.667 -15.333 -61.334 -28 -122.001s-21.334 -105 -26 -133c-4 -20.001 -6.66699 -44.668 -8 -74.001c-1.33301 -29.334 -2 -71.334 -2 -126c0 -65.333 1 -110 3 -134s7 -45 15 -63s25.333 -47 51.999 -87
c26.002 -40 45.335 -66.333 58 -79c12.001 -13.333 27.334 -21.333 45.999 -24c23.333 -3.33301 58.666 -5 105.999 -5c48.667 0 79.667 1.33301 93 4c17.333 2 33.666 8 48.999 18c14 9.33301 39 29.333 75 60s62 54 78 70c14 14 26 29.667 36 47c8 13.333 25 46 51 98
c25.3379 52 42.6709 88.667 52 110z" />
    <glyph glyph-name="multiply" unicode="&#xd7;" horiz-adv-x="1440" 
d="M854 575l385 -383l-115 -115l-383 384l-383 -384l-115 115l385 383l-385 382l115 116l383 -385l383 385l115 -116z" />
    <glyph glyph-name="Oslash" unicode="&#xd8;" horiz-adv-x="1679" 
d="M251 140c-52 50.667 -92.3311 111.167 -120.998 181.5s-43 144.833 -43 223.5c0 124 24 242 72 354s115.667 210.667 203 296c85.333 83.335 184.666 148.002 297.999 194c113.333 46 231.666 69 354.999 69c151.334 0 284.667 -38 400 -114l160 165l74 -68l-156 -160
c54.667 -52 96.334 -112.667 125.001 -182s43 -144 43 -224c0 -121.333 -22.167 -237 -66.5 -347s-107.833 -207.333 -190.5 -292c-85.333 -88.667 -185.333 -156.667 -300 -204s-240.334 -71 -377.001 -71c-74 0 -146 10.167 -216 30.5s-131 48.5 -183 84.5l-165 -171
l-74 68zM1249 1172c-42.667 128.667 -128 193 -256 193c-76.667 -0.00292969 -147.667 -25.3359 -213 -76c-65.333 -50.667 -122.333 -122.667 -171 -216c-44 -85.333 -78 -182.833 -102 -292.5s-36 -221.167 -36 -334.5c0 -25.333 0.333008 -40 1 -44
c0.666992 -4.66699 1 -16.667 1 -36zM498.002 251c20 -62.667 52 -110.999 96 -144.999c42.667 -34.667 96.667 -52 162 -52c76 0 147.667 26.333 215 79c67.334 52.667 123.667 124 168.999 214c43.3359 85.333 77.0029 182.666 101.001 291.999
c24 109.333 36 220.333 36 333c-0.0390625 23.333 -0.37207 37.333 -1 42l-2 44z" />
    <glyph glyph-name="Ugrave" unicode="&#xd9;" horiz-adv-x="1707" 
d="M1271 1485c-51.333 24.0059 -93.666 43.1709 -126.999 57.498c-33.333 14.333 -73.666 30.833 -120.999 49.5c-56.667 22.667 -105 42.667 -145 60c-22.667 10.667 -36.667 17.5 -42 20.5c-5.33691 3.01953 -13.6699 10.1865 -25 21.501
c-12.667 10.667 -20.167 18.334 -22.5 23.001c-2.35742 4.66699 -3.52441 13.667 -3.5 27c0 16 0.666992 31.333 2 46c0.666992 6.66699 3.66699 13 9 19c4.00293 5.34668 13.3359 14.0137 28 26c14.667 12 25.667 20 33 24c6.67188 4.02832 15.0049 6.69531 25 8
c4.66699 0.666992 25.667 1 63 1c14.6709 -0.0566406 25.0039 -0.889648 31 -2.49902c6.00391 -1.69531 16.3369 -6.8623 31 -15.501c15.3389 -9.33301 25.6719 -16.333 30.999 -21c5.33691 -4.67383 16.6699 -17.0068 33.999 -37c38.667 -45.333 118 -134 238 -266z
M559 -34.002c-24 2 -44.5 5.66406 -61.5 10.9971s-35.5 14.333 -55.5 27c-23.333 14 -55.833 36.333 -97.5 67s-71.5 55 -89.5 73c-16.667 16.667 -27 37.334 -31 62.001c-4 25.333 -6 71.666 -6 138.999c0.000976562 22.667 1.33398 43.5 4 62.5
c2.66699 19 6.66699 43.167 12 72.5l164 709c6 24 9 42 9 54c0 10.667 -0.666992 21.334 -2 32.001c-1.33301 5.35254 -4.33301 10.0195 -9 14c-4.66699 4.66699 -14.334 11.334 -29 20.001c-14.667 8.66699 -25.667 14.334 -33 17.001c-8 2.66699 -20.667 5.66699 -38 9
c-10.667 2.02051 -33.334 5.6875 -68 11l17 73h760l-17 -73c-19.334 -0.708008 -43.001 -3.375 -71 -8.00098c-28 -4.66699 -50.333 -9.66699 -67 -15c-20.667 -6 -33.5 -10.667 -38.5 -14c-5.00488 -3.33301 -12.1719 -11.666 -21.501 -24.999
c-9.33594 -14 -15.1689 -23.667 -17.499 -29c-2.33887 -5.33301 -5.50586 -16.666 -9.5 -33.999l-162 -699c-14.667 -58.667 -22 -116.334 -22 -173.001c0.00878906 -51.333 1.3418 -83.666 4 -96.999c2.00195 -16.667 7.33496 -30.834 15.999 -42.501
c8.66699 -11.667 26.667 -28.5 54 -50.5c28 -23.333 48.5 -38.5 61.5 -45.5c13.002 -7 28.835 -11.5 47.499 -13.5c19.333 -2 55 -3 107 -3c58 0 102 1.66699 132 5c24 3.33301 46 12 66 26c20.002 13.333 53.1689 41.166 99.5 83.499
c46.333 42.333 77.833 73.166 94.5 92.499c16 19.334 28.333 42.001 37 68.001c6.66699 18.667 19 66.334 37 143.001l112 486c10 44 17 79.5 21 106.5s6 51.5 6 73.5c-0.0449219 19.3379 -0.37793 31.5049 -1 36.5c-0.734375 5 -3.06738 13.833 -7 26.5
c-4.68945 12.667 -8.02246 20.667 -10 24c-2 3.35254 -7 8.68555 -15 15.999c-12.667 12 -22.667 19.833 -30 23.5s-24.666 9.5 -51.999 17.5c-38.667 11.333 -66.667 18.333 -84 21l17 73h615l-17 -73c-18.667 -2 -44.667 -6 -78 -12
c-33.333 -6.02051 -54.333 -10.3535 -63 -13c-8 -2.67676 -21.5 -9.50977 -40.5 -20.5c-19.0068 -11 -31.8398 -19.5 -38.5 -25.5c-5.33301 -4 -11 -10.667 -17 -20c-8 -15.333 -18 -36.5 -30 -63.5s-20 -47.167 -24 -60.5c-7.33301 -24.667 -17.666 -64.667 -30.999 -120
l-123 -533c-22 -94 -38.667 -156.667 -50 -188c-12.667 -33.333 -30.667 -61.666 -54 -84.999c-24 -23.333 -70.167 -59.833 -138.5 -109.5s-117.833 -82.5 -148.5 -98.5c-30 -16 -63 -26 -99 -30c-37.334 -4 -104.001 -6 -200 -6c-87.334 0 -152.667 1.66699 -196 5z" />
    <glyph glyph-name="Uacute" unicode="&#xda;" horiz-adv-x="1707" 
d="M1407.5 1726.5c-2.33301 -5.67969 -9.83594 -14.8535 -22.5029 -27.5068c-11.333 -13.333 -20.333 -21.833 -27 -25.5c-6.66699 -3.67285 -22.667 -10.8398 -48 -21.5c-43.333 -17.333 -99.333 -38.666 -168 -63.999c-79.333 -29.333 -158.333 -60.666 -237 -93.999
l-23 -9l-33 41l158 151c24.667 23.335 61.667 61.668 111 115c17.3379 19.333 29.0049 31.333 35.001 36c6.00488 4.66699 18.6719 12.334 38.001 23.001c17.3428 8.66699 29.1758 13.667 35.5 15c6.33789 1.39062 19.1709 2.05762 38.5 2.00098
c29.3379 -0.0566406 46.0049 -0.389648 50 -0.999023c10 -1.33301 17.333 -3 22 -5c5.33887 -2.68066 16.0059 -9.51367 32.001 -20.499c16 -11.0205 26.333 -18.8535 31 -23.499c4.66699 -4.68066 7.66699 -10.0137 9 -16c1.37598 -12 2.04297 -26 2 -42
c0 -16.6729 -1.16699 -27.8398 -3.5 -33.5zM558.997 -34.0068c-24 2 -44.501 5.66504 -61.501 10.998s-35.5 14.333 -55.5 27c-23.333 14 -55.833 36.333 -97.5 67s-71.5 55 -89.5 73c-16.667 16.667 -27 37.334 -31 62.001c-4 25.333 -6 71.666 -6 138.999
c0.000976562 22.667 1.33398 43.5 4 62.5c2.66699 19 6.66699 43.167 12 72.5l164 709c6 24 9 42 9 54c0 10.667 -0.666992 21.334 -2 32.001c-1.33301 5.35254 -4.33301 10.0195 -9 14c-4.66699 4.66699 -14.334 11.334 -29 20.001
c-14.667 8.66699 -25.667 14.334 -33 17.001c-8 2.66699 -20.667 5.66699 -38 9c-10.667 2.02051 -33.334 5.6875 -68 11l17 73h760l-17 -73c-19.334 -0.708008 -43.001 -3.375 -71 -8.00098c-28 -4.66699 -50.333 -9.66699 -67 -15c-20.667 -6 -33.5 -10.667 -38.5 -14
c-5.00488 -3.33301 -12.1719 -11.666 -21.501 -24.999c-9.33594 -14 -15.1689 -23.667 -17.499 -29c-2.33887 -5.33301 -5.50586 -16.666 -9.5 -33.999l-162 -699c-14.667 -58.667 -22 -116.334 -22 -173.001c0.00878906 -51.333 1.3418 -83.666 4 -96.999
c2.00195 -16.667 7.33496 -30.834 15.999 -42.501c8.66699 -11.667 26.667 -28.5 54 -50.5c28 -23.333 48.5 -38.5 61.5 -45.5c13.002 -7 28.835 -11.5 47.499 -13.5c19.333 -2 55 -3 107 -3c58 0 102 1.66699 132 5c24 3.33301 46 12 66 26
c20.002 13.333 53.1689 41.166 99.5 83.499c46.333 42.333 77.833 73.166 94.5 92.499c16 19.333 28.333 42 37 68c6.66699 18.667 19 66.334 37 143.001l112 486c10 44 17 79.5 21 106.5s6 51.5 6 73.5c-0.0449219 19.3379 -0.37793 31.5049 -1 36.5
c-0.734375 5 -3.06738 13.833 -7 26.5c-4.68945 12.667 -8.02246 20.667 -10 24c-2 3.35254 -7 8.68555 -15 15.999c-12.667 12 -22.667 19.833 -30 23.5s-24.666 9.5 -51.999 17.5c-38.667 11.333 -66.667 18.333 -84 21l17 73h615l-17 -73c-18.667 -2 -44.667 -6 -78 -12
c-33.333 -6.02051 -54.333 -10.3535 -63 -13c-8 -2.67676 -21.5 -9.50977 -40.5 -20.5c-19.0068 -11 -31.8398 -19.5 -38.5 -25.5c-5.33301 -4 -11 -10.667 -17 -20c-8 -15.333 -18 -36.5 -30 -63.5s-20 -47.167 -24 -60.5c-7.33301 -24.667 -17.666 -64.667 -30.999 -120
l-123 -533c-22 -94 -38.667 -156.667 -50 -188c-12.667 -33.333 -30.667 -61.666 -54 -84.999c-24 -23.333 -70.167 -59.833 -138.5 -109.5s-117.833 -82.5 -148.5 -98.5c-30 -16 -63 -26 -99 -30c-37.334 -4 -104.001 -6 -200 -6c-87.333 0 -152.666 1.66699 -195.999 5z
" />
    <glyph glyph-name="Ucircumflex" unicode="&#xdb;" horiz-adv-x="1707" 
d="M1157 1687l-384.001 -203.002l-32 29c70 73.333 135.333 139.333 195.999 198c43.333 41.333 75.333 73.333 96 96c14 15.3545 23.5 25.0215 28.5 29.001c5 4.01367 15.833 9.68066 32.5 17c16.0039 7.34766 27.6709 11.6807 35 13
c7.33984 1.39062 25.0068 2.05762 53 2.00098c25.3408 0 41.5078 -0.666992 48.501 -2c7 -1.33301 17.5 -5.33301 31.5 -12c11.333 -6.02832 18.833 -10.8613 22.5 -14.5c3.66699 -3.66699 10.834 -13.167 21.501 -28.5l65 -98l131 -200l-34 -29zM558.999 -34.002
c-24 2 -44.501 5.66406 -61.501 10.9971s-35.5 14.333 -55.5 27c-23.333 14 -55.833 36.333 -97.5 67s-71.5 55 -89.5 73c-16.667 16.667 -27 37.334 -31 62.001c-4 25.333 -6 71.666 -6 138.999c0.000976562 22.667 1.33398 43.5 4 62.5c2.66699 19 6.66699 43.167 12 72.5
l164 709c6 24 9 42 9 54c0 10.667 -0.666992 21.334 -2 32.001c-1.33301 5.35254 -4.33301 10.0195 -9 14c-4.66699 4.66699 -14.334 11.334 -29 20.001c-14.667 8.66699 -25.667 14.334 -33 17.001c-8 2.66699 -20.667 5.66699 -38 9
c-10.667 2.02051 -33.334 5.6875 -68 11l17 73h760l-17 -73c-19.334 -0.708008 -43.001 -3.375 -71 -8.00098c-28 -4.66699 -50.333 -9.66699 -67 -15c-20.667 -6 -33.5 -10.667 -38.5 -14c-5.00488 -3.33301 -12.1719 -11.666 -21.501 -24.999
c-9.33594 -14 -15.1689 -23.667 -17.499 -29c-2.33887 -5.33301 -5.50586 -16.666 -9.5 -33.999l-162 -699c-14.667 -58.667 -22 -116.334 -22 -173.001c0.00878906 -51.333 1.3418 -83.666 4 -96.999c2.00195 -16.667 7.33496 -30.834 15.999 -42.501
c8.66699 -11.667 26.667 -28.5 54 -50.5c28 -23.333 48.5 -38.5 61.5 -45.5c13.002 -7 28.835 -11.5 47.499 -13.5c19.333 -2 55 -3 107 -3c58 0 102 1.66699 132 5c24 3.33301 46 12 66 26c20.002 13.333 53.1689 41.166 99.5 83.499
c46.333 42.333 77.833 73.166 94.5 92.499c16 19.334 28.333 42.001 37 68.001c6.66699 18.667 19 66.334 37 143.001l112 486c10 44 17 79.5 21 106.5s6 51.5 6 73.5c-0.0449219 19.3379 -0.37793 31.5049 -1 36.5c-0.734375 5 -3.06738 13.833 -7 26.5
c-4.68945 12.667 -8.02246 20.667 -10 24c-2 3.35254 -7 8.68555 -15 15.999c-12.667 12 -22.667 19.833 -30 23.5s-24.666 9.5 -51.999 17.5c-38.667 11.333 -66.667 18.333 -84 21l17 73h615l-17 -73c-18.667 -2 -44.667 -6 -78 -12
c-33.333 -6.02051 -54.333 -10.3535 -63 -13c-8 -2.67676 -21.5 -9.50977 -40.5 -20.5c-19.0068 -11 -31.8398 -19.5 -38.5 -25.5c-5.33301 -4 -11 -10.667 -17 -20c-8 -15.333 -18 -36.5 -30 -63.5s-20 -47.167 -24 -60.5c-7.33301 -24.667 -17.666 -64.667 -30.999 -120
l-123 -533c-22 -94 -38.667 -156.667 -50 -188c-12.667 -33.333 -30.667 -61.666 -54 -84.999c-24 -23.333 -70.167 -59.833 -138.5 -109.5s-117.833 -82.5 -148.5 -98.5c-30 -16 -63 -26 -99 -30c-37.334 -4 -104.001 -6 -200 -6c-87.333 0 -152.666 1.66699 -195.999 5z
" />
    <glyph glyph-name="Udieresis" unicode="&#xdc;" horiz-adv-x="1707" 
d="M1045 1651c-1.33301 -9.33301 -4.66113 -18.002 -9.99414 -26.002c-6.00195 -8 -17.6689 -21.167 -35 -39.5c-17.3369 -18.333 -29.6699 -30.5 -37 -36.5c-8 -6 -16.333 -9.66699 -25 -11c-16 -1.33301 -32.333 -2 -49 -2c-16.667 0.046875 -33 0.713867 -49 2
c-9.33691 1.35645 -17.6699 5.02344 -25 11c-8 6 -20.5 18 -37.5 36c-17.002 18 -28.1689 31 -33.501 39c-5.33887 8.0127 -8.67188 16.6797 -10 26c-1.35547 16 -2.02246 33.333 -2 52c0 18 0.666992 35 2 51c1.33301 9.34668 4.66602 18.0137 9.99902 26
c5.33301 8.00684 16.5 21.1738 33.5 39.5c17 18.3398 29.167 30.5068 36.5 36.5c7.33301 6.04297 15.666 9.70996 24.999 11.001c16 1.39062 32.667 2.05762 50 2.00098c16.668 0 33.001 -0.666992 48.999 -2c8.66992 -1.33301 17.0029 -5 24.999 -11
c7.33301 -6 19.666 -18.167 36.999 -36.5s29 -31.5 35 -39.5c5.34961 -8 8.68262 -16.667 10 -26c1.36523 -16 2.03223 -33 2 -51c0 -18 -0.666992 -35 -2 -51zM1581 1651c-1.33301 -9.33301 -4.67188 -18.002 -10.0049 -26.002s-16.666 -21.167 -33.999 -39.5
s-29.666 -30.5 -36.999 -36.5c-8.0166 -6 -16.3496 -9.66699 -24.999 -11c-16.0059 -1.33301 -32.3389 -2 -49 -2c-17.333 0.046875 -34 0.713867 -50 2c-9.33301 1.35645 -17.666 5.02344 -24.999 11c-7.33301 6 -19.666 18.333 -36.999 37s-28.666 32 -33.999 40
c-5.33301 7.3457 -8.66602 15.6787 -9.99902 25c-1.33301 16 -2 33 -2 51c0.0390625 18 0.706055 35 2.00098 51c1.35254 9.34668 4.68555 18.0137 9.99902 26c5.33789 8.00684 16.6709 21.1738 33.999 39.5c17.3389 18.3398 29.6719 30.5068 37 36.5
c7.33887 6.04297 15.6719 9.70996 25 11.001c16.0078 1.39062 32.6748 2.05762 50 2.00098c16.667 0 33 -0.666992 49 -2c8.66699 -1.33301 17 -5 25 -11c7.33887 -6 19.6719 -18.167 36.999 -36.5c17.3389 -18.333 28.6719 -31.5 33.999 -39.5
c5.35742 -8 8.69043 -16.667 10 -26c1.38184 -16 2.04883 -33 2.00098 -51c0 -18 -0.666992 -35 -2 -51zM558.999 -34.0039c-24 2 -44.501 5.66406 -61.501 10.9971s-35.5 14.333 -55.5 27c-23.333 14 -55.833 36.333 -97.5 67s-71.5 55 -89.5 73
c-16.667 16.667 -27 37.334 -31 62.001c-4 25.333 -6 71.666 -6 138.999c0.000976562 22.667 1.33398 43.5 4 62.5c2.66699 19 6.66699 43.167 12 72.5l164 709c6 24 9 42 9 54c0 10.667 -0.666992 21.334 -2 32.001c-1.33301 5.35254 -4.33301 10.0195 -9 14
c-4.66699 4.66699 -14.334 11.334 -29 20.001c-14.667 8.66699 -25.667 14.334 -33 17.001c-8 2.66699 -20.667 5.66699 -38 9c-10.667 2.02051 -33.334 5.6875 -68 11l17 73h760l-17 -73c-19.334 -0.708008 -43.001 -3.375 -71 -8.00098
c-28 -4.66699 -50.333 -9.66699 -67 -15c-20.667 -6 -33.5 -10.667 -38.5 -14c-5.00488 -3.33301 -12.1719 -11.666 -21.501 -24.999c-9.33594 -14 -15.1689 -23.667 -17.499 -29c-2.33887 -5.33301 -5.50586 -16.666 -9.5 -33.999l-162 -699
c-14.667 -58.667 -22 -116.334 -22 -173.001c0.00878906 -51.333 1.3418 -83.666 4 -96.999c2.00195 -16.667 7.33496 -30.834 15.999 -42.501c8.66699 -11.667 26.667 -28.5 54 -50.5c28 -23.333 48.5 -38.5 61.5 -45.5c13.002 -7 28.835 -11.5 47.499 -13.5
c19.333 -2 55 -3 107 -3c58 0 102 1.66699 132 5c24 3.33301 46 12 66 26c20.002 13.333 53.1689 41.166 99.5 83.499c46.333 42.333 77.833 73.166 94.5 92.499c16 19.334 28.333 42.001 37 68.001c6.66699 18.667 19 66.334 37 143.001l112 486c10 44 17 79.5 21 106.5
s6 51.5 6 73.5c-0.0449219 19.3379 -0.37793 31.5049 -1 36.5c-0.734375 5 -3.06738 13.833 -7 26.5c-4.68945 12.667 -8.02246 20.667 -10 24c-2 3.35254 -7 8.68555 -15 15.999c-12.667 12 -22.667 19.833 -30 23.5s-24.666 9.5 -51.999 17.5
c-38.667 11.333 -66.667 18.333 -84 21l17 73h615l-17 -73c-18.667 -2 -44.667 -6 -78 -12c-33.333 -6.02051 -54.333 -10.3535 -63 -13c-8 -2.67676 -21.5 -9.50977 -40.5 -20.5c-19.0068 -11 -31.8398 -19.5 -38.5 -25.5c-5.33301 -4 -11 -10.667 -17 -20
c-8 -15.333 -18 -36.5 -30 -63.5s-20 -47.167 -24 -60.5c-7.33301 -24.667 -17.666 -64.667 -30.999 -120l-123 -533c-22 -94 -38.667 -156.667 -50 -188c-12.667 -33.333 -30.667 -61.666 -54 -84.999c-24 -23.333 -70.167 -59.833 -138.5 -109.5
s-117.833 -82.5 -148.5 -98.5c-30 -16 -63 -26 -99 -30c-37.334 -4 -104.001 -6 -200 -6c-87.333 0 -152.666 1.66699 -195.999 5z" />
    <glyph glyph-name="Yacute" unicode="&#xdd;" horiz-adv-x="1499" 
d="M1337.5 1726.5c-2.33301 -5.67969 -9.83301 -14.8516 -22.5 -27.5049c-14 -14.0195 -24 -22.8525 -30 -26.5c-6 -3.67969 -21 -10.5127 -45 -20.5c-43.333 -17.333 -99.333 -38.666 -168 -63.999c-79.333 -29.333 -158.333 -60.666 -237 -93.999l-23 -9l-33 41l158 151
c24.667 23.335 61.667 61.668 111 115c17.3369 19.333 29.0039 31.333 35 36c6.00391 4.66699 18.6709 12.334 38 23.001c17.3379 8.66699 29.1709 13.667 35.5 15c6.34277 1.39062 19.1758 2.05762 38.5 2.00098c29.3379 -0.0566406 46.0049 -0.389648 50 -0.999023
c10 -1.33301 17.333 -3 22 -5c5.34277 -2.66699 16.1758 -9.66699 32.499 -21c16.3438 -11.333 26.5107 -19 30.501 -23c4.66699 -4.68066 7.66699 -10.0137 9 -16c1.37402 -12 2.04102 -26 2 -42c0 -16.6729 -1.16699 -27.8398 -3.5 -33.5zM1753 1346
c-24.667 -2.66699 -45.6729 -6.67285 -63.0059 -12.0059c-13.333 -4 -24.666 -8 -33.999 -12c-9.33301 -4.00977 -20.333 -9.34277 -33 -15.999c-25.333 -12.667 -41.166 -21.167 -47.499 -25.5s-19.166 -14.833 -38.499 -31.5c-27.333 -24.0039 -57 -53.3369 -89 -88
c-74.668 -81.333 -140.335 -154.5 -197 -219.5c-56.668 -65 -124.001 -143.5 -201.999 -235.5l-59 -70c-14.667 -17.333 -24.5 -29.833 -29.5 -37.5s-10.833 -19.5 -17.5 -35.5c-8.66699 -20 -14.667 -36.333 -18 -49c-6.00488 -21.333 -13.6719 -53.333 -23 -96l-43 -186
c-6 -26.667 -9 -45 -9 -55c0.0263672 -12.667 0.359375 -20.5 1 -23.5c0.666992 -3 3.66699 -9.16699 9 -18.5c4.67285 -10 8.33984 -16.167 11 -18.5c2.66699 -2.33301 10.667 -6.16602 24 -11.499c16.002 -7.33301 33.335 -12.666 52 -15.999l18 -3
c31.333 -6.66699 56.666 -11 75.999 -13l-17 -73h-791l17 73c28 2 55.333 4.66699 82 8c21.334 2 36.667 3.83301 46 5.5c9.33496 1.66699 19.668 4.5 31 8.5c19.334 8 31.667 13.833 37 17.5c5.33398 3.66699 12.667 12.167 21.999 25.5c10.667 14 17.167 23.667 19.5 29
c2.33496 5.33301 5.50195 17 9.5 35l59 255l11 50c3.33301 14.668 5 27.001 5 37c0 10.667 -0.5 18.167 -1.5 22.5c-1.00391 4.33301 -4.1709 14.833 -9.5 31.5l-29 84l-90 259c-12 34.667 -40.667 110.334 -86 227.001c-9.33301 24.667 -16 40.667 -20 48
c-4 7.33789 -12.667 20.6709 -26 39.999c-14.001 17.333 -23.334 28.333 -28 33c-4.66699 4.66699 -15 12.667 -30.999 24c-12 7.35352 -20.5 12.0205 -25.5 14c-5 2 -16.167 5 -33.5 9c-21.333 5.35352 -43.666 8.68652 -66.999 9.99902l17 73h793l-17 -73
c-51.333 -1.33301 -83.333 -2.66602 -96 -3.99902s-31.667 -5.33301 -57 -12c-8.66699 -2 -21 -5.66699 -37 -11c-6 -2.68652 -9.83301 -5.85352 -11.5 -9.5c-1.66699 -3.67676 -2.5 -10.8438 -2.5 -21.501c0.0107422 -8.66895 2.34375 -23.8359 7 -45.5
c4.66699 -21.6689 9.66699 -41.8359 15 -60.5c13.333 -42.6689 21 -67.002 23 -73c12.667 -43.333 32.667 -102 60 -176l56 -157l29 -82l232 271l50 59c68 80 119.333 143 154 189c15.3389 22.667 23.6719 35.334 25 38.001c7.36523 12 11.0322 22.333 11.001 31
c0 12.667 -0.666992 20.834 -2 24.501s-4.66602 6.83398 -9.99902 9.50098c-16.0029 6 -44.3359 14.333 -85 25c-22.667 2.66699 -44.667 4.33398 -66 5.00098l17 73h540z" />
    <glyph glyph-name="Thorn" unicode="&#xde;" horiz-adv-x="1450" 
d="M1407.5 615.5c-37.6689 -65 -89.8369 -119.834 -156.501 -164.501c-63.333 -40 -133.5 -70.833 -210.5 -92.499c-77 -21.667 -155.5 -32.5 -235.5 -32.5h-221l-24 -100c-6 -24.667 -9 -43 -9 -55c0.000976562 -30 12.334 -52 37 -66c26 -14.667 73 -25.334 141 -32.001
l-17 -73h-767l17 73c28 1.33301 55.833 4 83.5 8s49.167 8.66699 64.5 14c48.667 18 78 51.333 88 100l229 992l7 35l2 21c0 28 -14 50 -42 66c-32 16 -78.333 28.333 -139 37l17 73h767l-17 -73c-16.667 -0.666992 -40.667 -3.66699 -72 -9
c-31.334 -5.33301 -55.667 -10.666 -72.999 -15.999c-47.334 -16 -76.667 -50 -88 -102l-17 -75h205c165.333 0 287.833 -25.5 367.5 -76.5s119.5 -130.167 119.5 -237.5c-0.00585938 -78 -18.8389 -149.5 -56.5 -214.5zM1012 997.999
c-39.333 35.3369 -103.333 53.0049 -192 53.001h-69l-146 -632h75c68.001 0 127.834 11 179.5 33c51.668 22 92.501 52.667 122.5 92c57.335 73.333 86.002 170.666 86 291.999c0 72 -18.667 126 -56 162z" />
    <glyph glyph-name="germandbls" unicode="&#xdf;" horiz-adv-x="1343" 
d="M294 1017c20.667 96.667 49.998 177.667 87.998 243s92.333 122.333 163 171c61.333 42 123.333 72.333 186 91s130.667 28 204 28c54.667 0 106.5 -5.5 155.5 -16.5c49.001 -11 92.168 -27.167 129.5 -48.5c42.667 -24.6689 74.5 -53.502 95.5 -86.499
c21 -33 31.5 -71.5 31.5 -115.5c-0.015625 -46.6689 -10.3486 -90.8359 -31 -132.5c-20.6738 -41.6699 -49.3408 -77.5029 -86 -107.5c-33.333 -27.334 -70.666 -50.501 -111.999 -69.5c-41.333 -19.002 -83.333 -32.1689 -126 -39.501v-12
c76.667 -15.333 141.334 -48.333 194.001 -99c30.667 -30.667 53.667 -65 69 -103c15.3428 -38 23.0098 -82.667 23 -134c0 -106.667 -25.667 -205.667 -77 -297s-121.333 -164.333 -210 -219c-86.667 -54 -180.667 -81 -282 -81c-38.667 0 -80.5 2.16699 -125.5 6.5
s-77.833 8.83301 -98.499 13.5l18 86l35 -7c22 -3.33301 39.667 -5 53 -5c48.667 0 94.167 15.5 136.5 46.5s78.5 73.833 108.5 128.5c58.668 110.667 88.001 239.334 88 386.001c-0.00195312 78 -15.1689 137.5 -45.501 178.5c-30.333 41 -76.833 61.5 -139.5 61.5h-28
l21 89h37c34 0.00390625 66.667 6.83691 98 20.5c31.333 13.6699 59 34.1699 83 61.5c29.333 32.667 50.666 68 63.999 106c13.3408 38 20.0078 86 20 144c0 52.667 -11.333 92.834 -34 120.501s-55 41.5 -97 41.5c-46.001 0 -85.168 -12.667 -117.5 -38
c-32.334 -25.333 -60.167 -65.333 -83.5 -120c-24.667 -56.001 -46.334 -130.334 -65.001 -223l-218 -1026c-20 -90 -59.833 -173.667 -119.499 -251c-59.667 -77.333 -131.5 -139 -215.5 -185c-84.667 -45.333 -170.334 -68 -257.001 -68
c-56 -0.000976562 -103.833 5.66602 -143.5 17c-39.666 11.333 -70.499 27 -92.499 47c-35.333 32 -53 75 -53 129c0 25.333 6.33301 49.166 19 71.499s30.334 40.5 53.001 54.5s49.667 21 81 21c62.667 0 116.334 -32.333 161.001 -97c18.667 -26.667 35 -55.667 49 -87
l34 -75c59.333 67.333 108.666 195.666 147.999 384.999z" />
    <glyph glyph-name="agrave" unicode="&#xe0;" horiz-adv-x="1352" 
d="M901 1101c-65.334 44 -107.497 71.9971 -126.497 83.9971s-52.5 32 -100.5 60c-59.334 34.667 -104.667 62.667 -136 84c-18.667 14 -30 23 -34 27c-4 4.01562 -10 11.6826 -18 23c-8.66699 12 -13.667 20.5 -15 25.5s-2 16.5 -2 34.5c0 14 0.5 23.5 1.5 28.5
c1 5.02246 3.5 10.1895 7.5 15.5c6.00098 8.66699 14.168 19.334 24.5 32.001c10.333 12.667 18.166 20.667 23.499 24c5.33301 4.02344 11.666 6.69043 18.999 8c3.33301 0.666992 16 1 38 1c28 -0.046875 44 -0.379883 48 -0.999023
c10 -1.33301 16.667 -2.66602 20 -3.99902c6.66797 -3.33301 18.501 -10.5 35.5 -21.5c17 -11 28.167 -19.5 33.5 -25.5c5.33301 -6.67285 17.666 -24.0059 36.999 -52c19.333 -28.667 45.333 -70.667 78 -126c32.668 -58 70.001 -117.667 112 -179zM752.004 124.997
c-23.333 -20.667 -45.3311 -38.9951 -65.998 -54.9951c-16 -12.667 -27.333 -21 -34 -25s-22 -12.333 -46 -25c-20.667 -11.333 -34.5 -18.5 -41.5 -21.5s-22.5 -8.16699 -46.5 -15.5c-26.001 -6.66699 -43.334 -10.667 -52 -12c-8.66699 -1.33301 -25.667 -2 -51 -2
c-59.333 0 -103 1.66699 -131 5c-16 2 -29.5 5.83301 -40.5 11.5s-23.167 14.834 -36.5 27.501c-14.667 14 -35.834 37.5 -63.501 70.5s-46.167 57.5 -55.5 73.5s-15.666 36 -18.999 60c-2.66699 18.667 -4 63.667 -4 135c0 34.667 0.666992 70 2 106c1.33301 20 5 39 11 57
c6.66699 19.333 19 51.166 37 95.499s31 74.5 39 90.5c6.66699 14 16 29 28 45s33 40.667 63 74l66 69c16.667 14.6699 31 25.3369 43 32c16.667 9.33301 45.5 23.5 86.5 42.5s69.5 31.5 85.5 37.5c16.668 6 34.001 10 52 12c32 1.33301 63.667 2 95 2
c44.667 0 73.667 -0.833008 87 -2.5s37 -7.83398 71 -18.501c33.333 -10.667 54.666 -18.334 63.999 -23.001s24.666 -16 45.999 -34l307 63l14 -16l-147 -615l-17 -77c-6 -26.667 -9 -50.334 -9 -71.001c0 -25.333 0.333008 -39.666 1 -42.999
c0.666992 -7.33301 2.33398 -12.833 5.00098 -16.5s9.33398 -9.83398 20.001 -18.501c10 -8.66699 17.5 -14.167 22.5 -16.5s11.5 -3.83301 19.5 -4.5c3.33301 -0.667969 19.333 -1.00098 48 -1c14 0 23.833 0.5 29.5 1.5s18.5 4.16699 38.5 9.5c16 4 34.333 10 55 18
l-22 -90c-55.333 -22.667 -108 -42.334 -158 -59.001c-30 -10.667 -50.667 -16.834 -62 -18.501s-36.666 -2.5 -75.999 -2.5c-26.667 0 -52.667 0.666992 -78 2c-14.667 1.33301 -27.334 4.33301 -38.001 9s-26.667 14.667 -48 30c-22 14 -37.333 24.667 -46 32
c-8.66699 6.66699 -15.334 14.334 -20.001 23.001c-4.66699 9.33301 -11.334 25.666 -20.001 48.999h-8zM879.006 759.002c0 16.002 -1.99805 33.3359 -5.99805 52.001c-2.66699 14.668 -4.83398 24.335 -6.50098 29c-1.66699 4.67188 -6.5 12.0049 -14.5 22
c-8.66699 13.333 -15.334 21.833 -20.001 25.5c-4.66699 3.67383 -13.667 8.50684 -27 14.5c-14.667 6.67676 -25 10.5098 -31 11.499c-6.00195 1 -19.6689 1.5 -41.001 1.5c-18 -0.0283203 -35 -0.695312 -51 -2.00098c-9.33691 -1.33984 -18.0039 -4.67285 -26 -9.99902
c-8.66699 -6 -23.334 -17.833 -44.001 -35.5s-35 -30.5 -43 -38.5c-7.33398 -7.33496 -14.667 -16.668 -21.999 -28c-11.334 -18 -25.501 -43 -42.5 -75c-17 -32 -27.5 -54 -31.5 -66c-5.33301 -14 -14 -47 -26 -99s-19 -87 -21 -105s-3 -54 -3 -108
c0 -24 0.333008 -39.833 1 -47.499c0.666992 -7.66699 3 -22.167 7 -43.5c3.33496 -21.333 6.00195 -34.833 8 -40.5c2 -5.66699 7.33301 -15.834 16 -30.501c10.667 -16.667 17.834 -27 21.501 -31s12.834 -9.66699 27.501 -17c15.333 -8.66699 26.166 -13.667 32.499 -15
s20.833 -2 43.5 -2c23.333 0 38.833 1.16699 46.5 3.5c7.66895 2.33301 22.502 10.5 44.5 24.5c21.333 13.333 35.333 22.833 42 28.5c6.66797 5.66699 19.335 18.5 38 38.5z" />
    </font>
</defs>
</svg>
