<?xml version="1.0" standalone="no"?>
<!DOCTYPE svg PUBLIC "-//W3C//DTD SVG 1.1//EN" "http://www.w3.org/Graphics/SVG/1.1/DTD/svg11.dtd" >
<svg>
<metadata>
Created by FontForge 20120731 at Thu Sep 19 10:52:59 2019
 By www-data
Created by Robert Wimmer,U-GTOFFICE\rwimm,S-1-5-21-832376421- with FontForge 2.0 (http://fontforge.sf.net)
</metadata>
<defs>
<font id="Georgia-Bold" horiz-adv-x="1440" >
  <font-face 
    font-family="Georgia"
    font-weight="700"
    font-stretch="normal"
    units-per-em="2048"
    panose-1="2 0 8 3 0 0 0 0 0 0"
    ascent="1639"
    descent="-409"
    x-height="991.997"
    cap-height="1419"
    bbox="-238.998 -444.01 2586 2136"
    underline-thickness="102"
    underline-position="-205"
    stemh="78"
    stemv="355"
    unicode-range="U+0020-2122"
  />
<missing-glyph horiz-adv-x="1024" 
d="M102 0v1092h820v-1092h-820zM204 102h616v888h-616v-888z" />
    <glyph glyph-name=".notdef" horiz-adv-x="1024" 
d="M102 0v1092h820v-1092h-820zM204 102h616v888h-616v-888z" />
    <glyph glyph-name="space" unicode=" " horiz-adv-x="520" 
 />
    <glyph glyph-name="exclam" unicode="!" horiz-adv-x="771" 
d="M529 994c-41.333 -172.667 -76.333 -350 -105 -532h-77c-30.667 194.667 -65.667 371.667 -105 531c-34 142 -51 231.333 -51 268c0 34.002 8.66699 65.1689 26 93.5c17.333 28.333 40.833 50.833 70.5 67.5s62.167 25 97.5 25c34 -0.0166016 66 -8.34961 96 -25
c30 -16.6689 54 -39.3359 72 -68c18 -28.667 27 -59.667 27 -93c0 -40.667 -17 -129.667 -51 -267zM551.5 63.5c-17.667 -28.333 -41.166 -50.835 -70.499 -67.502s-61 -25 -95 -25c-53.333 0 -98.333 18.333 -135 55c-38.667 36 -58 79.333 -58 130
c0 34 8.83301 65.333 26.499 94c17.667 28.667 41.167 51.334 70.5 68.001s61.333 25 96 25c34 0 65.667 -8.5 95 -25.5c29.334 -17 52.834 -39.833 70.5 -68.5c17.6699 -28.667 26.5029 -59.667 26.5 -93c0 -33.333 -8.83301 -64.166 -26.5 -92.499z" />
    <glyph glyph-name="quotedbl" unicode="&#x22;" horiz-adv-x="1044" 
d="M403 1156c-32 -102.668 -59.666 -213.67 -82.999 -333.002h-69c-24.667 120 -52.334 231 -83.001 333c-32 105.333 -48 176.333 -48 213c0 45.333 14.833 83.333 44.5 114s70.167 46 121.5 46c34 0 63.5 -7.16699 88.5 -21.5s44 -33.666 57 -57.999
s19.5 -51.166 19.5 -80.499c0 -36.667 -16 -107.667 -48 -213zM876.001 1156c-32.001 -102.668 -59.667 -213.669 -82.999 -333.001h-69c-24.667 120 -52.334 231 -83.001 333c-32 105.333 -48 176.333 -48 213c0 29.3359 6.66699 56.1689 20 80.499
c13.333 24.3389 32.5 43.6719 57.5 58c25 14.3447 54.5 21.5117 88.5 21.5c34 0 63.5 -7.16699 88.5 -21.5s44 -33.666 57 -57.999s19.5 -51.166 19.5 -80.499c0 -36.667 -16 -107.667 -48 -213z" />
    <glyph glyph-name="numbersign" unicode="#" 
d="M1285 748h-262l-78 -257h280v-160h-328l-101 -331h-149l101 331h-230l-101 -331h-149l101 331h-214v160h262l79 257h-281v160h329l104 341h149l-104 -341h230l104 341h149l-104 -341h213v-160zM877 750h-233l-79 -261h232z" />
    <glyph glyph-name="dollar" unicode="$" horiz-adv-x="1312" 
d="M1102 671.5c70 -66.334 105.003 -153.165 105.003 -260.498c0 -80.667 -21.5 -152.5 -64.5 -215.5c-43.001 -63 -101.834 -112.833 -176.5 -149.5c-74.667 -36.667 -158.667 -58 -252 -64v-281h-99v281c-92.667 2 -178 17.5 -256 46.5s-139.667 67 -185 114
s-68 97.167 -68 150.5c0 48.667 14.667 89 44 121s68.666 48 117.999 48c52.667 0 94.5 -13.833 125.5 -41.499c31 -27.667 46.5 -65.167 46.5 -112.5c0 -28.667 -3.5 -55.167 -10.5 -79.5s-18.5 -58.833 -34.5 -103.5c82 -38.667 155.333 -58 220 -58v449l-27 4l-30 3
c-84.667 8 -158.167 28 -220.5 60s-110.166 74.667 -143.499 128s-50 114.666 -50 183.999c0 46.667 8.66699 92.167 26 136.5c17.333 44.334 44 86.167 80 125.499c83.333 90.667 205 140.334 365 149.001v218h99v-218c89.333 -2.67188 168.666 -16.5049 237.999 -41.5
c69.333 -25 123.5 -58 162.5 -99s58.5 -86.5 58.5 -136.5c0 -46.667 -14.167 -85.5 -42.5 -116.5s-66.166 -46.5 -113.499 -46.5c-50.667 0 -90.667 13.5 -120 40.5c-29.3359 27.001 -44.0029 62.834 -44.001 107.499c0.00292969 33.335 5.33594 64.002 15.999 92l27 81
c-20 9.33789 -46.5 17.1709 -79.5 23.499c-33.001 6.33301 -67.168 9.83301 -102.5 10.5v-409l38 -5c15.333 -3.33301 28.666 -5.33301 39.999 -6c136.667 -20 240 -63.167 310 -129.5zM615.003 1221c-74.667 -8 -132.5 -30 -173.5 -66
c-41 -36.001 -61.5 -80.334 -61.5 -133c0 -112.667 64.333 -177.667 193 -195l13 -2c2.00488 -0.666992 5.33789 -1 10 -1l19 -3v400zM909.503 140.502c42.333 39.667 63.5 90.5 63.5 152.5c0 113.333 -68 182 -204 206l-26 4l-29 4v-440
c88 9.33301 153.167 33.833 195.5 73.5z" />
    <glyph glyph-name="percent" unicode="%" horiz-adv-x="1801" 
d="M819 891.5c-34 -57 -80.665 -101.165 -139.998 -132.498c-59.333 -31.335 -125.333 -47.002 -198 -47.001c-72.667 0 -138.834 15.667 -198.501 47s-106.5 75.5 -140.5 132.5s-51 121.833 -51 194.499c0 73.333 17 138.333 51 195s80.5 100.667 139.5 132
c59 31.3389 125.167 47.0059 198.5 47c73.333 0 139.666 -15.667 198.999 -47s106 -75.333 140 -132s51 -121.667 51 -195c0 -72.667 -17 -137.5 -51 -194.5zM1574 1428l-1183 -1428h-163l1180 1428h166zM576.502 1309.5c-19 51.667 -51.501 77.498 -97.501 77.498
c-43.333 0 -74.666 -25.667 -93.999 -77c-19.333 -54 -29 -126 -29 -216c0 -95.334 9 -170.667 27 -225.999c17.334 -55.334 50.667 -83.001 100 -83c43.333 0 74.333 26 93 78c19.333 52.667 29 126.334 29 221c0 98.667 -9.5 173.834 -28.5 225.501zM1659 144.5
c-34 -57 -80.5 -101.167 -139.5 -132.5s-125.167 -47 -198.5 -47c-74 0 -140.667 15.667 -200 47s-105.833 75.333 -139.5 132s-50.5 121.667 -50.5 195s17 138.333 51 195s80.5 100.667 139.5 132c59.001 31.333 125.168 47 198.5 47
c73.334 -0.00195312 139.667 -15.6689 199 -47c59.335 -31.333 106.002 -75.333 140 -132c34 -56.667 51 -121.667 51 -195c0 -72.667 -17 -137.5 -51 -194.5zM1416.5 562.5c-19 51.667 -51.501 77.499 -97.501 77.498
c-43.333 -0.000976562 -74.666 -25.668 -93.999 -77.001c-19.333 -54 -29 -126 -29 -216c0 -95.333 9 -170.666 27 -225.999c17.3359 -55.333 50.6689 -83 100 -83c43.333 0 74.333 26 93 78c19.3496 52.667 29.0166 126.334 29 221.001
c0 98.667 -9.5 173.834 -28.5 225.501z" />
    <glyph glyph-name="ampersand" unicode="&#x26;" horiz-adv-x="1637" 
d="M996 71l-65.002 77.0049c-70.667 -64.667 -140.667 -111.334 -210 -140.001s-144.666 -43 -225.999 -43c-82 0 -155.333 15.333 -219.999 46c-64.667 30.667 -115.167 73.5 -151.5 128.5s-54.5 118.167 -54.5 189.5c0 54 7 100 21 138s37.333 77 70 117
c30 36.001 67 68.834 111 98.5c44 29.667 96 58.167 156 85.5c-60 76 -101.833 140.5 -125.5 193.5s-35.5 107.833 -35.5 164.5c0 62.667 18.333 119.167 55 169.5s86 89.833 148 118.5s130 43 204 43c68.667 0 129.5 -11.167 182.499 -33.5
c53 -22.333 94.167 -53.833 123.5 -94.5c29.333 -40.668 44 -88.001 44 -142c-0.00195312 -72.001 -19.6689 -135.834 -59 -191.5c-39.333 -55.667 -103.333 -109.5 -192 -161.5c57.333 -74 100 -127.833 128 -161.5s72.333 -86.167 132.999 -157.5l66 -77
c42 62.667 73.5 119.5 94.5 170.5s31.5 94.833 31.5 131.499c0 19.333 -14.667 35.666 -44 48.999c-31.333 12.668 -73.333 24.001 -126 33.999v76h559v-76c-60.002 -4.66699 -104.835 -12.167 -134.5 -22.5c-29.667 -10.335 -58.167 -29.168 -85.5 -56.5
c-11.333 -11.333 -26 -32.333 -44 -63l-51 -88c-47.333 -86 -94.666 -160.667 -141.999 -224c61.335 -72 112.002 -125.667 152.001 -161c38 -35.333 70.833 -60.333 98.5 -75s63.5 -26.334 107.5 -35.001c44.001 -8.66699 87.668 -14.667 131 -18v-80h-588zM828.998 1311
c-29.333 33.3389 -66.332 50.0039 -110.999 49.999c-42.667 0 -77.5 -13.667 -104.5 -41s-40.5 -63.666 -40.5 -108.999c0 -37.333 12.167 -80.333 36.5 -129s62.5 -109 114.5 -181c48.667 32.668 85.334 73.001 110 121c24.668 48 37.001 98 36.999 150
c0 58.667 -14 105 -42 139zM682.999 448.003c-83.334 100.667 -152.667 185.668 -208 255.001c-34 -34.001 -59.167 -73.668 -75.5 -119c-16.333 -45.333 -24.5 -92.666 -24.5 -141.999c0 -58 13 -109.833 39 -155.5s61.833 -81.334 107.5 -107.001
s97.167 -38.5 154.5 -38.5c42 0 77.667 5.16699 107 15.5s61 29.166 95 56.499z" />
    <glyph glyph-name="quotesingle" unicode="'" horiz-adv-x="551" 
d="M393 1156c-32 -102.668 -59.666 -213.67 -82.999 -333.002h-69c-24.667 120 -52.334 231 -83.001 333c-32 105.333 -48 176.333 -48 213c0 45.333 14.833 83.333 44.5 114s70.167 46 121.5 46c34 0 63.5 -7.16699 88.5 -21.5s44 -33.666 57 -57.999
s19.5 -51.166 19.5 -80.499c0 -36.667 -16 -107.667 -48 -213z" />
    <glyph glyph-name="parenleft" unicode="(" horiz-adv-x="915" 
d="M848 -328c-95.334 12.667 -186.167 40.3311 -272.5 82.998s-163.166 101 -230.499 175c-72.667 80 -129.167 176 -169.5 288s-60.5 240 -60.5 384c0 280.667 76.667 504.667 230 672c67.334 73.335 144.167 131.502 230.5 174.5c86.333 43 177.166 70.833 272.499 83.5
v-90c-128 -24 -225.167 -106.167 -291.5 -246.5s-99.5 -338.166 -99.5 -593.499s33.167 -453.166 99.5 -593.499s163.5 -222.5 291.5 -246.5v-90z" />
    <glyph glyph-name="parenright" unicode=")" horiz-adv-x="915" 
d="M740.5 218c-40.333 -112 -96.834 -207.999 -169.501 -287.999c-68.667 -74.667 -146.667 -133.667 -234 -177c-88 -42 -177.667 -69 -269 -81v90c128 24 225.167 106.167 291.5 246.5c66.334 140.333 99.501 338.166 99.501 593.499s-33.167 453.166 -99.5 593.499
c-66.333 140.335 -163.5 222.502 -291.5 246.501v90c94.667 -12.6699 185.334 -40.5029 272.001 -83.5c86.667 -43 163.667 -101.167 231 -174.5c153.333 -167.333 230 -391.333 230 -672c-0.00195312 -144 -20.1689 -272 -60.501 -384z" />
    <glyph glyph-name="asterisk" unicode="*" horiz-adv-x="987" 
d="M883 1018c-16 -14 -37.9971 -20.9971 -65.9971 -20.9971c-18.667 0.00390625 -53 7.33691 -103 22c-52.667 14.667 -108.334 25.667 -167.001 33c38.667 -50.667 81.334 -98.334 128 -143.001c46.667 -44.667 70 -82.667 69.999 -114c0 -21.333 -9.33301 -40.333 -28 -57
s-39.334 -25 -62.001 -25c-30.001 0 -54.668 16 -74.001 48c-8.00098 14.667 -18.668 48 -32 99.999c-16 57.333 -34.333 110.666 -55 159.999c-23.333 -56 -41.666 -109.333 -54.999 -160c-15.333 -56 -26 -89.333 -32 -100c-12 -18.667 -23 -31.334 -33 -38.001
s-23.667 -10 -41 -10c-22.667 0 -43.334 8 -62 24c-18.667 16.002 -28 35.335 -28 57.999c0 31.333 23.333 69.333 70 114s89.334 92.334 128.001 143c-59.333 -6.6748 -114.333 -17.3418 -165 -32c-56 -15.3369 -91 -23.0039 -105 -23
c-27.333 0 -49.166 7.16699 -65.499 21.5s-24.5 35.833 -24.5 64.5c0 26.667 8.33301 47.667 25 63c16.667 15.3467 38.334 23.0137 65.001 23c18.667 0 52 -6.66699 100 -20c45.333 -14 102 -25 170 -33c-42 53.335 -86 102.668 -132 148c-44 42 -66 78.333 -66 109
c0 21.333 9.33301 40.333 27.999 57c18.667 16.667 39.334 25 62.001 25c30 0 54.667 -15.667 74 -47c8.66699 -14.6719 19.667 -48.3389 33 -101c14 -50.668 32 -104.001 54 -160c23.333 59.335 41.666 113.002 54.999 161.001c12.6689 48.667 23.3359 82 32 100
c8 14 18.5 25.333 31.5 34s27.167 13 42.5 13c22.6689 0 43.3359 -8 62 -24c18.6699 -16.0078 28.0029 -35.3408 28 -57.999c-0.00195312 -30 -20.6689 -65.667 -62 -107c-42 -40.667 -87 -90.667 -135 -150c66.667 8.66699 124 19.667 172 33
c49.333 13.3418 81.666 20.0088 96.999 20c27.333 0 49.166 -7.5 65.499 -22.5s24.5 -36.167 24.5 -63.5c0 -29.333 -8 -51 -24 -65z" />
    <glyph glyph-name="plus" unicode="+" 
d="M1275 493h-473v-473h-165v473h-473v163h473v473h165v-473h473v-163z" />
    <glyph glyph-name="comma" unicode="," horiz-adv-x="672" 
d="M492.5 -113.5c-31 -57.667 -73.001 -110.833 -126.001 -159.5s-111.167 -87.334 -174.5 -116.001l-44 71c73.333 37.333 130 79.333 170 126c26 32 45.333 62.333 58 91s20.334 62.334 23.001 101.001h-56c-67.333 0 -118.5 15.167 -153.5 45.5s-52.5 72.833 -52.5 127.5
c0 28 7.66699 54.833 23 80.5s36.333 46.5 63 62.5s55.667 24 87 24c74.667 0 131.5 -25 170.5 -75s58.5 -120.667 58.5 -212c0 -53.333 -15.5 -108.833 -46.5 -166.5z" />
    <glyph glyph-name="hyphen" unicode="-" horiz-adv-x="776" 
d="M691 435h-606v221h606v-221z" />
    <glyph glyph-name="period" unicode="." horiz-adv-x="672" 
d="M507.5 69c-17.667 -30 -41.6689 -53.834 -72.002 -71.501s-63.166 -26.5 -98.499 -26.5s-68.166 8.83301 -98.499 26.5s-54.5 41.334 -72.5 71.001s-27 62.167 -27 97.5s9 68 27 98s42.167 54 72.5 72s63.166 27 98.499 27c35.334 0 68.001 -9 98.001 -27s54 -42 72 -72
s27 -62.667 27 -98c0 -34.667 -8.83301 -67 -26.5 -97z" />
    <glyph glyph-name="slash" unicode="/" horiz-adv-x="966" 
d="M898 1523l-691 -1947h-180l689 1947h182z" />
    <glyph glyph-name="zero" unicode="0" horiz-adv-x="1436" 
d="M1295 753c25.3379 -68.667 38.0049 -140.665 38 -215.998c-0.00488281 -85.333 -14.8379 -163.333 -44.499 -234c-29.6689 -70.667 -71.502 -131 -125.5 -181c-112.667 -104 -261.334 -156 -446 -156c-96.667 0 -183.834 15.167 -261.501 45.5
s-143.5 72.166 -197.5 125.499c-50.667 50.667 -89.167 110.167 -115.5 178.5s-39.5 142.166 -39.5 221.499c0 77.333 12.833 149.833 38.5 217.5s63.834 127.834 114.501 180.5c52 54 117.5 96.5 196.5 127.5s167.5 46.5 265.5 46.5
c101.333 -0.00390625 191.666 -15.8369 270.999 -47.499c79.333 -31.667 144.333 -74.834 195 -129.5c48.667 -50.667 85.667 -110.334 111 -179.001zM943.5 335.502c8.33301 55 12.5029 122.168 12.5029 201.501c-0.00195312 146.667 -16.6689 260.667 -50.001 342
c-20 46.668 -45.333 82.001 -76 106c-30.667 24 -67.667 36 -111 36c-43.334 -0.00195312 -81.001 -12.1689 -113 -36.5c-32 -24.333 -57.333 -58.833 -76 -103.5c-33.333 -80.667 -50 -195.334 -50 -344.001c0 -73.333 3.83301 -137 11.5 -191s20.167 -103.333 37.5 -148
c18.667 -45.333 43.5 -80.833 74.499 -106.5c31.001 -25.667 68.834 -38.5 113.5 -38.5c42.668 0 79.501 11.667 110.5 35c31.001 23.333 55.834 56.333 74.5 99c19.333 44 33.166 93.5 41.499 148.5z" />
    <glyph glyph-name="one" unicode="1" horiz-adv-x="1003" 
d="M121 76l72 6.99805l24 3c41.333 4.66699 71.833 10.334 91.5 17.001s34.5 17.667 44.5 33c11.334 17.333 17.001 39.333 17 66v634h-253v95h55c102.667 0 188 21.667 256 65c25.333 16.6699 46.333 33.5029 63 50.5c16.667 17.0039 33.667 37.1709 51 60.5h176l-6 -152
c-2 -58 -3 -110 -3 -156v-586c0 -49.333 20 -83.666 60 -102.999c14 -6.66699 41 -13.5 81 -20.5s72 -11.5 96 -13.5v-76h-825v76z" />
    <glyph glyph-name="two" unicode="2" horiz-adv-x="1283" 
d="M110 181c89.333 90.667 198.333 169.668 327 237.001c78 42 134.333 74 168.999 96c34.667 22 63.334 46 86 72c44.667 48.667 67 111.334 66.999 188c0 82 -19.333 143 -58 183s-92.334 60 -161.001 60c-23.335 0 -43.335 -1.5 -60 -4.5
c-16.667 -3 -35.334 -8.5 -56 -16.5c16 -49.334 27.167 -86.501 33.5 -111.5c6.33496 -25 9.50195 -54.5 9.5 -88.5c0 -46.667 -16.833 -84.167 -50.499 -112.5c-33.667 -28.335 -77.167 -42.502 -130.5 -42.501c-32.667 0 -61.5 7.5 -86.5 22.5
c-25 15.001 -44.167 35.334 -57.5 60.999c-13.333 25.667 -20 53.834 -20 84.5c0 54 21.833 104 65.5 150s102.834 82.5 177.501 109.5s156.334 40.5 245.001 40.5c164.667 0 293.667 -28 387 -84c93.335 -56 140.002 -142 140.001 -258
c0 -59.334 -12.167 -108.167 -36.5 -146.5s-62.833 -72.833 -115.5 -103.5c-40 -23.333 -86.167 -43.666 -138.5 -60.999s-113.833 -34.333 -184.5 -51c-70.667 -18 -129.834 -36.5 -177.501 -55.5s-89.5 -40.5 -125.5 -64.5v-11h835v-274h-1084v181z" />
    <glyph glyph-name="three" unicode="3" horiz-adv-x="1279" 
d="M1138 225.5c25.3379 -45 38.0039 -98.1719 37.999 -159.505c0 -82 -27.167 -156.167 -81.5 -222.5s-130.166 -118.333 -227.499 -156c-97.334 -37.666 -207.667 -56.499 -331 -56.499c-88 0 -169 13.167 -243 39.501c-74 26.333 -132.667 62.333 -176 108
s-65 96.167 -65 151.5c0 31.333 7 60 21 86s33.667 46.333 59 61s54.333 22 87 22c52.667 0 96 -14 130 -42c33.334 -29.333 50.001 -67.333 50 -114c-0.000976562 -27.333 -5.33398 -61.333 -16 -102c-10.668 -40.667 -20.335 -73 -29 -97
c14 -6.66602 33.333 -11.833 58 -15.5c24.667 -3.66309 51.667 -5.49609 81 -5.49902c42 -0.000976562 81.167 6.66602 117.5 20c36.333 13.333 67.166 33.666 92.499 60.999c30 31.333 52.5 67.833 67.5 109.5s22.5 93.834 22.5 156.501c0 88 -16.333 153.667 -49 197
c-18.667 24.667 -44 44.667 -76 60c-33.334 14 -74.667 21 -124 21h-127v121h90c83.333 0 144 24.5 182 73.5s57 125.167 57 228.5c0 82 -18 143.5 -54 184.5s-88.667 61.5 -158 61.5c-28.667 0 -51.667 -1.33301 -69 -4s-36.666 -8.33398 -57.999 -17.001
c13.333 -43.333 23.833 -80.833 31.5 -112.5s11.5 -60.5 11.5 -86.5c-0.000976562 -47.334 -16.334 -85.001 -49 -113c-32.667 -28 -75.334 -42 -128 -42c-32.667 0 -61.5 7.5 -86.5 22.5c-25 15.001 -44.167 35.334 -57.5 60.999c-13.333 25.667 -20 53.834 -20 84.5
c0 54.668 21.833 104.835 65.5 150.501c43.667 45.667 103.834 81.834 180.501 108.501s162.667 40 258 40c94 -0.00390625 174.5 -10.8369 241.5 -32.499c67 -21.667 121.167 -51.167 162.5 -88.5c34 -30 59 -64 75 -102s24 -74.333 24 -109
c0 -30 -6.5 -63.833 -19.5 -101.5c-13.0039 -37.667 -30.8369 -69.5 -53.5 -95.5c-28.667 -33.334 -67 -62.501 -115 -87.5c-48 -25 -103.333 -44.167 -166 -57.5v-16c46.667 -2.66797 94.667 -11.001 144 -25c49.333 -14 92.666 -33.333 129.999 -57.999
c42.667 -28.667 76.667 -65.5 102 -110.5z" />
    <glyph glyph-name="four" unicode="4" horiz-adv-x="1330" 
d="M1261 10h-215v-379h-335v379h-662v184l718 909h279v-882h215v-211zM711 221v643l-509 -643h509z" />
    <glyph glyph-name="five" unicode="5" horiz-adv-x="1227" 
d="M1092.5 334.5c32.3379 -57.667 48.5029 -125.828 48.499 -204.495c-0.00195312 -96.667 -25.835 -182.834 -77.499 -258.501c-51.667 -75.667 -123.5 -134.667 -215.5 -177s-196.333 -63.5 -313 -63.5c-89.333 0 -170.666 13.5 -243.999 40.5
s-130.833 63.167 -172.5 108.5s-62.5 94.333 -62.5 147c0 31.333 7 60 21 86s33.667 46.333 59 61s54.333 22 87 22c52.667 0 96 -14 130 -42c33.334 -29.333 50.001 -67.333 50.001 -114c0 -28.667 -3.66699 -57.834 -11 -87.501s-18.666 -66.834 -33.999 -111.501
c32 -12 70.667 -18 116 -18c39.333 0 77.166 8.5 113.499 25.5s67.166 41.833 92.499 74.5c30 37.333 52.667 81.833 68 133.5s23 109.167 23 172.5c0 93.333 -25 170.666 -75 231.999c-50.667 60 -116 90 -196 90c-58.667 0 -109.334 -11.667 -152.001 -35
s-81.667 -57 -117 -101l-78 26l97 736h845v-276h-773l-41 -330c41.333 26.667 90.666 49.334 147.999 68c57.334 18.6699 121.001 28.0029 191.001 28c65.333 0 125.833 -6.83301 181.5 -20.5s109.834 -37.834 162.5 -72.501c53.334 -35.333 96.167 -81.833 128.5 -139.5z
" />
    <glyph glyph-name="six" unicode="6" horiz-adv-x="1327" 
d="M1170 209c-48.667 -76 -116.165 -135.665 -202.498 -178.998c-86.334 -43.333 -183.501 -65 -291.501 -65c-114 0 -214.333 24.5 -301 73.5s-153.667 118.667 -201 209s-71 195.833 -71 316.5c0 161.333 37.333 305.666 112 432.999c74.667 127.334 181 230.667 319 310
c138 79.3359 300.333 129.669 486.999 151l23 -99l-106 -18c-147.334 -40 -259.667 -114 -337 -222c-58.667 -81.333 -100 -193.666 -124 -336.999c54.667 49.333 110.334 83.666 167 102.999c56.667 19.333 119.667 29 189 29c76 -0.00195312 145.167 -19.1689 207.5 -57.5
c62.334 -38.333 111.667 -91.833 147.999 -160.5c36.3379 -68.667 54.5049 -146.334 54.5 -233.001c-0.00195312 -93.333 -24.335 -178 -72.999 -254zM848.002 618.502c-16.667 51.667 -40.334 91.5029 -71.001 119.502c-30.667 28 -66.667 42 -108 42
c-44 0 -80.833 -7.5 -110.5 -22.5s-59.167 -43.833 -88.5 -86.5v-17l-2 -33c-1.33301 -26.667 -2 -51 -2 -73c0.000976562 -158 19.668 -280.333 59.001 -367c39.333 -85.333 89.333 -128 150 -128c40.001 0 74.834 15.167 104.5 45.5
c29.667 30.333 52.667 74.166 69 131.499s24.5 126 24.5 206c0 70 -8.33301 130.833 -25 182.499z" />
    <glyph glyph-name="seven" unicode="7" horiz-adv-x="1135" 
d="M266 -369l673.998 1177h-458h-71c-43.333 -0.0244141 -75.166 -1.19141 -95.499 -3.5c-20.333 -2.33984 -40.166 -8.17285 -59.499 -17.5c-21.334 -9.33496 -40.167 -32.168 -56.5 -68.5c-16.333 -36.334 -28.833 -81.167 -37.5 -134.5h-73v493h1055v-119l-728 -1327
h-150z" />
    <glyph glyph-name="eight" unicode="8" horiz-adv-x="1385" 
d="M1206 175.5c-50.001 -65.667 -121.334 -117.499 -214 -155.499c-92.667 -38 -200.334 -57 -323.001 -57c-110.667 0 -208.834 16.167 -294.501 48.5s-152.167 77.5 -199.5 135.5s-71 123.667 -71 197c0 86.667 28 157.667 84 213s143.667 97 263 125
c-94.667 42 -166.834 96.333 -216.501 162.999c-49.667 66.667 -74.5 140.667 -74.5 222c0 73.335 24.333 140.002 73 200c48.667 60.001 115.334 107.168 200.001 141.5c84.667 34.3389 178.334 51.5059 281.001 51.5c99.333 0 187.833 -15.167 265.5 -45.5
s138 -72 181 -125s64.5 -112.167 64.5 -177.5c-0.00195312 -75.333 -25.335 -138.666 -75.999 -189.999c-50.668 -51.334 -127.668 -93.001 -231 -125c126 -45.334 218 -101.001 276 -167.001s87 -143.667 87 -233c0 -82 -25 -155.833 -75 -221.5zM840 1302
c-35.333 47.3359 -83.332 71.001 -143.999 70.998c-38 -0.0107422 -72.333 -9.34375 -103 -28c-30.667 -18.6719 -54.667 -44.3389 -72 -77c-17.333 -32.6699 -26 -70.0029 -26 -111.999c0.000976562 -42.6699 8.16797 -79.0029 24.5 -109
c16.333 -30 40.166 -56.333 71.499 -79c24 -18.001 63.667 -40.668 119 -68l136 -67c14 31.333 25 72 33 122s12 103 12 159c0 77.335 -17 140.002 -51 188.001zM917.001 408.499c-18.667 30.333 -48.001 59.167 -88.001 86.5c-37.334 24 -84.667 48.667 -142 74
c-62 26.668 -117 52.335 -165 77c-22.667 -27.334 -42.167 -67.001 -58.5 -119c-16.333 -52 -24.5 -106.333 -24.5 -163c0 -64.667 10.667 -120.5 32 -167.5c21.334 -47 51.501 -83 90.501 -108s84.167 -37.5 135.5 -37.5c50.667 0 94.667 10.333 132 31s66 49.5 86 86.5
s30 79.5 30 127.5c0 44.667 -9.33301 82.167 -28 112.5z" />
    <glyph glyph-name="nine" unicode="9" horiz-adv-x="1327" 
d="M1113 82c-74 -124 -179.829 -225.168 -317.496 -303.501s-300.834 -129.5 -489.501 -153.5l-23 99l106 18c79.334 22.667 146.334 52.167 201 88.5c54.667 36.333 100 79.5 136 129.5c33.333 46.667 59.666 97.5 78.999 152.5s34.333 114.833 45 179.5
c-57.333 -49.333 -112.333 -82.666 -165 -99.999c-52.667 -17.334 -116.334 -26.001 -191.001 -26.001c-56.667 0 -109.667 11 -159 33s-93.333 53.333 -132 94c-38 40.667 -67.333 89.334 -88 146.001s-31 117.334 -31 182.001c0 92 24.667 175.167 74 249.5
s117.166 132.666 203.499 174.999c86.333 42.3379 182.833 63.5049 289.5 63.501c116 0 217.167 -24.667 303.5 -74s152.833 -119.333 199.5 -210s70 -196.334 70 -317.001c0 -160 -37 -302 -111 -426zM860.004 486.999c0.693359 6 1.02539 18.9961 0.999023 38.9961
c0 160.667 -19 283.334 -57 368.001c-38.667 84.667 -88.667 127 -150 126.999c-40 -0.00195312 -75 -14.6689 -105 -44c-30 -29.333 -53.333 -72.333 -69.999 -129c-16.668 -56.667 -25.001 -124.667 -25 -204c0 -70 8.5 -131.5 25.5 -184.5s41 -93.833 72 -122.499
c31.001 -28.667 66.834 -43 107.5 -43c40.667 0.000976562 77.167 8.16797 109.5 24.501c32.333 16.334 61.833 44.501 88.5 84.501l1 18c0.693359 3.33398 1.02637 14.001 1 32.001c0.0263672 16.667 0.359375 28 1 34z" />
    <glyph glyph-name="colon" unicode=":" horiz-adv-x="752" 
d="M547.5 702c-17.667 -30 -41.6689 -53.833 -72.002 -71.5s-63.166 -26.5 -98.499 -26.5c-35.333 0.00390625 -68.166 8.83691 -98.499 26.5c-30.333 17.667 -54.5 41.334 -72.5 71c-18 29.667 -27 62.167 -27 97.5s9 68 27 98s42.167 54 72.5 72s63.166 27 98.499 27
c35.334 0 68.001 -9 98.001 -27s54 -42 72 -72c18 -30.001 27 -62.668 27 -98c0 -34.667 -8.83301 -67 -26.5 -97zM547.498 69c-17.667 -30 -41.6689 -53.834 -72.002 -71.501s-63.166 -26.5 -98.499 -26.5s-68.166 8.83301 -98.499 26.5s-54.5 41.334 -72.5 71.001
s-27 62.167 -27 97.5s9 68 27 98s42.167 54 72.5 72s63.166 27 98.499 27c35.334 0 68.001 -9 98.001 -27s54 -42 72 -72s27 -62.667 27 -98c0 -34.667 -8.83301 -67 -26.5 -97z" />
    <glyph glyph-name="semicolon" unicode=";" horiz-adv-x="752" 
d="M547.5 702c-17.667 -30 -41.6689 -53.833 -72.002 -71.5s-63.166 -26.5 -98.499 -26.5c-35.333 0.00390625 -68.166 8.83691 -98.499 26.5c-30.333 17.667 -54.5 41.334 -72.5 71c-18 29.667 -27 62.167 -27 97.5s9 68 27 98s42.167 54 72.5 72s63.166 27 98.499 27
c35.334 0 68.001 -9 98.001 -27s54 -42 72 -72c18 -30.001 27 -62.668 27 -98c0 -34.667 -8.83301 -67 -26.5 -97zM532.498 -113.5c-31 -57.667 -73.001 -110.833 -126.001 -159.5s-111.167 -87.334 -174.5 -116.001l-44 71c73.333 37.333 130 79.333 170 126
c26 32 45.333 62.333 58 91s20.334 62.334 23.001 101.001h-56c-67.333 0 -118.5 15.167 -153.5 45.5s-52.5 72.833 -52.5 127.5c0 28 7.66699 54.833 23 80.5s36.333 46.5 63 62.5s55.667 24 87 24c74.667 0 131.5 -25 170.5 -75s58.5 -120.667 58.5 -212
c0 -53.333 -15.5 -108.833 -46.5 -166.5z" />
    <glyph glyph-name="less" unicode="&#x3c;" 
d="M1209 6l-1000 500v139l1000 500v-188l-786 -382l786 -381v-188z" />
    <glyph glyph-name="equal" unicode="=" 
d="M1255 700h-1070v163h1070v-163zM1255 286h-1070v163h1070v-163z" />
    <glyph glyph-name="greater" unicode="&#x3e;" 
d="M1231 506l-1000 -500v188l786 381l-786 382v188l1000 -500v-139z" />
    <glyph glyph-name="question" unicode="?" horiz-adv-x="1123" 
d="M953.5 803c-41.667 -68 -100.663 -122.168 -176.996 -162.501c-76.334 -40.334 -165.167 -64.501 -266.5 -72.5l-6 -136h-89v389c97.333 8 173.166 38.667 227.499 92s81.5 125.333 81.5 216c0 72.667 -19 131 -57 175c-39.334 43.3359 -91.001 65.0029 -155.001 65
c-51.333 0 -96.333 -11.667 -135 -35c24.667 -74 37 -132.667 37 -176c0 -46.668 -15.167 -82.835 -45.5 -108.501c-30.333 -25.667 -72.5 -38.5 -126.5 -38.5c-32.667 0.00390625 -61.334 7.33691 -86.001 22c-24.667 14.667 -43.667 34.667 -57 60s-20 53.333 -20 84
c0 50 20 96 60 138s94.167 75.333 162.5 100s143.166 37 224.499 37c96.667 -0.0078125 182 -17.3408 256 -51.999c74 -34.6689 131.5 -83.3359 172.5 -146c41 -62.668 61.5 -135.001 61.5 -216.999c0 -88 -20.833 -166 -62.5 -234zM629.504 63.499
c-17.667 -28.333 -41.167 -50.835 -70.5 -67.502c-29.334 -16.667 -61.001 -25 -95 -25c-53.333 0 -98.333 18.333 -135 55c-38.667 36 -58 79.333 -58 130c0 34 8.83301 65.333 26.5 94s41.167 51.334 70.5 68.001s61.333 25 96 25c34 0 65.667 -8.5 95 -25.5
s52.833 -39.833 70.5 -68.5c17.6689 -28.667 26.502 -59.667 26.5 -93c0 -33.333 -8.83301 -64.166 -26.5 -92.499z" />
    <glyph glyph-name="at" unicode="@" horiz-adv-x="1980" 
d="M1786.5 966c29 -78.667 43.498 -161.671 43.498 -249.004c0 -110.667 -21.667 -212 -65 -304s-103 -164.667 -179 -218c-76.001 -53.333 -160.334 -80 -252.999 -80c-71.333 0 -131.333 12.333 -180 37c-48.668 24.667 -79.335 56.667 -92 96h-5
c-14.6709 -16.667 -31.5039 -34 -50.5 -52c-19 -18 -36.5 -31.667 -52.5 -41c-23.335 -13.333 -44.168 -22.5 -62.5 -27.5c-18.334 -5 -42.501 -7.5 -72.5 -7.5c-54 0 -100.5 11.667 -139.5 35s-68.833 56.333 -89.5 99s-31 92 -31 148c0 63.334 13.667 129.334 41 198
c27.333 68.667 64 130.334 110 185c47.333 56 102.833 101 166.5 135s129.167 51 196.5 51c44.667 -0.00390625 79.334 -8.1709 104.001 -24.501c24.667 -16.334 42.334 -41.167 53.001 -74.499h2l32 87h257l-201 -555c-5.33301 -14 -10.166 -32.5 -14.499 -55.5
s-6.5 -41.5 -6.5 -55.5c0 -58.667 25 -88 75 -88c69.3369 0 130.17 21.833 182.5 65.5c52.333 43.667 92.833 105.167 121.5 184.5s43 170.333 43 273c0 78.667 -13 150.834 -39 216.5c-26 65.668 -64.667 123.168 -116 172.5c-52 50 -117 89 -195 117s-165.667 42 -263 42
c-94.667 0 -186.667 -18 -276 -54c-89.333 -36.001 -170.333 -88.334 -243 -157c-74 -70 -132.167 -154.167 -174.5 -252.5s-63.5 -205.833 -63.5 -322.5s17 -220.167 51 -310.5s82 -165.5 144 -225.5c60 -60 131.5 -105.5 214.5 -136.5s174.833 -46.5 275.499 -46.5
c215.334 0 395.001 56.667 539.001 170l39 -62c-80.667 -65.333 -168.334 -115.333 -263 -150c-94.667 -34.666 -202 -51.999 -322 -51.999c-106.667 0 -212.834 17.167 -318.501 51.501c-105.667 34.333 -198.167 83.833 -277.5 148.5
c-85.333 68.667 -152.333 153.834 -201 255.501s-73 216.5 -73 344.5c0 116 22.5 227.833 67.5 335.5s109.5 203.834 193.5 288.5c84 84.667 186.5 151.834 307.5 201.501s250.833 74.5 389.499 74.5c234 0 414.667 -68 542 -204c56.667 -59.333 99.5 -128.333 128.5 -207z
M1189 759.996c-0.666992 38.001 -10.1699 68.3359 -28.5029 91.002c-18.333 22.668 -44.166 34.001 -77.499 33.999c-32.001 -0.00195312 -63.668 -14.6689 -95 -44.001c-31.334 -29.334 -59.667 -69.001 -84.999 -119c-24.667 -48.667 -44 -103.5 -58 -164.5
s-21 -121.5 -21 -181.5c0.00292969 -45.333 6.83594 -80 20.499 -104c13.667 -24 34.167 -36 61.5 -36c24.668 0 47.335 6.66699 68.001 20c20.6689 13.333 41.3359 34.333 62.001 63z" />
    <glyph glyph-name="A" unicode="A" horiz-adv-x="1553" 
d="M836 78c50 4.66699 95.8311 12.001 137.497 22.001c41.6699 10 62.5029 22 62.5 36c-0.015625 12 -3.34863 27 -10 45l-121 294h-490c-22 -53.333 -46.333 -118 -72.999 -194c-12.667 -34 -20 -61 -21.999 -81c-2.66895 -13.333 -4.00195 -25 -4 -35
c0 -21.333 16.333 -39.333 49 -54c32 -14.667 85.667 -25.667 161 -33v-78h-582v78c22.667 0.666992 47.834 4 75.501 10s49.167 14 64.5 24c28 16.667 51 36 69 58s34 50 48 84l233 563c60.667 150 127.667 312 201 486l56 136h200
c107.334 -263.333 209.667 -517.333 307 -762c65.333 -166 128.333 -320.667 189 -464c9.33887 -22 20.5059 -40.667 33.5 -56c13 -15.333 31.833 -30.333 56.5 -45c17.3359 -10.667 39.0029 -18.834 65 -24.501c26 -5.66699 48.333 -8.83398 67 -9.5v-78h-773v78z
M863.998 574.001l-206 514l-203 -514h409z" />
    <glyph glyph-name="B" unicode="B" horiz-adv-x="1551" 
d="M1427 538.5c26 -45.667 38.998 -97.165 38.998 -154.498c0 -70.667 -15 -131 -45 -181s-73.667 -89.667 -131 -119s-124.833 -50.666 -202.5 -63.999s-171.5 -20 -281.5 -20h-737v78l78 9c32 4 57.5 10.167 76.5 18.5s32.5 20.166 40.5 35.499
c8.66699 14.667 13 35.667 13 63v1000c0 26.667 -4 47.5 -12 62.5c-8 15.0049 -25.333 28.1719 -52 39.5c-17.333 7.34375 -41.333 14.6768 -72 22l-23 4c-20 4 -36.333 7 -49 9v78h771c190.667 0 329.834 -26.167 417.501 -78.5s131.5 -131.5 131.5 -237.5
c0 -47.333 -9.16699 -89 -27.5 -125s-46.5 -68 -84.5 -96c-62.668 -46.667 -150.335 -83 -263 -109v-19c51.333 -4.66699 105.833 -16.334 163.5 -35.001s105.834 -41.334 144.501 -68.001c44 -29.333 79 -66.833 105 -112.5zM932.498 1263
c-45 43.3359 -111.167 65.0029 -198.5 65c-24 -0.0410156 -40.333 -0.374023 -49 -1c-17.3359 -1.33301 -27.6689 -2 -31 -2c-10.667 -0.0400391 -18 -0.373047 -22 -0.999023v-526h52c106 0 185.167 24.5 237.5 73.5s78.5 117.833 78.5 206.499
c0 80.001 -22.5 141.668 -67.5 185zM981.998 624.002c-58.667 52.667 -142.998 79.001 -252.998 79c-24.002 0 -40.6689 -0.333008 -50 -1l-47 -3v-519c6 -24.667 25 -45.5 57 -62.5s69.667 -25.5 113 -25.5c53.333 0 100.166 12 140.499 36s71.666 59 93.999 105
c22.3369 46 33.5039 100.667 33.5 164c-0.00195312 98.667 -29.335 174.334 -88 227z" />
    <glyph glyph-name="C" unicode="C" horiz-adv-x="1465" 
d="M521 12.5c-90.667 33.667 -169.669 82.5 -237.002 146.5c-67.333 64.667 -119.666 143.167 -156.999 235.5c-37.333 92.334 -56 192.834 -56 301.501c0 109.333 18.833 210.5 56.5 303.5s91.834 174.833 162.501 245.5c68.667 68 150.334 120.333 245.001 157
s196.667 55 306 55c137.334 0 263.667 -31 379 -93l62 55h87l9 -518h-88c-50 158 -110 274 -180 348s-155.333 111 -256 111c-83.334 -0.00292969 -153.667 -24.8359 -211 -74.5c-57.334 -49.668 -100.501 -121.501 -129.501 -215.5c-29 -94 -43.5 -207.333 -43.5 -340
c0 -210 40.333 -370.333 121 -481c75.333 -98 179.333 -147 312 -147c93.333 0 176.5 25.167 249.5 75.5s139.5 127.166 199.5 230.499l86 -52c-30.0029 -61.333 -63.3359 -114.833 -100 -160.5c-36.6719 -45.667 -78.3389 -84.5 -125.001 -116.5
c-54.668 -38 -114.001 -67 -177.999 -87c-64 -20 -138 -30 -222 -30c-104 0 -201.333 16.833 -292 50.5z" />
    <glyph glyph-name="D" unicode="D" horiz-adv-x="1708" 
d="M1560.5 1040c51 -95.333 76.5 -208.668 76.5 -340.001c0 -116 -23.167 -219 -69.5 -309s-110.166 -164.333 -191.499 -223c-78.667 -55.333 -168.667 -97.166 -270 -125.499c-101.334 -28.333 -208.667 -42.5 -322 -42.5h-715v78
c41.333 2.66699 73.166 5.16699 95.499 7.5s38.5 5.83301 48.5 10.5c23.333 9.33301 39.833 22.5 49.5 39.5s14.5 37.833 14.5 62.5v1006c-0.000976562 25.333 -4.83398 46.833 -14.5 64.5c-9.66699 17.667 -26.167 31.5 -49.5 41.5c-22.667 10 -48.167 17.5 -76.5 22.5
s-51.5 7.83301 -69.5 8.5v78h755c91.333 -0.00585938 182 -11.3389 272 -34c90 -22.6709 174.333 -60.0039 253 -112c91.335 -60 162.502 -137.667 213.5 -233zM1214 443.498c15.3477 73 23.0156 158.833 23.002 257.5c0 94.667 -10 180.667 -30 258
c-20.002 77.334 -49.335 143.001 -87.999 197c-39.333 55.333 -87.833 97.833 -145.5 127.5s-122.834 44.5 -195.501 44.5c-40 -0.0410156 -66.333 -0.374023 -79 -1l-45 -2l-22 -1v-1077c0 -25.333 3.16699 -46.833 9.5 -64.5s17.166 -33.5 32.499 -47.5
c14 -14 33 -24.667 57 -32c22 -8 51 -12 87 -12c75.333 0 140.166 14 194.499 42s97.833 69 130.5 123c32.002 52 55.6689 114.5 71 187.5z" />
    <glyph glyph-name="E" unicode="E" horiz-adv-x="1477" 
d="M1251 1057c-12.667 36.002 -32.1621 73.165 -58.4951 111.496c-26.333 38.333 -55.833 71.333 -88.5 99c-32.6689 27.667 -64.002 44.834 -94 51.501c-18.001 4.02051 -40.668 6.6875 -68 8.00098c-27.335 1.37402 -62.002 2.04102 -104.001 2h-206v-548h146
c40 0 74.5 4.66699 103.5 14s55.167 25.666 78.5 48.999c14.6689 14.668 30.002 41.335 46 80.001c16 38.667 26.333 72.667 31 102h76v-592h-76c-4 28.667 -14.5 64.5 -31.5 107.5c-17.002 43 -32.1689 71.5 -45.5 85.5c-21.333 23.333 -46.333 39.666 -75 48.999
s-64.334 14 -107.001 14h-146v-409c0 -44.667 3.16699 -79 9.5 -103s18.166 -42.667 35.499 -56c16 -12 38.167 -20.167 66.5 -24.5s68.5 -6.5 120.5 -6.5c42.668 0 76.001 0.333008 100 1c24.001 0.666992 47.334 2.66699 70 6
c29.335 2.66699 56.168 7.83398 80.499 15.501c24.333 7.66699 41.833 17.167 52.5 28.5c30 31.333 65 79.833 105 145.5s67.333 117.167 82 154.5h73l-27 -442h-1331v78c17.333 0.666992 42.5 3.33398 75.5 8.00098s55.833 9.33398 68.5 14.001
c24.667 11.333 41.5 24.666 50.5 39.999s13.5 36.333 13.5 63v1001c0 26 -4 46.333 -12 61s-25.333 28.334 -52 41.001c-14 6.66699 -35.833 13.5 -65.5 20.5s-55.834 11.833 -78.501 14.5v78h1258v-362h-76z" />
    <glyph glyph-name="F" unicode="F" horiz-adv-x="1375" 
d="M1267 1040c-13.333 38 -33.666 78.0039 -60.999 120.004s-57.333 78 -90 108c-32.6689 30 -63.002 47 -91 51c-16.001 2.66699 -41.668 5 -77 7c-35.335 2 -67.002 3 -95.001 3h-221v-557h141c41.333 0 76.333 4.66699 105 14c28.668 9.33301 54.335 25.333 77.001 48
c16 16 32.167 44 48.5 84c16.333 40.001 25.833 73.334 28.5 99.999h76v-597h-76c-3.33301 30 -13.666 66.5 -30.999 109.5c-17.3379 43 -32.6709 71.5 -46 85.5c-38.001 42 -98.668 63 -182.001 63h-141v-470c0.00488281 -24.667 4.83789 -45.334 14.5 -62.001
c9.66895 -16.667 26.502 -30.334 50.5 -41.001c25.333 -10 71 -19.333 137 -28v-78h-765v78l77 9c31.333 2.66699 56.666 8 75.999 16s33 20 41 36c9.33398 17.333 14.001 38.666 14 63.999v1001c0 25.3379 -4.66699 46.1709 -14 62.499
c-9.33301 16.3379 -26 29.5049 -50 39.5c-17.333 7.34375 -40.833 14.5107 -70.5 21.501c-29.667 7 -54.167 11.5 -73.5 13.5v78h1275v-379h-77z" />
    <glyph glyph-name="G" unicode="G" horiz-adv-x="1653" 
d="M1649 577c-24.667 -2 -44.6709 -4.49902 -60.0039 -7.49902c-15.333 -3.00391 -33.666 -8.1709 -54.999 -15.5c-25.333 -8.66699 -42.833 -22 -52.5 -40c-9.68945 -18 -14.5225 -40 -14.5 -66v-165c0 -44.667 0.333008 -71.334 1 -80.001l3 -76
c-45.333 -27.333 -106.166 -53.833 -182.499 -79.5s-156.833 -46.5 -241.5 -62.5s-161.667 -24 -231 -24c-103.333 0 -200 15.833 -290 47.5s-168.667 78.5 -236 140.5c-69.333 63.333 -123.166 141.5 -161.499 234.5s-57.5 197.167 -57.5 312.5
c0 110.667 18.333 212.834 55 306.5c36.667 93.667 89.667 174.834 159 243.501c68.667 68.001 151.667 120.168 249 156.5c97.333 36.3389 205.333 54.5059 324 54.5c73.333 0 144.5 -9 213.5 -27c69.002 -18 129.169 -40 180.501 -66l62 55h87l9 -518h-88
c-35.333 106.667 -74 193.5 -116 260.5c-42.001 67 -90.334 116.833 -145 149.5c-54.667 32.667 -117.667 49 -189 49c-84.667 0 -157 -25.167 -217 -75.5s-105.667 -122.833 -137 -217.5s-47 -207.334 -47 -338.001c0 -139.334 15.333 -259.001 46 -359.001
s75.334 -176.333 134 -229c58.667 -52.667 129.667 -79 213 -79c55.333 0 106 8.16699 152 24.5s83 37.5 111 63.5v288c0 25.334 -4.66699 46.001 -14 62.001s-26.333 29.667 -51 41c-19.333 8.66895 -40.833 15.502 -64.5 20.5c-23.667 5 -52.167 10.167 -85.5 15.5v78h737
v-78z" />
    <glyph glyph-name="H" unicode="H" horiz-adv-x="1870" 
d="M1034 78l72.999 5.99512c33.3379 4 59.1709 9.66699 77.5 17c18.3379 7.33301 31.5049 19 39.5 35c9.35254 17.333 14.0195 38 14.001 62v489h-606v-478c0.000976562 -50 21.334 -84.333 64 -103c15.333 -6 38.333 -12 69 -18s54.334 -9.33301 71 -10v-78h-767v78
c70.667 4.66699 118.667 11.334 144 20.001c23.333 9.33301 39.833 22.333 49.5 39s14.5 37.667 14.5 63v1004c0 24.667 -4.5 44.834 -13.5 60.501s-25.833 29.167 -50.5 40.5c-16.667 8 -40.5 15.5 -71.5 22.5s-55.167 11.5 -72.5 13.5v78h767v-78
c-16 -0.666992 -39.833 -3.66699 -71.5 -9s-54.5 -10.666 -68.5 -15.999c-24.001 -8.67188 -40.668 -21.5049 -50 -38.5c-9.33789 -17 -14.0049 -38.167 -14 -63.5v-424h606v414c0 24.667 -4.66699 44.834 -14 60.501s-26.333 29.167 -51 40.5
c-17.333 8 -39.333 15.333 -66 22c-26.6689 6.66699 -51.002 11.334 -73 14.001v78h767v-78c-18.0039 -0.666992 -42.3369 -3.66699 -73 -9c-30.6699 -5.33301 -54.3369 -10.666 -71 -15.999c-24 -8.66699 -40.667 -21.667 -50 -39s-14 -38.333 -14 -63v-1005
c0 -25.333 4.83301 -46 14.5 -62s26.167 -29.667 49.5 -41c14.667 -6.66699 38.167 -12.834 70.5 -18.501s56.833 -8.83398 73.5 -9.5v-78h-767v78z" />
    <glyph glyph-name="I" unicode="I" horiz-adv-x="913" 
d="M63 78l80 5.99805c36.667 3.33301 64.334 8.83301 83.001 16.5s32 19.5 40 35.5c8.66699 14.667 13 35.334 13 62.001v1006c0 25.3379 -4.66699 46.0049 -14 62c-9.33301 16 -26 29.333 -50 40c-15.333 6.66699 -37 13.167 -65 19.5c-28 6.35352 -57 11.5205 -87 15.5v78
h787v-78l-75 -8c-36 -4.67676 -64.333 -11.0098 -85 -19c-20.667 -8.00488 -35 -20.3379 -43 -37c-8.66699 -17.333 -13 -38.333 -13 -63v-1005c0 -24.667 5 -45.167 15 -61.5s26.667 -30.166 50 -41.499c12.667 -6 36 -11.667 69.999 -17c30.667 -6 57.667 -9.66699 81 -11
v-78h-787v78z" />
    <glyph glyph-name="J" unicode="J" horiz-adv-x="1219" 
d="M1166 1341c-54.6689 -8 -98.334 -16.0029 -130.998 -24.0029c-25.333 -6.67188 -42.333 -18.5049 -51 -35.5c-8.66699 -17 -13 -39.5 -13 -67.5v-782c-0.00292969 -71.333 -14.1699 -136.833 -42.5 -196.5c-28.334 -59.667 -68.501 -110.5 -120.5 -152.5
c-50 -39.333 -106.833 -69.333 -170.5 -90s-131.834 -31 -204.501 -31c-82.667 0 -155.334 13.667 -218.001 41s-111.334 66.333 -146.001 117s-52 110.334 -52 179.001c0 41.334 8 78.167 24 110.5s38.833 57.833 68.5 76.5s64.5 28 104.5 28c38 0 71.333 -7.66699 100 -23
s50.834 -36.5 66.501 -63.5s23.5 -57.167 23.5 -90.5c0 -38.667 -13 -75.667 -39 -111s-61.667 -71.333 -107 -108v-13c6 -13.333 19 -24.666 39 -33.999s40.333 -14 61 -14c81.333 0 144.5 29.167 189.5 87.5s67.5 144.5 67.5 258.5v801c0 26.667 -4 47.5 -12 62.5
c-8 15.0049 -25.333 28.1719 -52 39.5c-28 12.667 -75.667 24.334 -143 35.001v78h758v-78z" />
    <glyph glyph-name="K" unicode="K" horiz-adv-x="1673" 
d="M1174 0c-70.668 108 -135.335 200.997 -194.001 278.997c-58.667 78 -137.334 178.333 -236.001 301l-60 75h-52v-446c0.00488281 -25.333 4.83789 -46.333 14.5 -63c9.66895 -16.667 26.502 -30 50.5 -40c28.001 -10.667 69.334 -20 124 -28v-78h-754v78l77 6
c34 2.66699 60.333 7.83398 79 15.501s32 19.5 40 35.5c9.33398 17.333 14.001 38.333 14 63v1006c-0.000976562 25.3379 -4.33398 45.6709 -13 60.999c-8.66699 15.3379 -25.667 29.0049 -51 41c-20.667 8.66699 -44.667 16 -72 22s-52 10.333 -74 13v78h779v-78l-74 -8
c-35.333 -4.67676 -63.333 -11.0098 -84 -19c-20.667 -8 -35 -20.667 -43 -38c-8.66699 -17.333 -13 -38 -13 -62v-478h42c60.667 55.333 125.334 116.5 194.001 183.5c68.668 67 118.335 117.5 149.001 151.5c54 60.667 93.333 107.667 118 141
c24.667 34.667 37 64.667 37 90c0 11.3438 -12 20.0107 -36 26.001c-26 6 -62.667 10.333 -110 13v78h617v-78c-78.667 -8 -142.667 -21.667 -192 -41s-98.333 -51 -147 -95c-64 -57.333 -122.667 -112.666 -176 -165.999l-179 -181c48.668 -60 125.668 -155.333 231 -286
c117.334 -147.333 207.001 -257.666 269 -330.999c58 -68 116.333 -114.333 175 -139c30.667 -12.667 68 -20.667 112 -24v-78h-562z" />
    <glyph glyph-name="L" unicode="L" horiz-adv-x="1404" 
d="M69 0l0.000976562 78c30.667 2.66699 60 6 88 10s46.667 8 56 12c23.333 9.33301 39.833 22.166 49.5 38.499s14.5 37.833 14.5 64.5v1001c0 26 -4 46.333 -12 61s-25.333 28.334 -52 41.001c-24 10.667 -48.667 18.334 -74 23.001l-70 12v78h779v-78l-75 -8
c-36.667 -5.33301 -65.167 -11.833 -85.5 -19.5c-20.335 -7.67188 -34.502 -19.8389 -42.501 -36.501c-8.66699 -17.333 -13 -38.333 -13 -63v-933c0 -46 3.16699 -81.333 9.5 -106s17.833 -42.667 34.5 -54c16 -12 39 -20 69 -24s74 -6 132 -6
c65.333 0 120.5 3.5 165.5 10.5s77.833 20.5 98.5 40.5c32 32 66.333 78.833 103 140.5s65.667 119.167 87 172.5h73l-28 -455h-1307z" />
    <glyph glyph-name="M" unicode="M" horiz-adv-x="2096" 
d="M1250 78c80 7.33301 130.332 15.6631 150.999 24.9961c24 9.33301 41.5 22.666 52.5 39.999s16.5 39.666 16.5 66.999v1060l-488 -1247h-126c-4.66699 16.667 -19.334 60.334 -44.001 131.001l-23 64c-28.667 78 -40.334 109 -35.001 93l-359 975v-863
c0.000976562 -80 5.66797 -142.667 17.001 -188c7.33398 -29.333 16.501 -52 27.5 -68c11 -16 25.167 -28.667 42.5 -38s41.666 -19 72.999 -29c39.333 -12.667 69.333 -20 90 -22v-78h-610v78c28 3.33301 58.833 9 92.5 17s60.834 19 81.501 33
c26.667 18.667 44.667 50.334 54 95.001c9.33398 46.667 14.001 109.667 14 189v703c0 42.667 -5.16699 77.834 -15.5 105.501s-26.5 50.5 -48.5 68.5c-24 18.667 -49 31.334 -75 38.001s-56.667 11.334 -92 14.001v78h653l350 -937l295 761
c10.667 29.333 20.5 62.833 29.5 100.5s13.833 62.834 14.5 75.501h629v-78c-19.333 -0.708008 -42 -3.375 -68 -8.00098c-26 -4.67676 -48 -10.0098 -66 -16c-24 -8.67188 -40.667 -21.5049 -50 -38.5c-9.33301 -17 -14 -38.5 -14 -64.5v-1005
c0 -26 4.5 -46.833 13.5 -62.5s25.833 -29.167 50.5 -40.5c16.667 -7.33301 42.834 -13.666 78.501 -18.999s54.834 -8.33301 57.501 -9v-78h-769v78z" />
    <glyph glyph-name="N" unicode="N" horiz-adv-x="1719" 
d="M1699 1341l-57 -7.99707l-23 -3c-80 -10.668 -128.667 -54.335 -146 -131c-10.6777 -42.002 -16.0107 -106.335 -16 -193v-1014h-178l-884 1097v-666c0.000976562 -80 5.66797 -142.667 17.001 -188c7.33496 -28.667 16.668 -51.334 28 -68.001
c11.334 -16.667 25.501 -29.834 42.501 -39.501c17.001 -9.66699 39.834 -18.5 68.5 -26.5c43.333 -12 74.666 -19.667 93.999 -23v-78h-610v78c31.333 2.66699 62.666 8 93.999 16s58 19.333 80 34c26 19.333 44 48.666 54 87.999c9.33398 42.667 14.001 108 14 196v672
c0 34.667 -5.5 67 -16.5 97c-11 30.002 -26.833 54.6689 -47.5 74c-42 42 -103.333 70 -184 84v80h534l776 -960v537c0 83.334 -5.66699 147.001 -17 191c-10.667 39.333 -26.667 68.333 -48 87s-52 33.667 -92 45c-32.6689 9.33887 -63.3359 16.6719 -92 22v78h609v-78z
" />
    <glyph glyph-name="O" unicode="O" horiz-adv-x="1679" 
d="M1548.5 1025c39.667 -90.667 59.498 -192.667 59.498 -306c0 -104.667 -17.5 -203.5 -52.5 -296.5c-35.001 -93 -84.834 -172.833 -149.499 -239.5c-71.333 -72.667 -153.333 -127.834 -246 -165.501c-92.668 -37.667 -201.668 -56.5 -327 -56.5c-104 0 -202 17 -294 51
s-172.667 83.333 -242 148c-70.667 66 -126 144.333 -166 235s-60 190.334 -60 299.001c0 114 19.333 218.167 58 312.5c38.667 94.334 93.667 176.167 165 245.5c69.333 66.667 151.166 117.667 245.499 153c94.333 35.3389 194.5 53.0059 300.5 53
c106 0 205.333 -17.167 298 -51.5s173.334 -82.833 242.001 -145.5c72.667 -66.6689 128.834 -145.336 168.501 -236zM1188 451.5c13.3428 76.333 20.0098 163.167 20.001 260.5c0 85.333 -6.16699 166.5 -18.5 243.5s-31.833 144.833 -58.5 203.5
c-63.333 134 -160.333 201 -291 201c-79.334 0 -146.501 -25.667 -201.501 -77c-55.001 -51.333 -96.668 -126 -125.001 -224s-42.5 -216.333 -42.5 -355c0 -188.667 28.333 -341 85 -457c63.333 -125.333 158 -188 284 -188c64.667 0 120.834 16.333 168.5 49
c47.667 32.667 85.834 78.667 114.501 138c30.002 60.667 51.6689 129.167 65 205.5z" />
    <glyph glyph-name="P" unicode="P" horiz-adv-x="1436" 
d="M1351 859c-32 -58 -78 -105.332 -138 -141.999c-59.333 -36.667 -126.666 -63.5 -201.999 -80.5c-75.334 -17 -163.001 -25.5 -263.001 -25.5h-116v-399c0.00488281 -25.333 4.83789 -46.5 14.5 -63.5c9.66895 -17 26.502 -30.833 50.5 -41.5
c14 -5.33301 35.667 -11 65 -17s54.666 -10 75.999 -12v-78h-769v78l77 9c61.333 5.33301 101 22.666 119 51.999c8 15.333 12 36.666 12 63.999v1001c0 26.0049 -4.5 47.1719 -13.5 63.501c-9 16.3379 -25.833 29.5049 -50.5 39.5
c-16.667 6.66699 -39.834 13.5 -69.501 20.5s-54.5 11.5 -74.5 13.5v78h783c184.001 0 321.168 -29.167 411.501 -87.5c90.335 -58.333 135.502 -147.5 135.501 -267.5c0 -78.667 -16 -147 -48 -205zM981 1192c-18.667 46.002 -49.5 80.168 -92.5 102.499
c-43 22.3389 -100.833 33.5059 -173.5 33.501h-83v-623h42c223.333 0 335 102.667 335 308c0 73.334 -9.33301 133.001 -28 179z" />
    <glyph glyph-name="Q" unicode="Q" horiz-adv-x="1679" 
d="M1548.5 1025c39.667 -90.667 59.4951 -192.668 59.4951 -306.001c0 -109.333 -18.5 -210.5 -55.5 -303.5s-91 -173.833 -162 -242.5s-156.167 -121 -255.5 -157c1.33301 -52 12.833 -100.5 34.5 -145.5s50.334 -80.833 86.001 -107.5
c35.667 -26.666 73.834 -39.999 114.501 -39.999c65.333 -0.000976562 125.333 7.66602 180 23v-88c-42.668 -18 -101.835 -34.667 -177.5 -50c-75.667 -15.333 -151.167 -23 -226.5 -23s-141.666 15 -198.999 45s-103.333 73.5 -138 130.5s-55 125.5 -61 205.5
c-94 8.66699 -181.833 31.667 -263.5 69s-153.5 88 -215.5 152c-63.333 65.333 -112.166 140.833 -146.499 226.5s-51.5 179.167 -51.5 280.5c0 114 19.333 218.167 58 312.5c38.667 94.334 93.667 176.167 165 245.5c69.333 66.667 151.166 117.667 245.499 153
c94.333 35.3389 194.5 53.0059 300.5 53c106 0 205.333 -17.167 298 -51.5s173.334 -82.833 242.001 -145.5c72.667 -66.6689 128.834 -145.336 168.501 -236zM1188 451.499c13.3428 76.333 20.0088 163.167 20 260.5c0 85.333 -6.16699 166.5 -18.5 243.5
s-31.833 144.833 -58.5 203.5c-63.333 134 -160.333 201 -291 201c-79.334 0 -146.501 -25.667 -201.501 -77s-96.667 -126 -125 -224s-42.5 -216.333 -42.5 -355c0 -188.667 28.333 -341 85 -457c63.333 -125.333 158 -188 284 -188c64.667 0 120.834 16.333 168.5 49
c47.667 32.667 85.834 78.667 114.501 138c30.002 60.667 51.6689 129.167 65 205.5z" />
    <glyph glyph-name="R" unicode="R" horiz-adv-x="1633" 
d="M1154 0c-92.668 142.667 -171.67 258.332 -237.002 346.999c-65.334 88.667 -142.001 186.334 -230.001 293.001h-55v-431c0.00488281 -24.667 4.83789 -45.334 14.5 -62.001c9.66895 -16.667 26.502 -30.334 50.5 -41.001c16 -6 36.5 -11.667 61.5 -17s47.5 -9 67.5 -11
v-78h-757v78l77 9c62.667 5.33301 102 23.333 118 54c8.66699 14.667 13 35.334 13 62.001v1001c0 26.667 -4 47.5 -12 62.5c-8 15.0049 -25.333 28.1719 -52 39.5c-18 8 -38.167 14.5 -60.5 19.5c-22.333 5.02051 -50.166 10.1875 -83.499 15.501v78h796
c178.667 0 314 -28 406 -84s138 -140 138 -252c0 -98.667 -28 -178.167 -84 -238.5c-56.001 -60.333 -143.334 -107.833 -262 -142.5c88.001 -114.667 203.668 -261.667 347.001 -441c26.667 -33.333 55 -65 85 -95c34.667 -38 66 -61.333 94 -70
c15.3398 -5.33301 35.0068 -9.33301 59.001 -12l50 -6v-78h-544zM710.998 1328l-79 0.000976562v-594h76c100 0 176.5 26.167 229.5 78.5s79.5 133.166 79.5 242.499c0 182 -102 273 -306 273z" />
    <glyph glyph-name="S" unicode="S" horiz-adv-x="1329" 
d="M430 -8c-74.667 20 -141.002 46 -199.002 78l-69 -70h-85l-13 513h86c20.667 -52 46.167 -104.5 76.5 -157.5s64.166 -100.167 101.499 -141.5c44.667 -48.667 92 -86 142 -112s107 -39 171 -39c58.667 0 109.167 10 151.5 30s74.5 47.667 96.5 83s33 75.666 33 120.999
c0 55.333 -20.5 102 -61.5 140s-104.5 70.333 -190.5 97l-154 50c-54 17.333 -98.333 33 -133 47c-93.333 37.333 -163.666 90.833 -210.999 160.5s-71 149.5 -71 239.499c0 56.001 11.833 109.168 35.5 159.5c23.667 50.335 58.834 96.168 105.501 137.5
c45.333 39.3359 102.666 70.6689 171.999 94c69.334 23.3389 143.001 35.0059 221.001 35c70.667 -0.0107422 140.5 -9.84375 209.499 -29.499c69 -19.6689 126.833 -42.502 173.499 -68.499l61 60h87l8 -484h-86c-50 130 -102 228.333 -156 295
c-35.334 41.333 -74.167 72.833 -116.499 94.5c-42.334 21.667 -91.167 32.5 -146.5 32.5c-47.334 -0.0107422 -89.667 -9.34375 -127 -28c-37.333 -18.6689 -66.333 -44.002 -87 -75.999c-20.667 -32 -31 -68 -30.999 -108c0 -56.001 19.5 -102.334 58.5 -139
c39 -36.667 101.167 -68.334 186.5 -95.001l21 -7c19.333 -6.66699 43.333 -14.667 72 -24l32 -10l26 -9c56.668 -18.667 102.335 -34.667 137.001 -48c96.001 -37.334 169.668 -88.667 221 -154c50 -66 75 -147.667 75 -245c0 -61.333 -14.5 -121 -43.5 -179
s-67.5 -105.333 -115.5 -142c-109.334 -87.333 -252.667 -131 -430 -131c-81.334 0 -159.334 10 -234 30z" />
    <glyph glyph-name="T" unicode="T" horiz-adv-x="1401" 
d="M1311 1013c-14.0049 42 -34.3379 86.498 -61 133.498c-26.6689 47 -54.8359 87 -84.5 120c-29.6689 33 -56.502 50.833 -80.5 53.5c-18 2.04004 -43.667 4.20703 -77 6.5c-33.334 2.37402 -61.001 3.54102 -83 3.5h-47v-1113c0 -26.667 4.66699 -48.5 14 -65.5
s26 -30.833 50 -41.5c27.333 -11.333 78.666 -22 153.999 -32v-78h-791v78l82 9c33.334 2.66699 60.167 8.33398 80.5 17.001c20.334 8.66699 34.501 21.667 42.501 39c8.67285 16.667 13.0059 38 13 64v1123h-47c-21.333 0 -49 -1.16699 -83 -3.5s-59.667 -4.5 -77 -6.5
c-24 -2.66895 -50.833 -20.3359 -80.5 -53c-29.667 -32.6699 -57.667 -72.5029 -84 -119.499c-26.333 -47.001 -46.833 -91.834 -61.5 -134.5h-77v406h1375v-406h-77z" />
    <glyph glyph-name="U" unicode="U" horiz-adv-x="1707" 
d="M1703 1341c-34.667 -4.01074 -66.6699 -9.34766 -96.0029 -16.0039c-29.333 -6.67188 -55.666 -18.0049 -78.999 -34c-25.333 -17.333 -43 -47.333 -53 -90c-10.6777 -40.667 -16.0107 -105.667 -16 -195v-528c-0.00292969 -102 -23.8359 -192.167 -71.5 -270.5
c-47.6689 -78.333 -115.002 -139 -202 -182c-87 -43 -187.833 -64.5 -302.5 -64.5c-133.334 0 -247.667 20.5 -343 61.5s-167.833 100.333 -217.5 178s-74.5 170.834 -74.5 279.501v726c0 24.667 -4.66699 45.167 -14 61.5s-26.333 30.833 -51 43.5
c-14.667 7.34375 -34.834 14.0107 -60.501 20.001c-25.667 6 -47.5 10 -65.5 12v76h744v-76c-16 -0.707031 -36 -3.04004 -60 -6.99902c-24 -4 -48 -9.66699 -72 -17c-24.002 -7.33301 -40.6689 -19.666 -50 -36.999c-9.33984 -17.333 -14.0068 -39.333 -14 -66v-716
c0 -138 30.5 -239.667 91.5 -305s151.5 -98 271.5 -98c117.334 0 208.667 35.833 274 107.5c65.3359 71.667 98.0029 175.167 98.001 310.5v481c0 82.667 -5.66699 146.667 -17 192c-8 28 -17.5 50 -28.5 66c-11.0068 16.0049 -25.3398 28.6719 -42.999 38
c-17.6689 9.33301 -41.8359 18.333 -72.5 27c-36.002 10 -66.335 17.333 -90.999 22v78h615v-78z" />
    <glyph glyph-name="V" unicode="V" horiz-adv-x="1561" 
d="M1602 1339c-46.6729 -4.00488 -88.3398 -17.3359 -125.001 -39.998c-28.0029 -16.0078 -49.8359 -33.3408 -65.5 -52c-15.6719 -18.6719 -31.5049 -45.3389 -47.5 -80.001c-21.333 -46 -50.333 -113 -87 -201c-32 -78 -61 -146.667 -87 -206l-41 -96
c-43.333 -101.334 -89.333 -212.334 -138 -333l-39 -95l-104 -252h-201c-73.334 180.667 -158.834 389.5 -256.5 626.5c-97.667 237 -175.167 424.5 -232.5 562.5c-15.333 33.3379 -30 58.6709 -44 75.999c-14 15.3359 -34.667 31.1689 -62 47.5
c-27.333 16.333 -49.666 26.833 -66.999 31.5c-13.333 4.66699 -36.333 9 -69 13v78h769v-76c-72 -8.66699 -120.667 -17.667 -146 -27c-26 -10.0049 -39 -22.3379 -39 -37c0.0078125 -7.33301 1.34082 -15.833 4 -25.5c2.6709 -9.66699 6.00391 -20.167 10 -31.5
c16 -46.667 54.667 -142.334 116 -287c56 -133.333 139 -336.333 249 -609l168 421l118 304c38.667 102.001 58 169.668 58 203c-0.00488281 21.333 -15.3379 39.333 -46 54c-32 14 -88.667 24.333 -170 31v80h575v-80z" />
    <glyph glyph-name="W" unicode="W" horiz-adv-x="2307" 
d="M2345 1339c-20 -2.03027 -41.3301 -6.86719 -63.9971 -14.5029c-22.667 -7.66699 -42.334 -16.167 -59.001 -25.5c-27.3496 -15.333 -47.6826 -32.5 -60.999 -51.5c-13.3496 -19.002 -26.6826 -45.835 -40 -80.499c-20.667 -56 -77 -218.333 -169 -487l-239 -696h-201
l-375 1055l-338 -1055h-201l-33 97l-8 22c-13.333 37.333 -23.333 66.333 -30 87l-185 543l-150 440c-12.667 34 -25.834 58.833 -39.501 74.5s-35.5 33.5 -65.5 53.5c-16.667 11.333 -36.5 20.333 -59.5 27s-45.833 11 -68.5 13v78h757v-76
c-44.667 -4.66699 -78 -9.66699 -100 -15c-18 -4.00977 -35.333 -9.34277 -52 -15.999c-17.3369 -6.66699 -26.0039 -17.667 -26.001 -33c0.0078125 -10.667 1.34082 -19.667 3.99902 -27l7 -30c22.668 -72 55.001 -170.667 97 -296l180 -541l323 1034h212l375 -1066
c63.335 194 107.668 334 133 420c31.3408 104.667 50.0078 167.667 56 189l27 90l9 31c14 53.333 23.333 90.333 28 111s7 40.667 7 60c-0.015625 13.333 -6.34863 25.333 -19 36c-12.6699 10.667 -30.3369 19.334 -53 26.001c-18.667 6 -42.667 11 -72 15l-78 8v80h571v-80
z" />
    <glyph glyph-name="X" unicode="X" horiz-adv-x="1656" 
d="M794 78c82 4.66699 135.337 12.002 160.003 22.002c24 9.33301 36 22 36 38c0 9.33301 -3.83301 22.333 -11.5 39s-20.167 39.334 -37.5 68.001c-31.333 52 -62.333 101.333 -93 148l-122 182c-140 -162 -228.667 -269.667 -266 -323c-38 -52.667 -57 -88 -57 -106
c0 -10 1.83301 -18.167 5.5 -24.5s11.167 -12.166 22.5 -17.499c18.667 -10.667 61.667 -19.334 129 -26.001v-78h-551v78c27.333 2 48.833 4.66699 64.5 8s33.834 9.33301 54.501 18c35.333 16.667 67.666 37.834 96.999 63.501s62.333 59.5 99 101.5l158 179l133 153
c26.668 32 44.001 52 52 60c-40.667 62 -102 152 -184 270l-156 223c-21.333 31.334 -48.666 62.667 -81.999 93.999c-33.333 31.3379 -65.666 52.6709 -96.999 63.999c-22 8.66699 -42.333 15.167 -61 19.5c-18.667 4.35352 -43.334 7.52051 -74.001 9.5v78h867v-78
c-67.334 -3.33301 -117.001 -9.33301 -149.001 -18c-32.667 -8.66699 -49 -22.667 -49 -42c0.00488281 -10.6768 3.33789 -22.3438 9.99902 -35.001c6.00098 -14.6709 18.334 -37.3379 36.999 -68c16 -26.667 41 -65.667 75 -117l13 -21l101 -154
c122 144.667 201.333 242.667 238 294c32 45.333 48 76.333 48 93c-0.0136719 19.3379 -9.34668 34.0049 -28 44c-18.668 8.66699 -62.335 16.667 -131.001 24v78h553v-78c-25.333 -1.33301 -46.5 -4 -63.5 -8s-35.5 -10 -55.5 -18
c-37.333 -17.333 -69.833 -38.5 -97.5 -63.5c-27.6709 -25.0039 -60.5039 -58.8369 -98.5 -101.5l-141 -159l-166 -190c92 -138 161 -239.667 207 -305l128 -182l35 -49c20 -32.667 46.5 -64.334 79.5 -95.001c33.0039 -30.667 65.1709 -52 96.5 -64
c21.3389 -8 42.0059 -14.167 62 -18.5c20 -4.33301 45 -7.5 75 -9.5v-78h-865v78z" />
    <glyph glyph-name="Y" unicode="Y" horiz-adv-x="1499" 
d="M1567 1341c-27.333 -4.03027 -50.6709 -8.8584 -70.0039 -14.4941c-19.333 -5.67676 -37 -13.5098 -53 -23.5c-26.6689 -14.6768 -51.002 -33.8438 -72.999 -57.501c-22 -23.668 -45 -52.835 -69 -87.501c-6.67676 -10.6758 -12.0098 -18.3428 -16 -23.001
c-60.667 -92 -100.667 -153 -120 -183l-156 -246c-26.002 -40 -44.1689 -71.333 -54.5 -94c-10.3369 -22.667 -17.1699 -47.334 -20.5 -74.001c-3.34766 -26.667 -5.01465 -66.667 -5 -120v-201c0 -52.667 21.667 -88.334 65 -107.001
c10.667 -4.66699 35.334 -11 74.001 -19s65 -12.333 79 -13v-78h-791v78c18 0.666992 44.667 3.33398 80 8.00098c35.334 4.66699 60.001 9.33398 74.001 14.001c24.668 11.333 41.501 25.166 50.499 41.499c9 16.333 13.5 38.166 13.5 65.499v250
c0 29.334 -0.5 51.001 -1.5 65.001c-1.0127 14 -3.17969 25.667 -6.5 35c-4 10.668 -12 27.001 -24 48.999l-44 76c-40 71.333 -89.667 156.666 -149 255.999l-103 171l-34 56c-21.333 35.3369 -43.166 64.0039 -65.499 86c-22.333 22 -46.833 41 -73.5 57
c-16.667 9.34375 -38.5 17.0107 -65.5 23.001c-27 6 -50.167 9.33301 -69.5 10v78h813v-78c-74.667 -2 -125 -7 -151 -15c-26 -8.67676 -39 -20.3438 -39 -35c0 -7.33301 5 -22 15 -44c8.66699 -22 25.667 -56 51 -102c34 -63.333 68.5 -125.333 103.5 -186
s86.167 -147.334 153.5 -260.001c124.667 196.667 211.667 337 261 421c47.3359 79.334 71.0029 128.001 71.001 146c0 22.667 -13.667 40 -41 52c-27.333 12.0098 -72.333 19.6768 -135 23v78h526v-78z" />
    <glyph glyph-name="Z" unicode="Z" horiz-adv-x="1412" 
d="M17 0l0.00292969 61l917 1266h-311c-60.667 -0.0400391 -105.334 -1.87305 -134.001 -5.49902c-28.667 -3.66699 -56 -11.167 -82 -22.5c-28.667 -11.333 -60.334 -39.333 -95.001 -84c-32.667 -42.002 -79 -118.335 -139 -229h-81l44 433h1234v-61l-917 -1266h357
c108 0 184.333 4.66699 228.999 14c40 9.33301 69.333 25.333 88 48c35.333 42.667 70.333 93.167 105 151.5s64.667 116.166 90 173.499h75l-48 -479h-1332z" />
    <glyph glyph-name="bracketleft" unicode="[" horiz-adv-x="915" 
d="M847 -310h-662v1829h662v-99h-347v-1630h347v-100z" />
    <glyph glyph-name="backslash" unicode="\" horiz-adv-x="966" 
d="M939 -424h-180l-691 1947h182z" />
    <glyph glyph-name="bracketright" unicode="]" horiz-adv-x="915" 
d="M731 -310h-662v100h347v1630h-347v99h662v-1829z" />
    <glyph glyph-name="asciicircum" unicode="^" 
d="M1233 760h-196l-317 513l-317 -513h-194l442 696h140z" />
    <glyph glyph-name="underscore" unicode="_" 
d="M1445 -302h-1450v122h1450v-122z" />
    <glyph glyph-name="grave" unicode="`" horiz-adv-x="1024" 
d="M699 1101c-122.667 73.335 -206.002 121.666 -250.002 144.998c-55.333 28 -103.666 56.333 -144.999 85c-33.333 22.667 -56 42.334 -68 59.001s-18 40 -18 70c0 24.0059 12.667 44.6729 38 62.001c25.333 17.3447 54.333 26.0117 87 26
c28.667 0 52.167 -2.66699 70.5 -8s35.833 -15.333 52.5 -30s35.334 -36.667 56.001 -66c74 -107.333 147 -209 219 -305z" />
    <glyph glyph-name="a" unicode="a" horiz-adv-x="1220" 
d="M1201 21c-28.668 -13.333 -63.8359 -25.1631 -105.501 -35.4961c-41.6699 -10.333 -83.5029 -15.5 -125.5 -15.5c-79.333 0 -138.833 11.667 -178.5 35s-66.834 58.666 -81.501 105.999h-6c-25.334 -25.333 -48.001 -45.666 -68 -60.999
c-20.001 -15.333 -41.668 -28 -65.001 -38c-32 -16 -62.333 -27.167 -90.999 -33.5c-28.667 -6.33301 -69 -9.5 -121 -9.5c-51.333 0 -98.333 10.333 -141 31s-76.5 50 -101.5 88s-37.5 81.667 -37.5 131c0 42 5.83301 78.5 17.5 109.5s28.834 58.167 51.501 81.5
c18.667 20 40 36.667 64 50s54.667 27.333 92 42c60 22 132 45 216 69c84.667 23.333 146 44.333 184 63v96c-0.0107422 24 -1.67773 48.5 -5 73.5c-3.33887 25 -8.67188 45.5 -16 61.5c-9.33301 22.6689 -24.333 41.002 -45 54.999c-20.667 14 -46.667 21 -78 21
c-26 0 -49.333 -3.83301 -69.999 -11.5c-20.667 -7.66699 -37.667 -16.5 -51 -26.5c1.33398 -10.667 7.00098 -31 17 -61c9.33496 -29.335 14.002 -55.668 14 -79c0 -12 -3.16699 -26.5 -9.5 -43.5c-6.33301 -17.001 -14.833 -30.168 -25.5 -39.5
c-18 -15.335 -36.5 -26.168 -55.5 -32.5c-19 -6.33789 -46.833 -9.50488 -83.499 -9.5c-54.667 0 -96.667 13.167 -126 39.5s-44 61.833 -44 106.5c0 35.333 14.167 68.166 42.5 98.499s65.166 55.5 110.499 75.5c42.667 20 90.5 35.5 143.5 46.5s104.167 16.5 153.5 16.5
c70 0 131.667 -4.33301 185 -13s99.666 -24 138.999 -46c42.667 -23.333 75.834 -57.833 99.5 -103.5c23.6689 -45.667 35.502 -102.834 35.5 -171.501c-0.03125 -98 -1.36426 -187.333 -3.99902 -268l-2 -78l-3 -126c0 -29.333 4.5 -52.833 13.5 -70.5
s22.833 -30.834 41.5 -39.501c15.333 -7.33301 55.333 -11 120 -11v-73zM703.999 542.003c-96.667 -34 -163.668 -65.667 -201.001 -95c-52.667 -40 -79 -98 -79 -174c0 -49.333 11.333 -86.333 34 -111s52.334 -37 89.001 -37c32.667 0 61.167 7 85.5 21s46.833 33 67.5 57
z" />
    <glyph glyph-name="b" unicode="b" horiz-adv-x="1322" 
d="M1183.5 222c-45 -79.333 -107.497 -141.501 -187.497 -186.501s-170 -67.5 -270 -67.5c-54.667 0 -103.834 4 -147.501 12s-80.834 18.333 -111.501 31c-31.333 12.667 -55.666 25.334 -72.999 38.001c-16.667 10.667 -31.334 20.667 -44 30l-143 -130l-59 23l9 159
c2 57.333 3 134 3 230v936c0 25.3359 -5.33301 49.0029 -16 71c-10.667 22 -24.334 38.333 -41.001 49c-13.333 8.01074 -32.5 15.1777 -57.5 21.5c-25 6.33301 -46.833 9.83301 -65.5 10.5v73l494 26l15 -16v-650h6c95.333 91.333 196.666 137 303.999 137
c92 0 172 -21.5 240 -64.5s120.333 -104.333 157 -184s55 -173.5 55 -281.5c0 -98.667 -22.5 -187.667 -67.5 -267zM880.003 625.999c-8.00195 47.333 -20.666 88 -37.998 122c-40 79.333 -100 119 -180 119c-38.667 0 -71.667 -6.33301 -99 -19
c-27.334 -12.667 -52.001 -32.667 -74.001 -60v-582c4 -14 11.833 -31.833 23.5 -53.5c11.668 -21.667 22.501 -38.167 32.5 -49.5c17.333 -18 35.333 -31.333 54 -40s43 -13 72.999 -13c45.333 0 84.5 16.833 117.5 50.5c33.001 33.667 58.334 82.5 76 146.5
c17.6699 64 26.5029 140.667 26.5 230c0 52 -4 101.667 -12 149z" />
    <glyph glyph-name="c" unicode="c" horiz-adv-x="1088" 
d="M384.5 8c-71.667 26.667 -130.499 63.667 -176.499 111c-45.333 46 -79.5 101.333 -102.5 166s-34.5 135.667 -34.5 213c0 68.667 13.5 134.167 40.5 196.5s64.833 117.833 113.5 166.5c50.667 50.668 112 90.001 184 118c72 28 151 42 237 42
c81.333 0 152 -10.5 212 -31.5s106 -50.833 138 -89.5s48 -84 48 -136c0 -106.667 -56.333 -160 -169 -160c-33.333 0 -63.333 5.5 -90 16.5c-26.667 11.002 -47.667 26.335 -63 46c-15.3369 19.667 -23.0039 42.167 -23 67.5c0.00292969 34.667 5.33594 67 16 96.999
c10.6699 30.001 17.0029 54.334 19 73c-6.66699 12 -16.167 21.167 -28.5 27.5s-29.833 9.5 -52.5 9.5c-31.335 0 -59.168 -7.33301 -83.5 -22c-24.333 -14.667 -46.833 -39 -67.5 -73c-21.333 -33.333 -38 -78.333 -50 -135s-18 -123.667 -18 -201
c0 -76.667 12.667 -145.167 38 -205.5c25.334 -60.333 59.501 -107.166 102.501 -140.499s90.5 -50 142.5 -50c70 0 127.333 15.667 171.999 47c44.668 31.333 85.001 79 121 143l75 -52c-22.667 -43.333 -48.167 -81.5 -76.5 -114.5s-61.833 -61.833 -100.5 -86.5
c-44.667 -28.667 -88.334 -49.667 -131.001 -63s-92 -20 -148 -20c-91.334 0 -172.834 13.333 -244.5 40z" />
    <glyph glyph-name="d" unicode="d" horiz-adv-x="1358" 
d="M843 6l0.000976562 91.9951l-7 2c-35.334 -37.333 -80.501 -68.666 -135.501 -93.999s-110.167 -38 -165.5 -38c-88.667 0 -168.334 22.833 -239.001 68.5s-125.834 109.334 -165.501 191.001s-59.5 174.5 -59.5 278.5c0 92.667 22.333 178.167 67 256.5
s105.334 140.666 182.001 186.999s160.667 69.5 252 69.5c52 0 102.5 -6 151.5 -18c49 -12.002 88.167 -26.6689 117.5 -44v327c-0.00683594 24.0029 -5.17383 47.1699 -15.501 69.501c-10.335 22.3389 -23.502 39.1719 -39.5 50.5
c-18.667 12.667 -41.667 22.334 -69 29.001s-61.333 12 -102 16v73l540 26l15 -16v-1311c0 -26 4.33301 -47.667 13 -65s22 -30.666 40 -39.999c12 -6 27.333 -10.5 46 -13.5s35.834 -5 51.501 -6s25.834 -1.83301 30.501 -2.49902v-73l-493 -29zM841.001 763.995
c-7.33789 21.333 -15.002 40.333 -22.9971 57c-8 16.668 -18.333 32.335 -31 47c-13.3359 14.667 -31.5029 27.167 -54.501 37.5c-23 10.333 -47.833 15.5 -74.5 15.5c-44 0 -83.333 -17 -118 -51s-61.667 -83.5 -81 -148.5s-29 -142.5 -29 -232.5
c0 -56.667 3.83301 -106 11.5 -148s21.167 -80.333 40.5 -115c41.333 -75.333 102.666 -113 183.999 -113c38.667 0 71 7 96.999 21c26 14 52 35.667 78 65v565z" />
    <glyph glyph-name="e" unicode="e" horiz-adv-x="1171" 
d="M1133 239c-50.667 -82.667 -116.333 -147.331 -196.999 -193.998c-41.333 -23.333 -86.333 -42.666 -135 -57.999c-44 -12.667 -96.667 -19 -158 -19c-185.333 0 -329.666 51.667 -432.999 155c-45.333 45.333 -79.833 100.666 -103.5 165.999
s-35.5 135.666 -35.5 210.999c0 66.667 12.667 131.5 38 194.5s60.666 118.833 105.999 167.499c46.667 48.668 105 87.335 175 116c70 28.6689 146 43.002 228 43c90.667 0 166.5 -11 227.499 -33c61 -22.001 111.5 -53.668 151.5 -95c36.667 -36.667 64 -80.667 82 -132
s27 -106.333 27 -165v-65h-676c0 -139.333 26.833 -244 80.5 -314s136.834 -105 249.5 -105c60.667 0 116.334 16.5 167 49.5c50.667 33 94 77.167 130 132.5zM751.001 619.003c-0.0117188 44 -2.17871 86.167 -6.50098 126.5c-4.33594 40.333 -11.1689 73.5 -20.499 99.5
c-22 63.333 -62.333 95 -121 95c-52 0 -93 -26.5 -123 -79.5s-46.667 -134.833 -50 -245.5z" />
    <glyph glyph-name="f" unicode="f" horiz-adv-x="1000" 
d="M995.5 1322.5c-5.66699 -19.667 -14.1641 -36.1758 -25.4971 -49.5088c-14 -17.333 -30 -30.166 -48 -38.499c-18.001 -8.33301 -43.668 -12.5 -77 -12.5c-34.667 0 -64 8 -88 24c-24 16.0029 -46 40.6699 -66 74.001c-20 33.335 -42 80.002 -66 140.001
c-26.667 -11.333 -48.334 -40.666 -65.001 -87.999c-16.667 -45.333 -25 -147 -25 -305v-79h276v-108h-274v-689c0 -24.667 5.5 -44.167 16.5 -58.5s27.167 -25.5 48.5 -33.5c15.333 -5.33301 36.833 -10.666 64.5 -15.999s50.5 -8.66602 68.499 -9.99902v-73h-675v73
c14 0.666992 30.5 2.33398 49.5 5.00098s33.833 6 44.5 10c20.667 7.33301 35 18.666 43 33.999s12 35.333 12 60v698h-203v108h203c0 74 10.5 143.833 31.5 209.5s52.833 124.834 95.5 177.501c44 54 100.667 96.5 170 127.5s148.666 46.5 237.999 46.5
c54 0 100.5 -7.16699 139.5 -21.5c39.001 -14.333 68.834 -34.166 89.5 -59.499c20.6709 -25.333 31.0039 -55 31 -89c0 -18.0049 -2.83301 -36.8379 -8.5 -56.499z" />
    <glyph glyph-name="g" unicode="g" horiz-adv-x="1181" 
d="M958 880c52 -58 78 -123.006 78 -195.006c-0.00195312 -45.333 -12.1689 -88.333 -36.5 -129c-24.333 -40.667 -56.833 -73.667 -97.5 -99c-41.333 -26.667 -89.333 -47.167 -144 -61.5s-113.667 -21.5 -177 -21.5h-163c-10.667 -7.33301 -20.167 -17.166 -28.5 -29.499
s-12.5 -24.5 -12.5 -36.5c0 -29.333 11.667 -49.666 35 -60.999c24 -11.334 66.333 -17.667 127 -19c55.333 -1.33398 116.666 -3.66699 183.999 -6.99902l26 -2l107 -5c38 -2 76.167 -9.83301 114.5 -23.5s71.5 -31.5 99.5 -53.5c31.333 -24 56.833 -54.667 76.5 -92
s29.5 -78.333 29.5 -123c-0.00488281 -51.333 -12.3379 -99.166 -37 -143.499c-24.667 -44.333 -61.667 -82.833 -111 -115.5c-54.667 -35.333 -119 -62 -193 -80s-164 -27 -270 -27c-176.667 0 -310.334 21.5 -401.001 64.5s-136 106.833 -136 191.5
c0 54.667 25.5 98.667 76.5 132s126.833 51.333 227.5 54v12c-61.333 20.667 -109 48.334 -143 83.001c-34.667 34 -52 73.667 -52 119c0 26.667 6.16699 49.167 18.5 67.5c12.333 18.334 30.5 36.501 54.5 54.501c26 18 71 36 135 54v11c-90 32.667 -156.167 73 -198.5 121
s-63.5 107 -63.5 177c0 64 20.333 120.5 61 169.5c40.667 49.001 97.334 86.834 170.001 113.5c72.667 26.6689 155.334 40.002 248.001 40c38 0 78.5 -3.33301 121.5 -10s78.5 -14 106.5 -22h388v-108h-220zM670.5 875.494c-25.667 44.333 -63.168 66.502 -112.501 66.502
c-51.333 0 -89.666 -24 -114.999 -72c-19.333 -40.667 -29 -98.334 -29 -173.001c0 -74 12.833 -134 38.5 -180s61.5 -69 107.5 -69c48.001 0 84.834 21 110.5 63c25.668 42 38.501 101.333 38.5 177.999c0 80 -12.833 142.167 -38.5 186.5zM854.999 -79.0039
c-14.667 20.667 -41.999 37.333 -81.999 50c-22 4 -61.333 6.66699 -118 8c-97.334 1.33301 -173.001 2 -227.001 2c-26 -22 -46.167 -46.833 -60.5 -74.5s-21.5 -59.5 -21.5 -95.5c0 -17.333 5 -36 15 -56s24.333 -38.333 43 -55c27.334 -22 55.167 -37.833 83.5 -47.5
c28.333 -9.66504 69.833 -14.498 124.5 -14.5c88 0 154.167 17 198.5 51s66.5 87.333 66.5 160c0 27.333 -7.33301 51.333 -22 72z" />
    <glyph glyph-name="h" unicode="h" horiz-adv-x="1392" 
d="M756 73l47 4.99805c19.333 2 34.333 6 45 12c10.6719 6 19.0049 16 25 30c5.33301 16 8 36.667 8 62v468c-0.00195312 67.333 -12.6689 118.333 -38.001 153c-25.334 34.668 -62.001 52.001 -110 51.999c-26 0 -50.333 -3.83301 -73 -11.5s-45.667 -19.5 -69 -35.5
c-24 -16 -42.333 -32.5 -55 -49.5s-19.667 -26.5 -21 -28.5v-537c0 -25.333 3.16699 -45.333 9.5 -60s17.5 -26 33.5 -34c10.001 -6 22.834 -11.333 38.5 -16c15.668 -4.66699 31.835 -8 48.5 -10v-73h-608v73c14 0.666992 30.5 2.33398 49.5 5.00098s33.833 6 44.5 10
c20.667 7.33301 35 18.666 43 33.999s12 35.333 12 60v1115c-0.000976562 22.667 -5.16797 45.834 -15.501 69.501s-24.166 41.167 -41.499 52.5c-11.333 8 -29.166 14.5 -53.499 19.5s-48.5 8.5 -72.5 10.5v73l497 26l15 -16v-688h4l69 62
c53.333 47.333 110.333 79.333 171 96c41.333 11.333 84 17 128 17c105.333 0 185.833 -30.333 241.5 -91s83.5 -143 83.5 -247v-490c0.0273438 -24.667 3.69434 -44.167 11 -58.5c7.33789 -14.333 21.0049 -26.166 41 -35.499c15.3379 -6 29.0049 -10.667 41 -14
c12.0049 -3.33301 29.6719 -6.66602 53 -9.99902v-73h-602v73z" />
    <glyph glyph-name="i" unicode="i" horiz-adv-x="724" 
d="M517.5 1271.5c-17.667 -27.667 -41.667 -49.6699 -72 -66.0029s-63.166 -24.5 -98.499 -24.5c-35.333 0.0136719 -68.166 8.18066 -98.499 24.5c-30.333 16.3359 -54.5 38.5029 -72.5 66.501c-18 28.002 -27 58.6689 -27 92c0 33.3379 9 64.0049 27 92.001
c18 28 42.167 50.333 72.5 67s63.166 25 98.499 25c35.333 -0.0117188 68.166 -8.34473 98.499 -24.999c30.333 -16.6699 54.333 -39.0029 72 -67c17.6689 -28 26.502 -58.667 26.5 -92c0 -34.0029 -8.83301 -64.8359 -26.5 -92.5zM58 72.9971
c14.667 0.666992 31.502 2.33203 50.502 4.99902s33.5 6 43.5 10c20.667 8 35.5 19.5 44.5 34.5s13.5 34.833 13.5 59.5v582c-0.000976562 22.667 -5.16797 42.834 -15.501 60.5c-10.333 17.667 -23.833 32.167 -40.5 43.5c-12 8 -30.333 15.667 -55 23s-46.667 12 -66 14
v73l490 26l15 -15v-794c0 -23.333 5 -43.166 15 -59.499c10.002 -16.333 24.335 -28.5 43 -36.5c31.333 -14 62.666 -22.667 93.999 -26v-73h-632v73z" />
    <glyph glyph-name="j" unicode="j" horiz-adv-x="850" 
d="M791.5 1273c-17.667 -28.002 -41.667 -50.3379 -72 -67.002c-30.334 -16.6807 -63.167 -25.0137 -98.5 -25c-34.001 0 -66.168 8.33301 -96.5 25c-30.333 16.667 -54.833 39 -73.5 67s-28 58.333 -27.999 91c0 33.3379 9 64.0049 27 92.001c18 28 42.167 50.333 72.5 67
s63.166 25 98.499 25c35.333 -0.0117188 68 -8.34473 98 -24.999c30 -16.6699 54 -39.0029 72 -67c18 -28 27 -58.667 27 -92c0 -32.6689 -8.83301 -63.002 -26.5 -91zM814 138.997c0 -67.333 -11.832 -134.836 -35.499 -202.503s-56.834 -126.167 -99.501 -175.5
c-46.667 -54 -104.167 -95.833 -172.5 -125.5c-68.333 -29.666 -145.166 -44.499 -230.499 -44.499c-80 0 -142 14.833 -186 44.5s-66 70.834 -66 123.501c0 21.333 2.5 39.5 7.5 54.5s13.833 29.833 26.5 44.5c10.667 14.667 27 26.667 49 36
c21.333 10.667 46.666 16 75.999 16c36 0 66.5 -8.5 91.5 -25.5s47 -41.667 66 -74s39.833 -76.5 62.5 -132.5c28 14.667 48.333 46.334 61 95.001c12.667 46.667 19 153 19 319v674c0 22 -5 42 -15 60c-10 18.002 -23.667 32.335 -41 43c-14 9.33301 -33.5 17.5 -58.5 24.5
s-50.167 11.5 -75.5 13.5v72l506 25l15 -15v-850z" />
    <glyph glyph-name="k" unicode="k" horiz-adv-x="1294" 
d="M870 0c-52.667 92 -99.333 168.832 -140 230.499s-92.334 137.167 -155.001 226.5l-60 -51v-218c0.00390625 -24.667 3.83691 -44.834 11.5 -60.501c7.66797 -15.667 20.835 -26.5 39.501 -32.5c32 -13.333 62 -20.666 90 -21.999v-73h-619v73
c32 1.33301 63.333 6.33301 94 15c20 6 34.167 16.833 42.5 32.5s12.5 36.167 12.5 61.5v1115c-0.000976562 23.333 -5.16797 46.833 -15.501 70.5s-24.166 40.834 -41.499 51.501c-13.333 8 -33 14.833 -59 20.5s-48.333 8.83398 -67 9.50098v73l497 26l15 -16v-1032
c57.333 51.333 117 106.166 179 164.499s107.333 102.5 135.999 132.5c22.002 24.002 34.335 41.335 37 51.999l3 21c0 12 -10.333 22 -31 30c-21.334 8 -53.001 15 -95 21v71h508v-69c-64.668 -18.667 -114.835 -36.167 -150.5 -52.5
c-35.6689 -16.334 -74.502 -38.167 -116.5 -65.499c-30.667 -20.667 -58.334 -40.5 -83.001 -59.5s-53 -42.5 -85 -70.5l86 -124l269 -395c19.3359 -28.667 42.5029 -48.667 69.501 -60c27.0039 -11.333 60.1709 -19 99.501 -23v-73h-471z" />
    <glyph glyph-name="l" unicode="l" horiz-adv-x="705" 
d="M40 73c14 0.666992 30.5 2.33496 49.5 5.00195s33.833 6 44.5 10c20.667 7.33301 35 18.666 43 33.999s12 35.333 12 60v1108c0 25.3359 -5.33301 49.0029 -16 71c-10.667 22 -24.334 38.333 -41.001 49c-12 8.66699 -32.167 17.167 -60.5 25.5
s-52.166 12.833 -71.499 13.5v73l503 26l15 -16v-1337c0 -25.333 4.16699 -45.333 12.5 -60s22.5 -26.667 42.5 -36c34.001 -14.667 65.334 -23.334 94 -26.001v-73h-627v73z" />
    <glyph glyph-name="m" unicode="m" horiz-adv-x="2080" 
d="M1449 73c9.33594 1.33301 24.668 3.00684 45.999 5.00684c16 0.666992 30.333 4.5 43 11.5s21 17.833 25 32.5c4 15.333 6 35.333 6 60v467c0 68 -12 119.333 -36 153.999c-24 34.668 -59 52.001 -105 51.999c-28 -0.00683594 -52.167 -3.67383 -72.5 -11.001
c-20.333 -7.33301 -42.166 -19.333 -65.499 -36c-18.667 -14 -33.667 -28 -45 -42l-27 -36v-537c0 -24.667 2.83301 -44.167 8.5 -58.5s16.167 -26.166 31.5 -35.499c26.0029 -14 52.6699 -22.667 80.001 -26v-73h-571v73l46 5c19.333 2 34.166 6 44.499 12
s18.166 16 23.499 30c4 14 6 34.667 6 62v467c0 68 -12 119.333 -36 153.999c-24 34.668 -59 52.001 -105 51.999c-28.001 -0.00683594 -52.168 -3.67383 -72.501 -11.001c-20.335 -7.33301 -42.168 -19.333 -65.5 -36c-19.333 -14 -34.333 -28 -45 -42l-27 -36v-537
c0 -24 3 -43.333 9 -58s16.667 -26.667 32 -36c26 -14 52.667 -22.667 80 -26v-73h-599v73c14.667 0.666992 31.5 2.33398 50.5 5.00098s33.5 6 43.5 10c20.667 8 35.167 19.333 43.5 34s12.5 34.667 12.5 60v582c0 20.002 -5.5 40.335 -16.5 61
c-11 20.668 -24.833 37.001 -41.5 48.999c-23.333 16.0049 -58.666 26.3379 -105.999 30.999v73l477 26l15 -15v-141h4l67 60c26.667 24.667 52.167 44.167 76.5 58.5s54.5 26.5 90.5 36.5c36.668 10.6709 79.001 16.0039 127 16
c74.668 -0.00195312 137.668 -16.1689 189 -48.5c51.3369 -32.334 88.0039 -76.501 110.001 -132.501h9l71 64c30.667 26.002 58.667 46.835 84 62.5c25.333 15.667 56.333 28.167 93 37.5c42 11.333 85 17 129 17c100 0 177.333 -29.5 232 -88.5s82 -143.5 82 -253.5v-486
c0 -24.667 3.83301 -44.5 11.5 -59.5s20.834 -26.5 39.501 -34.5c27.335 -12.667 58.668 -20.667 93.999 -24v-73h-596v73z" />
    <glyph glyph-name="n" unicode="n" horiz-adv-x="1413" 
d="M776 73l46 4.99902c20.002 2 35.335 6 46 12c10.6719 6 19.0049 16 25 30c6 14 9 34.667 9 62v468c0 136.667 -49.333 205 -148 205c-26 0 -50.333 -3.83301 -73 -11.5s-45.667 -19.5 -69 -35.5c-24 -16 -42.333 -32.5 -55 -49.5s-19.667 -26.5 -21 -28.5v-537
c0 -24 3.5 -43.667 10.5 -59c7.00098 -15.333 17.834 -27 32.5 -35c24.667 -13.333 53.667 -22 87 -26v-73h-608v73c44 4 75.333 9 94 15c20 6 34.333 16.833 43 32.5s13 36.167 13 61.5v582c0 21.333 -5.16699 41.5 -15.5 60.5s-24.5 35.5 -42.5 49.5
c-23.333 16.0049 -58.666 26.3379 -105.999 30.999v73l477 26l15 -15v-145h4c36 32.001 64 56.334 84 73c20.001 16.6689 39.334 31.3359 57.999 44.001c27.333 17.333 61 31.333 101 42c40.001 10.6709 81.334 16.0039 124 16
c108.001 -0.000976562 189.668 -30.668 245 -92c54 -62 81 -144 81 -246v-490c0.0185547 -24.667 3.68555 -44.167 11 -58.5c7.33789 -14.333 21.0049 -26.166 41 -35.499c27.333 -12.667 58.333 -20.667 93 -24v-73h-602v73z" />
    <glyph glyph-name="o" unicode="o" horiz-adv-x="1302" 
d="M1192 708.5c26 -63.667 38.998 -132.834 38.998 -207.501c-0.00488281 -74.667 -12.8379 -144.5 -38.5 -209.5c-25.667 -65 -63.167 -121.167 -112.5 -168.5c-108.667 -103.333 -255 -155 -439 -155c-165.333 0 -300.666 46.667 -405.999 140
c-52 46 -92.333 102 -121 168s-43 138.667 -43 218s12.667 150 38 212s64 118 116 168c48.667 46.668 109.667 82.835 183 108.501c73.334 25.6689 154.001 38.502 242.001 38.5c90.667 -0.00195312 172 -12.6689 243.999 -38c72 -25.334 133.667 -61.667 185 -108.999
c49.3369 -46.667 87.0039 -101.834 113.001 -165.501zM865.998 503c0 54 -3.49902 109.501 -10.499 166.501s-16.833 102.167 -29.5 135.5c-34 90 -92 135 -174 135c-45.333 -0.00195312 -82.333 -12.1689 -111 -36.501c-28.667 -24.333 -51.334 -58.833 -68.001 -103.5
c-24.667 -67.333 -37 -165 -37 -293c0.00195312 -80.667 2.66895 -143.667 8.00098 -189c5.33301 -45.333 16.333 -90.333 33 -135c16 -42.667 38.5 -75.667 67.5 -99c29.001 -23.333 64.834 -35 107.5 -35c79.333 0 136.333 44 171 132
c28.668 72 43.001 179.333 42.999 322z" />
    <glyph glyph-name="p" unicode="p" horiz-adv-x="1347" 
d="M1211.5 230.5c-43 -78.333 -102.498 -140.666 -178.498 -186.999s-161 -69.5 -255 -69.5c-110 0 -195 22.333 -255 67h-8v-281c0 -23.333 5.16699 -43.666 15.5 -60.999s24.833 -30 43.5 -38c19.333 -7.33301 45.666 -14.166 78.999 -20.499s60 -9.83301 80 -10.5v-74
h-722v74l63 7c30.667 4.66699 53.334 10 68.001 16s25.667 17 33 33c7.33301 20 11 40.333 11 61v1023c-2 22 -7.33301 41.167 -16 57.5s-21.667 31.166 -39 44.499c-10.667 7.33301 -28.334 14.666 -53.001 21.999c-26.667 5.33301 -48.334 9 -65.001 11v73l487 26l15 -13
v-111l8 -2c42.667 44 90.834 78.5 144.5 103.5c53.667 25 107.5 37.5 161.5 37.5c90.667 0 169.667 -22 237 -66c67.335 -44.001 119.168 -106.168 155.5 -186.501c36.3379 -80.333 54.5049 -173.5 54.5 -279.5c0 -92.667 -21.5 -178.167 -64.5 -256.5zM867.002 749
c-18.667 37.333 -43.165 66.334 -73.498 87.001c-30.333 20.6719 -65.833 31.0049 -106.5 31c-41.333 0 -74.833 -6.83301 -100.5 -20.5s-49.5 -33.834 -71.5 -60.501v-567c4 -12.667 11.5 -29.167 22.5 -49.5s22.5 -37.833 34.5 -52.5
c33.333 -35.333 75.666 -53 126.999 -53c44 0 82.5 16 115.5 48c33.001 32 58.334 79.5 76 142.5c17.6719 63 26.5049 139.167 26.5 228.5c-0.00195312 112.667 -16.6689 201.334 -50.001 266z" />
    <glyph glyph-name="q" unicode="q" horiz-adv-x="1328" 
d="M655 -370c20.667 0.666992 43.167 2.66602 67.5 5.99902s44.833 7.66602 61.5 13c38 12.667 57 45.334 57 98.001v349l-8 2c-12.667 -12.667 -29 -26.667 -49 -42c-20.001 -15.333 -40.668 -28 -62 -38c-28 -13.333 -55.333 -24.333 -82 -33
c-29.333 -7.33301 -64.333 -11 -105 -11c-92 0 -173 21.833 -243 65.5s-124.333 105.667 -163 186s-58 173.833 -58 280.5c0 97.333 23.333 185 70 263s111.167 139.167 193.5 183.5s174.5 66.5 276.5 66.5c138 0 268 -32 390 -96l130 128l55 -13l-9 -164
c-4.70215 -58.667 -7.03516 -115 -7 -169v-941c0.0175781 -24.667 4.68457 -46 14 -64c9.34473 -18 23.6777 -31 43 -39c14 -6 33.833 -12.167 59.5 -18.5s48.5 -10.5 68.5 -12.5v-74h-700v74zM841 763.999c-6.66699 22.667 -14.166 42.666 -22.499 59.999
c-8.33496 17.333 -19.168 34 -32.5 50c-33.334 38 -77.667 57 -133 57c-44 0 -82.833 -17.833 -116.5 -53.5s-59.834 -86.667 -78.5 -153c-18.668 -66.333 -28.001 -144.166 -28 -233.499c0 -106.667 17.333 -193.667 52 -261c21.334 -38 46.334 -66 75 -84
c28.667 -18 65 -27 108.999 -27c40.667 0 74.334 6.5 101 19.5c26.667 13 51.334 33.167 74 60.5v565z" />
    <glyph glyph-name="r" unicode="r" horiz-adv-x="1065" 
d="M1032.5 715c-14.335 -29.333 -34.5 -52.8311 -60.498 -70.498c-26.001 -17.667 -55.668 -26.5 -89 -26.5c-51.334 0.000976562 -93.167 12.834 -125.5 38.5c-32.335 25.668 -48.502 61.501 -48.501 107.5c0 20.002 1.66699 38.335 5 55l9 36
c-30 -0.666992 -62 -11.167 -96 -31.5c-34 -20.334 -64.333 -47.167 -91 -80.5v-549c0 -23.333 3.66699 -42.5 11 -57.5s19.666 -27.167 36.999 -36.5c14.001 -6.66699 36.834 -12.667 68.5 -18c31.667 -5.33301 56.5 -8.33301 74.499 -9v-73h-669v73c44 4 75.333 9 94 15
c20 6 34.333 16.833 43 32.5s13 36.167 13 61.5v582c0 23.333 -5.33301 44.5 -16 63.5s-24.667 34.5 -42 46.5c-23.333 16.0049 -58.666 26.3379 -105.999 30.999v73l477 26l15 -15v-145h4c100 114 202.667 171 308 171c62 0 112 -19 150 -57
c37.3369 -39.334 56.0039 -89.001 56 -149.001c0 -33.334 -7.16699 -64.667 -21.5 -94z" />
    <glyph glyph-name="s" unicode="s" horiz-adv-x="1050" 
d="M337 -6.5c-62 18.333 -111.668 38.833 -149.001 61.5l-30 -68h-78l-13 373h73c10.667 -31.333 27.667 -65.666 51 -102.999s49.666 -70.666 78.999 -99.999c32.667 -32 69.334 -57.833 110.001 -77.5s83 -29.5 127 -29.5c60.667 0 105.834 11.833 135.5 35.5
c29.6689 23.667 44.502 60.167 44.5 109.5c-0.00292969 25.333 -6.16992 46.666 -18.501 63.999c-12.335 17.334 -31.168 33.001 -56.5 47.001c-26.667 14 -55 25.333 -85 34l-115 34c-49.333 14 -89.166 28 -119.499 42s-62.833 35 -97.5 63
c-66 57.333 -99 132.333 -99 225c0 62 18 116.833 54 164.499c36 47.667 86.5 84.667 151.5 111s139.5 39.5 223.5 39.5c55.333 0 109.333 -5.83301 162 -17.5s97.334 -25.5 134 -41.5l21 59h76l16 -341h-71c-14.667 46 -37.667 88.5 -69 127.5
c-31.334 39 -67.501 70 -108.5 93c-41 23 -82.833 34.5 -125.5 34.5c-51.333 -0.00195312 -91.666 -10.6689 -120.999 -32c-29.333 -21.334 -44 -51.001 -44 -89c0.000976562 -32 9.16797 -58.333 27.5 -79c18.334 -20.667 44.501 -37.834 78.501 -51.501
s80.333 -28.167 138.999 -43.5c120 -31.333 207.5 -73.333 262.5 -126s82.5 -120 82.5 -202c0 -72 -19.333 -133.833 -58 -185.5s-93 -91 -163 -118s-151 -40.5 -243 -40.5c-60.667 0 -122 9.16699 -184 27.5z" />
    <glyph glyph-name="t" unicode="t" horiz-adv-x="814" 
d="M802 46c-48.667 -22 -97.666 -39.667 -146.999 -53s-105.333 -20 -168 -20c-102.667 0 -179.5 25 -230.5 75s-76.5 122.667 -76.5 218v614h-180v108h184v303h325v-303h280v-108h-278v-548c0 -52.667 4.66699 -94.5 14 -125.5s24.666 -53.667 45.999 -68
s51 -21.5 89 -21.5c22.001 0 47.834 1.33301 77.5 4c29.667 2.66699 51.167 5.66699 64.5 9v-84z" />
    <glyph glyph-name="u" unicode="u" horiz-adv-x="1386" 
d="M871 6l0.00390625 130.997h-6l-66 -60c-21.334 -19.333 -47.667 -37.333 -79 -54c-31.334 -16.667 -63.001 -30 -95 -40c-28.667 -8.66699 -73 -13 -133 -13c-100.667 0 -177.834 30.333 -231.501 91s-80.5 146.334 -80.5 257.001v450
c-0.000976562 24.668 -4.66797 45.335 -14.001 62.001c-9.33301 16.667 -23 31.667 -41 45c-10.667 8.66699 -27.167 15.667 -49.5 21s-42.5 8.33301 -60.5 9v73l485 26l11 -15v-665c0.000976562 -67.333 12.834 -117.666 38.5 -150.999
c25.667 -33.333 62.167 -50 109.5 -50c44.667 0 86.334 11.833 125 35.5c38.667 23.667 67 50.5 84.999 80.5v539c0 23.333 -4.5 44.166 -13.5 62.499s-21.5 32.5 -37.5 42.5c-10.667 6.68066 -27 11.8477 -49 15.501c-22.001 3.67383 -45.668 5.84082 -71.001 6.50098v73
l485 26l15 -15v-772c0 -44.667 18.333 -78.334 55 -101.001c11.3379 -7.33301 25.5049 -12.333 42.5 -15c17 -2.66699 39.5 -5 67.5 -7v-73l-477 -29z" />
    <glyph glyph-name="v" unicode="v" horiz-adv-x="1161" 
d="M1198 919c-34.0029 -6.00195 -64.335 -18.165 -90.998 -36.4971c-26.6689 -18.334 -49.002 -45.501 -67 -81.5c-42 -88 -87.667 -186 -137 -294l-46 -101c-21.3359 -45.333 -37.0029 -79.333 -47.001 -102c-8 -14 -20.5 -40 -37.5 -78s-32.833 -76.333 -47.5 -115
c-18 -46.667 -32.333 -86.667 -43 -120h-184c-84 196 -149.333 343.667 -196 443c-46 98.667 -103.667 224.667 -173 378c-13.333 30.001 -34.5 54.334 -63.5 73c-29 18.668 -59.833 30.001 -92.5 33.999v73h616v-73c-26.667 -0.666992 -54.334 -5.83398 -83.001 -15.501
s-43 -21.5 -43 -35.5c0 -6 1.33301 -12 4 -18l10 -27c16 -40.667 48.333 -113.667 97 -219l48 -107l88 -194l96 214c38.667 88.667 73.334 171 104 247l8 19c6 14.667 9.66699 27.667 11 39l1 20c0 11.333 -4.83301 21.166 -14.5 29.499s-24.5 16.833 -44.5 25.5
c-15.335 5.33301 -31.502 10 -48.5 14c-17 4 -29.5 6.66699 -37.5 8v73h413v-73z" />
    <glyph glyph-name="w" unicode="w" horiz-adv-x="1768" 
d="M1782 919c-34.668 -5.33496 -64.3359 -16.5 -89.001 -33.498c-24.6729 -17.001 -45.3398 -45.168 -62 -84.501c-36 -86.667 -70.667 -171.834 -104 -255.501s-75.333 -191.5 -126 -323.5c-8.66699 -22.667 -18.167 -50.167 -28.5 -82.5s-21.166 -67.166 -32.499 -104.499
c-6.68652 -23.333 -11.0195 -38 -12.999 -44h-195l-252 680l-236 -680h-193c-59.333 159.333 -112.333 300.666 -159 423.999l-35 89l-120 308c-11.333 30 -31 54.167 -59 72.5s-58.667 29.833 -92 34.5v73h614v-73c-29.334 -2.66699 -58.001 -8.66699 -86.001 -18
s-42 -20.333 -42 -33c0 -6.00293 1 -11.6699 3 -17l8 -28c19.333 -56 80.666 -219 183.999 -489l222 658h198l253 -680c38.667 102.667 68.667 183.667 90 243l65 186l14 42c4.66699 14 7.66699 26.667 9 38s1.33301 18.333 0 21c0 11.333 -6 22 -18 32
c-12.0088 10 -26.3418 18 -43 24c-17.333 6 -35.166 11 -53.499 15s-29.833 6 -34.5 6v73h413v-73z" />
    <glyph glyph-name="x" unicode="x" horiz-adv-x="1204" 
d="M573 73c32.667 2 60.0059 5.00391 82.0049 9.00391c22 3.33301 33 10.666 33 21.999c-0.00488281 4 -2.67188 12.333 -8 25c-5.33301 10 -9.83301 18 -13.5 24s-6.5 10.667 -8.5 14c-12.001 18.667 -43.668 65.667 -95 141l-32 45c-14 18.667 -22.667 30.667 -26 36
c-36.667 -42.667 -69 -81 -97 -115l-82 -103c-10 -12 -17 -23 -21 -33s-6 -16 -6 -18c0 -14.667 10.5 -26.167 31.5 -34.5s47.167 -12.5 78.5 -12.5v-73h-406v73c46 9.33301 85.5 25 118.5 47s58.5 43.333 76.5 64l124 130c33.333 34 78.333 82 135 144l-138 193
c-36.667 51.333 -81.667 113.666 -135 186.999c-18.667 24.668 -40.834 43.335 -66.501 56c-25.667 12.6719 -59.167 21.0049 -100.5 25v73h611v-73c-26.667 0 -48.334 -1.33301 -65.001 -4c-21.334 -3.33984 -32.001 -8.00684 -32 -14
c0 -4.66699 1.16699 -10.167 3.5 -16.5s7.16602 -15.833 14.499 -28.5c38.667 -61.334 88 -136.001 148 -224c36.667 44.667 62 74.667 75.999 90c20 23.333 46 56.333 78 99c11.333 15.333 19 27.333 23 36c2.67969 6 4.0127 11 3.99902 15c0 12.0039 -7 22.3369 -21 31
c-14.667 8.66992 -43 14.0029 -85 15.999v73h398v-73c-32.6689 -4.66699 -64.502 -15.834 -95.5 -33.501c-31 -17.667 -62.833 -43.5 -95.5 -77.5l-35 -37c-35.333 -35.333 -61.333 -62.333 -78 -81l-118 -125l133 -189c53.333 -76 103.333 -145.667 150 -209
c20.667 -29.333 42.5 -51.333 65.5 -66s56.833 -24 101.5 -28v-73h-625v73z" />
    <glyph glyph-name="y" unicode="y" horiz-adv-x="1151" 
d="M1188 919c-34.0029 -6.00195 -64.3369 -18.165 -91 -36.4971c-26.6689 -18.334 -49.002 -45.501 -67 -81.5c-57.333 -121.333 -116.333 -250.333 -177 -387c-54 -121.333 -121.333 -269.666 -202 -444.999c-73.333 -158.667 -149.666 -271 -228.999 -337
c-59.333 -50.666 -122.666 -75.999 -189.999 -75.999c-40 -0.000976562 -76.167 8.16602 -108.5 24.5c-32.333 16.333 -57.666 37.666 -75.999 64c-18.333 26.333 -27.5 54.166 -27.5 83.499c0 21.333 2.33301 39.833 7 55.5s13.667 31.167 27 46.5
c11.333 15.333 28.166 28 50.499 38s47.166 15 74.499 15c35.333 0 69.666 -12 102.999 -36c33.334 -24 70.001 -61 110.001 -111c20.667 20.667 48 53.334 82 98.001c32 43.333 55.667 88.333 71 135c-76 158 -146.333 302.667 -211 434l-206 409
c-16.667 30.667 -38.834 55.167 -66.501 73.5s-57.5 29.5 -89.5 33.5v73h612v-73c-27.334 -0.666992 -54.667 -5.83398 -81.999 -15.501c-27.333 -9.66699 -41 -21.5 -41 -35.5c0 -5.33691 1 -11.0039 3 -17.001c3.33496 -10.667 7.00195 -20 11 -28l97 -194l145 -292
l106 245c29.333 68 57.333 135 84 201c6.66699 16.668 10.667 30.001 12 39.999c0.694336 4.00293 1.02734 10.3359 0.999023 18.999c0 11.333 -4.83301 21.166 -14.5 29.499s-24.5 16.833 -44.5 25.5c-14 5.33301 -29.833 10 -47.5 14s-30.5 6.66699 -38.5 8v73h413v-73z
" />
    <glyph glyph-name="z" unicode="z" horiz-adv-x="1076" 
d="M44 69l574.002 831.998h-31c-90 0 -160.333 -1.5 -211 -4.5s-91.334 -10.5 -122 -22.5c-12 -4.66699 -28.667 -29.167 -50 -73.5c-21.333 -44.334 -38 -89.501 -50 -135.501h-71v327h930v-62l-576 -839c32.667 -0.000976562 56 -0.333984 70 -1
c14 -0.666992 43.333 -1 87.999 -0.999023c33.333 0 68.333 1 105 3c37.333 0.666992 66.333 2.66699 87 6c46.667 4.66699 81.334 32.334 104 83.001c8 16.667 19.667 46.834 35 90.501s25.666 77.5 30.999 101.5h71v-373h-984v69z" />
    <glyph glyph-name="braceleft" unicode="{" horiz-adv-x="1024" 
d="M956 -333c-98.667 0 -182.831 4.50098 -252.498 13.501s-128.5 25.833 -176.5 50.5c-54 28.667 -94.5 68.167 -121.5 118.5s-40.5 116.166 -40.5 197.499c0 46 2.33301 87.667 7 125c4 43.333 6 83 6 119c0 47.334 -6.5 85.667 -19.5 115
c-13 29.334 -33.5 53.001 -61.5 71.001c-24 16 -54.833 27.5 -92.5 34.5s-81.834 12.167 -132.501 15.5v150c51.333 2.66699 95.166 7.66699 131.499 15s67.5 19 93.5 35c28.667 19.333 49.334 42.666 62.001 69.999s19 66 19 116c0 38.001 -2 78.334 -6 120.999
c-4.66992 36.667 -7.00293 77.667 -7 123c0 80.002 13.167 145.169 39.5 195.501c26.334 50.3359 67.167 90.5029 122.5 120.5c44.667 24.0088 103.334 40.6758 176 50c72.667 9.36816 157 14.0352 253 14v-87c-50 -4 -85.333 -8.16699 -106 -12.5
s-44.334 -14.5 -71.001 -30.5c-25.335 -15.333 -45.168 -38.5 -59.5 -69.5c-14.3369 -31.0039 -21.5039 -69.8369 -21.5 -116.5v-190c0 -69.333 -9 -127.333 -27 -174s-45.333 -85 -82 -115c-32.667 -26.667 -70.167 -48 -112.5 -64
c-42.333 -16.001 -89.833 -28.668 -142.5 -38v-76c114.667 -20.667 199.667 -55 255 -103c33.333 -29.333 60 -66.333 80 -111c19.333 -48.667 29 -107.667 29 -177v-190c0 -90 27 -152.333 81 -187c22.001 -13.333 48.834 -23.5 80.5 -30.5
c31.667 -7 63.834 -10.833 96.5 -11.5v-87z" />
    <glyph glyph-name="bar" unicode="|" horiz-adv-x="794" 
d="M483 -424h-171v1947h171v-1947z" />
    <glyph glyph-name="braceright" unicode="}" horiz-adv-x="1024" 
d="M953 527c-107.333 -6.66699 -182.329 -23.334 -224.996 -50.001c-28 -18 -48.5 -41.667 -61.5 -71s-19.5 -67.666 -19.5 -114.999c0.0146484 -42 2.34766 -81.667 6.99902 -119c4 -42.667 6 -84.334 6 -125.001c0 -81.333 -13.5 -147.166 -40.5 -197.499
s-67.5 -89.833 -121.5 -118.5c-48 -24.666 -106.667 -41.499 -176 -50.499s-153.666 -13.5 -252.999 -13.5v87c32.667 0.666016 65 4.49902 97 11.499s58.667 17.167 80 30.5c54 34.667 81 97 81 187v190c0 69.333 9.33301 127.166 28 173.499
c18.667 46.334 45.667 84.501 81 114.501c56 47.333 141 81.666 255 102.999v76c-110.667 19.333 -195.667 53.333 -255 102c-34.667 28.667 -61.5 67.334 -80.5 116c-19 48.667 -28.5 106.334 -28.5 173v190c0 90 -27 152 -81 186
c-26.667 16.0107 -50.334 26.1777 -71.001 30.5c-20.667 4.35547 -56 8.52246 -106 12.5v87c96.667 -0.0351562 180.5 -4.36816 251.5 -13c71 -8.66699 130.167 -25.667 177.5 -51c55.333 -30 96.166 -70.167 122.499 -120.5s39.5 -115.5 39.5 -195.5c0 -40 -2 -81 -6 -123
c-4.66699 -37.334 -7 -77.667 -7 -120.999c0.00195312 -50.001 6.33496 -88.668 18.999 -116c12.6689 -27.334 33.3359 -50.667 62 -70c22 -14.667 51.667 -25.667 89 -33c37.333 -7.33594 82.666 -13.0029 135.999 -17v-150z" />
    <glyph glyph-name="asciitilde" unicode="~" 
d="M1295 735c-12 -32.001 -29.6641 -69.668 -52.9971 -113.001c-52.667 -88.667 -114.334 -152.667 -185 -192c-38.667 -22.667 -81 -34 -127 -34s-88.5 7.33301 -127.5 22s-82.833 36.334 -131.5 65.001c-40.667 24.667 -79.334 45.5 -116.001 62.5s-69 25.5 -97 25.5
c-43.333 -0.000976562 -81.333 -15.668 -114 -47c-32.667 -31.333 -64.334 -82 -95.001 -152l-104 42c12 34 28.833 70 50.5 108s47.5 74 77.5 108c32 36 68.667 65.5 110 88.5c41.334 23 83.667 34.5 127 34.5c49.333 0 93.166 -7.5 131.499 -22.5
s81.5 -36.833 129.5 -65.5c43.333 -26.001 78.333 -45.668 105 -59c32.668 -18.667 68.001 -28 106 -28c44 0.000976562 82.833 16.834 116.5 50.5c33.667 33.667 64.5 83.167 92.5 148.5z" />
    <glyph glyph-name="uni00A0" unicode="&#xa0;" horiz-adv-x="520" 
 />
    <glyph glyph-name="exclamdown" unicode="&#xa1;" horiz-adv-x="771" 
d="M551 1170c-18 -28.667 -41.667 -51.666 -71 -68.999s-60.666 -26 -93.999 -26c-34 0 -65.833 8.5 -95.5 25.5s-53.334 39.833 -71.001 68.5s-26.5 59.667 -26.5 93c0 33.3359 8.83301 64.1689 26.499 92.5c17.667 28.333 41.334 50.833 71.001 67.5s61.5 25 95.5 25
c50.667 0 95.667 -18 135 -54c38 -36.6689 57 -80.3359 57 -131c0 -32.668 -9 -63.335 -27 -92.001zM568 260.001c8 -36 12.001 -70.333 12.001 -103c0 -34 -8.83301 -65.167 -26.5 -93.5s-41.334 -50.833 -71.001 -67.5s-62.167 -25 -97.5 -25
c-54 0 -99.333 18.333 -136 55c-38.667 36 -58 79.667 -58 131c0 33.333 5 71.333 15 114l36 154l48 212c18 82.667 37 189 57 319h77c15.333 -102 32.333 -197 51 -285l54 -247z" />
    <glyph glyph-name="cent" unicode="&#xa2;" horiz-adv-x="1240" 
d="M1176 262c-38.001 -76 -90.332 -138.668 -156.998 -188.001c-66.667 -49.333 -141 -80.333 -223 -93v-280h-99v278c-121.334 2 -224.334 24 -309 66c-84.667 42 -148.834 101.333 -192.501 178s-65.5 168.334 -65.5 275.001c0 66.667 13.333 130.667 40 192
s64 116 112 164c50 50 110.5 89.667 181.5 119s148.833 45.333 233.499 48v255h99v-256c52 -4.00391 99.167 -14.1709 141.5 -30.5c42.333 -16.3359 76.5 -35.5029 102.5 -57.5c25.3379 -20.667 44.1709 -42.167 56.5 -64.5c12.3418 -22.333 18.5088 -43.833 18.5 -64.5
c0 -46.667 -13.5 -83.5 -40.5 -110.5c-27.001 -27 -68.168 -40.5 -123.5 -40.5c-36.001 0.00390625 -67.668 9.83691 -95 29.5c-27.333 19.667 -47.333 51.834 -60 96.5v-657h1c71.333 0 131 16.167 179 48.5s89 80.5 123 144.5zM697.002 937.999
c-28.667 -4 -55.667 -15.499 -81 -34.499s-47.333 -44.5 -66 -76.5c-20 -32.667 -35.5 -76.334 -46.5 -131.001s-16.5 -116.667 -16.5 -186c0 -61.333 9 -117.5 27 -168.5c18.001 -51 42.834 -94 74.5 -129c31.668 -35 67.835 -59.833 108.5 -74.5v800z" />
    <glyph glyph-name="sterling" unicode="&#xa3;" horiz-adv-x="1413" 
d="M124 188c60.667 20.667 107.001 44.3291 139.001 70.9961s54.333 58.334 67 95.001c10 26 16.333 50.833 19 74.5s4 56.834 4 99.501v98h-194v116h194l-7 85l-3 33c-5.33301 58.667 -8 99.667 -8 123c0 91.335 22.167 173.168 66.5 245.5
c44.333 72.335 106.666 129.002 186.999 170.001c80.333 41 172.5 61.5 276.5 61.5c74 0 143.333 -12.5 207.999 -37.5c64.667 -25 116.334 -59.167 155.001 -102.5s58 -91.333 58 -144c0 -49.333 -14.667 -89.333 -44 -120c-29.333 -30.668 -69.333 -46.001 -120 -46
c-53.333 0.00195312 -96.833 13.835 -130.5 41.5c-33.667 27.667 -50.5 64.834 -50.5 111.501c0.00390625 37.3369 6.33691 73.0039 19 107l21 60l8 24c-14.0029 4 -32.6699 7.33301 -56 10c-23.333 2.66699 -44.333 4 -63 4c-19.335 0 -37.668 -3 -55 -9
c-17.335 -6 -36.002 -18.667 -56 -38c-22.001 -21.333 -39.668 -51.333 -53 -90c-13.3359 -38.667 -20.0029 -86.667 -20 -144c0 -25.333 1.66699 -80.666 5 -165.999c3.33301 -85.334 5 -145.001 5 -179.001h389v-116h-389c-10.667 -64 -24.667 -116.167 -42 -156.5
c-17.334 -40.333 -41.001 -74.833 -71 -103.5c-30 -28.667 -71 -57 -123 -85v-11h835v-270h-1171v188z" />
    <glyph glyph-name="currency" unicode="&#xa4;" 
d="M903 276c-34.667 -18 -65.667 -31.333 -93 -40c-27.3359 -8.66699 -57.6689 -13 -91 -13c-30 0 -61 5 -93 15c-32.001 10 -61.668 22.667 -89.001 38l-238 -233l-106 115l231 233c-16 26 -28.833 55.333 -38.499 88c-9.66797 32.667 -14.501 63.334 -14.5 92
c0.000976562 29.333 4.66797 60 14 92c9.33301 32.001 22.333 62.334 39 91l-231 237l110 109l234 -234c26 16 55.5 29 88.5 39s64.167 15 93.5 15c28.667 0 58.834 -4.5 90.5 -13.5c31.667 -9 61.5 -21.833 89.499 -38.5l234 232l112 -109l-231 -237
c14.667 -26 27.167 -55.5 37.5 -88.5c10.3574 -33 15.5244 -64.5 15.5 -94.5c-0.0078125 -27.334 -5.34082 -58.167 -15.999 -92.5c-10.6709 -34.333 -23.0039 -63.5 -37 -87.5l231 -235l-106 -111zM894.5 674.5c-18.334 31.667 -42.999 56.833 -73.998 75.499
c-31 18.6699 -64.833 28.0029 -101.5 28c-37.334 -0.00292969 -71.667 -9.16992 -103 -27.5c-31.334 -18.333 -56.167 -43.333 -74.5 -75c-18.335 -31.667 -27.502 -66.5 -27.5 -104.5c0 -36 9.16699 -69.833 27.5 -101.499c18.333 -31.667 43.333 -57 75 -76
s65.834 -28.5 102.5 -28.5c36 0.000976562 69.5 9.16797 100.5 27.5c31.001 18.333 55.834 43.333 74.5 75c18.6699 31.667 28.0029 66.167 27.999 103.5s-9.1709 71.833 -27.501 103.5z" />
    <glyph glyph-name="yen" unicode="&#xa5;" horiz-adv-x="1500" 
d="M1522 1341c-23.333 -2.69727 -42.6689 -6.53125 -58.002 -11.501c-15.333 -5.00977 -33.666 -13.8428 -54.999 -26.499c-26.6689 -14.6768 -51.002 -33.8438 -72.999 -57.501c-22 -23.668 -45 -52.835 -69 -87.5c-34.0039 -49.333 -72.8369 -108.166 -116.5 -176.499
c-43.667 -68.334 -81.667 -128.167 -114 -179.5c-32.334 -51.334 -56.501 -89.667 -72.5 -115l-45 -72v-32h433v-116h-431v-250c0 -52.667 21.667 -88.334 65 -107.001c11.333 -5.33301 35.333 -11.333 72 -18c34.667 -8 61.667 -12.667 81 -14v-78h-779v78
c18 0.666992 44.667 3.33398 80 8.00098c35.334 4.66699 60.001 9.33398 74.001 14.001c24.668 11.333 41.501 25.166 50.499 41.499c9 16.333 13.5 38.166 13.5 65.499v260h-431v116h433v20l-11 19c-17.333 30 -26.333 46 -27 48c-14 23.333 -33 56 -57 98l-75 127
c-66.667 112.667 -120.667 202.667 -162 270c-44 70.667 -90.333 118.334 -139 143.001c-20 10 -41.833 17.833 -65.5 23.5s-43.5 8.83398 -59.5 9.50098v78h783v-78c-66.667 -1.33301 -113 -6 -139 -14c-27.334 -9.33301 -41.001 -21.333 -41 -36
c0 -6.67676 2.66699 -17.3438 8 -32.001c6.00098 -16.668 20.334 -46.335 42.999 -89c48.667 -92 129.334 -232.333 242 -421c138.668 220 223.668 357 255 411c31.3379 53.3359 47.0049 88.6689 47.001 106c0 23.3379 -12.667 41.0049 -38 53
c-26 11.3438 -68.667 18.6768 -128 22v78h506v-78z" />
    <glyph glyph-name="brokenbar" unicode="&#xa6;" horiz-adv-x="794" 
d="M483 723h-171v800h171v-800zM483 -424h-171v810h171v-810z" />
    <glyph glyph-name="section" unicode="&#xa7;" horiz-adv-x="1154" 
d="M964.5 464c-45.667 -50 -109.165 -88.3359 -190.498 -115.002c66.667 -27.333 117.667 -64.333 153 -111s53 -98.334 53 -155.001c0 -60 -19 -113.833 -57 -161.5s-92.5 -85.167 -163.5 -112.5s-153.833 -41 -248.5 -41c-125.333 0 -220 23 -284 69
c-26 18.667 -45.333 39.667 -58 63s-19 46.333 -19 69c0 37.333 11 67.666 33 90.999s53.333 35 94 35c55.334 0 98.667 -27.667 130 -83c14 -23.333 26 -48.333 36 -75l30 -84c1.33496 -0.666992 3.66797 -1 6.99902 -1c2.66699 0 5 -0.333008 7 -1
c2.66699 -0.666992 7.33398 -1 14.001 -1c66.667 0 119.5 12.5 158.5 37.5s58.5 63.167 58.5 114.5c0 30.667 -6.5 57.167 -19.5 79.5s-32.833 42.5 -59.5 60.5c-26.001 18 -59.668 36 -101.001 54l-125 51c-101.333 40.667 -175.333 87 -222 139s-70 116 -70 192
c0 68 19.833 125.833 59.5 173.499c39.667 47.667 106.167 88.167 199.5 121.5c-72.667 30 -126.5 68.5 -161.5 115.5s-52.5 100.5 -52.5 160.5c0 58.001 19.833 110.168 59.5 156.5c39.667 46.3359 94.834 82.6689 165.501 109c70.667 26.3389 151.334 39.5059 242 39.5
c64.667 0 120.834 -6.16699 168.5 -18.5c47.667 -12.333 86.167 -29.166 115.5 -50.499c25.333 -17.333 44.5 -38 57.5 -62c13 -24.002 19.5 -47.335 19.5 -69.999c-0.00195312 -37.333 -10.6689 -67.666 -32 -90.999c-21.334 -23.333 -53.001 -35 -95 -35
c-28 0.00878906 -52.5 7.17578 -73.5 21.501c-21 14.333 -39.833 34.833 -56.5 61.5c-13.333 21.3359 -25.333 47.6689 -36 79l-30 80l-15 3h-13c-66 -0.00488281 -118.333 -12.8379 -157 -38.499c-38.667 -25.6699 -58 -63.5029 -58 -113.499
c0 -32.667 6.5 -59.667 19.5 -81s34.167 -41.333 63.5 -60c28.667 -18.0059 63 -35.3389 102.999 -51.999l127 -52c102.667 -41.334 177 -87.501 222.999 -138.501c46 -51.001 69 -115.168 69 -192.501c0 -70 -22.833 -130 -68.5 -180zM689.002 730.997
c-26 18 -61.999 37.001 -107.999 57.001c-65.334 28.002 -105.334 45.335 -120 51.999c-24 -20 -44.167 -49 -60.5 -87s-24.5 -74 -24.5 -108s8 -63.5 24 -88.5s38.667 -47.5 68 -67.5c34.001 -21.333 69.334 -39.666 106 -54.999l119 -52
c30.667 26.667 52.5 56.167 65.499 88.5c13 32.334 19.5 67.834 19.5 106.5c-0.000976562 64 -29.668 115.333 -89 153.999z" />
    <glyph glyph-name="dieresis" unicode="&#xa8;" horiz-adv-x="1024" 
d="M402 1266.5c-14.667 -25.6758 -34.3369 -46.3447 -59.0029 -62.002c-24.667 -15.6797 -51 -23.5127 -79 -23.499c-28.667 0.0136719 -55.167 7.68066 -79.5 23.001c-24.333 15.333 -43.666 35.833 -57.999 61.5s-21.5 53.5 -21.5 83.5c0 28.667 7.16699 56 21.5 82
s33.833 46.833 58.5 62.5s51 23.5 79 23.5c28 -0.0117188 54.333 -7.84473 79 -23.5c24.667 -15.6689 44.334 -36.3359 59.001 -62c14.667 -25.667 22 -53.167 22 -82.5c-0.000976562 -29.333 -7.33398 -56.833 -21.999 -82.5zM896.997 1266.5
c-14.667 -25.6758 -34.167 -46.3447 -58.5 -62.002c-24.334 -15.6797 -50.501 -23.5127 -78.5 -23.499c-28.667 0.0136719 -55.167 7.68066 -79.5 23c-24.333 15.333 -43.833 35.833 -58.5 61.5s-22 53.5 -22 83.5c0 28.667 7.16699 56 21.5 82s33.833 46.833 58.5 62.5
s51.334 23.5 80 23.5c42.668 0 80.001 -16.667 112 -50c31.333 -35.333 47 -74.666 47 -117.999c0 -29.333 -7.33301 -56.833 -22 -82.5z" />
    <glyph glyph-name="copyright" unicode="&#xa9;" horiz-adv-x="1929" 
d="M1730 159c-79.333 -135.333 -186.667 -242.501 -322 -321.501s-283 -118.5 -443 -118.5s-307.667 39.667 -443 119s-242.666 186.5 -321.999 321.5s-119 282.5 -119 442.5s39.667 307.5 119 442.5c79.333 135.001 186.666 242.168 321.999 321.501
c135.333 79.3379 283 119.005 443 119.001c160.001 0 307.668 -39.5 443.001 -118.5c135.334 -79 242.667 -186.167 321.999 -321.5c79.3369 -135.334 119.004 -283.001 119 -443.001c0 -160 -39.667 -307.667 -119 -443zM1646.5 1002
c-69.667 122 -164.668 218.5 -285.001 289.5s-252.5 106.5 -396.5 106.5s-276.167 -35.5 -396.5 -106.5s-215.333 -167.5 -285 -289.5s-104.5 -255.333 -104.5 -400s34.833 -277.834 104.5 -399.501s164.667 -218.167 285 -289.5s252.5 -107 396.5 -107
c144.001 0 276.168 35.667 396.501 107s215.333 167.833 285 289.5s104.5 254.834 104.5 399.501c-0.00488281 144.667 -34.8379 278 -104.5 400zM1393 380.999c-36 -83.333 -86.665 -146.666 -151.998 -189.999c-37.333 -25.333 -77.166 -44.333 -119.499 -57
s-90.5 -19 -144.5 -19c-68 0 -133 11 -195 33s-115 53 -159 93c-97.333 88.667 -146 205.667 -146 351c0 97.333 22.667 184.166 68 260.499s107.666 136 186.999 179s168.333 64.5 267 64.5c46.667 0 91.167 -6 133.5 -18s79.833 -26.667 112.5 -44l35 51h65l4 -370h-69
c-23.333 71.333 -47.5 128.833 -72.5 172.5s-53.5 76.167 -85.5 97.5s-70 32 -114 32c-78.001 0 -138.168 -35.5 -180.501 -106.5c-42.334 -71 -63.501 -169.167 -63.5 -294.5c0 -125.333 22.667 -221.833 68 -289.5s111.666 -101.5 198.999 -101.5
c66.001 0 122.168 15.5 168.5 46.5c46.333 31 88.833 79.5 127.5 145.5z" />
    <glyph glyph-name="ordfeminine" unicode="&#xaa;" horiz-adv-x="1130" 
d="M1055 649c-26.667 -11.3379 -58 -21.1748 -94 -29.5029c-36 -8.33984 -68.333 -12.5068 -97 -12.5c-64 0.00195312 -112.833 9.33496 -146.5 27.999c-33.667 18.667 -56.5 47.334 -68.5 86h-5c-39.334 -39.334 -75.667 -66.001 -109 -80
c-31.333 -13.333 -58.166 -22.333 -80.499 -27s-53.833 -7 -94.5 -7c-42 0 -80.667 8.5 -116 25.5c-35.333 17.001 -63.166 40.834 -83.499 71.5c-20.333 30.667 -30.5 65.667 -30.5 105c0 55.333 14.5 101.333 43.5 138s76.167 66.667 141.5 90c44 16 102 34 174 54
c68.667 20.0068 120.334 37.6738 155 53.001v71c-0.00195312 46 -5.66895 82.333 -17 109c-7.33496 18.0078 -19.502 32.6748 -36.501 44c-17 11.3438 -38.5 17.0107 -64.5 17c-24.667 0 -44.167 -2.16699 -58.5 -6.5s-26.833 -10.166 -37.5 -17.499
c2.66699 -14 7.66699 -29.667 15 -47c6.66699 -16 10 -38 10 -66c0 -29.333 -12.667 -53.5 -38 -72.5s-61.333 -28.5 -108 -28.5c-42.667 0 -76.834 10.333 -102.501 31s-38.5 49.667 -38.5 87c0 54.667 42.333 101.667 127 141c32.667 15.3389 71.667 27.6719 117 37
c45.333 9.36719 88 14.0342 128 14.001c58.667 0 109.834 -3.66699 153.5 -11c43.668 -7.33301 81.501 -19.666 113.5 -36.999c36.667 -21.333 64.334 -49.5 83 -84.5c18.6719 -35.001 28.0049 -80.834 28 -137.499c0 -80.668 -1.33301 -152.001 -4 -214
c-2.66699 -62 -4 -115.667 -4 -161c0 -24 3.66699 -43 11 -57c7.33301 -14.001 19 -24.668 35 -32c9.33301 -3.34473 21.5 -5.51172 36.5 -6.50098c15 -1 35.833 -1.5 62.5 -1.5v-66zM644 1063c-44 -16 -77.499 -29 -100.499 -39s-43.5 -21.333 -61.5 -34
c-42.667 -32 -64 -78 -64 -138c0 -74.667 33 -112 99 -112c49.333 0 90.666 21 123.999 63z" />
    <glyph glyph-name="guillemotleft" unicode="&#xab;" horiz-adv-x="1250" 
d="M639 97c-232 164 -371.334 265.333 -418.001 304c-24.667 18.667 -43 39.834 -55 63.501s-18 51.167 -18 82.5s5.5 57.333 16.5 78s29.833 42.334 56.5 65c40.667 33.333 99.334 77.666 176.001 132.999l242 172l52 -43l-308 -409l308 -403zM1078 97
c-226 158.667 -365.332 260 -417.999 304c-24.667 18.667 -43 39.834 -55 63.501s-18 51.167 -18 82.5s5.5 57.333 16.5 78c11.001 20.667 29.834 42.334 56.499 65c40.667 33.333 99.334 77.666 176 132.999l242 172l52 -43l-308 -409l308 -403z" />
    <glyph glyph-name="logicalnot" unicode="&#xac;" 
d="M1266 50h-170v473h-932v163h1102v-636z" />
    <glyph glyph-name="registered" unicode="&#xae;" horiz-adv-x="1929" 
d="M1730 159c-79.333 -135.333 -186.667 -242.501 -322 -321.501s-283 -118.5 -443 -118.5s-307.667 39.667 -443 119s-242.666 186.5 -321.999 321.5s-119 282.5 -119 442.5s39.667 307.5 119 442.5c79.333 135.001 186.666 242.168 321.999 321.501
c135.333 79.3379 283 119.005 443 119.001c160.001 0 307.668 -39.5 443.001 -118.5c135.334 -79 242.667 -186.167 321.999 -321.5c79.3369 -135.334 119.004 -283.001 119 -443.001c0 -160 -39.667 -307.667 -119 -443zM1646.5 1002
c-69.667 122 -164.668 218.5 -285.001 289.5s-252.5 106.5 -396.5 106.5s-276.167 -35.5 -396.5 -106.5s-215.333 -167.5 -285 -289.5s-104.5 -255.333 -104.5 -400s34.833 -277.834 104.5 -399.501s164.667 -218.167 285 -289.5s252.5 -107 396.5 -107
c144.001 0 276.168 35.667 396.501 107s215.333 167.833 285 289.5s104.5 254.834 104.5 399.501c-0.00488281 144.667 -34.8379 278 -104.5 400zM1212 144.999c-63.333 97.333 -115.334 173.665 -156.001 228.998s-90 117.666 -148 186.999h-34v-269
c0.00683594 -17.333 2.83984 -31.166 8.5 -41.499c5.66699 -10.334 17.167 -19.167 34.5 -26.5l36 -12c15.333 -5.33301 29 -8.33301 41 -9v-58h-482v58c10.001 1.33301 25.334 3.83301 46 7.5c20.668 3.66797 34.335 6.83496 41.001 9.50098c16 6.66699 27 15.667 33 27
c6 11.334 9 25.001 9 41.001v636c0 18.6689 -2.33301 32.3359 -7 41.001c-4.66699 8.66895 -16.334 17.3359 -35.001 26.001c-20 8 -35.833 13.667 -47.5 17s-24.834 6.33301 -39.501 9v58h515c116.667 -0.00390625 205.167 -18.3369 265.5 -55
c60.3359 -36.667 90.5029 -91.667 90.5 -165c0 -66 -19.167 -118.833 -57.5 -158.5s-94.166 -70.167 -167.499 -91.5l22 -29c10.667 -12.001 34 -41.668 70 -89.001c36 -46.667 81 -103.667 135 -171c13.3418 -17.333 32.0088 -36.5 56.001 -57.5
c24 -21 44.333 -34.833 61 -41.5c7.33887 -3.33398 19.6719 -6.50098 37 -9.50098c17.3389 -3 29.0059 -4.5 35 -4.5v-58h-362zM1073.5 965.998c-33.667 26 -83.5 39 -149.5 39h-50v-376h48c134.667 0 202 69 202 207c-0.00683594 60.667 -16.8398 104 -50.5 130z" />
    <glyph glyph-name="macron" unicode="&#xaf;" 
d="M1445 1603h-1450v122h1450v-122z" />
    <glyph glyph-name="degree" unicode="&#xb0;" horiz-adv-x="860" 
d="M729.5 960.5c-29.001 -50.335 -69.666 -90.0029 -121.999 -119.002c-52.334 -29 -111.834 -43.5 -178.5 -43.5c-66.667 0 -126 14.667 -178 44s-92.5 69.333 -121.5 120s-43.5 106.334 -43.5 167.001c0 62 14.833 118.333 44.5 169s70.667 90.334 123 119.001
s110.833 43 175.5 43c66 0 125.167 -14.5 177.5 -43.5s93.166 -68.667 122.499 -119s44 -106.5 44 -168.5s-14.5 -118.167 -43.5 -168.5zM549.002 1305c-29.334 42.667 -69.667 64 -121 64c-50.667 -0.00292969 -90.334 -21.3359 -119 -64
c-28.667 -42.668 -43 -100.335 -43 -173c0 -76.668 14.5 -136.501 43.5 -179.499c29 -43 69.833 -64.5 122.5 -64.5c30.667 0.00488281 58.167 9.33789 82.5 27.999c24.333 18.668 43.5 45.501 57.5 80.5c14 35 21 76.5 21 124.5c-0.000976562 80 -14.668 141.333 -44 184z
" />
    <glyph glyph-name="plusminus" unicode="&#xb1;" 
d="M1275 0h-1111v163h473v395h-473v163h473v473h165v-473h473v-163h-473v-395h473v-163z" />
    <glyph glyph-name="uni00B2" unicode="&#xb2;" horiz-adv-x="1130" 
d="M177 631c28 29.333 72.001 66 132.001 110l156 114c27.334 19.333 55.834 43.166 85.5 71.499c29.668 28.333 50.501 52.833 62.5 73.5c20.001 30.667 34.334 59.167 42.999 85.5c8.67188 26.333 13.0049 59.833 13 100.5c0 58.667 -14.833 105.5 -44.5 140.5
s-69.834 52.5 -120.501 52.5c-30 0 -59.667 -5 -89 -15l22 -64c7.33594 -26 11.0029 -53 11 -81c0 -34 -12.833 -61.667 -38.499 -83c-25.667 -21.333 -58.5 -32 -98.5 -32c-36 0 -65.833 12.833 -89.5 38.5s-35.5 56.834 -35.5 93.501c0 40 16.667 77 50 111
s78.5 60.833 135.5 80.5s118.833 29.5 185.5 29.5c82 0 153 -11 213 -33s106.167 -53.667 138.5 -95s48.5 -91 48.5 -149c0 -101.333 -38.333 -183.333 -115 -246c-29.334 -24 -59.667 -44 -91 -60s-73.333 -35.333 -126 -58l-261 -111v-12h637v-203h-824v141z" />
    <glyph glyph-name="uni00B3" unicode="&#xb3;" horiz-adv-x="1130" 
d="M978 748c0 -55.334 -19.3281 -105.499 -57.9951 -150.499s-92.334 -80.5 -161.001 -106.5s-146.334 -39 -233.001 -39c-68.667 0 -132.167 9.83301 -190.5 29.5s-104.666 46.5 -138.999 80.5s-51.5 71 -51.5 111c0 38.667 11.167 70.334 33.5 95
c22.333 24.668 52.833 37.001 91.5 36.999c40.667 0 73.5 -10.5 98.5 -31.5s37.5 -48.833 37.5 -83.5c0 -22.667 -3.66699 -47.167 -11 -73.5c-7.33301 -26.334 -14.666 -49.167 -21.999 -68.499c36 -12 69.333 -18 100 -18c30.667 0.00390625 60.167 3.83691 88.5 11.5
c28.333 7.66699 51.166 19.167 68.499 34.5c22.668 19.333 39.335 42.166 50 68.499c10.6689 26.333 16.002 61.166 15.999 104.499c-0.000976562 63.333 -13.668 109.666 -41 138.999c-27.334 29.333 -73.001 44 -137.001 44h-88v93h62
c60 0.00390625 103.5 16.1709 130.5 48.5c27 32.334 40.5 83.501 40.5 153.5c-0.000976562 47.3369 -13.168 84.5039 -39.5 111.5c-26.334 27 -61.501 40.5 -105.5 40.5c-36 0 -68 -5 -96 -15l22 -64c7.33496 -26 11.002 -53 11 -81c0 -34 -12 -61 -36 -81s-56 -30 -96 -30
c-36 0 -65.833 12.5 -89.499 37.5c-23.667 25 -35.5 55.833 -35.5 92.5c0 40 16.833 76.833 50.5 110.5s79.167 60.167 136.5 79.5c57.333 19.3447 119.333 29.0117 186 29.001c68.667 0 126.334 -7 173 -21c46.667 -14 85.667 -34.667 117 -62
c24.0029 -20.6689 41.8359 -44.002 53.5 -69.999c11.6699 -26.0029 17.5029 -50.3359 17.499 -73c-0.00292969 -54.001 -15.6699 -98.334 -47.001 -133c-19.333 -21.333 -46.333 -41.166 -81 -59.499c-34.667 -18.335 -73.334 -31.502 -116.001 -39.5v-11
c29.333 -0.666992 62 -5.83398 98 -15.501s67.667 -23.167 95 -40.5c64.668 -42 97.001 -103.333 97 -184z" />
    <glyph glyph-name="acute" unicode="&#xb4;" horiz-adv-x="1024" 
d="M784 1388.5c-13.333 -19 -35.332 -38.168 -65.999 -57.501c-35.334 -22.667 -87.001 -52.667 -155.001 -90c-58 -32 -138 -78.667 -240 -140l-42 38c56.667 75.335 102 137.668 136 187l83 118c28 39.3359 55 66.5029 81 81.5c26 15 58.667 22.5 98 22.5
c20.667 0 40.667 -4 60 -12c19.333 -8.00586 35 -18.8389 47 -32.5c12 -13.667 18 -28.167 18 -43.5c-0.00292969 -28.6689 -6.66992 -52.502 -20 -71.499z" />
    <glyph glyph-name="uni00B5" unicode="&#xb5;" horiz-adv-x="1368" 
d="M1345 21c-28.6689 -13.333 -63.8369 -25.1699 -105.501 -35.5029c-41.6689 -10.333 -83.502 -15.5 -125.5 -15.5c-148 0 -232.667 55.333 -254 166h-6c-32.667 -54.667 -72.834 -96 -120.501 -124s-96.167 -42 -145.5 -42c-46 0 -85.333 4.66699 -117.999 14
c-32.667 9.33301 -60.667 24.666 -84 45.999h-11v-28c0 -24.667 10.667 -73.667 32 -147c20.667 -68 31 -117 31 -147c0 -30.666 -8 -57.499 -24 -80.499s-37.333 -40.667 -63.999 -53c-26.667 -12.333 -55 -18.5 -85 -18.5s-57.167 7 -81.5 21s-43.333 33.167 -57 57.501
c-13.667 24.333 -20.5 51.5 -20.5 81.5c0 40.667 6 83 18 127c12.667 50 21.5 88.833 26.5 116.5s9.83301 60.834 14.499 99.501c3.33301 38.667 5 67.667 5 87v846h328v-661c0 -70 13.333 -121 40 -153s65.667 -48 117 -48c42 0 79.5 9.66699 112.5 29
c33.001 19.333 60.834 46 83.5 80v753h329v-777c0 -28 4.5 -50.667 13.5 -68c9.00488 -17.333 23.1719 -30.666 42.501 -39.999c18.667 -8.66699 55 -13 109 -13v-73z" />
    <glyph glyph-name="paragraph" unicode="&#xb6;" horiz-adv-x="1124" 
d="M964 -216l-123.001 -0.000976562v1552h-165v-1552h-123v844c-90 0.00195312 -170.167 14.835 -240.5 44.5c-70.333 29.667 -125.666 74 -165.999 133c-40.333 59.001 -60.5 130.834 -60.5 215.5c0 73.333 17.167 140.333 51.5 201s83.5 108.667 147.5 144
c64 35.3418 138.333 53.0088 223 53.001h567v-83h-111v-1552z" />
    <glyph glyph-name="periodcentered" unicode="&#xb7;" horiz-adv-x="692" 
d="M517.5 449c-17.667 -30 -41.6689 -53.834 -72.002 -71.5c-30.333 -17.668 -63.166 -26.501 -98.499 -26.5c-35.333 0 -68.166 8.83301 -98.499 26.5s-54.5 41.334 -72.5 71.001s-27 62.167 -27 97.5s9 68 27 98s42.167 54 72.5 72s63.166 27 98.499 27
c35.334 0 68.001 -9 98.001 -27s54 -42 72 -72c18 -30.001 27 -62.668 27 -98.001c0 -34.667 -8.83301 -67 -26.5 -97z" />
    <glyph glyph-name="cedilla" unicode="&#xb8;" horiz-adv-x="1024" 
d="M699 -347.5c-19.334 -26.333 -47 -46.1699 -82.999 -59.5029c-36 -14 -80.5 -23.667 -133.5 -29s-119.5 -8 -199.5 -8v78h98c35.334 1.33301 63.001 4.33301 83.001 9s36.333 11.667 49 21c12.6689 10.667 19.002 27.334 19 50.001c0 24.667 -11.5 41.5 -34.5 50.5
s-57.5 13.5 -103.5 13.5v239h86v-113c76 0 136.333 -13.167 180.999 -39.5c44.667 -26.333 67 -65.166 66.999 -116.499c-0.00292969 -37.333 -9.66992 -69.166 -29 -95.499z" />
    <glyph glyph-name="uni00B9" unicode="&#xb9;" horiz-adv-x="1130" 
d="M278 562c74.667 5.33301 121.668 11.665 141.001 18.998c32.667 10.001 49 34.334 49 73v582h-193v84h40c40.667 0 77.667 4.33301 111 13s61.333 20.334 84 35.001c20.667 13.333 37.667 26.333 51 39s25.666 26.667 36.999 42h134l-1 -28l-3 -77
c-2 -42.6699 -3 -83.0029 -3 -120.999v-561c0.00878906 -18.002 3.8418 -33.1689 11.5 -45.5c7.66699 -12.3379 19.167 -22.1709 34.5 -29.5c14 -5.33594 35.667 -10.6689 65 -16c29.333 -5.33301 52.333 -8.33301 69 -9v-72h-627v72z" />
    <glyph glyph-name="ordmasculine" unicode="&#xba;" horiz-adv-x="1130" 
d="M982.5 814c-38.334 -65.333 -93.9971 -116.333 -166.997 -153s-159.167 -55 -258.5 -55c-94.667 0.000976562 -177.334 18.334 -248.001 55c-70.667 36.667 -125 87.334 -163 152c-38 64.667 -57 137.667 -57 219c0 83.335 19.167 157.168 57.5 221.499
c38.333 64.333 93.166 114.333 164.499 150s155.666 53.5 252.999 53.5s182 -18 254 -54s127 -85.667 165 -149s57 -135.666 57 -216.999c-0.00292969 -83.334 -19.1699 -157.667 -57.5 -223zM729.004 894c4.67773 38 7.00977 86.333 6.99902 144.999
c0 108.001 -10.333 186.668 -31 236c-14.001 34 -32.168 60 -54.5 78c-22.333 18 -50.833 27 -85.5 27c-36 0 -65.167 -9.16699 -87.5 -27.5s-40.833 -45.5 -55.5 -81.5c-11.333 -30.6699 -19 -65.0029 -23 -103c-4 -38 -6 -80 -6 -126c0 -63.334 2 -112.667 6 -147.999
c4.00098 -35.334 12.668 -70.667 26.001 -106c12.667 -33.334 30.5 -59.167 53.5 -77.5c23.001 -18.3369 51.834 -27.5039 86.5 -27.5c66 0.000976562 111.667 34.334 137 103c13.333 34 22.333 70 27 108z" />
    <glyph glyph-name="guillemotright" unicode="&#xbb;" horiz-adv-x="1250" 
d="M590 401c-38.667 -31.333 -96.333 -74.666 -173 -129.999l-245 -174l-52 43l308 403l-308 409l52 43l244 -173c72.667 -52.667 130.667 -96.667 174 -132c24.668 -19.335 43.001 -40.168 55 -62.5c12 -22.334 18 -49.167 18 -80.5
c0 -60.667 -24.333 -109.334 -73 -146.001zM1029 401c-38.667 -31.333 -96.333 -74.666 -173 -129.999l-245 -174l-52 43l308 403l-308 409l52 43l244 -173c72.667 -52.667 130.667 -96.667 174 -132c24.667 -19.335 43 -40.168 55 -62.5c12 -22.334 18 -49.167 18 -80.5
c-0.00195312 -60.667 -24.335 -109.334 -73 -146.001z" />
    <glyph glyph-name="onequarter" unicode="&#xbc;" horiz-adv-x="2194" 
d="M148 562c74.667 5.33301 121.667 11.665 141 18.998c32.667 10.001 49 34.334 49 73v582h-193v84h40c40.667 0 77.667 4.33301 111 13s61.333 20.334 84 35.001c20.667 13.333 37.667 26.333 51 39c13.334 12.667 25.667 26.667 37 42h134l-1 -28l-3 -77
c-2 -42.6699 -3 -83.0029 -3 -120.999v-561c0.00488281 -18.002 3.83789 -33.1689 11.5 -45.5c7.66699 -12.3379 19.167 -22.1709 34.5 -29.5c14 -5.33594 35.667 -10.6689 65 -16c29.333 -5.33301 52.333 -8.33301 69 -9v-72h-627v72zM1580 1429l-818 -1429h-156l816 1429
h158zM2068 225.999h-155v-246h-233v246h-477v139l502 600h208v-592h155v-147zM1680 372.999v421l-354 -421h354z" />
    <glyph glyph-name="onehalf" unicode="&#xbd;" horiz-adv-x="2194" 
d="M148 562c74.667 5.33301 121.667 11.665 141 18.998c32.667 10.001 49 34.334 49 73v582h-193v84h40c40.667 0 77.667 4.33301 111 13s61.333 20.334 84 35.001c20.667 13.333 37.667 26.333 51 39c13.334 12.667 25.667 26.667 37 42h134l-1 -28l-3 -77
c-2 -42.6699 -3 -83.0029 -3 -120.999v-561c0.00488281 -18.002 3.83789 -33.1689 11.5 -45.5c7.66699 -12.3379 19.167 -22.1709 34.5 -29.5c14 -5.33594 35.667 -10.6689 65 -16c29.333 -5.33301 52.333 -8.33301 69 -9v-72h-627v72zM1540 1429l-818 -1429h-156l816 1429
h158zM1292 140.999c28 29.333 71.9971 66.0039 131.997 110.004l156 114c27.333 19.334 55.833 43.167 85.5 71.5s50.5 52.833 62.5 73.5c20 30.667 34.333 59.167 43 85.5s13 59.833 13 100.5c-0.00683594 58.667 -14.8398 105.5 -44.5 140.5
c-29.6699 35 -69.8369 52.5 -120.5 52.5c-30 0 -59.667 -5 -89 -15l22 -64c7.36914 -26 11.0361 -53 11 -81c-0.00585938 -34.001 -12.8389 -61.668 -38.5 -83.001c-25.6709 -21.335 -58.5039 -32.002 -98.5 -32.001c-36.667 0 -66.667 12.667 -90 38s-35 56.666 -35 93.999
c0.0078125 40 16.6748 77 50.001 111c33.335 34.001 78.502 60.834 135.501 80.5c57 19.6719 118.833 29.5049 185.5 29.499c82 0 153 -11 213 -33c60.002 -22.001 106.169 -53.668 138.5 -95c32.333 -41.334 48.5 -91.001 48.5 -149.001
c-0.00585938 -101.334 -38.3389 -183.334 -115 -246c-29.333 -24 -59.666 -44 -90.999 -60s-73.333 -35.333 -126 -57.999l-261 -111v-12h637v-203h-824v141z" />
    <glyph glyph-name="threequarters" unicode="&#xbe;" horiz-adv-x="2194" 
d="M948 748c0 -55.334 -19.3281 -105.499 -57.9951 -150.499s-92.334 -80.5 -161.001 -106.5s-146.334 -39 -233.001 -39c-68.667 0 -132.167 9.83301 -190.5 29.5s-104.666 46.5 -138.999 80.5s-51.5 71 -51.5 111c0 38.667 11.167 70.334 33.5 95
c22.333 24.668 52.833 37.001 91.5 36.999c40.667 0 73.5 -10.5 98.5 -31.5s37.5 -48.833 37.5 -83.5c0 -22.667 -3.66699 -47.167 -11 -73.5c-7.33301 -26.334 -14.666 -49.167 -21.999 -68.499c36 -12 69.333 -18 100 -18c30 0.00390625 59.333 3.83691 88 11.5
c28.667 7.66699 51.667 19.167 69 34.5c22.668 19.333 39.335 42.166 50 68.499c10.6689 26.333 16.002 61.166 15.999 104.499c-0.000976562 63.333 -13.668 109.666 -41 138.999c-27.334 29.333 -73.001 44 -137.001 44h-88v93h62c60 0.00390625 103.5 16.1709 130.5 48.5
c27 32.334 40.5 83.501 40.5 153.5c-0.000976562 47.3369 -13.168 84.5039 -39.5 111.5c-26.334 27 -61.501 40.5 -105.5 40.5c-37.333 0 -69.333 -5 -96 -15l22 -64c7.33594 -26 11.0029 -53 11 -81c0 -34 -12 -61 -36 -81s-56 -30 -96 -30c-36 0 -65.833 12.5 -89.5 37.5
s-35.5 55.833 -35.5 92.5c0 40 16.833 76.833 50.5 110.5s79 60.167 136 79.5c57 19.3447 119.167 29.0117 186.5 29.001c68.668 0 126.335 -7 173.001 -21c46.667 -14 85.667 -34.667 117 -62c24.002 -20.6689 41.835 -44.002 53.499 -69.999
c11.6699 -26.0029 17.5029 -50.3359 17.499 -73c-0.00292969 -54.001 -15.6699 -98.334 -47.001 -133c-19.333 -21.333 -46.333 -41.166 -81 -59.499c-34.667 -18.335 -73.334 -31.502 -116.001 -39.5v-11c29.333 -0.666992 62 -5.83398 98 -15.501s67.667 -23.167 95 -40.5
c64.668 -42 97.001 -103.333 97 -184zM1677 1429l-818 -1429h-156l816 1429h158zM2113 226.002h-155v-246h-233v246h-477v139l502 600h208v-592h155v-147zM1725 373.002v421l-354 -421h354z" />
    <glyph glyph-name="questiondown" unicode="&#xbf;" horiz-adv-x="1123" 
d="M826.5 1175c-17.667 -28.667 -41.332 -51.6689 -70.999 -69.002s-61.5 -26 -95.5 -26c-33.334 0 -64.667 8.5 -94 25.5c-29.334 17 -53.001 40 -71.001 69s-27 59.833 -27 92.5c0 33.3359 8.83301 64.1689 26.5 92.5c17.667 28.333 41.167 50.833 70.5 67.5s61 25 95 25
c34.001 -0.0107422 65.834 -8.34375 95.5 -24.999c29.668 -16.667 53.335 -39.167 71 -67.5c17.6719 -28.333 26.5049 -59.166 26.5 -92.499c0 -32.668 -8.83301 -63.335 -26.5 -92zM985.002 107.998c-40 -42 -94.166 -75.334 -162.499 -100.001
c-68.334 -24.667 -143.167 -37 -224.5 -37c-97.333 0 -183 17.5 -257 52.5s-131.333 83.833 -172 146.5s-61 134.667 -61 216c0 86.667 19.667 163.5 59 230.5s97 121.167 173 162.5s167.333 66.666 274 75.999l6 136h89v-389c-96.667 -10 -172.334 -40.833 -227.001 -92.5
s-82 -123.5 -82 -215.5c0 -48.667 8.83301 -91.167 26.5 -127.5s42.5 -64.166 74.5 -83.499s69 -29 111 -29c26.667 0 51.834 3.16699 75.5 9.5c23.668 6.33301 43.501 14.833 59.5 25.5l-24 80c-8.66699 28.667 -13 60.667 -13 96c0 46 15.167 82 45.5 108
s72.5 39 126.5 39c49.333 0 88.833 -15.5 118.5 -46.5s44.5 -70.833 44.5 -119.499c0 -50 -20 -96 -60 -138z" />
    <glyph glyph-name="Agrave" unicode="&#xc0;" horiz-adv-x="1553" 
d="M957 1485c-64 28 -108.168 46.8301 -132.501 56.4971s-56.833 22.167 -97.5 37.5c-20 6.66699 -33.333 11.334 -40 14.001c-38.001 12.667 -68.168 23.334 -90.5 32.001c-22.333 8.66699 -44.833 17.667 -67.5 27c-5.33496 2.66699 -14.502 6.83398 -27.5 12.501
c-13 5.66699 -22.167 10.667 -27.5 15c-5.33301 4.3457 -12.333 11.1787 -21 20.499c-10.001 10 -16.334 17 -19 21c-2.66992 4 -4.33691 9 -5 15c-0.679688 3.33984 -1.0127 14.0068 -1 32c0.00683594 14 0.673828 25 2.00098 33c0.666992 4.66699 4 10 10 16
c5.33398 4.66699 15.667 12.334 31 23.001s26.333 17.667 33 21s14.667 5.33301 24 6c6 0.666992 22.667 1 50 1c20 0 33.167 -0.666992 39.5 -2s17.833 -6.33301 34.5 -15c17.333 -8.68066 29 -15.5137 35 -20.5c6 -5.00684 18.667 -17.8398 38 -38.5
c79.333 -84.667 137.333 -144.334 174 -179l59 -57c13.333 -12 24 -22 32 -30zM835.999 77.9971c26.668 2 45.4961 3.83203 56.4941 5.49902c11 1.66699 34.5 6.5 70.5 14.5c27.333 5.33301 45.333 9.33301 54 12c8.01562 2.66699 13.1826 5.5 15.5 8.5
c2.36523 3 3.53223 8.83301 3.50098 17.5l-1 18c-0.666992 7.33301 -3.66699 16.333 -9 27l-121 294h-490c-20.667 -48.667 -45 -113.334 -73 -194.001c-6.66699 -18.667 -11.667 -33.834 -15 -45.5c-3.33301 -11.667 -5.66602 -23.5 -6.99902 -35.5
c-2.66895 -15.333 -4.00195 -27 -4 -35c0.00488281 -12.667 0.671875 -21 2 -25c1.33496 -4 5.00195 -7.66699 11 -11c6 -4 18 -10 36 -18s31.667 -13.667 41 -17c10.667 -3.33301 25 -6 43 -8l57 -6l20 -2v-78h-582v78c23.333 0.666992 48.333 4.33398 75 11.001
c20.667 4 33.667 7 39 9s14 6.66699 26 14c20.667 12 33.834 20.5 39.501 25.5s15.834 16.167 30.501 33.5c14 17.333 23 29.5 27 36.5s10.667 22.5 20 46.5l490 1185h200l12 -31c112 -274 210.333 -517.667 295 -731c36.667 -93.334 69 -174.167 97 -242.5
c28.0039 -68.333 58.6709 -142.166 92 -221.499c6 -14.667 10.333 -24.167 13 -28.5s9.33398 -12.833 20.001 -25.5c9.33301 -12 16.333 -19.833 21 -23.5s16.667 -11.5 36 -23.5c14.0117 -8 23.6787 -13 29.001 -15c5.33301 -2 17.333 -5 36 -9
c24 -6 46.333 -9.33301 67 -10v-78h-773v78zM863.994 573.996l-206 514l-203 -514h409z" />
    <glyph glyph-name="Aacute" unicode="&#xc1;" horiz-adv-x="1553" 
d="M1124.5 1726.5c-2.33301 -5.67969 -9.83105 -14.8506 -22.498 -27.5039c-12.0127 -13.333 -21.3457 -22 -28 -26c-6.66895 -4 -22.3359 -11 -47 -21c-52 -20.6699 -108 -42.0029 -168 -64c-54.667 -20 -99.334 -37 -134.001 -51
c-34.667 -14.0059 -76.667 -31.3389 -126 -52l-33 41c69.333 66 121 116.333 155 151c48.667 50 85.334 88.333 110 115c18.667 20 31.167 32.5 37.5 37.5s18.166 11.833 35.499 20.5c16 8.66699 27 13.834 33 15.501c6.00391 1.66699 16.3369 2.5 31 2.5
c33.333 -0.0566406 53.333 -0.389648 60 -0.999023c8.66699 -0.723633 16.167 -2.55664 22.5 -5.5c6.33691 -3.01367 18.1699 -9.84668 35.499 -20.499l17.5 -12.5c7 -5 11.5 -8.5 13.5 -10.5c5.33301 -5.33301 8.33301 -10.666 9 -15.999
c1.36816 -9.33301 2.03516 -23.333 2.00098 -42c0 -16.6729 -1.16699 -27.8398 -3.5 -33.5zM836.002 77.9961c26.668 2 45.4951 3.83105 56.4932 5.49805c11 1.66699 34.5 6.5 70.5 14.5c27.333 5.33301 45.333 9.33301 54 12c8.01562 2.66699 13.1826 5.5 15.5 8.5
c2.36523 3 3.53223 8.83301 3.50098 17.5l-1 18c-0.666992 7.33301 -3.66699 16.333 -9 27l-121 294h-490c-20.667 -48.667 -45 -113.334 -73 -194.001c-6.66699 -18.667 -11.667 -33.834 -15 -45.5c-3.33301 -11.667 -5.66602 -23.5 -6.99902 -35.5
c-2.66895 -15.333 -4.00195 -27 -4 -35c0.00488281 -12.667 0.671875 -21 2 -25c1.33496 -4 5.00195 -7.66699 11 -11c6 -4 18 -10 36 -18s31.667 -13.667 41 -17c10.667 -3.33301 25 -6 43 -8l57 -6l20 -2v-78h-582v78c23.333 0.666992 48.333 4.33398 75 11.001
c20.667 4 33.667 7 39 9s14 6.66699 26 14c20.667 12 33.834 20.5 39.501 25.5s15.834 16.167 30.501 33.5c14 17.333 23 29.5 27 36.5s10.667 22.5 20 46.5l490 1185h200l12 -31c112 -274 210.333 -517.667 295 -731c36.667 -93.333 69 -174.166 97 -242.499
c28.0039 -68.333 58.6709 -142.166 92.001 -221.499c6 -14.667 10.333 -24.167 13 -28.5s9.33398 -12.833 20.001 -25.5c9.33301 -12 16.333 -19.833 21 -23.5s16.667 -11.5 36 -23.5c14.0117 -8 23.6787 -13 29.001 -15c5.33301 -2 17.333 -5 36 -9
c24 -6 46.333 -9.33301 67 -10v-78h-773v78zM863.996 573.994l-206 514l-203 -514h409z" />
    <glyph glyph-name="Acircumflex" unicode="&#xc2;" horiz-adv-x="1553" 
d="M787 1687l-343.998 -203.001l-33 29c68.667 84.667 120.667 147.667 156 189c26.667 32 55 67 84.999 105c12.0029 15.333 20.3359 24.833 25 28.5c4.66699 3.66699 14.667 9.5 30 17.5c16.668 8 28.835 12.5 36.5 13.5c7.66699 1 29.5 1.5 65.499 1.5
c18.667 0 31.167 -0.666992 37.5 -2s15.5 -5.33301 27.5 -12c13.333 -7.33301 22 -12.666 26 -15.999c4.00391 -3.33301 12.3369 -12.333 25 -27l83 -98l164 -200l-33 -29zM836.002 77.999c26.668 2 45.4951 3.83203 56.4932 5.49902c11 1.66699 34.5 6.5 70.5 14.5
c27.333 5.33301 45.333 9.33301 54 12c8.01562 2.66699 13.1826 5.5 15.5 8.5c2.36523 3 3.53223 8.83301 3.50098 17.5l-1 18c-0.666992 7.33301 -3.66699 16.333 -9 27l-121 294h-490c-20.667 -48.667 -45 -113.334 -73 -194.001
c-6.66699 -18.667 -11.667 -33.834 -15 -45.5c-3.33301 -11.667 -5.66602 -23.5 -6.99902 -35.5c-2.66895 -15.333 -4.00195 -27 -4 -35c0.00488281 -12.667 0.671875 -21 2 -25c1.33496 -4 5.00195 -7.66699 11 -11c6 -4 18 -10 36 -18s31.667 -13.667 41 -17
c10.667 -3.33301 25 -6 43 -8l57 -6l20 -2v-78h-582v78c23.333 0.666992 48.333 4.33398 75 11.001c20.667 4 33.667 7 39 9s14 6.66699 26 14c20.667 12 33.834 20.5 39.501 25.5s15.834 16.167 30.501 33.5c14 17.333 23 29.5 27 36.5s10.667 22.5 20 46.5l490 1185h200
l12 -31c112 -274 210.333 -517.667 295 -731c36.667 -93.334 69 -174.167 97 -242.5c28.0039 -68.333 58.6709 -142.166 92.001 -221.499c6 -14.667 10.333 -24.167 13 -28.5s9.33398 -12.833 20.001 -25.5c9.33301 -12 16.333 -19.833 21 -23.5s16.667 -11.5 36 -23.5
c14.0117 -8 23.6787 -13 29.001 -15c5.33301 -2 17.333 -5 36 -9c24 -6 46.333 -9.33301 67 -10v-78h-773v78zM863.996 573.998l-206 514l-203 -514h409z" />
    <glyph glyph-name="Atilde" unicode="&#xc3;" horiz-adv-x="1553" 
d="M1231 1844c-6 -21.333 -10.6699 -36.0049 -14.0029 -44.0049c-3.33301 -8.00684 -11.666 -25.3398 -24.999 -52c-14.667 -27.333 -24.667 -45.166 -30 -53.499s-17.666 -23.166 -36.999 -44.499c-21.333 -24.0059 -35.833 -39.3389 -43.5 -45.999
c-7.66699 -6.67871 -23.167 -17.3457 -46.5 -32c-18 -10.667 -30.5 -17.667 -37.5 -21s-14.5 -5.33301 -22.5 -6c-14.667 -1.33301 -36.667 -2 -66 -2c-26.667 0 -45 0.833008 -55 2.5s-27 6.83398 -51 15.501c-26.667 8.01172 -43.834 13.6787 -51.501 17
c-7.66699 3.3457 -21.5 10.0127 -41.5 20.001c-14.667 8 -39.667 20.333 -75 37c-20 9.33301 -33.5 14.833 -40.5 16.5s-19.833 2.5 -38.5 2.5c-18.667 -0.0507812 -30 -0.383789 -34 -1c-6 -0.716797 -11.667 -3.38379 -17 -8
c-7.33301 -6.67285 -17.166 -16.8398 -29.499 -30.5c-12.333 -13.6729 -21.166 -24.8398 -26.499 -33.501c-3.33301 -5.33301 -16.666 -30.333 -39.999 -75l-72 30c6.00098 17.3359 11.668 32.1689 17.001 44.499c5.33398 12.3428 13.001 27.5098 23 45.501
c12 24 20.833 40.333 26.5 49s18.5 25.334 38.5 50.001c18 22.0068 30.5 36.1738 37.5 42.501c7 6.33984 23.167 17.5068 48.5 33.5c18 11.333 31.667 19.333 41 24c7.33301 4 14.666 6.5 21.999 7.5s21 1.5 41 1.5c33.333 0 54.833 -0.666992 64.5 -2
c9.66797 -1.33301 27.501 -6 53.5 -14c5.33301 -1.33301 14.833 -4.33301 28.5 -9s25.167 -9.16699 34.5 -13.5s20.333 -9.83301 33 -16.5l76 -38c14.6719 -8 25.0049 -12.667 30.999 -14c6 -1.33301 19.667 -2 41 -2c25.333 0.0527344 45.333 0.719727 60 2
c10 1.35938 17.833 4.19238 23.5 8.49902c5.66699 4.36035 14.5 14.1934 26.5 29.5c14.667 20 24 34.333 28 43s11.333 28.667 22 60zM835.997 77.9951c26.668 2 45.4961 3.83203 56.4941 5.49902c11 1.66699 34.5 6.5 70.5 14.5c27.333 5.33301 45.333 9.33301 54 12
c8.01562 2.66699 13.1826 5.5 15.5 8.5c2.36523 3 3.53223 8.83301 3.50098 17.5l-1 18c-0.666992 7.33301 -3.66699 16.333 -9 27l-121 294h-490c-20.667 -48.667 -45 -113.334 -73 -194.001c-6.66699 -18.667 -11.667 -33.834 -15 -45.5
c-3.33301 -11.667 -5.66602 -23.5 -6.99902 -35.5c-2.66895 -15.333 -4.00195 -27 -4 -35c0.00488281 -12.667 0.671875 -21 2 -25c1.33496 -4 5.00195 -7.66699 11 -11c6 -4 18 -10 36 -18s31.667 -13.667 41 -17c10.667 -3.33301 25 -6 43 -8l57 -6l20 -2v-78h-582v78
c23.333 0.666992 48.333 4.33398 75 11.001c20.667 4 33.667 7 39 9s14 6.66699 26 14c20.667 12 33.834 20.5 39.501 25.5s15.834 16.167 30.501 33.5c14 17.333 23 29.5 27 36.5s10.667 22.5 20 46.5l490 1185h200l12 -31c112 -274 210.333 -517.667 295 -731
c36.667 -93.334 69 -174.167 97 -242.5c28.0039 -68.333 58.6709 -142.166 92 -221.499c6 -14.667 10.333 -24.167 13 -28.5s9.33398 -12.833 20.001 -25.5c9.33301 -12 16.333 -19.833 21 -23.5s16.667 -11.5 36 -23.5c14.0117 -8 23.6787 -13 29.001 -15
c5.33301 -2 17.333 -5 36 -9c24 -6 46.333 -9.33301 67 -10v-78h-773v78zM863.992 573.994l-206 514l-203 -514h409z" />
    <glyph glyph-name="Adieresis" unicode="&#xc4;" horiz-adv-x="1553" 
d="M681 1639c-0.666992 -8 -4.00098 -16.6719 -10.001 -26.0049c-6 -8.00586 -18 -21.3389 -36 -39.999c-18.001 -18.6729 -30.668 -31.0059 -38 -37c-7.33301 -6.67773 -15.333 -10.3447 -24 -11c-9.33398 -2 -26.001 -3 -50 -3c-20.667 0.046875 -37 0.713867 -49 2.00098
c-9.33301 1.36816 -17.666 5.03516 -24.999 11c-8 6.00586 -20.5 18.1729 -37.5 36.5c-17 18.333 -28.5 31.833 -34.5 40.5c-6.66699 8.66699 -10.334 17.334 -11 26.001c-1.33301 12 -2 29.333 -2 52c0.00585938 21.3398 0.672852 38.6729 2.00098 52
c0.666992 8.66699 4.33398 17.334 11.001 26.001c5.33398 8 16.667 21.333 34 40c17.334 18.667 29.667 31 37 37c7.33398 6.02832 15.667 9.69531 24.999 11c12 1.38965 28.667 2.05664 50 2c21.333 0 38 -0.666992 50 -2c8.66699 -0.695312 16.667 -4.3623 24 -11.001
c7.33301 -6.00684 20 -18.3398 38 -36.999c18 -18.6738 30 -32.0068 36 -40c6.00488 -9.33301 9.33789 -18 9.99902 -26c1.33301 -13.333 2 -30.666 2 -51.999c-0.0205078 -22 -0.6875 -39 -2 -51zM1217 1639c-0.685547 -8 -4.01953 -16.6709 -10.001 -26.0039
c-6.00488 -8.00586 -17.8379 -21.3389 -35.5 -39.999c-17.667 -18.6729 -30.167 -31.0059 -37.5 -37c-7.33301 -6.67871 -15.333 -10.3457 -24 -11.001c-8.66895 -2 -25.3359 -3 -50 -3c-20.6729 0.046875 -37.0059 0.713867 -49 2.00098
c-9.33691 1.36816 -17.6699 5.03516 -24.999 11c-8 6 -20.833 18.333 -38.5 37s-29.167 32 -34.5 40c-6.66699 8.66699 -10.334 17.334 -11.001 26.001c-1.36035 12 -2.02734 29.333 -2 52c0 21.3398 0.666992 38.6729 2 52c0.669922 8.66699 4.33691 17.334 11 26.001
c6 8.66699 17.5 22.167 34.5 40.5c17 18.3408 29.5 30.5078 37.5 36.501c7.33301 6.02832 15.666 9.69531 24.999 11c12.0059 1.38965 28.6729 2.05664 50 2c21.3398 0 38.0068 -0.666992 50.001 -2c8.66699 -0.695312 16.667 -4.3623 24 -11.001
c7.33301 -6.00684 19.833 -18.3398 37.5 -37c17.667 -18.6738 29.5 -32.0068 35.5 -40c6 -9.33301 9.33301 -18 10 -26c1.37109 -13.333 2.03809 -30.666 2.00098 -51.999c0 -22 -0.666992 -39 -2 -51zM835.998 77.9912c26.668 2 45.4951 3.83203 56.4932 5.49902
c11 1.66699 34.5 6.5 70.5 14.5c27.333 5.33301 45.333 9.33301 54 12c8.01562 2.66699 13.1826 5.5 15.5 8.5c2.36523 3 3.53223 8.83301 3.50098 17.5l-1 18c-0.666992 7.33301 -3.66699 16.333 -9 27l-121 294h-490c-20.667 -48.667 -45 -113.334 -73 -194.001
c-6.66699 -18.667 -11.667 -33.834 -15 -45.5c-3.33301 -11.667 -5.66602 -23.5 -6.99902 -35.5c-2.66895 -15.333 -4.00195 -27 -4 -35c0.00488281 -12.667 0.671875 -21 2 -25c1.33496 -4 5.00195 -7.66699 11 -11c6 -4 18 -10 36 -18s31.667 -13.667 41 -17
c10.667 -3.33301 25 -6 43 -8l57 -6l20 -2v-78h-582v78c23.333 0.666992 48.333 4.33398 75 11.001c20.667 4 33.667 7 39 9s14 6.66699 26 14c20.667 12 33.834 20.5 39.501 25.5s15.834 16.167 30.501 33.5c14 17.333 23 29.5 27 36.5s10.667 22.5 20 46.5l490 1185h200
l12 -31c112 -274 210.333 -517.667 295 -731c36.667 -93.334 69 -174.167 97 -242.5c28.0039 -68.333 58.6709 -142.166 92.001 -221.499c6 -14.667 10.333 -24.167 13 -28.5s9.33398 -12.833 20.001 -25.5c9.33301 -12 16.333 -19.833 21 -23.5s16.667 -11.5 36 -23.5
c14.0117 -8 23.6787 -13 29.001 -15c5.33301 -2 17.333 -5 36 -9c24 -6 46.333 -9.33301 67 -10v-78h-773v78zM863.992 573.99l-206 514l-203 -514h409z" />
    <glyph glyph-name="Aring" unicode="&#xc5;" horiz-adv-x="1553" 
d="M836 78c50 4.66699 95.8291 12.001 137.495 22.001c41.6699 10 62.5029 22 62.5 36c-0.015625 12 -3.34863 27 -9.99902 45l-121 294h-490c-22 -53.333 -46.333 -118 -72.999 -194c-12.667 -34 -20 -61 -21.999 -81c-2.66895 -13.333 -4.00195 -25 -4 -35
c0 -21.333 16.333 -39.333 49 -54c32 -14.667 85.667 -25.667 161 -33v-78h-582v78c22.667 0.666992 47.834 4 75.501 10s49.167 14 64.5 24c28 16.667 51 36 69 58s34 50 48 84l481 1163c-57.334 14.667 -102.167 41.167 -134.5 79.5
c-32.334 38.335 -48.501 85.168 -48.501 140.5c0 44.667 12.5 84.5 37.5 119.5s59 62.333 102 82s91.167 29.5 144.5 29.5c54.667 0 103.5 -9.5 146.5 -28.5s76.667 -46 101 -81c24.3379 -35 36.5049 -75.5 36.501 -121.5c0 -52 -15.167 -97.167 -45.5 -135.5
s-71.833 -65.5 -124.5 -81.5l67 -164l229 -567c82.667 -208 147.334 -366.667 194.001 -476c9.33887 -22 20.5059 -40.667 33.5 -56c13 -15.333 31.833 -30.333 56.5 -45c17.3359 -10.667 39.0029 -18.834 65 -24.501c26 -5.66699 48.333 -8.83398 67 -9.5v-78h-773v78z
M880.496 1753.5c-23 29.667 -55.498 44.498 -97.498 44.498c-41.334 0 -73.667 -14.667 -97 -44c-23.335 -29.333 -35.002 -69 -35.001 -119c0 -49.333 11.667 -89.166 35 -119.499s55.666 -45.5 96.999 -45.5c42 0 74.5 14.833 97.5 44.5s34.5 69.834 34.5 120.501
c0 49.333 -11.5 88.833 -34.5 118.5zM863.998 573.999l-206 514l-203 -514h409z" />
    <glyph glyph-name="AE" unicode="&#xc6;" horiz-adv-x="2191" 
d="M1965 1057c-12.667 36.002 -32.168 73.165 -58.501 111.496c-26.333 38.333 -55.833 71.333 -88.5 99c-32.6699 27.667 -64.0029 44.834 -94 51.501c-18.6699 4.02051 -45.8369 6.6875 -81.5 8.00098c-35.668 1.37402 -65.835 2.04102 -90.5 2h-186v-548h126
c40 0 74.5 4.66699 103.5 14c29.0029 9.33301 55.1699 25.666 78.5 48.999c14.667 14.668 30 41.335 46 80.001c16 38.667 26.333 72.667 31 102h76v-592h-76c-4 28.667 -14.5 64.5 -31.5 107.5s-32.167 71.5 -45.5 85.5c-21.333 23.333 -46.333 39.666 -75 48.999
c-28.6699 9.33301 -64.3369 14 -107.001 14h-126v-409c0.03125 -60 5.19824 -102.667 15.5 -128c10.3389 -25.333 30.1719 -42 59.5 -50c29.333 -8 78.333 -12 147 -12c96.667 0 164.667 4.33301 204 13c43.3389 8.66699 73.0059 21.334 89 38.001
c30 31.333 65 79.833 105 145.5c40.0039 65.667 67.3369 117.167 82 154.5h73l-27 -442h-1310v78c17.333 0.666992 42.5 3.33398 75.5 8.00098c33.001 4.66699 55.834 9.33398 68.5 14.001c22 8.66699 38.167 21.167 48.5 37.5s15.5 38.166 15.5 65.499v388h-496l-120 -212
l-10 -18c-22 -40.667 -37 -67.667 -45 -81c-24.667 -46 -38.667 -76.667 -42 -92l-5 -30c0 -13.333 7 -25.333 21 -36s31 -18.334 51 -23.001c20 -6 42 -10.833 66 -14.5s42.667 -5.83398 56 -6.50098v-78h-582v78c20.667 2 45.167 6.16699 73.5 12.5s48.833 13.5 61.5 21.5
c28.667 15.333 54.334 34.5 77.001 57.5s43.334 51.167 62.001 84.5l301 511c121.333 206.667 228.333 390.334 321 551.001c-14.667 4.66699 -40.5 9.33398 -77.5 14.001s-72.5 8.33398 -106.5 11.001v78h1423v-362h-76zM1012 687.996v641h-77l-364 -641h441z" />
    <glyph glyph-name="Ccedilla" unicode="&#xc7;" horiz-adv-x="1465" 
d="M725 -32c-86.667 8 -167.833 28.4961 -243.5 61.4961s-141.5 76.5 -197.5 130.5c-67.333 64.667 -119.666 143 -156.999 235s-56 192.333 -56 301c0 109.333 18.833 210.5 56.5 303.5s91.834 174.833 162.501 245.5c68.667 68 150.334 120.333 245.001 157
s196.667 55 306 55c137.334 0 263.667 -31 379 -93l62 55h87l9 -518h-88c-50 158 -110 274 -180 348s-155.333 111 -256 111c-83.334 -0.00292969 -153.667 -24.8359 -211 -74.5c-57.334 -49.668 -100.501 -121.501 -129.501 -215.5c-29 -94 -43.5 -207.333 -43.5 -340
c0 -210 40.333 -370.333 121 -481c37.333 -49.333 82.5 -85.833 135.5 -109.5s111.833 -35.5 176.499 -35.5c93.333 0 176.333 24.833 249 74.5s139.334 126.167 200.001 229.5l86 -52c-30.0029 -61.333 -63.3359 -114.833 -100 -160.5
c-36.6719 -45.667 -78.3389 -84.5 -125.001 -116.5c-54.002 -38 -113.335 -66.667 -178 -86c-64.667 -19.333 -139.334 -29 -224.001 -29v-60c76.001 0 136.334 -13.167 181 -39.5c44.667 -26.333 67 -65.166 67 -116.499c0 -37.333 -9.66699 -69.166 -29 -95.499
c-19.334 -26.333 -47.001 -46.166 -83 -59.499c-36 -14 -80.5 -23.667 -133.5 -29s-119.5 -8 -199.5 -8v78h98c35.333 1.33301 63 4.33301 83 9c20.002 4.66699 36.335 11.667 49 21c12.6699 10.667 19.0029 27.334 19 50.001c0 24.667 -11.5 41.5 -34.5 50.5
s-57.5 13.5 -103.5 13.5v190z" />
    <glyph glyph-name="Egrave" unicode="&#xc8;" horiz-adv-x="1477" 
d="M947 1485c-64 28 -108.167 46.8301 -132.5 56.4971s-56.833 22.167 -97.5 37.5c-20 6.66699 -33.333 11.334 -40 14.001c-38.001 12.667 -68.168 23.334 -90.5 32.001c-22.333 8.66699 -44.833 17.667 -67.5 27c-5.33398 2.66699 -14.501 6.83398 -27.501 12.501
s-22.167 10.667 -27.5 15c-5.33301 4.3457 -12.333 11.1787 -21 20.499c-10.001 10 -16.334 17 -19 21c-2.66992 4 -4.33691 9 -5 15c-0.679688 3.33984 -1.0127 14.0068 -1 32c0.00683594 14 0.673828 25 2.00098 33c0.666992 4.66699 4 10 10 16
c5.33496 4.66699 15.668 12.334 31 23.001c15.333 10.667 26.333 17.667 33 21s14.667 5.33301 24 6c6 0.666992 22.667 1 50 1c20 0 33.167 -0.666992 39.5 -2s17.833 -6.33301 34.5 -15c17.333 -8.68066 29 -15.5137 35 -20.5c6 -5.00684 18.667 -17.8398 38 -38.5
c79.333 -84.667 137.333 -144.334 174 -179l59 -57c13.333 -12 24 -22 32 -30zM1251 1057c-10.6758 30 -18.835 50.999 -24.4922 62.999c-5.66699 12 -13.167 24.333 -22.5 37c-14.6738 18.002 -34.0068 41.1689 -58 69.5c-24 28.3428 -40.667 47.1758 -50 56.5
c-10.667 10.0146 -21.167 17.1816 -31.5 21.5c-10.333 4.34375 -28.5 9.17676 -54.5 14.5c-14 3.39355 -26 5.56055 -36 6.5c-10.0029 1 -25.6699 1.83301 -47.001 2.5l-89 1h-206v-548h146c27.333 0 45.166 0.5 53.499 1.5c8.33301 1.00879 23.833 4.8418 46.5 11.5
c22.668 6.66992 37.335 12.0029 44 16c6.66797 4.00195 19.335 15.335 38 34c12.0059 12.0049 19.8389 21.3379 23.5 28c3.67285 6.66797 11.5059 24.335 23.5 53c12.002 30 19.1689 49 21.5 57c2.36523 8 5.19824 22.667 8.5 44h76v-592h-76c-2 18 -4 31 -6 39
c-2.00391 8 -7.6709 24 -17 48l-7 19l-8 20c-8.00391 19.333 -13.6709 32 -17 38c-4 7.33301 -12.833 18.5 -26.5 33.5s-23.5 24.5 -29.5 28.5c-6.66699 4 -21.334 9.5 -44.001 16.5s-38.334 11.167 -47.001 12.5c-6 0.6875 -25 1.02051 -57 0.999023h-146v-409
c0 -30.667 0.5 -50.167 1.5 -58.5c1.00488 -8.33301 3.83789 -22.5 8.5 -42.5c4.67383 -18 8.50684 -29.667 11.499 -35c3.00293 -5.33301 10.8359 -13 23.5 -23c12.6689 -10 22.002 -16 27.999 -18c6 -2 19.667 -4.33301 41 -6.99902c26.667 -4 54.667 -6 84 -6h34l84 1
c28.6689 0 57.3359 2 86 6c29.335 3.33301 55.668 8.33301 78.999 15c17.3418 4 28.1748 7.33301 32.499 10c4.34668 2.66699 11.5137 9 21.501 19c24 24.667 40.5 43.167 49.5 55.5s28.5 43.833 58.5 94.5c28.667 47.333 47 78.666 55 93.999c8 14.667 16 33.334 24 56.001
h73l-27 -442h-1331v78c14 0.666992 39.333 3.33398 76 8.00098c18.667 2 32.167 3.83301 40.5 5.5s17.5 4.5 27.5 8.5c19.333 8 31 13.667 35 17s9.33301 11.333 16 24c6.66699 12 10.5 20.667 11.5 26s1.5 17.333 1.5 36v1001c0 18 -0.5 29.5 -1.5 34.5
s-4.16699 13.5 -9.5 25.5c-5.33301 11.3379 -10.333 18.6709 -15 21.999c-4.66699 3.34375 -17.334 10.0107 -38.001 20.001c-10 4.66699 -18.5 8.16699 -25.5 10.5c-7 2.39355 -16.167 4.56055 -27.5 6.5l-20 5c-27.333 6 -51 10.333 -71 13v78h1258v-362h-76z" />
    <glyph glyph-name="Eacute" unicode="&#xc9;" horiz-adv-x="1477" 
d="M1059.5 1726.5c-2.33301 -5.67969 -9.83008 -14.8506 -22.4971 -27.5039c-12 -13.333 -21.333 -22 -28 -26s-22.334 -11 -47.001 -21c-52 -20.6699 -108 -42.0029 -168 -64c-54.667 -20 -99.334 -37 -134.001 -51c-34.667 -14.0059 -76.667 -31.3389 -126 -52l-33 41
c69.333 66 121 116.333 155 151c48.667 50 85.334 88.333 110 115c17.333 18.667 29.166 30.5 35.499 35.5s18.833 12.5 37.5 22.5c16 8.66699 27 13.834 33 15.501c6.00391 1.66699 16.3369 2.5 31 2.5c33.333 -0.0566406 53.333 -0.389648 60 -0.999023
c8.66699 -0.723633 16.167 -2.55664 22.5 -5.5c6.33301 -3.01367 18.166 -9.84668 35.499 -20.499l17.5 -12.5c7 -5 11.5 -8.5 13.5 -10.5c5.33301 -5.33301 8.33301 -10.666 9 -15.999c1.36621 -9.33301 2.0332 -23.333 2.00098 -42
c0 -16.6729 -1.16699 -27.8398 -3.5 -33.5zM1251 1057c-10.6758 30 -18.834 51 -24.4912 63c-5.66699 12 -13.167 24.333 -22.5 37c-14.6738 18.002 -34.0068 41.1689 -58 69.5c-24 28.3428 -40.667 47.1758 -50 56.5c-10.667 10.0146 -21.167 17.1816 -31.5 21.5
c-10.333 4.34375 -28.5 9.17676 -54.5 14.5c-14 3.39355 -26 5.56055 -36 6.5c-10.0029 1 -25.6699 1.83301 -47.001 2.5l-89 1h-206v-548h146c27.333 0 45.166 0.5 53.499 1.5c8.33301 1.00879 23.833 4.8418 46.5 11.5c22.668 6.66992 37.335 12.0029 44 16
c6.66797 4.00195 19.335 15.335 38 34c12.0059 12.0049 19.8389 21.3379 23.5 28c3.67285 6.66797 11.5059 24.335 23.5 53c12.002 30 19.1689 49 21.5 57c2.36523 8 5.19824 22.667 8.5 44h76v-592h-76c-2 18 -4 31 -6 39c-2.00391 8 -7.6709 24 -17 48l-7 19l-8 20
c-8.00391 19.333 -13.6709 32 -17 38c-4 7.33301 -12.833 18.5 -26.5 33.5s-23.5 24.5 -29.5 28.5c-6.66699 4 -21.334 9.5 -44.001 16.5s-38.334 11.167 -47.001 12.5c-6 0.6875 -25 1.02051 -57 0.999023h-146v-409c0 -30.667 0.5 -50.167 1.5 -58.5
c1.00488 -8.33301 3.83789 -22.5 8.5 -42.5c4.67383 -18 8.50684 -29.667 11.499 -35c3.00293 -5.33301 10.8359 -13 23.5 -23c12.6689 -10 22.002 -16 27.999 -18c6 -2 19.667 -4.33301 41 -6.99902c26.667 -4 54.667 -6 84 -6h34l84 1c28.6689 0 57.3359 2 86 6
c29.335 3.33301 55.668 8.33301 78.999 15c17.3418 4 28.1748 7.33301 32.499 10c4.34668 2.66699 11.5137 9 21.5 19c24 24.667 40.5 43.167 49.5 55.5s28.5 43.833 58.5 94.5c28.667 47.333 47 78.666 55 93.999c8 14.667 16 33.334 24 56.001h73l-27 -442h-1331v78
c14 0.666992 39.333 3.33398 76 8.00098c18.667 2 32.167 3.83301 40.5 5.5s17.5 4.5 27.5 8.5c19.333 8 31 13.667 35 17s9.33301 11.333 16 24c6.66699 12 10.5 20.667 11.5 26s1.5 17.333 1.5 36v1001c0 18 -0.5 29.5 -1.5 34.5s-4.16699 13.5 -9.5 25.5
c-5.33301 11.3379 -10.333 18.6709 -15 21.999c-4.66699 3.34277 -17.334 10.0098 -38.001 20c-10 4.66699 -18.5 8.16699 -25.5 10.5c-7 2.39355 -16.167 4.56055 -27.5 6.5l-20 5c-27.333 6 -51 10.333 -71 13v78h1258v-362h-76z" />
    <glyph glyph-name="Ecircumflex" unicode="&#xca;" horiz-adv-x="1477" 
d="M766 1687l-343.997 -203l-33 29c68.667 84.667 120.667 147.667 156 189c26.667 32 55 67 84.999 105c11.333 15.333 19.166 24.833 23.499 28.5s14.833 9.5 31.5 17.5c16.668 8 28.835 12.5 36.5 13.5c7.66699 1 29.5 1.5 65.499 1.5c18.667 0 31.167 -0.666992 37.5 -2
s15.5 -5.33301 27.5 -12c12.667 -6.69434 21.167 -11.8613 25.5 -15.5c4.33301 -3.68066 12.833 -12.8477 25.5 -27.5l83 -98l164 -200l-33 -29zM1251 1057c-10.6758 30 -18.834 51 -24.4912 63c-5.66699 12 -13.167 24.333 -22.5 37
c-14.6738 18.002 -34.0068 41.1689 -58 69.5c-24 28.3428 -40.667 47.1758 -50 56.5c-10.667 10.0146 -21.167 17.1816 -31.5 21.5c-10.333 4.34375 -28.5 9.17676 -54.5 14.5c-14 3.39355 -26 5.56055 -36 6.5c-10.0029 1 -25.6699 1.83301 -47.001 2.5l-89 1h-206v-548
h146c27.333 0 45.166 0.5 53.499 1.5c8.33301 1.00879 23.833 4.8418 46.5 11.5c22.668 6.66992 37.335 12.0029 44 16c6.66797 4.00195 19.335 15.335 38 34c12.0059 12.0049 19.8389 21.3379 23.5 28c3.67285 6.66797 11.5059 24.335 23.5 53
c12.002 30 19.1689 49 21.5 57c2.36523 8 5.19824 22.667 8.5 44h76v-592h-76c-2 18 -4 31 -6 39c-2.00391 8 -7.6709 24 -17 48l-7 19l-8 20c-8.00391 19.333 -13.6709 32 -17 38c-4 7.33301 -12.833 18.5 -26.5 33.5s-23.5 24.5 -29.5 28.5
c-6.66699 4 -21.334 9.5 -44.001 16.5s-38.334 11.167 -47.001 12.5c-6 0.6875 -25 1.02051 -57 0.999023h-146v-409c0 -30.667 0.5 -50.167 1.5 -58.5c1.00488 -8.33301 3.83789 -22.5 8.5 -42.5c4.67383 -18 8.50684 -29.667 11.499 -35
c3.00293 -5.33301 10.8359 -13 23.5 -23c12.6689 -10 22.002 -16 27.999 -18c6 -2 19.667 -4.33301 41 -6.99902c26.667 -4 54.667 -6 84 -6h34l84 1c28.6689 0 57.3359 2 86 6c29.335 3.33301 55.668 8.33301 78.999 15c17.3418 4 28.1748 7.33301 32.499 10
c4.34668 2.66699 11.5137 9 21.5 19c24 24.667 40.5 43.167 49.5 55.5s28.5 43.833 58.5 94.5c28.667 47.333 47 78.666 55 93.999c8 14.667 16 33.334 24 56.001h73l-27 -442h-1331v78c14 0.666992 39.333 3.33398 76 8.00098c18.667 2 32.167 3.83301 40.5 5.5
s17.5 4.5 27.5 8.5c19.333 8 31 13.667 35 17s9.33301 11.333 16 24c6.66699 12 10.5 20.667 11.5 26s1.5 17.333 1.5 36v1001c0 18 -0.5 29.5 -1.5 34.5s-4.16699 13.5 -9.5 25.5c-5.33301 11.3379 -10.333 18.6709 -15 21.999
c-4.66699 3.34277 -17.334 10.0098 -38.001 20c-10 4.66699 -18.5 8.16699 -25.5 10.5c-7 2.39355 -16.167 4.56055 -27.5 6.5l-20 5c-27.333 6 -51 10.333 -71 13v78h1258v-362h-76z" />
    <glyph glyph-name="Edieresis" unicode="&#xcb;" horiz-adv-x="1477" 
d="M669 1649c-0.666992 -8 -4.00293 -16.6738 -10.0029 -26.0068c-6 -8.00586 -18 -21.3389 -36 -39.999c-18.001 -18.6729 -30.668 -31.0059 -38 -37c-7.33301 -6.67871 -15.333 -10.3457 -24 -11.001c-8.66699 -2 -25.334 -3 -50.001 -3
c-20.667 0.046875 -37 0.713867 -48.999 2.00098c-9.33301 1.36816 -17.666 5.03516 -24.999 11c-8 6.00586 -20.5 18.1729 -37.5 36.5c-17 18.333 -28.5 31.833 -34.5 40.5c-6.66797 8.66699 -10.335 17.334 -11 26.001c-1.33301 12 -2 29.333 -2 52
c0.00488281 21.3369 0.671875 38.6699 2 52c0.666992 8.66699 4.33398 17.334 11.001 26.001c5.33398 8 16.667 21.333 34 40c17.334 18.667 29.667 31 37 37c7.33398 6.04297 15.667 9.70996 25 11.001c12.001 1.39062 28.668 2.05762 50.001 2.00098
c21.333 0 38 -0.666992 50 -2c8.66699 -0.680664 16.667 -4.34766 24 -11c7.33301 -6.00684 20 -18.3398 38 -36.999c18 -18.6738 30 -32.0068 36 -40c6.00488 -9.33301 9.33789 -18 10 -26c1.33301 -13.333 2 -30.666 2 -51.999c-0.0205078 -22 -0.6875 -39 -2 -51z
M1205 1648.99c-0.68457 -8 -4.01855 -16.6729 -10 -26.0059c-6.00488 -8.00586 -17.8379 -21.3389 -35.5 -39.999c-17.667 -18.6729 -30.167 -31.0059 -37.5 -37c-7.33301 -6.67871 -15.333 -10.3457 -24 -11.001c-8.66895 -2 -25.3359 -3 -50.001 -3
c-20.668 0.046875 -37.001 0.713867 -49 2.00098c-9.33691 1.36816 -17.6699 5.03516 -24.999 11c-8 6 -20.833 18.333 -38.5 37s-29.167 32 -34.5 40c-6.66699 8.66699 -10.334 17.334 -11.001 26.001c-1.36035 12 -2.02734 29.333 -2 52c0 21.3369 0.666992 38.6699 2 52
c0.673828 8.66699 4.34082 17.334 11.001 26.001c6 8.66699 17.5 22.167 34.5 40.5c17 18.3398 29.5 30.5068 37.5 36.5c7.33301 6.04297 15.666 9.70996 24.999 11.001c12.001 1.39062 28.668 2.05762 50 2.00098c21.3379 0 38.0049 -0.666992 50.001 -2
c8.66699 -0.680664 16.667 -4.34766 24 -11c7.33301 -6.00684 19.833 -18.3398 37.5 -37c17.667 -18.6738 29.5 -32.0068 35.5 -40c6 -9.33301 9.33301 -18 10 -26c1.37012 -13.333 2.03711 -30.666 2 -51.999c0 -22 -0.666992 -39 -2 -51zM1251 1056.99
c-10.6758 30 -18.835 50.999 -24.4922 62.999c-5.66699 12 -13.167 24.333 -22.5 37c-14.6738 18.002 -34.0068 41.1689 -58 69.5c-24 28.3428 -40.667 47.1758 -50 56.5c-10.667 10.0146 -21.167 17.1816 -31.5 21.5c-10.333 4.34375 -28.5 9.17676 -54.5 14.5
c-14 3.39355 -26 5.56055 -36 6.5c-10.0029 1 -25.6699 1.83301 -47.001 2.5l-89 1h-206v-548h146c27.333 0 45.166 0.5 53.499 1.5c8.33301 1.00879 23.833 4.8418 46.5 11.5c22.668 6.66992 37.335 12.0029 44 16c6.66797 4.00195 19.335 15.335 38 34
c12.0059 12.0049 19.8389 21.3379 23.5 28c3.67285 6.66797 11.5059 24.335 23.5 53c12.002 30 19.1689 49 21.5 57c2.36523 8 5.19824 22.667 8.5 44h76v-592h-76c-2 18 -4 31 -6 39c-2.00391 8 -7.6709 24 -17 48l-7 19l-8 20c-8.00391 19.333 -13.6709 32 -17 38
c-4 7.33301 -12.833 18.5 -26.5 33.5s-23.5 24.5 -29.5 28.5c-6.66699 4 -21.334 9.5 -44.001 16.5s-38.334 11.167 -47.001 12.5c-6 0.6875 -25 1.02051 -57 0.999023h-146v-409c0 -30.667 0.5 -50.167 1.5 -58.5c1.00488 -8.33301 3.83789 -22.5 8.5 -42.5
c4.67383 -18 8.50684 -29.667 11.499 -35c3.00293 -5.33301 10.8359 -13 23.5 -23c12.6689 -10 22.002 -16 27.999 -18c6 -2 19.667 -4.33301 41 -6.99902c26.667 -4 54.667 -6 84 -6h34l84 1c28.6689 0 57.3359 2 86 6c29.335 3.33301 55.668 8.33301 78.999 15
c17.3418 4 28.1748 7.33301 32.499 10c4.34668 2.66699 11.5137 9 21.501 19c24 24.667 40.5 43.167 49.5 55.5s28.5 43.833 58.5 94.5c28.667 47.333 47 78.666 55 93.999c8 14.667 16 33.334 24 56.001h73l-27 -442h-1331v78c14 0.666992 39.333 3.33398 76 8.00098
c18.667 2 32.167 3.83301 40.5 5.5s17.5 4.5 27.5 8.5c19.333 8 31 13.667 35 17s9.33301 11.333 16 24c6.66699 12 10.5 20.667 11.5 26s1.5 17.333 1.5 36v1001c0 18 -0.5 29.5 -1.5 34.5s-4.16699 13.5 -9.5 25.5c-5.33301 11.3379 -10.333 18.6709 -15 21.999
c-4.66699 3.34375 -17.334 10.0107 -38.001 20.001c-10 4.66699 -18.5 8.16699 -25.5 10.5c-7 2.39355 -16.167 4.56055 -27.5 6.5l-20 5c-27.333 6 -51 10.333 -71 13v78h1258v-362h-76z" />
    <glyph glyph-name="Igrave" unicode="&#xcc;" horiz-adv-x="913" 
d="M727 1485c-81.333 35.3359 -133.332 57.5 -155.999 66.4971c-22.667 9 -60.667 22.833 -114 41.5c-38 12.667 -68.167 23.334 -90.5 32.001s-44.833 17.667 -67.5 27c-25.333 10.667 -41.166 18 -47.499 22c-6.33301 4.01953 -15.833 12.6865 -28.5 26.001
c-10 10 -16.333 17 -19 21s-4.33398 9 -5.00098 15c-0.666992 3.33984 -1 14.0068 -1 32c0 14 0.666992 25 2 33c0.666992 4.66699 4 10 10 16c5.33301 4.66699 15.666 12.334 30.999 23.001s26.333 17.667 33 21s14.667 5.33301 24 6c6 0.666992 22.667 1 50 1
c20 0 33 -0.666992 39 -2s17.667 -6.33301 35 -15c16 -8 27 -14.5 33 -19.5s19.333 -18.167 40 -39.5c79.333 -84.667 137.333 -144.334 174 -179l59 -57c13.333 -12 24 -22 32 -30zM63.001 77.9971l79.999 5.99902c22 2 38 3.66699 48 5
c6.66699 1.33398 17.167 4.66699 31.5 10s23.5 9.66602 27.5 12.999s9.5 11.166 16.5 23.499s10.833 21.166 11.5 26.499c0.666992 3.33301 1 15.333 1 36v1006c0 17.3379 -0.5 28.1709 -1.5 32.5c-1.00098 4.34766 -4.83398 13.5146 -11.5 27.5
c-6.00098 13.3477 -11.168 21.5146 -15.501 24.5c-4.33398 3 -16.167 8.83301 -35.5 17.5c-11.333 5.33301 -22.166 9.33301 -32.499 12s-23.166 5.66699 -38.499 9c-32 6.66699 -59 11.334 -81 14.001v78h787v-78l-75 -8c-19.335 -2.04102 -33.168 -3.87402 -41.5 -5.5
c-8.33301 -1.66699 -19.833 -5.16699 -34.5 -10.5c-19.3359 -6.66699 -31.1689 -11.667 -35.5 -15c-4.33301 -3.33301 -9.83301 -11.666 -16.5 -24.999c-6.66699 -14 -10.5 -23.667 -11.5 -29s-1.5 -16.666 -1.5 -33.999v-1005c0 -17.333 0.666992 -28.5 2 -33.5
s5.33301 -14.167 12 -27.5s12.167 -21.666 16.5 -24.999s15.833 -9 34.5 -17c10.6689 -4.66699 20.3359 -8 29 -10c8.66797 -2 22.335 -4.33301 41 -6.99902c35.333 -6.66699 62.333 -10.334 81 -11.001v-78h-787v78z" />
    <glyph glyph-name="Iacute" unicode="&#xcd;" horiz-adv-x="913" 
d="M724.5 1726.5c-2.33301 -5.67969 -9.83301 -14.8506 -22.5 -27.5039c-12 -13.333 -21.333 -22 -28 -26s-22.334 -11 -47.001 -21c-52 -20.6699 -108 -42.0029 -168 -64c-54.667 -20 -99.334 -37 -134 -51c-34.667 -14.0059 -76.667 -31.3389 -126 -52l-33 41
c69.333 66 121 116.333 155 151c48.667 50 85.334 88.333 110.001 115c20.667 21.333 33.834 34.333 39.501 39s16.834 11 33.501 19c16 8.66699 27 13.834 33 15.501c6.00195 1.66699 16.335 2.5 31 2.5c33.333 -0.0566406 53.333 -0.389648 60 -0.999023
c8.66699 -0.723633 16.167 -2.55664 22.5 -5.5c6.33301 -3.01367 18.166 -9.84668 35.499 -20.499l17.5 -12.5c7 -5 11.5 -8.5 13.5 -10.5c5.33301 -5.33301 8.33301 -10.666 9 -15.999c1.33301 -9.33301 2 -23.333 2 -42
c-0.0224609 -16.6729 -1.18945 -27.8398 -3.50098 -33.5zM63 77.9961l79.999 5.99805c22 2 38 3.66699 48 5c6.66699 1.33398 17.167 4.66699 31.5 10s23.5 9.66602 27.5 12.999s9.5 11.166 16.5 23.499s10.833 21.166 11.5 26.499c0.666992 3.33301 1 15.333 1 36v1006
c0 17.3379 -0.5 28.1709 -1.5 32.5c-1.00098 4.34766 -4.83398 13.5146 -11.5 27.5c-6.00098 13.3477 -11.168 21.5146 -15.501 24.5c-4.33398 3 -16.167 8.83301 -35.5 17.5c-11.333 5.33301 -22.166 9.33301 -32.499 12s-23.166 5.66699 -38.499 9
c-32 6.66699 -59 11.334 -81 14.001v78h787v-78l-75 -8c-19.335 -2.04004 -33.168 -3.87305 -41.5 -5.49902c-8.33301 -1.66699 -19.833 -5.16699 -34.5 -10.5c-19.3359 -6.66699 -31.1689 -11.667 -35.5 -15c-4.33301 -3.33301 -9.83301 -11.666 -16.5 -24.999
c-6.66699 -14 -10.5 -23.667 -11.5 -29s-1.5 -16.666 -1.5 -33.999v-1005c0 -17.333 0.666992 -28.5 2 -33.5s5.33301 -14.167 12 -27.5s12.167 -21.666 16.5 -24.999s15.833 -9 34.5 -17c10.6689 -4.66699 20.3359 -8 29 -10c8.66797 -2 22.335 -4.33301 41 -6.99902
c35.333 -6.66699 62.333 -10.334 81 -11.001v-78h-787v78z" />
    <glyph glyph-name="Icircumflex" unicode="&#xce;" horiz-adv-x="913" 
d="M453 1687l-344 -203.001l-33 29c68.667 84.667 120.667 147.667 156 189c26.667 32 55 67 85 105c11.334 15.333 19.167 24.833 23.5 28.5s14.833 9.5 31.5 17.5s28.834 12.5 36.501 13.5s29.5 1.5 65.5 1.5c18.667 0 31.167 -0.666992 37.5 -2s15.5 -5.33301 27.5 -12
c13.333 -7.33301 22 -12.666 26 -15.999c4.00293 -3.33301 12.3359 -12.333 24.999 -27l83 -98l164 -200l-33 -29zM63 77.999l79.999 5.99902c22 2 38 3.66699 48 5c6.66699 1.33398 17.167 4.66699 31.5 10s23.5 9.66602 27.5 12.999s9.5 11.166 16.5 23.499
s10.833 21.166 11.5 26.499c0.666992 3.33301 1 15.333 1 36v1006c0 17.3379 -0.5 28.1709 -1.5 32.5c-1.00098 4.34766 -4.83398 13.5146 -11.5 27.5c-6.00098 13.3477 -11.168 21.5146 -15.501 24.5c-4.33398 3 -16.167 8.83301 -35.5 17.5
c-11.333 5.33301 -22.166 9.33301 -32.499 12s-23.166 5.66699 -38.499 9c-32 6.66699 -59 11.334 -81 14.001v78h787v-78l-75 -8c-19.335 -2.04102 -33.168 -3.87402 -41.5 -5.5c-8.33301 -1.66699 -19.833 -5.16699 -34.5 -10.5
c-19.3359 -6.66699 -31.1689 -11.667 -35.5 -15c-4.33301 -3.33301 -9.83301 -11.666 -16.5 -24.999c-6.66699 -14 -10.5 -23.667 -11.5 -29s-1.5 -16.666 -1.5 -33.999v-1005c0 -17.333 0.666992 -28.5 2 -33.5s5.33301 -14.167 12 -27.5s12.167 -21.666 16.5 -24.999
s15.833 -9 34.5 -17c10.6689 -4.66699 20.3359 -8 29 -10c8.66797 -2 22.335 -4.33301 41 -6.99902c35.333 -6.66699 62.333 -10.334 81 -11.001v-78h-787v78z" />
    <glyph glyph-name="Idieresis" unicode="&#xcf;" horiz-adv-x="913" 
d="M346 1617.5c-14.667 -25.6729 -34.3359 -46.3389 -59.002 -62c-24.667 -15.6846 -51 -23.5176 -79 -23.5c-28.667 0.0175781 -55.167 7.68457 -79.5 23c-24.333 15.333 -43.666 35.833 -57.999 61.5s-21.5 53.5 -21.5 83.5c0 28.667 7.16699 56 21.5 82
s33.833 46.833 58.5 62.5s51 23.5 79 23.5c28 -0.0146484 54.333 -7.84766 79 -23.5c24.667 -15.6699 44.334 -36.3369 59.001 -62c14.667 -25.667 22 -53.167 22 -82.5c-0.000976562 -29.333 -7.33398 -56.833 -22 -82.5zM840.998 1617.5
c-14.667 -25.6729 -34.167 -46.3398 -58.5 -62.001c-24.334 -15.6846 -50.501 -23.5176 -78.5 -23.5c-28.667 0.0175781 -55.167 7.68457 -79.5 23c-24.333 15.333 -43.833 35.833 -58.5 61.5s-22 53.5 -22 83.5c0 28.667 7.16699 56 21.5 82s33.833 46.833 58.5 62.5
s51.334 23.5 80 23.5c42.668 0 80.001 -16.667 112 -50c31.333 -35.333 47 -74.666 47 -117.999c0 -29.333 -7.33301 -56.833 -22 -82.5zM62.998 78.001l79.999 5.99902c22 2 38 3.66699 48 5c6.66699 1.33398 17.167 4.66699 31.5 10s23.5 9.66602 27.5 12.999
s9.5 11.166 16.5 23.499s10.833 21.166 11.5 26.499c0.666992 3.33301 1 15.333 1 36v1006c0 17.3379 -0.5 28.1709 -1.5 32.5c-1.00098 4.34766 -4.83398 13.5146 -11.5 27.5c-6.00098 13.3477 -11.168 21.5146 -15.501 24.5c-4.33398 3 -16.167 8.83301 -35.5 17.5
c-11.333 5.33301 -22.166 9.33301 -32.499 12s-23.166 5.66699 -38.499 9c-32 6.66699 -59 11.334 -81 14.001v78h787v-78l-75 -8c-19.335 -2.04102 -33.168 -3.87402 -41.5 -5.5c-8.33301 -1.66699 -19.833 -5.16699 -34.5 -10.5
c-19.3359 -6.66699 -31.1689 -11.667 -35.5 -15c-4.33301 -3.33301 -9.83301 -11.666 -16.5 -24.999c-6.66699 -14 -10.5 -23.667 -11.5 -29s-1.5 -16.666 -1.5 -33.999v-1005c0 -17.333 0.666992 -28.5 2 -33.5s5.33301 -14.167 12 -27.5s12.167 -21.666 16.5 -24.999
s15.833 -9 34.5 -17c10.6689 -4.66699 20.3359 -8 29 -10c8.66797 -2 22.335 -4.33301 41 -6.99902c35.333 -6.66699 62.333 -10.334 81 -11.001v-78h-787v78z" />
    <glyph glyph-name="Eth" unicode="&#xd0;" horiz-adv-x="1708" 
d="M1560.5 1040c51 -95.333 76.5 -208.668 76.5 -340.001c0 -116 -23.167 -219 -69.5 -309s-110.166 -164.333 -191.499 -223c-78.667 -55.333 -168.667 -97.166 -270 -125.499c-101.334 -28.333 -208.667 -42.5 -322 -42.5h-715v78
c41.333 2.66699 73.166 5.16699 95.499 7.5s38.5 5.83301 48.5 10.5c23.333 9.33301 39.833 22.5 49.5 39.5s14.5 37.833 14.5 62.5v488h-195v105h195v413c-0.000976562 25.333 -4.83398 46.833 -14.5 64.5c-9.66699 17.667 -26.167 31.5 -49.5 41.5
c-22.667 10 -48.167 17.5 -76.5 22.5s-51.5 7.83301 -69.5 8.5v78h755c91.333 -0.00585938 182 -11.3389 272 -34c90 -22.6709 174.333 -60.0039 253 -112c91.335 -60 162.502 -137.667 213.5 -233zM1207 958.998c-20.002 77.334 -49.333 143.001 -87.9971 197
c-39.333 55.333 -87.833 97.833 -145.5 127.5s-122.834 44.5 -195.501 44.5c-40.001 -0.0410156 -66.668 -0.374023 -80.001 -1l-45 -2l-22 -1v-533h305v-105h-305v-439c0 -25.333 3.16699 -46.833 9.5 -64.5s17.166 -33.167 32.499 -46.5
c16.002 -15.333 35.335 -26.333 58 -33c22 -8 51 -12 87 -12c75.333 0 140.166 14 194.499 42s97.833 69 130.5 123c32.002 52 55.6689 114.5 71 187.5c15.3477 73 23.0146 158.833 23.001 257.5c0 94.667 -10 180.667 -30 258z" />
    <glyph glyph-name="Ntilde" unicode="&#xd1;" horiz-adv-x="1719" 
d="M1332 1844c-6 -21.333 -10.666 -36.0029 -13.999 -44.0029c-3.33301 -8.00684 -11.666 -25.3398 -24.999 -52c-14.667 -27.333 -24.667 -45.166 -30 -53.499s-17.666 -23.166 -36.999 -44.499c-22.667 -25.333 -37.667 -41.166 -45 -47.499s-22.333 -16.5 -45 -30.5
c-18 -10.667 -30.5 -17.667 -37.5 -21s-14.5 -5.33301 -22.5 -6c-12 -1.33301 -27.667 -2 -47 -2c-34.667 0 -57.334 0.833008 -68.001 2.5s-29.667 6.83398 -57 15.501c-26.667 8.01172 -43.834 13.6787 -51.501 17c-7.66699 3.3457 -21.5 10.0127 -41.5 20.001
c-14.667 8 -39.667 20.333 -75 37c-22.001 9.33301 -36.168 14.833 -42.5 16.5c-6.33496 1.66699 -18.502 2.5 -36.501 2.5c-18.667 -0.0507812 -30 -0.383789 -34 -1c-6.00195 -0.716797 -11.6689 -3.38379 -17 -8c-7.33496 -6.67285 -17.168 -16.8398 -29.5 -30.5
c-12.3379 -13.6729 -21.1709 -24.8398 -26.5 -33.501c-3.33398 -5.33301 -16.667 -30.333 -39.999 -75l-72 30c6.00098 17.3359 11.668 32.1689 17 44.499c5.33496 12.3428 13.002 27.5098 23.001 45.501c14 26 23.5 43 28.5 51s17.167 24 36.5 48
c16 21.3398 27.667 35.1729 35 41.5c7.33301 6.33301 24.333 17.833 51 34.5c18 11.333 31.667 19.333 41 24c7.33301 4 14.666 6.5 21.999 7.5s21 1.5 41 1.5c33.333 0 54.833 -0.666992 64.5 -2c9.66797 -1.33301 27.501 -6 53.499 -14
c5.33301 -1.33301 14.833 -4.33301 28.5 -9s25.167 -9.16699 34.5 -13.5s20.333 -9.83301 33 -16.5l76 -38c14.667 -8 25 -12.667 31 -14c6.00391 -1.33301 19.6709 -2 41 -2c25.333 0.0527344 45.333 0.719727 60 2c10 1.35938 17.833 4.19238 23.5 8.49902
c5.66699 4.36035 14.5 14.1934 26.5 29.5c14.667 20 24 34.333 28 43s11.333 28.667 22 60zM1699 1341c-22.6729 -2.66699 -48.3467 -6.17188 -77.0068 -10.5049c-28.667 -4.33301 -46.667 -8.16602 -54 -11.499c-8 -3.33301 -20.667 -11.166 -38 -23.499
s-28.333 -21.166 -33 -26.499c-4 -4 -7.66699 -11 -11 -21s-8.33301 -29.167 -15 -57.5s-10.667 -49.833 -12 -64.5c-1.33301 -22.667 -2 -62.667 -2 -120v-1014h-178l-884 1097v-666c0.00585938 -62 0.672852 -100.833 2 -116.499c1.33301 -15.667 6.33301 -39.5 15 -71.5
c4.66699 -18.667 9.33398 -35 14.001 -49c3.33398 -8.66699 7.16699 -15.667 11.499 -21c4.33496 -5.33301 13.502 -13.666 27.501 -24.999c13.333 -11.333 23.333 -18.5 30 -21.5s25.334 -8.83301 56 -17.5l20 -6c34.667 -9.33301 59.334 -15 74 -17v-78h-610v78
c18 1.33301 33.333 3.16602 46 5.49902s27.334 5.5 44.001 9.5c24.667 5.33301 40.334 9.33301 47.001 12s19 10.334 37 23.001c14.667 10.667 24.667 18.667 30 24s9.33301 12 12 20c4 9.33301 9 26.666 15 51.999s9.33301 45.333 10 60
c0.666992 11.334 1 54.001 1 128.001v672c0 24.667 -0.666992 41 -2 49s-5.66602 23.333 -12.999 46c-8 22.0049 -14 36.1719 -18 42.501c-4 6.33789 -14.333 17.5049 -31 33.5c-17.333 17.3379 -29.166 28.0049 -35.499 32c-6.33301 4 -21.166 11.333 -44.499 22
c-22 9.34375 -37.5 15.1768 -46.5 17.5c-9 2.35352 -28.167 6.52051 -57.5 12.5v80h534l776 -960v537c0 64 -0.666992 104 -2 120c-1.33301 16.002 -6.33301 39.6689 -15 71c-4 15.3398 -8.66699 31.0068 -14 47c-3.33301 8.00977 -7.33301 14.6768 -12 20.001
c-4.67676 5.33789 -14.0098 13.6709 -28 24.999c-14.6719 11.3379 -25.5049 18.6709 -32.5 21.999c-7.00684 3.33301 -24.8398 9.33301 -53.499 18c-38.6689 11.3438 -69.3359 18.6768 -92 22v78h609v-78z" />
    <glyph glyph-name="Ograve" unicode="&#xd2;" horiz-adv-x="1679" 
d="M1074 1485c-81.333 35.3359 -133.331 57.5 -155.998 66.4971c-22.667 9 -60.667 22.833 -114 41.5c-38.001 12.667 -68.168 23.334 -90.501 32.001s-44.833 17.667 -67.5 27c-24 10.0195 -39.333 17.1865 -46 21.501c-6.66699 4.33984 -16.667 13.1729 -30 26.5
c-10 10 -16.333 17 -19 21s-4.33398 9 -5.00098 15c-0.666992 3.33984 -1 14.0068 -1 32c0 14 0.666992 25 2 33c0.670898 4.66699 4.00391 10 10 16c5.33301 4.66699 15.666 12.334 30.999 23.001s26.333 17.667 33 21s14.667 5.33301 24 6c6 0.666992 22.667 1 50 1
c20 0 33 -0.666992 39 -2s17.667 -6.33301 35 -15c17.333 -8.68066 29 -15.5137 35 -20.5c6 -5.00684 18.667 -17.8398 38 -38.5c79.333 -84.667 137.333 -144.334 174 -179l59 -57c13.3379 -12 24.0049 -22 32.001 -30zM1460.5 1183.5
c14.3389 -15.6729 26.5039 -32.5078 36.498 -50.501c10 -18.0029 26.333 -52.3359 49 -103c22.667 -50.667 38 -86.667 46 -108c7.37012 -22 12.0371 -45 14 -69c1.38281 -33.334 2.0498 -78.001 2.00098 -134.001c0 -49.333 -0.666992 -89.333 -2 -120
c-2 -22.001 -6 -43.668 -12 -65.001c-6 -21.334 -18.667 -58.001 -38 -110.001s-33.333 -87.667 -42 -107c-8.66699 -18.667 -19.167 -35.5 -31.5 -50.5s-37.833 -42.833 -76.5 -83.5c-36 -36.667 -63 -63 -81 -79c-16 -14 -34 -26.333 -54 -37
c-21.333 -10.667 -57.5 -26.667 -108.5 -48s-87.167 -35.333 -108.5 -42c-25.333 -8 -50 -12.333 -74 -13c-26.667 -2 -75.667 -3 -147 -3c-57.334 0 -97.001 1 -119 3c-20.667 0.666992 -42.334 4.33398 -65.001 11.001c-21.334 6 -57.667 18.5 -108.999 37.5
c-51.333 19 -86.666 32.833 -105.999 41.5c-18.667 8.66699 -36.667 19.667 -54 33s-45.333 37.833 -84 73.5s-64.667 60.834 -78 75.501c-14 15.333 -26 32.333 -36 51c-10 18 -26.333 52.333 -49 103s-38 87 -46 109c-8 23.333 -12.333 45.666 -13 66.999
c-2 23.333 -3 66 -3 128c0 64.667 1 109.334 3 134c1.33301 24.001 5.5 46.834 12.5 68.5c7 21.668 21.833 59.501 44.5 113.5c22 52 38 88 48 108c10 19.333 22 37.333 36 54c14 16 40.167 42.5 78.5 79.5c38.333 37.0029 65.833 62.1699 82.5 75.501
c18 14.667 36 26 54 34c20 9.33301 56 23.833 108 43.5c52.001 19.667 89.334 32.834 112 39.501c20.667 6 43 10 66.999 12c30.667 1.37793 71.667 2.04492 123 2c51.333 0 92.333 -0.666992 123 -2c23.333 -2 45.666 -6 66.999 -12c21.3359 -6 57.6689 -18.667 109 -38
c52.667 -20 88.334 -34 107.001 -42c18.667 -8.67676 35.834 -19.0098 51.501 -31c15.667 -12 43.167 -36 82.5 -72c39.3359 -36.002 66.1689 -61.835 80.5 -77.499zM1157.5 319.995c5.66699 13.334 10.4941 27.999 14.4941 43.999
c4.00879 19.333 10.1758 53.666 18.5 102.999c8.36035 49.333 13.5273 84 15.5 104c1.37012 28 2.03711 75 2 141c0 61.333 -0.666992 102 -2 122c-1.33301 20.001 -6.33301 59.334 -15 118l-15 89c-3.33301 16 -7.66602 30.833 -12.999 44.5s-16 38.167 -32 73.5
c-17.333 36 -28.666 59.333 -33.999 70c-6.67871 11.3379 -14.5117 21.1709 -23.499 29.499c-9.00586 8.33301 -27.8389 23.833 -56.499 46.5c-26 20.667 -44.833 34.167 -56.5 40.5c-11.667 6.35449 -24.834 10.5215 -39.501 12.501c-20 1.375 -47 2.04199 -81 2.00098
c-68.667 -0.0410156 -114.334 -2.37402 -137.001 -6.99902c-23.334 -4.67188 -43.667 -17.3389 -61 -38.001c-16 -20.0039 -41.333 -61.8369 -76 -125.5c-34.667 -63.668 -58 -110.501 -70 -140.5c-10.667 -30 -17.667 -66 -21 -108
c-2.66992 -37.333 -4.00293 -116.333 -3.99902 -237c0 -66 0.833008 -109.5 2.5 -130.5s7.83398 -61.167 18.501 -120.5c6.66699 -40.667 12.334 -70.667 17.001 -90c3.33301 -16 7.83301 -30.833 13.5 -44.499c5.66797 -13.667 16.835 -37.5 33.501 -71.5
c15.333 -30 27.333 -52.333 36 -67c7.33301 -12 15.833 -22.333 25.5 -31s27.167 -22 52.5 -40c26 -18.667 44.5 -31 55.5 -37s23.5 -9.66699 37.5 -11c18.667 -1.33301 44.334 -2 77 -2c32.001 0 57.334 0.666992 76 2c14 1.33301 26.5 5 37.5 11
c11.002 6 29.835 18.333 56.5 37c26.667 18.667 44.667 32.167 54 40.5c9.3418 8.33301 17.6748 18.5 25 30.5c10.667 18 22 40 34 66c17.333 36 28.833 60.667 34.5 74z" />
    <glyph glyph-name="Oacute" unicode="&#xd3;" horiz-adv-x="1679" 
d="M1094.5 1726.5c-2.33301 -5.67969 -9.83105 -14.8506 -22.498 -27.5039c-14 -14.0195 -24 -22.8525 -30 -26.5c-6 -3.67969 -21 -10.5127 -45 -20.5c-52 -20.6699 -108 -42.0029 -168 -64c-54.667 -20 -99.334 -37 -134.001 -51
c-34.667 -14.0059 -76.667 -31.3389 -126 -52l-33 41c69.333 66 121 116.333 155 151c48.667 50 85.334 88.333 110 115c18.667 20 31.167 32.5 37.5 37.5s18.166 11.833 35.499 20.5c18 8.66699 30.167 13.834 36.5 15.501s18.833 2.5 37.5 2.5
c27.333 -0.0566406 44 -0.389648 50 -0.999023c8.66699 -0.723633 16.167 -2.55664 22.5 -5.5c6.33691 -3.01367 18.1699 -9.84668 35.499 -20.499l17.5 -12.5c7 -5 11.5 -8.5 13.5 -10.5c5.33301 -5.33301 8.33301 -10.666 9 -15.999
c1.36719 -9.33301 2.03418 -23.333 2.00098 -42c0 -16.6729 -1.16699 -27.8398 -3.5 -33.5zM1460.5 1183.5c14.3389 -15.6729 26.5039 -32.5088 36.498 -50.502c10 -18.0029 26.333 -52.3359 49 -103c22.667 -50.667 38 -86.667 46 -108c7.37012 -22 12.0371 -45 14 -69
c1.38281 -33.334 2.0498 -78.001 2.00098 -134.001c0 -49.333 -0.666992 -89.333 -2 -120c-2 -22.001 -6 -43.668 -12 -65.001c-6 -21.334 -18.667 -58.001 -38 -110.001s-33.333 -87.667 -42 -107c-8.66699 -18.667 -19.167 -35.5 -31.5 -50.5s-37.833 -42.833 -76.5 -83.5
c-36 -36.667 -63 -63 -81 -79c-16 -14 -34 -26.333 -54 -37c-21.333 -10.667 -57.5 -26.667 -108.5 -48s-87.167 -35.333 -108.5 -42c-25.333 -8 -50 -12.333 -74 -13c-26.667 -2 -75.667 -3 -147 -3c-57.334 0 -97.001 1 -119 3
c-20.667 0.666992 -42.334 4.33398 -65.001 11.001c-21.334 6 -57.667 18.5 -108.999 37.5c-51.333 19 -86.666 32.833 -105.999 41.5c-18.667 8.66699 -36.667 19.667 -54 33s-45.333 37.833 -84 73.5s-64.667 60.834 -78 75.501c-14 15.333 -26 32.333 -36 51
c-10 18 -26.333 52.333 -49 103s-38 87 -46 109c-8 23.333 -12.333 45.666 -13 66.999c-2 23.333 -3 66 -3 128c0 64.667 1 109.334 3 134c1.33301 24.001 5.5 46.834 12.5 68.5c7 21.668 21.833 59.501 44.5 113.5c22 52 38 88 48 108c10 19.333 22 37.333 36 54
c14 16 40.167 42.5 78.5 79.5c38.333 37.0029 65.833 62.1699 82.5 75.501c18 14.667 36 26 54 34c20 9.33301 56 23.833 108 43.5c52.001 19.667 89.334 32.834 112 39.501c20.667 6 43 10 66.999 12c30.667 1.37793 71.667 2.04492 123 2
c51.333 0 92.333 -0.666992 123 -2c23.333 -2 45.666 -6 66.999 -12c21.3359 -6 57.6689 -18.667 109 -38c52.667 -20 88.334 -34 107.001 -42c18.667 -8.67676 35.834 -19.0098 51.501 -30.999c15.667 -12 43.167 -36 82.5 -72
c39.3359 -36.002 66.1689 -61.835 80.5 -77.499zM1157.5 319.993c5.66699 13.334 10.4941 27.999 14.4941 43.999c4.00879 19.333 10.1758 53.666 18.5 102.999c8.36035 49.333 13.5273 84 15.5 104c1.37012 28 2.03711 75 2 141c0 61.333 -0.666992 102 -2 122
c-1.33301 20.001 -6.33301 59.334 -15 118l-15 89c-3.33301 16 -7.66602 30.833 -12.999 44.5s-16 38.167 -32 73.5c-17.333 36 -28.666 59.333 -33.999 70c-6.67871 11.3379 -14.5117 21.1709 -23.499 29.499c-9.00586 8.33301 -27.8389 23.833 -56.499 46.5
c-26 20.667 -44.833 34.167 -56.5 40.5c-11.667 6.35449 -24.834 10.5215 -39.501 12.501c-20 1.375 -47 2.04199 -81 2.00098c-68.667 -0.0410156 -114.334 -2.37402 -137.001 -6.99902c-23.334 -4.67188 -43.667 -17.3389 -61 -38.001
c-16 -20.0039 -41.333 -61.8369 -76 -125.5c-34.667 -63.668 -58 -110.501 -70 -140.5c-10.667 -30 -17.667 -66 -21 -108c-2.66992 -37.333 -4.00293 -116.333 -3.99902 -237c0 -66 0.833008 -109.5 2.5 -130.5s7.83398 -61.167 18.501 -120.5
c6.66699 -40.667 12.334 -70.667 17.001 -90c3.33301 -16 7.83301 -30.833 13.5 -44.499c5.66797 -13.667 16.835 -37.5 33.501 -71.5c15.333 -30 27.333 -52.333 36 -67c7.33301 -12 15.833 -22.333 25.5 -31s27.167 -22 52.5 -40c26 -18.667 44.5 -31 55.5 -37
s23.5 -9.66699 37.5 -11c18.667 -1.33301 44.334 -2 77 -2c32.001 0 57.334 0.666992 76 2c14 1.33301 26.5 5 37.5 11c11.002 6 29.835 18.333 56.5 37c26.667 18.667 44.667 32.167 54 40.5c9.3418 8.33301 17.6748 18.5 25 30.5c10.667 18 22 40 34 66
c17.333 36 28.833 60.667 34.5 74z" />
    <glyph glyph-name="Ocircumflex" unicode="&#xd4;" horiz-adv-x="1679" 
d="M836 1687l-343.998 -203.002l-33 29c69.333 84.667 121.333 147.667 156 189c26.667 32 55 67 84.999 105c12.0029 15.333 20.3359 24.833 25 28.5c4.66699 3.66699 14.667 9.5 30 17.5c12.667 6 21.667 9.83301 27 11.5s14.166 2.66699 26.499 3
c12.333 0.390625 28.5 0.557617 48.5 0.500977c18.667 0 31.167 -0.666992 37.5 -2s15.5 -5.33301 27.5 -12c12 -5.33301 20 -9.66602 24 -12.999c4.01074 -3.33301 8.84375 -8.5 14.5 -15.5c5.66992 -7.04199 9.83691 -11.875 12.5 -14.5l83 -98l164 -200l-33 -29z
M1460.5 1183.5c14.3389 -15.6729 26.5039 -32.5088 36.498 -50.502c10 -18.0029 26.333 -52.3359 49 -103c22.667 -50.667 38 -86.667 46 -108c7.37012 -22 12.0371 -45 14 -69c1.38281 -33.334 2.0498 -78.001 2.00098 -134.001c0 -49.333 -0.666992 -89.333 -2 -120
c-2 -22.001 -6 -43.668 -12 -65.001c-6 -21.334 -18.667 -58.001 -38 -110.001s-33.333 -87.667 -42 -107c-8.66699 -18.667 -19.167 -35.5 -31.5 -50.5s-37.833 -42.833 -76.5 -83.5c-36 -36.667 -63 -63 -81 -79c-16 -14 -34 -26.333 -54 -37
c-21.333 -10.667 -57.5 -26.667 -108.5 -48s-87.167 -35.333 -108.5 -42c-25.333 -8 -50 -12.333 -74 -13c-26.667 -2 -75.667 -3 -147 -3c-57.334 0 -97.001 1 -119 3c-20.667 0.666992 -42.334 4.33398 -65.001 11.001c-21.334 6 -57.667 18.5 -108.999 37.5
c-51.333 19 -86.666 32.833 -105.999 41.5c-18.667 8.66699 -36.667 19.667 -54 33s-45.333 37.833 -84 73.5s-64.667 60.834 -78 75.501c-14 15.333 -26 32.333 -36 51c-10 18 -26.333 52.333 -49 103s-38 87 -46 109c-8 23.333 -12.333 45.666 -13 66.999
c-2 23.333 -3 66 -3 128c0 64.667 1 109.334 3 134c1.33301 24.001 5.5 46.834 12.5 68.5c7 21.668 21.833 59.501 44.5 113.5c22 52 38 88 48 108c10 19.333 22 37.333 36 54c14 16 40.167 42.5 78.5 79.5c38.333 37.0029 65.833 62.1699 82.5 75.501
c18 14.667 36 26 54 34c20 9.33301 56 23.833 108 43.5c52.001 19.667 89.334 32.834 112 39.501c20.667 6 43 10 66.999 12c30.667 1.37793 71.667 2.04492 123 2c51.333 0 92.333 -0.666992 123 -2c23.333 -2 45.666 -6 66.999 -12c21.3359 -6 57.6689 -18.667 109 -38
c52.667 -20 88.334 -34 107.001 -42c18.667 -8.67676 35.834 -19.0098 51.501 -30.999c15.667 -12 43.167 -36 82.5 -72c39.3359 -36.002 66.1689 -61.835 80.5 -77.499zM1157.5 319.995c5.66699 13.334 10.4941 27.999 14.4941 43.999
c4.00879 19.333 10.1758 53.666 18.5 102.999c8.36035 49.333 13.5273 84 15.5 104c1.37012 28 2.03711 75 2 141c0 61.333 -0.666992 102 -2 122c-1.33301 20.001 -6.33301 59.334 -15 118l-15 89c-3.33301 16 -7.66602 30.833 -12.999 44.5s-16 38.167 -32 73.5
c-17.333 36 -28.666 59.333 -33.999 70c-6.67871 11.3379 -14.5117 21.1709 -23.499 29.499c-9.00586 8.33301 -27.8389 23.833 -56.499 46.5c-26 20.667 -44.833 34.167 -56.5 40.5c-11.667 6.35449 -24.834 10.5215 -39.501 12.501c-20 1.375 -47 2.04199 -81 2.00098
c-68.667 -0.0410156 -114.334 -2.37402 -137.001 -6.99902c-23.334 -4.67188 -43.667 -17.3389 -61 -38.001c-16 -20.0039 -41.333 -61.8369 -76 -125.5c-34.667 -63.668 -58 -110.501 -70 -140.5c-10.667 -30 -17.667 -66 -21 -108
c-2.66992 -37.333 -4.00293 -116.333 -3.99902 -237c0 -66 0.833008 -109.5 2.5 -130.5s7.83398 -61.167 18.501 -120.5c6.66699 -40.667 12.334 -70.667 17.001 -90c3.33301 -16 7.83301 -30.833 13.5 -44.499c5.66797 -13.667 16.835 -37.5 33.501 -71.5
c15.333 -30 27.333 -52.333 36 -67c7.33301 -12 15.833 -22.333 25.5 -31s27.167 -22 52.5 -40c26 -18.667 44.5 -31 55.5 -37s23.5 -9.66699 37.5 -11c18.667 -1.33301 44.334 -2 77 -2c32.001 0 57.334 0.666992 76 2c14 1.33301 26.5 5 37.5 11
c11.002 6 29.835 18.333 56.5 37c26.667 18.667 44.667 32.167 54 40.5c9.3418 8.33301 17.6748 18.5 25 30.5c10.667 18 22 40 34 66c17.333 36 28.833 60.667 34.5 74z" />
    <glyph glyph-name="Otilde" unicode="&#xd5;" horiz-adv-x="1679" 
d="M1286 1844c-6 -21.333 -10.668 -36.002 -14.001 -44.002c-3.33301 -8.00684 -11.666 -25.3398 -24.999 -52c-14.667 -27.333 -24.667 -45.166 -30 -53.499s-17.666 -23.166 -36.999 -44.499c-22.667 -25.333 -37.667 -41.166 -45 -47.499s-22.333 -16.5 -45 -30.5
c-18 -10.667 -30.5 -17.667 -37.5 -21s-14.5 -5.33301 -22.5 -6c-12.002 -1.33301 -27.6689 -2 -47 -2c-34.667 0 -57.334 0.833008 -68.001 2.5s-29.667 6.83398 -57 15.501c-27.335 8.66699 -45.002 14.5 -53 17.5c-8 3 -21.333 9.5 -40 19.5
c-14.667 8 -39.667 20.333 -75 37c-22 9.33301 -36 14.833 -42 16.5s-18.333 2.5 -37 2.5c-18.667 -0.0507812 -30 -0.383789 -34 -1c-6.00195 -0.716797 -11.6689 -3.38379 -17 -8c-7.33594 -7.33301 -17.1689 -17.833 -29.5 -31.5
c-12.335 -13.6729 -21.168 -24.8398 -26.5 -33.501c-3.33301 -5.33301 -16.666 -30 -39.999 -74l-72 30c6 18.667 11.333 33 16 43c4.66699 10.0088 12.667 25.6758 24 47c14 26 23.5 43 28.5 51s17.167 24 36.5 48c16 21.3398 27.667 35.1729 35 41.5
c7.33301 6.33301 24.333 17.833 51 34.5c18 11.333 31.667 19.333 41 24c7.33301 4 14.666 6.5 21.999 7.5s21 1.5 41 1.5c33.333 0 54.833 -0.666992 64.5 -2c9.66895 -1.33301 27.502 -6 53.5 -14c5.33301 -1.33301 14.833 -4.33301 28.5 -9s25.167 -9.16699 34.5 -13.5
s20.333 -9.83301 33 -16.5l76 -38c14.6709 -8 25.0039 -12.667 31 -14c6.00195 -1.33301 19.6689 -2 41 -2c25.333 0.0527344 45.333 0.719727 60 2c10 1.35938 17.833 4.19238 23.5 8.49902c5.66699 4.36035 14.5 14.1934 26.5 29.5c14.667 20 24 34.333 28 43
s11.333 28.667 22 60zM1460.5 1183.5c14.3389 -15.6729 26.5049 -32.5088 36.499 -50.502c10 -18.0029 26.333 -52.3359 49 -103c22.667 -50.667 38 -86.667 46 -108c7.37012 -22 12.0371 -45 14 -69c1.38281 -33.334 2.0498 -78.001 2.00098 -134.001
c0 -49.333 -0.666992 -89.333 -2 -120c-2 -22.001 -6 -43.668 -12 -65.001c-6 -21.334 -18.667 -58.001 -38 -110.001s-33.333 -87.667 -42 -107c-8.66699 -18.667 -19.167 -35.5 -31.5 -50.5s-37.833 -42.833 -76.5 -83.5c-36 -36.667 -63 -63 -81 -79
c-16 -14 -34 -26.333 -54 -37c-21.333 -10.667 -57.5 -26.667 -108.5 -48s-87.167 -35.333 -108.5 -42c-25.333 -8 -50 -12.333 -74 -13c-26.667 -2 -75.667 -3 -147 -3c-57.334 0 -97.001 1 -119 3c-20.667 0.666992 -42.334 4.33398 -65.001 11.001
c-21.334 6 -57.667 18.5 -108.999 37.5c-51.333 19 -86.666 32.833 -105.999 41.5c-18.667 8.66699 -36.667 19.667 -54 33s-45.333 37.833 -84 73.5s-64.667 60.834 -78 75.501c-14 15.333 -26 32.333 -36 51c-10 18 -26.333 52.333 -49 103s-38 87 -46 109
c-8 23.333 -12.333 45.666 -13 66.999c-2 23.333 -3 66 -3 128c0 64.667 1 109.334 3 134c1.33301 24.001 5.5 46.834 12.5 68.5c7 21.668 21.833 59.501 44.5 113.5c22 52 38 88 48 108c10 19.333 22 37.333 36 54c14 16 40.167 42.5 78.5 79.5
c38.333 37.0029 65.833 62.1699 82.5 75.501c18 14.667 36 26 54 34c20 9.33301 56 23.833 108 43.5c52.001 19.667 89.334 32.834 112 39.501c20.667 6 43 10 66.999 12c30.667 1.37793 71.667 2.04492 123 2c51.333 0 92.333 -0.666992 123 -2
c23.333 -2 45.666 -6 66.999 -12c21.335 -6 57.668 -18.667 108.999 -38c52.667 -20 88.334 -34 107.001 -42c18.667 -8.67676 35.834 -19.0098 51.501 -30.999c15.667 -12 43.167 -36 82.5 -72c39.3359 -36.002 66.1689 -61.835 80.5 -77.499zM1157.5 319.995
c5.66699 13.334 10.4941 27.999 14.4941 43.999c4.00879 19.333 10.1758 53.666 18.5 102.999c8.36035 49.333 13.5273 84 15.5 104c1.37012 28 2.03711 75 2 141c0 61.333 -0.666992 102 -2 122c-1.33301 20.001 -6.33301 59.334 -15 118l-15 89
c-3.33301 16 -7.66602 30.833 -12.999 44.5s-16 38.167 -32 73.5c-17.333 36 -28.666 59.333 -33.999 70c-6.67871 11.3379 -14.5117 21.1709 -23.499 29.499c-9.00586 8.33301 -27.8389 23.833 -56.499 46.5c-26 20.667 -44.833 34.167 -56.5 40.5
c-11.667 6.35449 -24.834 10.5215 -39.501 12.501c-20 1.375 -47 2.04199 -81 2.00098c-68.667 -0.0410156 -114.334 -2.37402 -137.001 -6.99902c-23.334 -4.67188 -43.667 -17.3389 -61 -38.001c-16 -20.0039 -41.333 -61.8369 -76 -125.5
c-34.667 -63.668 -58 -110.501 -70 -140.5c-10.667 -30 -17.667 -66 -21 -108c-2.66992 -37.333 -4.00293 -116.333 -3.99902 -237c0 -66 0.833008 -109.5 2.5 -130.5s7.83398 -61.167 18.501 -120.5c6.66699 -40.667 12.334 -70.667 17.001 -90
c3.33301 -16 7.83301 -30.833 13.5 -44.499c5.66797 -13.667 16.835 -37.5 33.501 -71.5c15.333 -30 27.333 -52.333 36 -67c7.33301 -12 15.833 -22.333 25.5 -31s27.167 -22 52.5 -40c26 -18.667 44.5 -31 55.5 -37s23.5 -9.66699 37.5 -11
c18.667 -1.33301 44.334 -2 77 -2c32.001 0 57.334 0.666992 76 2c14 1.33301 26.5 5 37.5 11c11.002 6 29.835 18.333 56.5 37c26.667 18.667 44.667 32.167 54 40.5c9.3418 8.33301 17.6748 18.5 25 30.5c10.667 18 22 40 34 66c17.333 36 28.833 60.667 34.5 74z" />
    <glyph glyph-name="Odieresis" unicode="&#xd6;" horiz-adv-x="1679" 
d="M729 1649c-0.666992 -8 -3.99902 -16.6738 -9.99902 -26.0068c-6 -8.00586 -18 -21.3389 -36 -39.999c-18.001 -18.6729 -30.668 -31.0059 -38 -37c-7.33301 -6.67871 -15.333 -10.3457 -24 -11.001c-8.66699 -2 -25.334 -3 -50.001 -3
c-20.667 0.046875 -37 0.713867 -49 2.00098c-9.33496 1.36816 -17.668 5.03516 -25 11c-8 6.00586 -20.5 18.1729 -37.5 36.5c-17 18.333 -28.5 31.833 -34.5 40.5c-6.66699 8.66699 -10.334 17.334 -11 26.001c-1.33301 12 -2 29.333 -2 52
c0.00585938 21.3369 0.672852 38.6699 2 52c0.666992 8.66699 4.33398 17.334 11.001 26.001c5.33398 8 16.667 21.333 34 40c17.334 18.667 29.667 31 37 37c7.33398 6.04297 15.667 9.70996 24.999 11.001c12 1.39062 28.667 2.05762 50 2.00098
c21.333 0 38 -0.666992 50 -2c8.66699 -0.680664 16.667 -4.34766 24 -11c7.33301 -6.00684 20 -18.3398 38 -36.999c18 -18.6738 30 -32.0068 36 -40c6.00586 -9.33301 9.33887 -18 10 -26c1.33301 -13.333 2 -30.666 2 -51.999c-0.0224609 -22 -0.689453 -39 -2 -51z
M1265 1648.99c-0.685547 -8 -4.02051 -16.6729 -10.001 -26.0059c-6.00488 -8.00586 -17.8379 -21.3389 -35.5 -39.999c-17.667 -18.6729 -30.167 -31.0059 -37.5 -37c-7.33301 -6.67871 -15.333 -10.3457 -24 -11.001c-9.33301 -2 -26 -3 -50 -3
c-20.6709 0.046875 -37.0039 0.713867 -49 2.00098c-9.33301 1.36816 -17.666 5.03516 -24.999 11c-8 6 -20.833 18.333 -38.5 37s-29.167 32 -34.5 40c-6.66699 8.66699 -10.334 17.334 -11.001 26.001c-1.3623 12 -2.0293 29.333 -2 52c0 21.3369 0.666992 38.6699 2 52
c0.669922 8.66699 4.33691 17.334 11 26.001c6 8.66699 17.5 22.167 34.5 40.5c17 18.3398 29.5 30.5068 37.5 36.5c7.3418 6.04297 15.6748 9.70996 25 11.001c12.0039 1.39062 28.6709 2.05762 50 2.00098c21.3379 0 38.0049 -0.666992 50.001 -2
c8.66699 -0.680664 16.667 -4.34766 24 -11c7.33301 -6.00684 19.833 -18.3398 37.5 -37c17.667 -18.6738 29.5 -32.0068 35.5 -40c6 -9.33301 9.33301 -18 10 -26c1.37207 -13.333 2.03906 -30.666 2 -51.999c0 -22 -0.666992 -39 -2 -51zM1460.5 1183.49
c14.3389 -15.6729 26.5049 -32.5078 36.499 -50.501c10 -18.0029 26.333 -52.3359 49 -103c22.667 -50.667 38 -86.667 46 -108c7.37012 -22 12.0371 -45 14 -69c1.38281 -33.334 2.0498 -78.001 2.00098 -134.001c0 -49.333 -0.666992 -89.333 -2 -120
c-2 -22.001 -6 -43.668 -12 -65.001c-6 -21.334 -18.667 -58.001 -38 -110.001s-33.333 -87.667 -42 -107c-8.66699 -18.667 -19.167 -35.5 -31.5 -50.5s-37.833 -42.833 -76.5 -83.5c-36 -36.667 -63 -63 -81 -79c-16 -14 -34 -26.333 -54 -37
c-21.333 -10.667 -57.5 -26.667 -108.5 -48s-87.167 -35.333 -108.5 -42c-25.333 -8 -50 -12.333 -74 -13c-26.667 -2 -75.667 -3 -147 -3c-57.334 0 -97.001 1 -119 3c-20.667 0.666992 -42.334 4.33398 -65.001 11.001c-21.334 6 -57.667 18.5 -108.999 37.5
c-51.333 19 -86.666 32.833 -105.999 41.5c-18.667 8.66699 -36.667 19.667 -54 33s-45.333 37.833 -84 73.5s-64.667 60.834 -78 75.501c-14 15.333 -26 32.333 -36 51c-10 18 -26.333 52.333 -49 103s-38 87 -46 109c-8 23.333 -12.333 45.666 -13 66.999
c-2 23.333 -3 66 -3 128c0 64.667 1 109.334 3 134c1.33301 24.001 5.5 46.834 12.5 68.5c7 21.668 21.833 59.501 44.5 113.5c22 52 38 88 48 108c10 19.333 22 37.333 36 54c14 16 40.167 42.5 78.5 79.5c38.333 37.0029 65.833 62.1699 82.5 75.501
c18 14.667 36 26 54 34c20 9.33301 56 23.833 108 43.5c52.001 19.667 89.334 32.834 112 39.501c20.667 6 43 10 66.999 12c30.667 1.37793 71.667 2.04492 123 2c51.333 0 92.333 -0.666992 123 -2c23.333 -2 45.666 -6 66.999 -12c21.335 -6 57.668 -18.667 108.999 -38
c52.667 -20 88.334 -34 107.001 -42c18.667 -8.67676 35.834 -19.0098 51.501 -31c15.667 -12 43.167 -36 82.5 -72c39.3359 -36.002 66.1689 -61.835 80.5 -77.499zM1157.5 319.985c5.66699 13.334 10.4941 27.999 14.4941 43.999
c4.00879 19.333 10.1758 53.666 18.5 102.999c8.36035 49.333 13.5273 84 15.5 104c1.37012 28 2.03711 75 2 141c0 61.333 -0.666992 102 -2 122c-1.33301 20.001 -6.33301 59.334 -15 118l-15 89c-3.33301 16 -7.66602 30.833 -12.999 44.5s-16 38.167 -32 73.5
c-17.333 36 -28.666 59.333 -33.999 70c-6.67871 11.3379 -14.5117 21.1709 -23.499 29.499c-9.00586 8.33301 -27.8389 23.833 -56.499 46.5c-26 20.667 -44.833 34.167 -56.5 40.5c-11.667 6.35449 -24.834 10.5215 -39.501 12.501c-20 1.375 -47 2.04199 -81 2.00098
c-68.667 -0.0410156 -114.334 -2.37402 -137.001 -6.99902c-23.334 -4.67188 -43.667 -17.3389 -61 -38.001c-16 -20.0039 -41.333 -61.8369 -76 -125.5c-34.667 -63.668 -58 -110.501 -70 -140.5c-10.667 -30 -17.667 -66 -21 -108
c-2.66992 -37.333 -4.00293 -116.333 -3.99902 -237c0 -66 0.833008 -109.5 2.5 -130.5s7.83398 -61.167 18.501 -120.5c6.66699 -40.667 12.334 -70.667 17.001 -90c3.33301 -16 7.83301 -30.833 13.5 -44.499c5.66797 -13.667 16.835 -37.5 33.501 -71.5
c15.333 -30 27.333 -52.333 36 -67c7.33301 -12 15.833 -22.333 25.5 -31s27.167 -22 52.5 -40c26 -18.667 44.5 -31 55.5 -37s23.5 -9.66699 37.5 -11c18.667 -1.33301 44.334 -2 77 -2c32.001 0 57.334 0.666992 76 2c14 1.33301 26.5 5 37.5 11
c11.002 6 29.835 18.333 56.5 37c26.667 18.667 44.667 32.167 54 40.5c9.3418 8.33301 17.6748 18.5 25 30.5c10.667 18 22 40 34 66c17.333 36 28.833 60.667 34.5 74z" />
    <glyph glyph-name="multiply" unicode="&#xd7;" 
d="M1217 192l-115 -115l-383 384l-383 -384l-115 115l385 383l-385 382l115 116l383 -385l383 385l115 -116l-385 -382z" />
    <glyph glyph-name="Oslash" unicode="&#xd8;" horiz-adv-x="1679" 
d="M1555.5 422.5c-35.001 -93 -84.834 -172.832 -149.499 -239.499c-71.333 -72.667 -153.333 -127.834 -246 -165.501c-92.668 -37.667 -201.668 -56.5 -327 -56.5c-90.667 0 -177.167 13.167 -259.5 39.5s-156.833 64.833 -223.5 115.5l-197 -211l-74 68l197 207
c-65.333 65.333 -115.833 141.833 -151.5 229.5s-53.5 182.5 -53.5 284.5c0 114 19.333 218.167 58 312.5c38.667 94.334 93.667 176.167 165 245.5c69.333 66.667 151.166 117.667 245.499 153c94.333 35.3389 194.5 53.0059 300.5 53
c94 -0.00585938 182.667 -13.3389 266 -40c83.334 -26.667 158.001 -65.667 224 -117l195 208l74 -68l-195 -205c64 -64.002 114 -140.335 150 -229c36 -88.667 54 -184.667 54 -288c0 -104.667 -17.5 -203.5 -52.5 -296.5zM1156 1123
c-30.6689 77.335 -71.834 136.667 -123.499 177.999c-51.667 41.3389 -115.834 62.0059 -192.501 62.001c-122.667 -0.000976562 -216.167 -56.834 -280.5 -170.499c-64.333 -113.667 -96.5 -276.5 -96.5 -488.5c0 -64.667 1.83301 -118.334 5.5 -161.001
s11.167 -89.667 22.5 -141zM1195.5 448.5c13.667 76.333 20.499 164.167 20.499 263.5c0 121.333 -9 222 -27 302l-665 -720c61.333 -158 166.666 -237 315.999 -237c64.667 0 121.334 16 170 48c48.667 32 88.334 78 119.001 138
c30.667 60.667 52.834 129.167 66.501 205.5z" />
    <glyph glyph-name="Ugrave" unicode="&#xd9;" horiz-adv-x="1707" 
d="M1087 1485c-64.001 28 -108.166 46.8291 -132.499 56.4961s-56.833 22.167 -97.5 37.5c-20 6.66699 -33.333 11.334 -40 14.001c-38.001 12.667 -68.168 23.334 -90.5 32.001c-22.333 8.66699 -44.833 17.667 -67.5 27c-24 10.0195 -39.333 17.1865 -46 21.501
c-6.66699 4.33984 -16.667 13.1729 -30 26.5c-10 10 -16.333 17 -19 21s-4.33398 9 -5.00098 15c-0.666992 3.33984 -1 14.0068 -1 32c0 14 0.666992 25 2 33c0.670898 4.66699 4.00391 10 10 16c5.33301 4.66699 15.666 12.334 30.999 23.001s26.333 17.667 33 21
c7.33301 3.33301 15.333 5.33301 24 6c6 0.666992 22.667 1 50 1c20 0 33 -0.666992 39 -2s17.667 -6.33301 35 -15c17.333 -8.68066 29 -15.5137 35 -20.5c6 -5.00684 18.667 -17.8398 38 -38.5c79.333 -84.667 137.333 -144.334 174 -179l59 -57
c13.3379 -12 24.0049 -22 32.001 -30zM1703 1341c-20 -2 -45.6689 -6.00391 -77.002 -12.0039s-50.666 -10.667 -57.999 -14c-8 -3.33301 -20 -10.333 -36 -21s-26.667 -18.667 -32 -24c-4.66699 -4.67578 -8.66699 -11.3428 -12 -20
c-3.33301 -10 -8.33301 -29.167 -15 -57.5s-10.667 -49.833 -12 -64.5c-1.33301 -21.333 -2 -62 -2 -122v-528c-0.0449219 -88 -2.37793 -147 -7 -177c-5.33301 -33.333 -17 -61 -35 -83c-18 -24 -56.5 -62.333 -115.5 -115s-101.5 -87.334 -127.5 -104.001
c-26.667 -16.667 -57.667 -27 -93 -31c-33.333 -4.66699 -99.333 -7 -198 -7c-111.334 0 -187.667 2 -229 6c-28 2.66699 -52 7.83398 -72 15.501s-42 19.834 -66 36.501s-58 43 -102 79c-64 53.333 -104.333 90.666 -121 111.999c-19.333 22.667 -31.666 51 -36.999 85
c-5.33398 35.334 -8.00098 97.001 -8.00098 185.001v726c0 17.3379 -0.5 28.5049 -1.5 33.5c-1 5 -4.83301 13.833 -11.5 26.5c-8 13.333 -14 21.833 -18 25.5s-15.333 10.167 -34 19.5c-12.667 6.66699 -21.667 10.834 -27 12.501s-17.666 4.5 -36.999 8.5
c-28.667 6.02051 -49.334 9.6875 -62.001 11v76h744v-76c-14.001 -0.707031 -35.668 -3.04004 -65.001 -6.99902c-19.335 -2.67676 -41.668 -8.34375 -67 -17c-18.667 -6 -30.167 -10.667 -34.5 -14s-9.83301 -12 -16.5 -26s-10.5 -23.667 -11.5 -29
s-1.5 -16.666 -1.5 -33.999v-716c0.00878906 -81.333 1.3418 -134.333 3.99902 -159c2 -19.333 5.5 -35.333 10.5 -48s13.167 -26.167 24.5 -40.5s29.333 -34.166 54 -59.499s43.667 -43.833 57 -55.5s25.666 -20 36.999 -25s25.333 -8.5 42 -10.5
c26.667 -3.33301 71.334 -5 134 -5c62.667 0 106.667 1.66699 132 5c16 2 30 5.83301 42 11.5c12.0049 5.66699 25.1719 15 39.501 28c14.3379 13 34.1709 33.5 59.5 61.5c26.667 28.667 45.834 50.5 57.501 65.5s20.334 29.167 26.001 42.5
c5.66699 13.334 9.5 29.667 11.5 49c2.66699 24 4 75.667 4 155v481c0 64 -0.666992 104 -2 120s-6.33301 40 -15 72l-15 48c-3.33301 8 -7.33301 14.5 -12 19.5s-13.667 12.833 -27 23.5c-14 11.3379 -24.667 18.6709 -32 21.999
c-7.33301 3.33301 -26.666 9.33301 -57.999 18c-36.6689 10.667 -67.002 18 -91 22v78h615v-78z" />
    <glyph glyph-name="Uacute" unicode="&#xda;" horiz-adv-x="1707" 
d="M1194.5 1726.5c-2.33301 -5.67969 -9.83398 -14.8506 -22.501 -27.5039c-14 -14.0195 -24 -22.8525 -30 -26.5c-6 -3.67969 -21 -10.5127 -45 -20.5c-52 -20.6699 -108 -42.0029 -168 -64c-54.667 -20 -99.334 -37 -134.001 -51
c-34.667 -14.0059 -76.667 -31.3389 -126 -52l-33 41c69.333 66 121 116.333 155 151c48.667 50 85.334 88.333 110 115c19.333 20 32 32.333 38 37s17.667 11.667 35 21c18 8.66699 30.167 13.834 36.5 15.501s18.833 2.5 37.5 2.5
c27.3398 -0.0566406 44.0068 -0.389648 50.001 -0.999023c8.66699 -0.723633 16.167 -2.55664 22.5 -5.5c6.33789 -3.01367 18.1709 -9.84668 35.5 -20.499l17.5 -12.5c7 -5 11.5 -8.5 13.5 -10.5c5.33301 -5.33301 8.33301 -10.666 9 -15.999
c1.37012 -9.33301 2.03711 -23.333 2.00098 -42c0 -16.6729 -1.16699 -27.8398 -3.5 -33.5zM1703 1341c-20 -2 -45.668 -6.00391 -77.001 -12.0039s-50.666 -10.667 -57.999 -14c-8 -3.33301 -20 -10.333 -36 -21s-26.667 -18.667 -32 -24
c-4.66699 -4.67578 -8.66699 -11.3428 -12 -20c-3.33301 -10 -8.33301 -29.167 -15 -57.5s-10.667 -49.833 -12 -64.5c-1.33301 -21.333 -2 -62 -2 -122v-528c-0.0449219 -88 -2.37793 -147 -7 -177c-5.33301 -33.333 -17 -61 -35 -83c-18 -24 -56.5 -62.333 -115.5 -115
s-101.5 -87.334 -127.5 -104.001c-26.667 -16.667 -57.667 -27 -93 -31c-33.333 -4.66699 -99.333 -7 -198 -7c-111.334 0 -187.667 2 -229 6c-28 2.66699 -52 7.83398 -72 15.501s-42 19.834 -66 36.501s-58 43 -102 79c-64 53.333 -104.333 90.666 -121 111.999
c-19.333 22.667 -31.666 51 -36.999 85c-5.33398 35.334 -8.00098 97.001 -8.00098 185.001v726c0 17.3379 -0.5 28.5049 -1.5 33.5c-1 5 -4.83301 13.833 -11.5 26.5c-8 13.333 -14 21.833 -18 25.5s-15.333 10.167 -34 19.5c-12.667 6.66699 -21.667 10.834 -27 12.501
s-17.666 4.5 -36.999 8.5c-28.667 6.02051 -49.334 9.6875 -62.001 11v76h744v-76c-14.001 -0.707031 -35.668 -3.04004 -65.001 -6.99902c-19.335 -2.67676 -41.668 -8.34375 -67 -17c-18.667 -6 -30.167 -10.667 -34.5 -14s-9.83301 -12 -16.5 -26
s-10.5 -23.667 -11.5 -29s-1.5 -16.666 -1.5 -33.999v-716c0.00878906 -81.333 1.3418 -134.333 3.99902 -159c2 -19.333 5.5 -35.333 10.5 -48s13.167 -26.167 24.5 -40.5s29.333 -34.166 54 -59.499s43.667 -43.833 57 -55.5s25.666 -20 36.999 -25s25.333 -8.5 42 -10.5
c26.667 -3.33301 71.334 -5 134 -5c62.667 0 106.667 1.66699 132 5c16 2 30 5.83301 42 11.5c12.0049 5.66699 25.1719 15 39.501 28c14.3379 13 34.1709 33.5 59.499 61.5c26.667 28.667 45.834 50.5 57.501 65.5s20.334 29.167 26.001 42.5
c5.66699 13.334 9.5 29.667 11.5 49c2.66699 24 4 75.667 4 155v481c0 64 -0.666992 104 -2 120s-6.33301 40 -15 72l-15 48c-3.33301 8 -7.33301 14.5 -12 19.5s-13.667 12.833 -27 23.5c-14 11.3379 -24.667 18.6709 -32 21.999
c-7.33301 3.33301 -26.666 9.33301 -57.999 18c-36.6689 10.667 -67.002 18 -91 22v78h615v-78z" />
    <glyph glyph-name="Ucircumflex" unicode="&#xdb;" horiz-adv-x="1707" 
d="M926 1687l-343.998 -203l-33 29c68.667 85.333 120.667 148.333 156 189c26.667 32 55 67 84.999 105c11.333 15.333 19.166 24.833 23.499 28.5s14.833 9.5 31.5 17.5c16.668 8 28.835 12.5 36.5 13.5c7.66797 1 29.501 1.5 65.5 1.5c18.667 0 31.167 -0.666992 37.5 -2
s15.5 -5.33301 27.5 -12c12.667 -6.69434 21.167 -11.8613 25.5 -15.5c4.33301 -3.68066 12.833 -12.8477 25.5 -27.5l83 -98l164 -200l-33 -29zM1703 1341c-20 -2 -45.6689 -6.00391 -77.002 -12.0039s-50.666 -10.667 -57.999 -14c-8 -3.33301 -20 -10.333 -36 -21
s-26.667 -18.667 -32 -24c-4.66699 -4.67578 -8.66699 -11.3428 -12 -20c-3.33301 -10 -8.33301 -29.167 -15 -57.5s-10.667 -49.833 -12 -64.5c-1.33301 -21.333 -2 -62 -2 -122v-528c-0.0449219 -88 -2.37793 -147 -7 -177c-5.33301 -33.333 -17 -61 -35 -83
c-18 -24 -56.5 -62.333 -115.5 -115s-101.5 -87.334 -127.5 -104.001c-26.667 -16.667 -57.667 -27 -93 -31c-33.333 -4.66699 -99.333 -7 -198 -7c-111.334 0 -187.667 2 -229 6c-28 2.66699 -52 7.83398 -72 15.501s-42 19.834 -66 36.501s-58 43 -102 79
c-64 53.333 -104.333 90.666 -121 111.999c-19.333 22.667 -31.666 51 -36.999 85c-5.33398 35.334 -8.00098 97.001 -8.00098 185.001v726c0 17.3379 -0.5 28.5049 -1.5 33.5c-1 5 -4.83301 13.833 -11.5 26.5c-8 13.333 -14 21.833 -18 25.5s-15.333 10.167 -34 19.5
c-12.667 6.66699 -21.667 10.834 -27 12.501s-17.666 4.5 -36.999 8.5c-28.667 6.02051 -49.334 9.6875 -62.001 11v76h744v-76c-14.001 -0.707031 -35.668 -3.04004 -65.001 -6.99902c-19.335 -2.67676 -41.668 -8.34375 -67 -17c-18.667 -6 -30.167 -10.667 -34.5 -14
s-9.83301 -12 -16.5 -26s-10.5 -23.667 -11.5 -29s-1.5 -16.666 -1.5 -33.999v-716c0.00878906 -81.333 1.3418 -134.333 3.99902 -159c2 -19.333 5.5 -35.333 10.5 -48s13.167 -26.167 24.5 -40.5s29.333 -34.166 54 -59.499s43.667 -43.833 57 -55.5
s25.666 -20 36.999 -25s25.333 -8.5 42 -10.5c26.667 -3.33301 71.334 -5 134 -5c62.667 0 106.667 1.66699 132 5c16 2 30 5.83301 42 11.5c12.0049 5.66699 25.1719 15 39.501 28c14.3379 13 34.1709 33.5 59.5 61.5c26.667 28.667 45.834 50.5 57.501 65.5
s20.334 29.167 26.001 42.5c5.66699 13.334 9.5 29.667 11.5 49c2.66699 24 4 75.667 4 155v481c0 64 -0.666992 104 -2 120s-6.33301 40 -15 72l-15 48c-3.33301 8 -7.33301 14.5 -12 19.5s-13.667 12.833 -27 23.5c-14 11.3379 -24.667 18.6709 -32 21.999
c-7.33301 3.33301 -26.666 9.33301 -57.999 18c-36.6689 10.667 -67.002 18 -91 22v78h615v-78z" />
    <glyph glyph-name="Udieresis" unicode="&#xdc;" horiz-adv-x="1707" 
d="M799 1649c-0.666992 -8 -3.99707 -16.6738 -9.99707 -26.0068c-6 -8.00586 -18 -21.3389 -36 -39.999c-18.001 -18.6729 -30.668 -31.0059 -38 -37c-7.33301 -6.67871 -15.333 -10.3457 -24 -11.001c-8.66699 -2 -25.334 -3 -50.001 -3
c-20.667 0.046875 -37 0.713867 -49 2.00098c-9.33496 1.36816 -17.668 5.03516 -25 11c-8 6.00586 -20.5 18.1729 -37.5 36.5c-17 18.333 -28.5 31.833 -34.5 40.5c-6.66797 8.66699 -10.335 17.334 -11.001 26.001c-1.33301 12 -2 29.333 -2 52
c0.0078125 21.3369 0.674805 38.6699 2.00098 52c0.666992 8.66699 4.33398 17.334 11.001 26.001c5.33398 8 16.667 21.333 34 40s29.666 31 36.999 37c7.33301 6.04297 15.666 9.70996 24.999 11.001c12 1.39062 28.667 2.05762 50 2.00098c21.333 0 38 -0.666992 50 -2
c8.66699 -0.680664 16.667 -4.34766 24 -11c7.33301 -6.00684 20 -18.3398 38 -36.999c18 -18.6738 30 -32.0068 36 -40c6.00586 -9.33301 9.33887 -18 9.99902 -26c1.33301 -13.333 2 -30.666 2 -51.999c-0.0244141 -22 -0.691406 -39 -2 -51zM1335 1648.99
c-0.686523 -8 -4.02344 -16.6729 -10.0029 -26.0059c-6.00488 -8.00586 -17.8379 -21.3389 -35.5 -39.999c-17.667 -18.6729 -30.167 -31.0059 -37.5 -37c-7.33301 -6.67871 -15.333 -10.3457 -24 -11.001c-8.66895 -2 -25.3359 -3 -50 -3
c-20.6729 0.046875 -37.0059 0.713867 -48.999 2.00098c-9.33301 1.36816 -17.666 5.03516 -24.999 11c-8.00391 6 -20.8369 18.333 -38.499 37c-17.667 18.667 -29.167 32 -34.5 40c-6.67871 8.66699 -10.3457 17.334 -11.001 26.001c-1.36426 12 -2.03125 29.333 -2 52
c0 21.3369 0.666992 38.6699 2 52c0.666992 8.66699 4.33398 17.334 11.001 26.001c6 8.66699 17.5 22.167 34.5 40.5c17 18.3398 29.5 30.5068 37.5 36.5c7.3418 6.04297 15.6748 9.70996 24.999 11.001c12.0068 1.39062 28.6738 2.05762 50.001 2.00098
c21.3379 0 38.0049 -0.666992 50 -2c8.66699 -0.680664 16.667 -4.34766 24 -11c7.33301 -6.00684 19.833 -18.3398 37.5 -37c17.667 -18.6738 29.5 -32.0068 35.5 -40c6 -9.33301 9.33301 -18 10 -26c1.37402 -13.333 2.04102 -30.666 2 -51.999
c0 -22 -0.666992 -39 -2 -51zM1703 1340.99c-20 -2 -45.668 -6.00293 -77.001 -12.0029s-50.666 -10.667 -57.999 -14c-8 -3.33301 -20 -10.333 -36 -21s-26.667 -18.667 -32 -24c-4.66699 -4.67578 -8.66699 -11.3428 -12 -20c-3.33301 -10 -8.33301 -29.167 -15 -57.5
s-10.667 -49.833 -12 -64.5c-1.33301 -21.333 -2 -62 -2 -122v-528c-0.0449219 -88 -2.37793 -147 -7 -177c-5.33301 -33.333 -17 -61 -35 -83c-18 -24 -56.5 -62.333 -115.5 -115s-101.5 -87.334 -127.5 -104.001c-26.667 -16.667 -57.667 -27 -93 -31
c-33.333 -4.66699 -99.333 -7 -198 -7c-111.334 0 -187.667 2 -229 6c-28 2.66699 -52 7.83398 -72 15.501s-42 19.834 -66 36.501s-58 43 -102 79c-64 53.333 -104.333 90.666 -121 111.999c-19.333 22.667 -31.666 51 -36.999 85
c-5.33398 35.334 -8.00098 97.001 -8.00098 185.001v726c0 17.3379 -0.5 28.5049 -1.5 33.5c-1 5 -4.83301 13.833 -11.5 26.5c-8 13.333 -14 21.833 -18 25.5s-15.333 10.167 -34 19.5c-12.667 6.66699 -21.667 10.834 -27 12.501s-17.666 4.5 -36.999 8.5
c-28.667 6.02051 -49.334 9.6875 -62.001 11v76h744v-76c-14.001 -0.708008 -35.668 -3.04102 -65.001 -7c-19.335 -2.67676 -41.668 -8.34375 -67 -17c-18.667 -6 -30.167 -10.667 -34.5 -14s-9.83301 -12 -16.5 -26s-10.5 -23.667 -11.5 -29s-1.5 -16.666 -1.5 -33.999
v-716c0.00878906 -81.333 1.3418 -134.333 3.99902 -159c2 -19.333 5.5 -35.333 10.5 -48s13.167 -26.167 24.5 -40.5s29.333 -34.166 54 -59.499s43.667 -43.833 57 -55.5s25.666 -20 36.999 -25s25.333 -8.5 42 -10.5c26.667 -3.33301 71.334 -5 134 -5
c62.667 0 106.667 1.66699 132 5c16 2 30 5.83301 42 11.5c12.0049 5.66699 25.1719 15 39.501 28c14.3379 13 34.1709 33.5 59.499 61.5c26.667 28.667 45.834 50.5 57.501 65.5s20.334 29.167 26.001 42.5c5.66699 13.334 9.5 29.667 11.5 49c2.66699 24 4 75.667 4 155
v481c0 64 -0.666992 104 -2 120s-6.33301 40 -15 72l-15 48c-3.33301 8 -7.33301 14.5 -12 19.5s-13.667 12.833 -27 23.5c-14 11.3379 -24.667 18.6709 -32 21.999c-7.33301 3.33301 -26.666 9.33301 -57.999 18c-36.6689 10.667 -67.002 18 -91 22v78h615v-78z" />
    <glyph glyph-name="Yacute" unicode="&#xdd;" horiz-adv-x="1499" 
d="M1119.5 1729c-2.33301 -6 -9.83203 -16.0039 -22.499 -30.0039c-12.0078 -13.333 -21.3408 -22 -27.999 -26c-6.66895 -4 -22.3359 -11 -47.001 -21c-52 -20.6699 -108 -42.0029 -168 -64c-54.667 -20 -99.334 -37 -134.001 -51
c-34.667 -14.0059 -76.667 -31.3389 -126 -52l-33 41c69.333 66 121 116.333 155 151c48.667 50 85.334 88.333 110 115c19.333 20 32 32.333 38 37s17.667 11.667 35 21c16 8.66699 27 13.834 33 15.501c6.00586 1.66699 16.3389 2.5 31 2.5
c33.333 -0.0566406 53.333 -0.389648 60 -0.999023c8.66699 -0.723633 16.167 -2.55664 22.5 -5.5c6.3418 -3.01367 18.1748 -9.84668 35.5 -20.499l17.5 -12.5c7 -5 11.5 -8.5 13.5 -10.5c5.33301 -5.33301 8.33301 -10.666 9 -15.999
c1.36719 -8.00684 2.03418 -19.3398 2 -34c0 -20 -1.16699 -33 -3.5 -39zM1567 1341c-12.0059 -1.33301 -22.8359 -2.83594 -32.4971 -4.50293c-9.67871 -1.68652 -20.8457 -4.51953 -33.501 -8.49902c-15.333 -4.68652 -25.333 -8.01953 -30 -9.99902
c-4.66699 -2 -13.667 -7 -27 -15c-21.333 -12 -35.166 -20.5 -41.499 -25.5c-6.33301 -5.00488 -17.833 -16.8379 -34.5 -35.5c-16.0049 -18 -28.3379 -32.667 -36.999 -44c-8.67676 -11.333 -18.3438 -24.666 -29 -39.999c-46.668 -68.667 -92.001 -137.334 -136 -206
l-156 -246l-17 -27c-19.335 -30.667 -30.002 -48.334 -32 -53.001c-6 -10 -12 -26.5 -18 -49.5c-6.01074 -23.002 -9.67773 -41.1689 -11 -54.501c-1.36133 -17.333 -2.02832 -52 -2 -104v-201c0 -17.334 0.666992 -28.667 2 -34s5.33301 -15 12 -29
c6.66992 -14 12.0029 -22.667 15.999 -26c4 -3.33301 15.667 -9.33301 35 -18c8.67383 -3.33301 18.3408 -6.33301 29 -9c10.667 -2.66699 25 -5.66699 43 -9c34 -7.33301 61 -12 81 -14v-78h-791v78c13.333 0.666992 40.333 3.33398 81 8.00098
c20.667 2 35.5 3.83301 44.5 5.5s18.5 4.5 28.5 8.5c18.667 8 30.167 13.833 34.5 17.5s9.83301 12.167 16.5 25.5c6.6709 12 10.5039 21 11.5 27c1 6 1.5 18.333 1.5 37v250c0 27.334 -0.333008 46.667 -1 58c0 10.668 -0.333008 18.335 -1 23.001
c-0.666992 4.66895 -2.66699 11.002 -6 19c-2.66699 8.66895 -6.66699 17.8359 -12 27.5c-5.33301 9.66895 -9.33301 16.8359 -12 21.5l-44 76c-102.667 178.667 -198 339.667 -286 483c-18 28.667 -29.833 46.667 -35.5 54c-5.66699 7.33789 -16.5 19.0049 -32.5 35
c-17.333 16.667 -29 27.167 -35 31.5s-18 11.833 -36 22.5c-14 8 -23.5 12.833 -28.5 14.5s-17.167 4.5 -36.5 8.5c-26 6 -49.333 9.33301 -70 10v78h813v-78c-44 -0.708008 -78.333 -2.04102 -103 -4c-11.334 -1.33301 -25.501 -4.5 -42.5 -9.5
c-17 -5.03027 -28.5 -8.86328 -34.5 -11.5c-4.66699 -2.68652 -7.5 -5.51953 -8.5 -8.5c-1 -3 -1.5 -8.5 -1.5 -16.5c0 -5.33301 1 -10.666 3 -15.999c4.66992 -14 15.0029 -37 31 -69c27.333 -55.333 51.666 -101 72.999 -137c47.333 -84 90.666 -159 129.999 -225
c10.667 -19.333 22.167 -39.333 34.5 -60s24.833 -41.667 37.5 -63l14 -22l35 56c17.333 27.333 50.166 79.5 98.499 156.5s90.833 146.5 127.5 208.5l48 81c12.0088 21.3379 18.6758 34.6709 20 39.999c2 7.34277 3 15.6758 3 24.999c0 10.667 -0.666992 19.334 -2 26.001
c-1.33301 5.33301 -4.33301 9.33301 -9 12c-5.33301 3.35352 -17 8.68652 -35 16c-18.0068 7.36328 -32.3398 12.0303 -43 14c-8 1.37402 -37 3.70703 -87 7v78h526v-78z" />
    <glyph glyph-name="Thorn" unicode="&#xde;" horiz-adv-x="1450" 
d="M1349.5 565.5c-33 -55 -78.498 -100.502 -136.498 -136.502c-53.333 -33.333 -114 -58.833 -182 -76.5s-136.667 -26.5 -206 -26.499h-193v-117c0.00488281 -24.667 4.83789 -45.167 14.5 -61.5c9.66895 -16.333 26.502 -30.166 50.5 -41.499
c14.667 -6 35.167 -11.833 61.5 -17.5s50.833 -9.16699 73.5 -10.5v-78h-763v78c17.333 0.666992 42.166 3.33398 74.499 8.00098s55.5 9.33398 69.5 14.001c22 8.66699 38.167 21.167 48.5 37.5c10.334 16.333 15.501 38.166 15.5 65.499v1001
c0 25.3379 -4.16699 46.0049 -12.5 62c-8.33301 16 -25.5 29.333 -51.5 40c-21.333 9.34375 -45.333 17.1768 -72 23.5c-26.667 6.34375 -50.667 10.1768 -72 11.5v78h763v-78c-20.667 -1.33301 -44.834 -5 -72.501 -11s-48.5 -12 -62.5 -18
c-43.334 -18 -65.001 -52 -65 -102v-66h220c185.333 0 322.833 -31.5 412.5 -94.5s134.5 -162.167 134.5 -297.5c0 -69.334 -16.5 -131.501 -49.5 -186.501zM979.002 912.998c-19.334 46 -50.667 80.5 -94 103.5s-101.333 34.5 -174 34.5h-79v-632h52
c216 0 324 105.333 324 316c-0.00390625 72.667 -9.6709 132 -29 178z" />
    <glyph glyph-name="germandbls" unicode="&#xdf;" horiz-adv-x="1347" 
d="M1244 673.5c21.3379 -48.333 32.0098 -106.835 32.0049 -175.502c-0.00488281 -96.667 -19.8379 -183.667 -59.5 -261c-39.667 -77.333 -95.667 -138 -168 -182c-72.334 -44 -156.167 -66 -251.5 -66c-34.667 0 -71.167 1.83301 -109.5 5.5
c-38.334 3.66699 -68.167 7.5 -89.5 11.5v86c27.333 -4.66699 48.666 -7 63.999 -7c53.333 0 99.166 16.833 137.499 50.5s67.5 81.834 87.5 144.501s30 137.334 30 224.001c0 118.667 -21.333 211.334 -64 278c-42.667 66.667 -105 100 -187 99.999h-28v93h37
c25.333 0 50.333 5.5 75 16.5s45.667 26.167 63 45.5c44 48.001 66 115.668 66 203c-0.00292969 74.667 -14.1699 131.167 -42.501 169.5c-28.333 38.3389 -67.833 57.5059 -118.5 57.5c-50.667 0 -90.667 -13.667 -120 -41c-29.3359 -27.333 -50.1689 -67.833 -62.5 -121.5
c-12.335 -53.6689 -18.502 -122.836 -18.5 -207.5v-1097h-480v73l51 5c17.333 2 33.833 6.33301 49.5 13s27.5 16.667 35.5 30c8.66699 14.667 13 35 12.999 61v835c0 105.333 13.667 190.333 41 255s67.666 117.334 120.999 158.001c102 80 230.667 120 386 120
c56.667 0 112.667 -6 168 -18c56.667 -14.0088 105.667 -33.3418 147 -58c41.3359 -24.667 75.6689 -56.667 103 -96c26 -40 39 -87 39 -141c-0.0136719 -40.6689 -8.34668 -79.002 -25 -115c-16.667 -36.002 -38.667 -66.335 -66 -91
c-56 -49.334 -120.333 -80.667 -193 -94v-9c36.667 -7.33496 77.667 -20.668 123 -40c43.335 -20.667 83.668 -48.667 121 -84c40.667 -38.667 71.667 -82.167 93 -130.5z" />
    <glyph glyph-name="agrave" unicode="&#xe0;" horiz-adv-x="1220" 
d="M779 1101c-62.667 38 -109.169 65.8311 -139.502 83.498c-30.334 17.667 -67.167 38.167 -110.5 61.5c-42.667 22 -70 36.5 -82 43.5s-33 20.833 -63 41.5c-23.333 16 -37.833 26.333 -43.5 31s-13.167 13.334 -22.5 26.001c-10.001 12 -15.834 21 -17.5 27
c-1.6709 6 -2.50391 21 -2.49902 45c0 14 0.5 23.333 1.5 28s3.83301 9.33398 8.5 14.001c6 5.33301 17.167 13.333 33.5 24s27.833 17 34.5 19c8 2 29 3 63 3c22 -0.046875 36.833 -0.879883 44.5 -2.49902c7.66699 -1.69043 19.834 -6.85742 36.501 -15.501
c15.333 -8.67871 25.5 -14.8457 30.5 -18.501c5 -3.70117 11.5 -10.8682 19.5 -21.5c2 -2.6748 12.667 -18.0078 32 -45.999c59.333 -86 132.333 -187.667 219 -305zM1201 20.998c-22.0039 -9.33301 -37.3389 -15.4912 -46.001 -18.4912c-8.6709 -3 -28.0039 -8.5 -58 -16.5
c-30.0059 -8 -50.3389 -12.667 -60.999 -14c-10.6729 -1.33301 -32.6729 -2 -66 -2c-40.001 0 -70.668 0.666992 -92 2c-16.667 1.33301 -30.334 4 -41.001 8s-26.667 13 -48 27c-22.667 14 -37 24 -43 30c-8 6 -14 13.667 -18 23s-10 26.333 -18 51h-6
c-24.001 -24 -45.668 -43.333 -65.001 -58c-16 -12 -26.833 -19.667 -32.5 -23s-17.5 -9.33301 -35.5 -18c-22.002 -10.667 -36.6689 -17.334 -44.001 -20.001c-7.33398 -2.66699 -22.667 -7 -46 -13c-19.333 -4.66699 -33.333 -7.5 -42 -8.5s-25 -1.5 -48.999 -1.5h-31
c-42.667 0 -72 1 -88 3c-16.667 2 -31.334 7.33301 -44.001 16c-14 8.66699 -36.167 25.5 -66.5 50.5s-50.166 43.167 -59.499 54.5c-10 10.667 -16 24 -18 40c-2.66699 13.333 -4 42 -4 86c0 32 0.833008 52.667 2.5 62c1.66699 9.33398 6.83398 25.667 15.501 49
c8 22 14.167 36.333 18.5 43s15.166 19 32.499 37c14 15.333 24 25.333 30 30s19.333 12.334 40 23.001c16.667 9.33398 30.834 16.667 42.501 22c11.667 5.33398 26.167 11.001 43.5 17c48 17.333 80.833 28.833 98.5 34.5s56.834 17.167 117.501 34.5
c64.667 18 104.5 29.667 119.499 35c15 5.33301 36.5 14.666 64.5 27.999v96c-0.0214844 15.333 -1.18848 35.166 -3.5 59.499c-2.34375 24.333 -4.17676 39.833 -5.49902 46.5c-1.33887 6 -5.50586 16.5 -12.501 31.5c-7.00781 15 -12.1748 24.5 -15.5 28.5
c-4.66699 4.66992 -14.334 12.3369 -29.001 23c-14.667 10.6699 -25 17.0029 -31 18.999c-7.33398 2 -23.001 3 -47 3c-22 0 -36 -0.5 -42 -1.5c-6.00098 -1 -16.334 -4.5 -31 -10.5c-10.668 -4 -19.335 -7.83301 -26 -11.5c-6.66797 -3.66699 -14.001 -8.5 -22 -14.5
c1.33301 -9.33691 3.33301 -18.5039 6 -27.501c2.66699 -9.00195 6.33398 -20.1689 11.001 -33.501c7.33594 -22 11.5029 -36 12.5 -42c1 -6 1.5 -18.333 1.5 -37c0 -8.66699 -0.5 -15.334 -1.5 -20.001s-3.5 -12 -7.5 -22c-4.66699 -12.667 -8.16699 -20.834 -10.5 -24.501
s-7.5 -9.16699 -15.5 -16.5c-11.333 -10 -19.166 -16.333 -23.499 -19s-13.5 -6.66699 -27.5 -12c-14.667 -5.33789 -25.667 -8.50488 -33 -9.5c-7.33301 -1 -25.666 -1.5 -54.999 -1.5c-27.333 0 -48.333 0.666992 -63 2c-11.334 1.33301 -21.001 4.33301 -29.001 9
s-19.667 14.667 -35 30c-16.667 15.333 -27 26 -31 32c-6 8 -9.33301 16 -10 24c-1.33301 12.001 -2 28.334 -2 48.999c0 18.002 0.666992 32.335 2 43c0.666992 7.33301 4 15 10 23s18.667 21.5 38 40.5s33.333 31.167 42 36.5c9.33301 6 29.833 16.5 61.5 31.5
s53.5 24.5 65.5 28.5c12 3.33301 38.5 9.16602 79.5 17.499s67.833 13.166 80.5 14.499c16 1.33301 39.667 2 71 2c48.667 0 80.334 -0.5 95 -1.5c14.667 -1.00781 42.334 -4.1748 83 -9.5c40.667 -6 67 -11 78.999 -15c12.001 -4 34.334 -15 67 -33
c22 -12.667 37.667 -22 47 -28c9.33301 -7.33691 16.666 -15.0039 21.999 -23c6.66992 -9.33301 16.8369 -26.333 30.5 -51c13.6709 -24.667 22.5039 -42.334 26.5 -53.001c4.66699 -12 7.33398 -25 8.00098 -39c0.666992 -10 1 -37 1 -81
c-0.03125 -71.333 -1.36426 -160.666 -3.99902 -267.999c-3.33301 -114.667 -5 -182.667 -5 -204c0.03125 -21.333 0.698242 -35 2 -41c1.33301 -6 5.33301 -16 12 -30c6.66699 -13.333 11.5 -21.5 14.5 -24.5s11.833 -7.83301 26.5 -14.5
c8.66699 -4 15.167 -6.33301 19.5 -6.99902c4.33301 -0.666992 15.833 -1.33398 34.5 -2c32 -1.33301 54 -2 66 -2v-73zM703.996 542.007c-36 -12 -73.001 -26.335 -111.001 -43.002c-27.333 -12.667 -44.833 -21.167 -52.5 -25.5s-20.167 -13.166 -37.5 -26.499
c-18.668 -14 -30.335 -24 -35.001 -30c-4.66797 -6 -12.335 -19.667 -23.001 -41c-10.668 -22.001 -16.835 -37.334 -18.5 -46c-1.67285 -8.66699 -2.50586 -27.667 -2.49902 -57c0.00683594 -25.333 0.673828 -44.666 2.00098 -57.999
c1.33496 -10.667 4.00195 -19.5 8 -26.5c4.00098 -7 12.668 -16.5 26 -28.5c12.667 -12.667 22 -21 28 -25c4.66699 -4 11.334 -6.66699 20.001 -8c9.33301 -1.33301 22.333 -2 39 -2c27.333 0 44.833 1 52.5 3c7.66797 2 20.501 8.66699 38.5 20
c18 12 29.5 20.167 34.5 24.5s14.167 14.5 27.5 30.5z" />
    <glyph glyph-name="aacute" unicode="&#xe1;" horiz-adv-x="1220" 
d="M864.5 1389.5c-13.001 -18.333 -35.166 -37.833 -66.499 -58.5c-35.334 -22.667 -87.001 -52.667 -155.001 -90c-58 -32 -138 -78.667 -240 -140l-42 38c56.667 75.335 102 137.668 136 187l83 118c28 39.3359 55 66.5029 81 81.5c26 15 58.667 22.5 98 22.5
c20.667 0 40.667 -4 60 -12c19.333 -8.00586 35 -18.8389 47 -32.5c12 -13.667 18 -28.167 18 -43.5c0 -28.667 -6.5 -52.167 -19.5 -70.5zM1201 21c-22.0039 -9.33301 -37.3389 -15.4912 -46.001 -18.4912c-8.6709 -3 -28.0039 -8.5 -58 -16.5
c-30.0059 -8 -50.3389 -12.667 -60.999 -14c-10.6729 -1.33301 -32.6729 -2 -66 -2c-40.001 0 -70.668 0.666992 -92 2c-16.667 1.33301 -30.334 4 -41.001 8s-26.667 13 -48 27c-22.667 14 -37 24 -43 30c-8 6 -14 13.667 -18 23s-10 26.333 -18 51h-6
c-24.001 -24 -45.668 -43.333 -65.001 -58c-16 -12 -26.833 -19.667 -32.5 -23s-17.5 -9.33301 -35.5 -18c-22.002 -10.667 -36.6689 -17.334 -44.001 -20.001c-7.33398 -2.66699 -22.667 -7 -46 -13c-19.333 -4.66699 -33.333 -7.5 -42 -8.5s-25 -1.5 -48.999 -1.5h-31
c-42.667 0 -72 1 -88 3c-16.667 2 -31.334 7.33301 -44.001 16c-14 8.66699 -36.167 25.5 -66.5 50.5s-50.166 43.167 -59.499 54.5c-10 10.667 -16 24 -18 40c-2.66699 13.333 -4 42 -4 86c0 32 0.833008 52.667 2.5 62c1.66699 9.33398 6.83398 25.667 15.501 49
c8 22 14.167 36.333 18.5 43s15.166 19 32.499 37c14 15.333 24 25.333 30 30s19.333 12.334 40 23.001c16.667 9.33398 30.834 16.667 42.501 22c11.667 5.33398 26.167 11.001 43.5 17c48 17.333 80.833 28.833 98.5 34.5s56.834 17.167 117.501 34.5
c64.667 18 104.5 29.667 119.499 35c15 5.33301 36.5 14.666 64.5 27.999v96c-0.0214844 15.333 -1.18848 35.166 -3.5 59.499c-2.34375 24.333 -4.17676 39.833 -5.49902 46.5c-1.33887 6 -5.50586 16.5 -12.501 31.5c-7.00781 15 -12.1748 24.5 -15.5 28.5
c-4.66699 4.66992 -14.334 12.3369 -29.001 23c-14.667 10.6699 -25 17.0029 -31 18.999c-7.33398 2 -23.001 3 -47 3c-22 0 -36 -0.5 -42 -1.5c-6.00098 -1 -16.334 -4.5 -31 -10.5c-10.668 -4 -19.335 -7.83301 -26 -11.5c-6.66797 -3.66699 -14.001 -8.5 -22 -14.5
c1.33301 -9.33691 3.33301 -18.5039 6 -27.501c2.66699 -9.00195 6.33398 -20.1689 11.001 -33.501c7.33594 -22 11.5029 -36 12.5 -42c1 -6 1.5 -18.333 1.5 -37c0 -8.66699 -0.5 -15.334 -1.5 -20.001s-3.5 -12 -7.5 -22c-4.66699 -12.667 -8.16699 -20.834 -10.5 -24.501
s-7.5 -9.16699 -15.5 -16.5c-11.333 -10 -19.166 -16.333 -23.499 -19s-13.5 -6.66699 -27.5 -12c-14.667 -5.33789 -25.667 -8.50488 -33 -9.5c-7.33301 -1 -25.666 -1.5 -54.999 -1.5c-27.333 0 -48.333 0.666992 -63 2c-11.334 1.33301 -21.001 4.33301 -29.001 9
s-19.667 14.667 -35 30c-16.667 15.333 -27 26 -31 32c-6 8 -9.33301 16 -10 24c-1.33301 12.001 -2 28.334 -2 48.999c0 18.002 0.666992 32.335 2 43c0.666992 7.33301 4 15 10 23s18.667 21.5 38 40.5s33.333 31.167 42 36.5c9.33301 6 29.833 16.5 61.5 31.5
s53.5 24.5 65.5 28.5c12 3.33301 38.5 9.16602 79.5 17.499s67.833 13.166 80.5 14.499c16 1.33301 39.667 2 71 2c48.667 0 80.334 -0.5 95 -1.5c14.667 -1.00781 42.334 -4.1748 83 -9.5c40.667 -6 67 -11 78.999 -15c12.001 -4 34.334 -15 67 -33
c22 -12.667 37.667 -22 47 -28c9.33301 -7.33691 16.666 -15.0039 21.999 -23c6.66992 -9.33301 16.8369 -26.333 30.5 -51c13.6709 -24.667 22.5039 -42.334 26.5 -53.001c4.66699 -12 7.33398 -25 8.00098 -39c0.666992 -10 1 -37 1 -81
c-0.03125 -71.333 -1.36426 -160.666 -3.99902 -267.999c-3.33301 -114.667 -5 -182.667 -5 -204c0.03125 -21.333 0.698242 -35 2 -41c1.33301 -6 5.33301 -16 12 -30c6.66699 -13.333 11.5 -21.5 14.5 -24.5s11.833 -7.83301 26.5 -14.5
c8.66699 -4 15.167 -6.33301 19.5 -6.99902c4.33301 -0.666992 15.833 -1.33398 34.5 -2c32 -1.33301 54 -2 66 -2v-73zM704 542.009c-36 -12 -73.001 -26.335 -111.001 -43.002c-27.333 -12.667 -44.833 -21.167 -52.5 -25.5s-20.167 -13.166 -37.5 -26.499
c-18.668 -14 -30.335 -24 -35.001 -30c-4.66797 -6 -12.335 -19.667 -23.001 -41c-10.668 -22.001 -16.835 -37.334 -18.5 -46c-1.67285 -8.66699 -2.50586 -27.667 -2.49902 -57c0.00683594 -25.333 0.673828 -44.666 2.00098 -57.999
c1.33496 -10.667 4.00195 -19.5 8 -26.5c4.00098 -7 12.668 -16.5 26 -28.5c12.667 -12.667 22 -21 28 -25c4.66699 -4 11.334 -6.66699 20.001 -8c9.33301 -1.33301 22.333 -2 39 -2c27.333 0 44.833 1 52.5 3c7.66797 2 20.501 8.66699 38.5 20
c18 12 29.5 20.167 34.5 24.5s14.167 14.5 27.5 30.5z" />
    </font>
</defs>
</svg>
