<?xml version="1.0" standalone="no"?>
<!DOCTYPE svg PUBLIC "-//W3C//DTD SVG 1.1//EN" "http://www.w3.org/Graphics/SVG/1.1/DTD/svg11.dtd" >
<svg xmlns="http://www.w3.org/2000/svg" xmlns:xlink="http://www.w3.org/1999/xlink" version="1.1">
<metadata>
Created by FontForge 20170910 at Thu Jan 18 14:47:20 2001
 By Jimmy Wärting
(c) 2001 Levi
</metadata>
<defs>
<font id="Helldorado" horiz-adv-x="457" >
  <font-face 
    font-family="Helldorado"
    font-weight="400"
    font-stretch="normal"
    units-per-em="1000"
    panose-1="0 0 4 0 0 0 0 0 0 0"
    ascent="800"
    descent="-200"
    x-height="800"
    cap-height="800"
    bbox="-14 -185 686 893"
    underline-thickness="20"
    underline-position="-143"
    unicode-range="U+0020-007D"
  />
<missing-glyph horiz-adv-x="500" 
d="M63 0v800h375v-800h-375zM125 63h250v675h-250v-675z" />
    <glyph glyph-name=".notdef" horiz-adv-x="500" 
d="M63 0v800h375v-800h-375zM125 63h250v675h-250v-675z" />
    <glyph glyph-name=".null" horiz-adv-x="0" 
 />
    <glyph glyph-name="nonmarkingreturn" horiz-adv-x="500" 
 />
    <glyph glyph-name="space" unicode=" " horiz-adv-x="500" 
 />
    <glyph glyph-name="exclam" unicode="!" horiz-adv-x="244" 
d="M168 570q-38 0 -38 -40v-95q0 -13 21 -34q-21 -23 -21 -35v-151h-91v151q0 12 -21 35q21 21 21 33v96q0 40 -39 40v230h5q46 0 80 -29q32 29 78 29h5v-230zM148 31q0 -31 -30 -31h-68q-12 0 -21 8.5t-9 20.5v108q0 30 30 30h68q30 0 30 -30v-106z" />
    <glyph glyph-name="quotedbl" unicode="&#x22;" horiz-adv-x="358" 
d="M282 538h-35v42q0 22 -15.5 38t-38.5 16h-10q-30 0 -30 28v108q0 30 30 30h68q31 0 31 -30v-232zM128 538h-34v42q0 22 -15.5 38t-38.5 16h-10q-30 0 -30 28v108q0 30 30 30h68q30 0 30 -30v-232z" />
    <glyph glyph-name="numbersign" unicode="#" horiz-adv-x="490" 
d="M167 439v-81h81v81h-81zM167 191h-81v86h-86v81h86v81h-86v81h86v86h81v-86h81v86h80v-86h86v-81h-86v-81h86v-81h-86v-86h-80v86h-81v-86z" />
    <glyph glyph-name="dollar" unicode="$" horiz-adv-x="395" 
d="M77 801zM243 -88h-80v86q-39 15 -66 62v-60h-91v330h91v-56q0 -18 12.5 -30.5t30.5 -12.5t31 12.5t13 29.5q0 36 -37 73q-11 11 -41 9q-1 15 -2 21q-2 11 -9 18q-95 89 -95 198q0 176 77 209v92h81v-96q29 -16 50 -57v60h85v-305h-93v41q0 14 -10 24t-25 10
q-14 0 -24.5 -10t-10.5 -24q0 -34 33 -65q8 -8 42 -8q0 -29 12 -39q102 -91 102 -219q0 -169 -76 -204v-89z" />
    <glyph glyph-name="percent" unicode="%" horiz-adv-x="620" 
d="M258 653q0 -50 -36 -85.5t-86 -35.5v0h-15q-50 0 -85.5 35.5t-35.5 85.5v26q0 50 35.5 85.5t85.5 35.5h15q50 0 86 -35.5t36 -85.5v-26zM456 800l-282 -800h-81l283 800h80zM544 121q0 -50 -35.5 -85.5t-85.5 -35.5v0h-15q-51 0 -86.5 35.5t-35.5 85.5v26q0 50 35.5 85.5
t86.5 35.5h15q50 0 85.5 -35.5t35.5 -85.5v-26zM167 637v46q0 31 -31 31h-15q-31 0 -31 -31v-46q0 -30 31 -30h15q31 0 31 30zM454 105v46q0 31 -31 31h-15q-31 0 -31 -31v-46q0 -30 31 -30h15q31 0 31 30z" />
    <glyph glyph-name="ampersand" unicode="&#x26;" horiz-adv-x="379" 
d="M303 121q0 -50 -35.5 -85.5t-85.5 -35.5h-61q-50 0 -85.5 35.5t-35.5 85.5v200q0 46 32 82q-32 35 -32 81v195q0 50 35.5 85.5t85.5 35.5h61q50 0 85.5 -35.5t35.5 -85.5v-195q0 -38 -24 -73q-34 -50 -97 -49h-61q-30 0 -30 -31v-69q0 -30 30 -30h61q30 0 30 30v36h91
v-177zM212 474v64q0 30 -30 30v0h-61q-30 0 -30 -30v-64q0 -31 30 -31h61q30 0 30 31zM182 362z" />
    <glyph glyph-name="quotesingle" unicode="'" horiz-adv-x="204" 
d="M128 538h-34v42q0 22 -15.5 38t-38.5 16h-10q-30 0 -30 28v108q0 30 30 30h68q30 0 30 -30v-232z" />
    <glyph glyph-name="parenleft" unicode="(" horiz-adv-x="305" 
d="M216 -20q-216 153 -216 420q0 270 216 422l13 -13q-98 -120 -98 -409q0 -287 98 -407z" />
    <glyph glyph-name="parenright" unicode=")" horiz-adv-x="305" 
d="M13 -20q216 153 216 420q0 270 -216 422l-13 -13q98 -120 98 -409q0 -287 -98 -407z" />
    <glyph glyph-name="asterisk" unicode="*" horiz-adv-x="374" 
d="M155 568q20 11 55 55q29 36 51 36q16 0 26.5 -11.5t10.5 -27.5q0 -37 -56 -41q-47 -4 -80 -21q35 -20 85.5 -23.5t50.5 -40.5q0 -16 -11 -28t-27 -12q-19 0 -42 27q-17 22 -35 43q-12 12 -27 22v-2q0 -26 16 -65t16 -48q0 -39 -40 -39q-37 0 -37 37q0 7 15.5 51t17.5 65
q-20 -11 -56 -54q-29 -36 -51 -36q-15 0 -26 11.5t-11 27.5q0 35 54 41q48 5 82 21q-33 20 -82 23q-54 3 -54 41q0 15 10.5 27t25.5 12q20 0 51 -36q38 -44 55 -54q0 26 -15.5 65.5t-15.5 49.5q0 38 38 38t38 -38q0 -8 -15.5 -50t-16.5 -66z" />
    <glyph glyph-name="plus" unicode="+" horiz-adv-x="352" 
d="M276 358h-98v-97h-80v97h-98v81h98v98h80v-98h98v-81z" />
    <glyph glyph-name="comma" unicode="," horiz-adv-x="204" 
d="M128 -95h-34v41q0 22 -15.5 38t-38.5 16h-10q-30 0 -30 28v108q0 30 30 30h68q30 0 30 -30v-231z" />
    <glyph glyph-name="hyphen" unicode="-" horiz-adv-x="294" 
d="M218 358h-218v81h218v-81z" />
    <glyph glyph-name="hyphen" unicode="&#x2010;" horiz-adv-x="294" 
d="M218 358h-218v81h218v-81z" />
    <glyph glyph-name="period" unicode="." horiz-adv-x="204" 
d="M128 31q0 -31 -30 -31h-68q-12 0 -21 8.5t-9 20.5v108q0 30 30 30h68q30 0 30 -30v-106z" />
    <glyph glyph-name="slash" unicode="/" horiz-adv-x="329" 
d="M253 800l-172 -800h-81l172 800h81z" />
    <glyph glyph-name="zero" unicode="0" horiz-adv-x="377" 
d="M301 400q-22 -21 -22 -36v-243q0 -50 -35.5 -85.5t-85.5 -35.5v0h-15q-50 0 -85.5 35.5t-35.5 85.5v244q0 14 -22 35q22 20 22 35v244q0 50 35.5 85.5t85.5 35.5h15q50 0 85.5 -35.5t35.5 -85.5v-243q-1 -15 22 -36zM189 262v104q-2 13 -22 34q20 20 22 34v106
q0 30 -31 30h-15q-31 0 -31 -30v-104q0 -16 21 -36q-21 -21 -21 -36v0v-102q0 -30 31 -30h15q31 0 31 30z" />
    <glyph glyph-name="one" unicode="1" horiz-adv-x="292" 
d="M216 0h-1q-50 0 -84 29q-33 -29 -84 -29v0v232q39 -1 39 39v95q0 12 -21 34q21 21 21 34v96q0 40 -39 40h-9q-12 0 -23 8q-15 9 -15 25q0 14 14 31l131 166h71v-230q-39 0 -39 -40v-95q0 -15 21 -35q-21 -21 -21 -35v-94q0 -40 39 -39v-232z" />
    <glyph glyph-name="two" unicode="2" horiz-adv-x="388" 
d="M312 593q0 -109 -95 -198q-9 -9 -11 -38q-30 1 -41 -9q-36 -35 -36 -73q0 -43 39 -43q41 0 41 40v56h90v-328h-130q-50 0 -84 30q-34 -30 -84 -30h-1l1 282q1 47 34 86q4 5 61 57q10 9 12 39q34 0 42 8q32 30 32 65q0 14 -10 24t-25 10q-14 0 -24 -10t-10 -24v-41h-94
v306h86v-62q33 68 91 68q116 0 116 -215z" />
    <glyph glyph-name="three" unicode="3" horiz-adv-x="389" 
d="M313 401q-20 -21 -20 -35l-1 -245q0 -50 -36 -85.5t-86 -35.5h-49q-50 0 -85.5 35.5t-35.5 85.5v210h91v-66q0 -30 30 -30h49q30 0 31 30v72q0 10 -9 17.5t-20 7.5h-49v80h49q29 0 29 28v47q0 22 -15.5 38t-37.5 16t-38 -15.5t-16 -37.5v-43h-94v327h86v-62q33 68 91 68
q116 0 116 -215v-157q0 -14 20 -35z" />
    <glyph glyph-name="four" unicode="4" horiz-adv-x="456" 
d="M380 0v0q-51 0 -84 29q-34 -29 -84 -29h-1v232q39 -1 39 39v57q0 30 -30 30h-60q-49 0 -66 5q-55 15 -55 71v96q0 40 -39 40v230h5q46 0 80 -29q32 29 79 29h5v-230q-39 0 -39 -40v-64q0 -28 30 -28h60q30 0 30 31v61q0 40 -39 40v230h6q46 0 79 -29q32 29 79 29h5v-230
q-39 0 -39 -40v-95q0 -15 21 -35q-21 -21 -21 -35v-94q0 -40 39 -39v-232z" />
    <glyph glyph-name="five" unicode="5" horiz-adv-x="384" 
d="M308 121q0 -50 -35.5 -85.5t-85.5 -35.5h-148v232h145q29 0 30 30l1 35q0 31 -30 31h-146v201q0 39 -39 39v232h24q36 -6 61 -28q24 22 59 28h155v-327h-91v56q0 39 -39 39t-39 -39l-1 -120h103q45 0 63 -34q13 -26 13 -85v-169z" />
    <glyph glyph-name="six" unicode="6" horiz-adv-x="401" 
d="M325 121q0 -50 -35.5 -85.5t-86.5 -35.5v0h-60q-50 0 -85.5 35.5t-35.5 85.5v241q0 14 -22 36q22 23 22 35v160q0 215 115 215q58 0 92 -68v62h85v-327h-94v43q0 22 -16 37.5t-38 15.5t-37.5 -15.5t-15.5 -38.5q-1 -33 0 -45q0 -12 10.5 -23t19.5 -11h60q51 0 86.5 -35.5
t35.5 -85.5v-196zM234 262v65q0 31 -31 31h-60q-30 0 -30 -31v-65q0 -30 30 -30h60q31 0 31 30z" />
    <glyph glyph-name="seven" unicode="7" horiz-adv-x="374" 
d="M298 594q0 -21 -14 -50l-70 -141q-4 -8 0 -20q3 -10 7 -20q-10 -3 -21 -7t-15 -12l-14 -33q-10 -23 -10 -40q0 -40 33 -39v-232q-50 0 -84 29q-34 -29 -84 -29v0v232q22 -1 41 39l54 109q7 11 -3 40l20 5q9 5 11 13l27 54q8 18 8 33q0 44 -54 43q-40 0 -40 -39v-56h-90
v327h154q35 -5 60 -27q25 22 60 27h24v-206z" />
    <glyph glyph-name="eight" unicode="8" horiz-adv-x="379" 
d="M303 121q0 -50 -35.5 -85.5t-85.5 -35.5h-61q-50 0 -85.5 35.5t-35.5 85.5v200q0 46 32 82q-32 35 -32 81v195q0 50 35.5 85.5t85.5 35.5h61q50 0 85.5 -35.5t35.5 -85.5v-195q0 -46 -31 -81q31 -36 31 -82v-200zM212 474v64q0 30 -30 30v0h-61q-30 0 -30 -30v-64
q0 -31 30 -31h61q30 0 30 31zM212 262v69q0 31 -30 31h-61q-30 0 -30 -31v-69q0 -30 30 -30h61q30 0 30 30z" />
    <glyph glyph-name="nine" unicode="9" horiz-adv-x="401" 
d="M325 399q-21 -20 -21 -35v-157q0 -215 -116 -215q-58 0 -92 69v-63h-85v327h94v-42q0 -22 16 -38t38 -16t37.5 16t15.5 38v42q0 12 -10.5 22.5t-19.5 10.5h-60q-51 0 -86.5 36t-35.5 86v198q0 51 35.5 86.5t86.5 35.5v0h60q50 0 86 -35.5t36 -86.5v-244q0 -13 21 -35z
M212 470v70q0 30 -30 30h-60q-31 0 -31 -30v-70q0 -30 31 -30h60q30 0 30 30z" />
    <glyph glyph-name="colon" unicode=":" horiz-adv-x="204" 
d="M128 274q0 -31 -30 -31h-68q-12 0 -21 8.5t-9 20.5v108q0 30 30 30h68q30 0 30 -30v-106zM128 31q0 -31 -30 -31h-68q-12 0 -21 8.5t-9 20.5v108q0 30 30 30h68q30 0 30 -30v-106z" />
    <glyph glyph-name="semicolon" unicode=";" horiz-adv-x="204" 
d="M128 274q0 -31 -30 -31h-68q-12 0 -21 8.5t-9 20.5v108q0 30 30 30h68q30 0 30 -30v-106zM128 -95h-34v41q0 22 -15.5 38t-38.5 16h-10q-30 0 -30 28v108q0 30 30 30h68q30 0 30 -30v-231z" />
    <glyph glyph-name="less" unicode="&#x3c;" horiz-adv-x="536" 
d="M460 456v-86l-349 -142l349 -142v-86l-460 189v78z" />
    <glyph glyph-name="equal" unicode="=" horiz-adv-x="294" 
d="M218 439h-218v81h218v-81zM218 277h-218v81h218v-81z" />
    <glyph glyph-name="greater" unicode="&#x3e;" horiz-adv-x="536" 
d="M0 456v-86l349 -142l-349 -142v-86l460 189v78z" />
    <glyph glyph-name="question" unicode="?" horiz-adv-x="386" 
d="M310 592q0 -69 -26 -114q-9 -16 -49 -61q-28 -31 -29 -61q-31 1 -41 -9q-38 -37 -37 -72v-61h-127v68q-1 46 32 85q8 8 62 57q10 8 12 39q32 -1 42 8q32 31 32 64q0 14 -10 24t-24 10q-34 0 -34 -34v-40h-94v305h85v-62q34 68 91 68q115 0 115 -214zM129 137l-1 -106
q0 -31 -30 -31h-68q-12 0 -21 8.5t-9 20.5v108q0 30 30 30h68q31 0 31 -30z" />
    <glyph glyph-name="at" unicode="@" horiz-adv-x="762" 
d="M407 226q-47 -77 -115 -77q-58 0 -89 39q-29 35 -29 95q0 79 59 146.5t137 67.5q74 0 87 -71l19 64h74l-68 -241q-6 -23 -6 -37q0 -40 29 -40q13 0 34 10q59 28 92 92q29 59 29 129q0 112 -78 178q-73 63 -187 63q-144 0 -238 -98.5t-94 -243.5q0 -134 86 -211
q81 -74 217 -74q128 0 245 81l16 -20q-118 -88 -261 -88q-156 0 -257 80q-109 87 -109 240q0 154 117 259q113 102 269 102q130 0 212 -69q88 -73 88 -201q0 -90 -51 -167q-57 -86 -142 -86q-80 0 -86 78zM385 472q-51 0 -93 -92q-36 -78 -36 -137q0 -67 49 -67q52 0 93 92
q35 79 35 139q0 65 -48 65z" />
    <glyph glyph-name="A" unicode="A" 
d="M381 0h-1q-51 0 -84 30q-33 -30 -84 -30h-1v232q40 0 40 39v14q0 28 -30 28h-61q-30 0 -30 -28v-14q0 -39 39 -39v-232h-1q-50 0 -83 30q-33 -30 -84 -30h-1v232q38 0 38 39v47q0 14 -21 35q10 9 21 32v43q0 9 8 26l53 116h-29q-31 0 -31 31v167q0 13 9 22.5t22 9.5h240
q13 0 22.5 -9.5t9.5 -22.5v-167q0 -31 -32 -31h-28l53 -116q8 -17 8 -26v-43q1 -11 20 -32q-20 -21 -20 -35v-47q0 -39 38 -39v-232zM251 421v3q0 3 -5 14l-55 120l-56 -120q-5 -11 -5 -14v-3q0 -28 30 -28h61q30 0 30 28z" />
    <glyph glyph-name="B" unicode="B" horiz-adv-x="418" 
d="M342 121q0 -50 -36 -85.5t-86 -35.5h-56q-47 0 -80 30q-33 -30 -79 -30h-5v231q39 0 39 39v95q0 14 -21 35q21 20 21 34v96q0 39 -39 39v231h5q46 0 79 -30q33 30 80 30h56q50 0 86 -35.5t36 -85.5v-201q0 -47 -31 -81q31 -35 31 -81v-195zM250 468v72q0 30 -30 30h-60
q-30 0 -30 -30v-72q0 -30 30 -30h60q30 0 30 30zM250 260v66q0 31 -30 31v0h-60q-30 0 -30 -31v-66q0 -30 30 -30h60q30 0 30 30z" />
    <glyph glyph-name="C" unicode="C" horiz-adv-x="375" 
d="M299 0h-130q-52 0 -85 30q-33 -30 -84 -30v0v232q39 0 39 40v92q0 16 -21 37q21 21 21 37v90q0 40 -39 40v232h24q38 -6 60 -28q24 22 60 28h155v-328h-91v56q0 40 -39 40q-40 0 -40 -40v-90q0 -15 22 -37q-22 -21 -22 -37v-92q0 -40 40 -40q39 0 39 40v56h91v-328z" />
    <glyph glyph-name="D" unicode="D" horiz-adv-x="391" 
d="M336 400q-22 -22 -22 -35v-157q0 -216 -116 -216v0h-13q-57 0 -92 69v-61h-85v367q0 12 -22 34q22 23 22 34v0v365h85v-60q34 68 92 68h13q116 0 116 -215v-158q0 -12 22 -35zM224 285v79q0 16 -22 36q22 22 22 37v77q0 23 -16 39t-38 16h-14q-22 0 -38 -16t-16 -38v-79
q0 -13 21 -35q-21 -23 -21 -35v-81q0 -22 16 -37.5t38 -15.5h14q22 0 38 15.5t16 37.5z" />
    <glyph glyph-name="E" unicode="E" horiz-adv-x="376" 
d="M300 0h-131q-51 0 -84 29q-34 -29 -84 -29h-1v232q40 -1 40 40v92q0 16 -22 37q22 20 22 36v91q0 40 -40 40v232h24q36 -6 61 -28q25 22 60 28h155v-328h-91v56q0 40 -39 40q-40 0 -40 -40v-61q0 -29 30 -29h49v-79h-49q-30 0 -30 -29v-58q0 -40 40 -40q39 0 39 40v56h91
v-328z" />
    <glyph glyph-name="F" unicode="F" horiz-adv-x="376" 
d="M300 472h-91v56q0 40 -39 40q-40 0 -40 -40v-61q0 -29 30 -29h49v-79h-49q-12 0 -21 -8.5t-9 -20.5v-58q0 -41 40 -40v-232h-1q-51 0 -84 29q-34 -29 -84 -29h-1v232q40 -1 40 40v92q0 15 -21 37q21 21 21 36v91q0 40 -40 40v232h24q36 -6 61 -28q25 22 60 28h155v-328z
" />
    <glyph glyph-name="G" unicode="G" horiz-adv-x="376" 
d="M300 472h-94v45q0 22 -16 38t-38 16t-38 -16t-16 -38l1 -81q0 -16 21 -36q-22 -21 -21 -36h-1v-80q0 -22 16 -37.5t38 -15.5t38 15.5t16 37.5v45q0 28 -29 28h-12v81h133v-438h-83v61q-34 -69 -92 -69q-116 0 -116 215v158q0 14 -21 35q21 21 21 35v158q0 215 116 215
q58 0 92 -69v61h85v-328z" />
    <glyph glyph-name="H" unicode="H" 
d="M381 0h-1q-50 0 -84 29q-33 -29 -84 -29v0v232q39 -1 39 39v57h-1q0 30 -30 30h-60q-28 0 -30 -28v-59q0 -40 39 -39v-232v0q-51 0 -84 29q-34 -29 -84 -29h-1v232q39 -1 39 39v95q0 12 -20 34q20 21 20 34v96q0 40 -39 40v230h6q46 0 79 -29q32 29 79 29h5v-230
q-39 0 -39 -40v-64q2 -28 30 -28h60q30 0 30 31l1 -1v62q0 40 -39 40v230h5q46 0 79 -29q33 29 79 29h6v-230q-39 0 -39 -40v-95q0 -14 20 -35q-20 -22 -20 -35v-94q0 -40 39 -39v-232z" />
    <glyph glyph-name="I" unicode="I" horiz-adv-x="245" 
d="M169 0v0q-51 0 -84 29q-34 -29 -85 -29v0v232q39 -1 39 39v95q0 11 -21 34q21 22 21 34v96q0 40 -39 40v230h5q46 0 80 -29q32 29 79 29h5v-230q-39 0 -39 -40v-95q0 -14 21 -35q-21 -22 -21 -35v-94q0 -40 39 -39v-232z" />
    <glyph glyph-name="J" unicode="J" horiz-adv-x="375" 
d="M299 0h-1q-50 0 -83 29q-34 -29 -84 -29h-131v327h90v-56q0 -39 40 -39q39 0 39 39v95q0 12 -20 34q20 21 20 34v96q0 40 -39 40v230h6q46 0 79 -29q32 29 78 29h6v-230q-39 0 -39 -40v-95q0 -15 21 -35q-21 -21 -21 -35v-94q0 -40 39 -39v-232z" />
    <glyph glyph-name="K" unicode="K" horiz-adv-x="453" 
d="M377 0h-1q-51 0 -84 29q-33 -29 -84 -29v0v237h11q13 0 13 8q0 11 -19 30l-85 87v-86q0 -40 40 -39v-236q-50 0 -83 30q-34 -30 -85 -30v0v236q39 -1 39 39v90q0 13 -21 34q21 22 21 35v95q0 39 -39 39v231h5q45 0 80 -30q33 30 78 30h5v-231q-40 0 -40 -39v-92l91 93
q15 15 15 27q0 11 -15 11h-11v231v0q51 0 84 -30q33 30 84 30h1v-231q-17 0 -27 -10l-157 -159l139 -141q21 -22 45 -22v-237z" />
    <glyph glyph-name="L" unicode="L" horiz-adv-x="375" 
d="M299 0h-130q-51 0 -84 29q-34 -29 -84 -29h-1v232q39 -1 39 39v93q0 14 -20 36q20 21 20 36v94q0 40 -39 40v230h6q46 0 79 -29q32 29 79 29h5v-230q-39 0 -39 -40v-96q0 -12 21 -34q-21 -23 -21 -34v-95q0 -39 39 -39q40 0 40 39v85h90v-356z" />
    <glyph glyph-name="M" unicode="M" horiz-adv-x="569" 
d="M493 0q-51 0 -84 30q-34 -30 -84 -30v0v232q38 0 38 39v173l-116 -169l-117 169v-173q0 -39 39 -39v-232h-1q-50 0 -83 30q-33 -30 -84 -30h-1v232q39 0 39 39v95q0 13 -20 34q20 21 20 34v96q0 40 -39 39v231h6q62 0 79 -29l162 -293l162 293q17 29 79 29h5v-231
q-39 1 -39 -39v-96q0 -12 21 -34q-21 -22 -21 -34v-95q0 -39 39 -39v-232z" />
    <glyph glyph-name="N" unicode="N" horiz-adv-x="459" 
d="M383 0h-5q-67 0 -80 29l-168 409v-167q0 -40 39 -39v-232v0q-51 0 -84 29q-34 -29 -85 -29v0v232q39 -1 39 39v95q0 12 -21 34q21 23 21 34v96q0 40 -39 40v230h5q68 0 80 -29l168 -421v179q0 40 -39 39v232h1q50 0 83 -29q35 29 85 29v0v-232q-39 1 -39 -39v-95
q0 -11 21 -34q-21 -22 -21 -34v-96q0 -40 39 -40v-230z" />
    <glyph glyph-name="O" unicode="O" horiz-adv-x="386" 
d="M331 400q-21 -20 -21 -36l-1 -243q0 -50 -35.5 -85.5t-85.5 -35.5v0h-59q-51 0 -86.5 35.5t-35.5 85.5v244q0 12 -21 35q21 22 21 35v244q0 50 35.5 85.5t86.5 35.5h59q50 0 85.5 -35.5t35.5 -85.5v-243h1q-1 -15 21 -36zM219 262v104q-1 13 -21 34q20 20 21 34v106
q0 30 -31 30h-59q-31 0 -31 -30v-104q0 -16 21 -36q-21 -21 -21 -36v0v-102q0 -30 31 -30h59q31 0 31 30z" />
    <glyph glyph-name="P" unicode="P" horiz-adv-x="418" 
d="M342 479q0 -51 -36 -86.5t-86 -35.5h-61q-29 0 -29 -30v-56q0 -41 39 -39v-232q-51 0 -84 29q-35 -29 -85 -29v0v232q39 -2 39 39v95q0 11 -21 34q21 22 21 34v96q0 40 -39 40v230h5q46 0 80 -29q32 29 79 29h56q50 0 86 -35.5t36 -85.5v-200zM250 469v71q0 30 -30 30
h-60q-30 0 -30 -30v-71q0 -31 30 -31h60q30 0 30 31z" />
    <glyph glyph-name="Q" unicode="Q" horiz-adv-x="386" 
d="M487 -93q0 -40 -27 -66t-66 -26q-40 0 -93 38q-47 35 -95 70q-59 38 -113 38q-18 0 -46 -8.5t-42 -8.5q-18 0 -18 19q0 33 47 40q25 3 42 9q-69 33 -69 109v244q0 12 -21 35q21 22 21 35v244q0 50 35.5 85.5t86.5 35.5h59q50 0 85.5 -35.5t35.5 -85.5v-243h1
q-1 -15 21 -36q-21 -20 -21 -36l-1 -243q0 -50 -35.5 -85.5t-85.5 -35.5h-32q30 -4 101 -45t77 -41q23 0 23 18q0 5 -2 15t-2 13q0 14 20 23q16 6 33 6q34 0 57.5 -24t23.5 -58zM219 262v104q-1 13 -21 34q20 20 21 34v106q0 30 -31 30h-59q-31 0 -31 -30v-104q0 -16 21 -36
q-21 -21 -21 -36v-102q0 -30 31 -30h59q31 0 31 30z" />
    <glyph glyph-name="R" unicode="R" horiz-adv-x="456" 
d="M380 0v0q-50 0 -84 30q-34 -30 -84 -30h-1v231q39 0 40 40v50q1 15 -10 26t-27 11h-27q-18 -1 -27 -1q-30 0 -30 -29v-56q0 -40 39 -39v-232h-1q-50 0 -83 30q-34 -30 -84 -30h-1v232q39 -1 39 39v95q0 12 -20 34q20 21 20 34v96q0 39 -39 39v230h6q46 0 79 -29
q32 29 78 29h58q50 0 85.5 -35.5t35.5 -85.5v-200q0 -47 -33 -82q33 -32 33 -76v-50q0 -40 38 -40v-231zM251 469v71q0 31 -30 31h-61q-30 0 -30 -31v-71q0 -31 30 -31h61q30 0 30 31z" />
    <glyph glyph-name="S" unicode="S" horiz-adv-x="395" 
d="M319 205q0 -213 -119 -213q-64 0 -103 68v-60h-91v330h91v-56q0 -18 12.5 -30.5t30.5 -12.5t31 12.5t13 29.5q0 36 -37 73q-11 11 -41 9q-1 15 -2 21q-2 11 -9 18q-95 89 -95 198q0 216 117 216q57 0 91 -68v60h85v-305h-93v41q0 14 -10 24t-25 10q-14 0 -24.5 -10
t-10.5 -24q0 -34 33 -65q8 -8 42 -8q0 -29 12 -39q102 -91 102 -219z" />
    <glyph glyph-name="T" unicode="T" horiz-adv-x="511" 
d="M435 471h-95v56q0 40 -39 40q-37 0 -38 -40v-92q-1 -14 21 -35q-21 -21 -21 -35v-94q0 -40 39 -39v-232h-1q-50 0 -84 29q-33 -29 -84 -29v0v232q39 -1 39 39v95q0 12 -21 34q21 21 21 34v93q0 40 -39 40q-40 0 -40 -40v-56h-93v329h85v-68q34 68 91 68h83q58 0 91 -68
v68h85v-329z" />
    <glyph glyph-name="U" unicode="U" 
d="M381 570q-39 0 -39 -40v-94q0 -16 21 -36q-21 -21 -21 -36v-243q0 -50 -36 -85.5t-86 -35.5h-60q-50 0 -85.5 35.5t-35.5 85.5v244q0 12 -21 35q21 22 21 35v95q0 40 -39 40v230h6q46 0 79 -29q32 29 79 29h5v-230q-39 0 -39 -40v-94q0 -16 21 -36q-21 -21 -21 -36v0
v-102q0 -30 30 -30h60q31 0 31 30v104q-1 13 -21 34q20 20 21 34v96q0 40 -39 40v230h5q46 0 79 -29q33 29 79 29h6v-230z" />
    <glyph glyph-name="V" unicode="V" 
d="M381 568q-39 2 -39 -39v-94q0 -14 22 -36q-22 -23 -22 -36v-175l-151 -196l-151 196v175q0 14 -22 36q22 23 22 35v95q0 41 -40 39v232h6q45 0 79 -29q34 29 79 29h6v-232q-40 2 -40 -39v-94q0 -14 21 -36q-21 -23 -21 -36v0v-73l61 -79l60 79v74q0 14 -21 35
q21 20 21 34v96q0 41 -39 39v232h5q46 0 79 -29q34 29 80 29h5v-232z" />
    <glyph glyph-name="W" unicode="W" horiz-adv-x="670" 
d="M594 568q-40 2 -40 -39v-95q0 -12 22 -35q-22 -22 -22 -36v-175l-151 -196l-107 137l-105 -137l-151 196v175q0 14 -22 36q22 23 22 35v95q0 41 -40 39v232h6q45 0 79 -29q34 29 79 29h6v-232q-40 2 -40 -39v-94q0 -14 21 -36q-21 -23 -21 -36v0v-73l61 -79l60 79v74
q0 14 -21 35q21 20 21 34v96q0 41 -39 39v232h5q46 0 79 -29q34 29 80 29h5v-232q-39 2 -39 -39v-94q0 -14 22 -36q-22 -23 -22 -36v-73v0l61 -79l60 79v73q0 14 -21 36q21 21 21 36v94q0 41 -39 39v232h6q45 0 79 -29q33 29 79 29h6v-232z" />
    <glyph glyph-name="X" unicode="X" horiz-adv-x="455" 
d="M379 0h-5q-46 0 -79 29q-34 -29 -79 -29h-6v230q40 0 40 40v5q0 15 -12 28l-47 50l-49 -50q-12 -13 -12 -28v-5q0 -40 39 -40v-230h-6q-45 0 -79 29q-33 -29 -78 -29h-6v230q39 0 39 40q0 22 20 43l86 87l-86 87q-20 20 -20 43q0 40 -39 40v230h6q45 0 78 -30
q34 30 79 30h6v-230q-39 0 -39 -40v-5q0 -15 12 -28l49 -50l47 50q12 13 12 28v5q0 40 -40 40v230h6q46 0 79 -30q33 30 79 30h5v-230q-39 0 -39 -40q0 -23 -20 -43l-85 -87l85 -87q20 -21 20 -43q0 -40 39 -40v-230z" />
    <glyph glyph-name="Y" unicode="Y" horiz-adv-x="456" 
d="M380 569q-40 2 -40 -39q0 -24 -20 -50l-85 -110v-99q0 -41 39 -40v-231v0q-51 0 -84 29q-33 -29 -84 -29h-1v231q40 -1 40 40v98l-86 111q-20 26 -20 50q0 41 -39 39v231h6q45 0 79 -29q33 29 78 29h6v-231q-39 2 -39 -39v-12q0 -11 12 -27l48 -64l48 64q12 16 12 27v12
q0 41 -39 39v231h5q46 0 79 -29q34 29 79 29h6v-231z" />
    <glyph glyph-name="Z" unicode="Z" horiz-adv-x="374" 
d="M298 0h-129q-51 0 -84 29q-35 -29 -85 -29v0v207q0 25 14 48l77 131q6 10 -2 39q10 4 20.5 8t15.5 11l40 67q4 6 4 18q0 39 -39 39q-40 0 -40 -39v-56h-90v327h154q35 -5 60 -27q25 22 60 27h24v-206q0 -26 -14 -50l-83 -141q-7 -12 2 -40q-16 -4 -21 -6q-11 -5 -16 -13
l-30 -52q-6 -10 -6 -21q0 -39 39 -39t39 39v56h90v-327z" />
    <glyph glyph-name="bracketleft" unicode="[" horiz-adv-x="265" 
d="M0 0v800h189v-26h-63v-749h63v-25h-189z" />
    <glyph glyph-name="backslash" unicode="\" horiz-adv-x="329" 
d="M0 800l172 -800h81l-172 800h-81z" />
    <glyph glyph-name="bracketright" unicode="]" horiz-adv-x="265" 
d="M189 0v800h-189v-26h63v-749h-63v-25h189z" />
    <glyph glyph-name="asciicircum" unicode="^" horiz-adv-x="557" 
d="M197 800h92l192 -221h-44l-194 146l-195 -146h-44z" />
    <glyph glyph-name="underscore" unicode="_" horiz-adv-x="453" 
d="M377 0h-377v81h377v-81z" />
    <glyph glyph-name="a" unicode="a" 
d="M381 0h-1q-50 0 -84 29q-33 -29 -84 -29v0v232q39 -1 39 39v57q0 30 -31 30h-60q-28 0 -30 -28v-59q0 -40 39 -39v-232v0q-51 0 -84 29q-34 -29 -84 -29h-1v232q39 -1 39 39v95q0 13 -20 34q20 22 20 34v245q0 50 36 85.5t86 35.5h59q51 0 86.5 -35.5t35.5 -85.5v-244
q0 -13 20 -35q-20 -21 -20 -35v-94q0 -40 39 -39v-232zM251 540q0 30 -31 30h-59q-31 0 -31 -30v-74q2 -28 30 -28h60q31 0 31 31v71z" />
    <glyph glyph-name="b" unicode="b" horiz-adv-x="418" 
d="M342 121q0 -50 -36 -85.5t-86 -35.5h-56q-47 0 -80 30q-33 -30 -79 -30h-5v231q39 0 39 39v95q0 14 -21 35q21 20 21 34v96q0 39 -39 39v231h5q46 0 79 -30q33 30 80 30h56q50 0 86 -35.5t36 -85.5v-201q0 -47 -31 -81q31 -35 31 -81v-195zM250 468v72q0 30 -30 30h-60
q-30 0 -30 -30v-72q0 -30 30 -30h60q30 0 30 30zM250 260v66q0 31 -30 31v0h-60q-30 0 -30 -31v-66q0 -30 30 -30h60q30 0 30 30z" />
    <glyph glyph-name="c" unicode="c" horiz-adv-x="376" 
d="M300 476h-94v42q0 22 -16 37.5t-38 15.5t-38 -16t-16 -38v-79q0 -15 21 -37q-21 -20 -21 -36l1 -99q0 -30 31 -30h48q31 0 31 30v65h90v-210q0 -50 -35.5 -85.5t-85.5 -35.5h-48q-51 0 -86.5 35.5t-35.5 85.5l-1 245q0 14 -21 35q21 23 21 35v158q0 214 116 214
q58 0 91 -68v62h86v-326z" />
    <glyph glyph-name="d" unicode="d" horiz-adv-x="439" 
d="M363 400q-21 -20 -21 -36v-243q0 -50 -35.5 -85.5t-85.5 -35.5h-53q-51 0 -84 30q-33 -30 -84 -30v0v232q39 0 39 39v95q0 13 -21 34q21 21 21 34v96q0 40 -39 39v231h5q46 0 79 -29q32 29 79 29h58q50 0 85.5 -35.5t35.5 -85.5v-242q0 -15 21 -37zM251 262v104
q0 13 -21 34q21 21 21 34v105q0 30 -30 30h-53q-39 0 -39 -39v-95q0 -12 22 -35q-22 -22 -22 -35v-94q0 -39 39 -39h53q30 0 30 30z" />
    <glyph glyph-name="e" unicode="e" horiz-adv-x="376" 
d="M300 0h-131q-51 0 -84 29q-34 -29 -84 -29h-1v232q40 -1 40 40v92q0 16 -22 37q22 20 22 36v91q0 40 -40 40v232h24q36 -6 61 -28q25 22 60 28h155v-328h-91v56q0 40 -39 40q-40 0 -40 -40v-61q0 -29 30 -29h49v-79h-49q-30 0 -30 -29v-58q0 -40 40 -40q39 0 39 40v56h91
v-328z" />
    <glyph glyph-name="f" unicode="f" horiz-adv-x="376" 
d="M300 472h-91v56q0 40 -39 40q-40 0 -40 -40v-61q0 -29 30 -29h49v-79h-49q-12 0 -21 -8.5t-9 -20.5v-58q0 -41 40 -40v-232h-1q-51 0 -84 29q-34 -29 -84 -29h-1v232q40 -1 40 40v92q0 15 -21 37q21 21 21 36v91q0 40 -40 40v232h24q36 -6 61 -28q25 22 60 28h155v-328z
" />
    <glyph glyph-name="g" unicode="g" horiz-adv-x="376" 
d="M300 0h-131q-51 0 -84 30q-33 -30 -84 -30h-1v232q40 0 40 40v92q0 15 -21 37q21 22 21 37v90q0 40 -40 40v232h24q37 -6 61 -28q24 22 60 28h155v-232h-130q-40 0 -40 -40v-256q0 -40 40 -40q39 0 39 40v58q0 29 -30 29h-12v80h133v-439z" />
    <glyph glyph-name="h" unicode="h" 
d="M381 0h-1q-50 0 -84 29q-33 -29 -84 -29v0v232q39 -1 39 39v57h-1q0 30 -30 30h-60q-28 0 -30 -28v-59q0 -40 39 -39v-232v0q-51 0 -84 29q-34 -29 -84 -29h-1v232q39 -1 39 39v95q0 12 -20 34q20 21 20 34v96q0 40 -39 40v230h6q46 0 79 -29q32 29 79 29h5v-230
q-39 0 -39 -40v-64q2 -28 30 -28h60q30 0 30 31l1 -1v62q0 40 -39 40v230h5q46 0 79 -29q33 29 79 29h6v-230q-39 0 -39 -40v-95q0 -14 20 -35q-20 -22 -20 -35v-94q0 -40 39 -39v-232z" />
    <glyph glyph-name="i" unicode="i" horiz-adv-x="245" 
d="M169 0v0q-51 0 -84 29q-34 -29 -85 -29v0v232q39 -1 39 39v95q0 11 -21 34q21 22 21 34v96q0 40 -39 40v230h5q46 0 80 -29q32 29 79 29h5v-230q-39 0 -39 -40v-95q0 -14 21 -35q-21 -22 -21 -35v-94q0 -40 39 -39v-232z" />
    <glyph glyph-name="j" unicode="j" horiz-adv-x="395" 
d="M342 570q-39 0 -39 -40v-95q0 -15 21 -35q-21 -21 -21 -35v-244q0 -50 -35.5 -85.5t-85.5 -35.5h-61q-50 0 -85.5 35.5t-35.5 85.5v207h91v-66q0 -30 30 -30h61q30 0 30 30v102q0 16 -21 36q21 20 21 36v94q1 40 -39 40v230h6q46 0 79 -29q32 29 79 29h5v-230z" />
    <glyph glyph-name="k" unicode="k" horiz-adv-x="453" 
d="M377 0q-51 0 -84 30q-34 -30 -85 -30v0v231q39 0 39 40q0 28 -9 54q-13 34 -37 34h-71v-88q0 -39 39 -39v-231h-1q-50 0 -83 30q-33 -30 -84 -30h-1v231q39 0 39 39v95q0 14 -21 34q21 20 21 35v95q0 40 -39 40v230h6q46 0 79 -29q32 29 78 29h6v-230q-39 0 -39 -40v-92
h69q25 0 38 36q10 27 10 55q0 40 -39 40v231q51 0 85 -29q33 29 84 29v0v-231q-38 0 -38 -40q0 -75 -45 -129q45 -56 45 -129q0 -40 38 -40v-231z" />
    <glyph glyph-name="l" unicode="l" horiz-adv-x="375" 
d="M299 0h-130q-51 0 -84 29q-34 -29 -84 -29h-1v232q39 -1 39 39v93q0 14 -20 36q20 21 20 36v94q0 40 -39 40v230h6q46 0 79 -29q32 29 79 29h5v-230q-39 0 -39 -40v-96q0 -12 21 -34q-21 -23 -21 -34v-95q0 -39 39 -39q40 0 40 39v85h90v-356z" />
    <glyph glyph-name="m" unicode="m" horiz-adv-x="668" 
d="M592 0h-1q-50 0 -83 30q-33 -30 -85 -30v0v232q39 0 39 39v92q0 15 -21 37q21 22 21 37v103q0 30 -30 30h-60q-12 0 -21.5 -9t-9.5 -21v-103h1q0 -16 21 -37q-21 -21 -21 -37l-1 -92q-1 -39 39 -39v-232h-1q-51 0 -84 30q-33 -30 -84 -30v0v232q39 0 39 39l1 95
q0 12 -22 34q22 22 22 34v106q0 30 -30 30l-52 -1q-39 0 -39 -39v-95q0 -15 21 -35q-21 -20 -21 -35v-94q0 -39 39 -39v-232h-1q-50 0 -83 30q-33 -30 -84 -30h-1v232q39 0 39 39v95q0 13 -20 34q20 21 20 34v96q0 39 -39 39v231h6q45 0 79 -30q33 30 78 30h58q42 0 75 -27
q33 27 76 27h60q50 0 85.5 -35.5t35.5 -85.5v-244q0 -14 21 -35q-20 -21 -21 -35v-94q-1 -39 39 -39v-232z" />
    <glyph glyph-name="n" unicode="n" horiz-adv-x="461" 
d="M385 0h-1q-51 0 -84 30q-33 -30 -84 -30v0v232q39 0 39 39l-1 95q0 13 -20 34q20 21 20 34v106q0 30 -30 30l-55 -1q-39 0 -39 -39v-95q0 -15 21 -35q-21 -20 -21 -35v-94q0 -39 39 -39v-232h-1q-50 0 -83 30q-33 -30 -84 -30h-1v232q39 0 39 39v95q0 13 -20 34
q20 21 20 34v96q0 39 -39 39v231h6q45 0 79 -30q33 30 78 30h61q50 0 86 -35.5t36 -85.5v-242q0 -15 20 -37q-20 -22 -20 -37v-92q0 -39 39 -39v-232z" />
    <glyph glyph-name="o" unicode="o" horiz-adv-x="386" 
d="M331 400q-21 -20 -21 -36l-1 -243q0 -50 -35.5 -85.5t-85.5 -35.5v0h-59q-51 0 -86.5 35.5t-35.5 85.5v244q0 12 -21 35q21 22 21 35v244q0 50 35.5 85.5t86.5 35.5h59q50 0 85.5 -35.5t35.5 -85.5v-243h1q-1 -15 21 -36zM219 262v104q-1 13 -21 34q20 20 21 34v106
q0 30 -31 30h-59q-31 0 -31 -30v-104q0 -16 21 -36q-21 -21 -21 -36v0v-102q0 -30 31 -30h59q31 0 31 30z" />
    <glyph glyph-name="p" unicode="p" horiz-adv-x="418" 
d="M342 479q0 -51 -36 -86.5t-86 -35.5h-61q-29 0 -29 -30v-56q0 -41 39 -39v-232q-51 0 -84 29q-35 -29 -85 -29v0v232q39 -2 39 39v95q0 11 -21 34q21 22 21 34v96q0 40 -39 40v230h5q46 0 80 -29q32 29 79 29h56q50 0 86 -35.5t36 -85.5v-200zM250 469v71q0 30 -30 30
h-60q-30 0 -30 -30v-71q0 -31 30 -31h60q30 0 30 31z" />
    <glyph glyph-name="q" unicode="q" horiz-adv-x="386" 
d="M487 -93q0 -40 -27 -66t-66 -26q-40 0 -93 38q-47 35 -95 70q-59 38 -113 38q-18 0 -46 -8.5t-42 -8.5q-18 0 -18 19q0 33 47 40q25 3 42 9q-69 33 -69 109v244q0 12 -21 35q21 22 21 35v244q0 50 35.5 85.5t86.5 35.5h59q50 0 85.5 -35.5t35.5 -85.5v-243h1
q-1 -15 21 -36q-21 -20 -21 -36l-1 -243q0 -50 -35.5 -85.5t-85.5 -35.5h-32q30 -4 101 -45t77 -41q23 0 23 18q0 5 -2 15t-2 13q0 14 20 23q16 6 33 6q34 0 57.5 -24t23.5 -58zM219 262v104q-1 13 -21 34q20 20 21 34v106q0 30 -31 30h-59q-31 0 -31 -30v-104q0 -16 21 -36
q-21 -21 -21 -36v-102q0 -30 31 -30h59q31 0 31 30z" />
    <glyph glyph-name="r" unicode="r" horiz-adv-x="455" 
d="M379 0h-1q-50 0 -83 29q-33 -29 -84 -29v0l-1 235h31q12 0 12 7t-17 31l-48 72q-10 15 -24 15h-6q-30 0 -30 -30v-55q0 -39 39 -39v-230v0q-51 0 -84 29q-33 -29 -83 -29v0v230q38 0 38 39v94q0 13 -20 34q20 20 20 33v96q0 39 -38 39v229h5q45 0 78 -30q33 30 79 30h57
q49 0 84.5 -35.5t35.5 -84.5v-200q0 -38 -21 -68t-55 -44l81 -122q7 -10 34 -10zM248 470v71q0 31 -29 31h-60q-30 0 -30 -31v-71q0 -30 30 -30h60q29 0 29 30z" />
    <glyph glyph-name="s" unicode="s" horiz-adv-x="383" 
d="M307 121q0 -50 -36 -85.5t-86 -35.5h-58q-50 0 -85.5 35.5t-35.5 85.5v207h90v-65q0 -30 31 -30h25q30 0 30 30v12q0 38 -35 73q-12 10 -42 9q0 28 -11 38q-94 88 -94 198q0 215 116 215q57 0 91 -68v60h85v-304h-93v41q0 14 -10.5 24t-24.5 10t-24.5 -10t-10.5 -24
q0 -34 33 -65q8 -8 42 -8q1 -15 2 -21q3 -12 9 -18q45 -40 64 -79q28 -53 28 -133v-92z" />
    <glyph glyph-name="t" unicode="t" horiz-adv-x="503" 
d="M427 472h-91v56q0 39 -39 39q-38 0 -38 -39v-93q0 -13 21 -35q-21 -20 -21 -35v-94q0 -39 39 -39v-232h-1q-50 0 -83 30q-33 -30 -84 -30h-1v232q39 0 39 39v95q0 13 -20 34q20 21 20 34v94q0 39 -38 39q-40 0 -40 -39v-56h-90v299q0 29 32 29h363q32 0 32 -31v-297z" />
    <glyph glyph-name="u" unicode="u" 
d="M381 570q-39 0 -39 -40v-94q0 -16 21 -36q-21 -21 -21 -36v-243q0 -50 -36 -85.5t-86 -35.5h-60q-50 0 -85.5 35.5t-35.5 85.5v244q0 12 -21 35q21 22 21 35v95q0 40 -39 40v230h6q46 0 79 -29q32 29 79 29h5v-230q-39 0 -39 -40v-94q0 -16 21 -36q-21 -21 -21 -36v0
v-102q0 -30 30 -30h60q31 0 31 30v104q-1 13 -21 34q20 20 21 34v96q0 40 -39 40v230h5q46 0 79 -29q33 29 79 29h6v-230z" />
    <glyph glyph-name="v" unicode="v" 
d="M381 568q-39 2 -39 -39v-94q0 -15 21 -36q-21 -21 -21 -36v-151q0 -24 -20 -50l-131 -170l-131 170q-20 26 -20 50l-1 151q0 15 -22 36q22 21 22 35v95q0 41 -39 39v232h5q47 0 79 -29q34 29 80 29h5v-232q-39 2 -39 -39v-94q0 -16 21 -36q-21 -20 -21 -36v-57
q0 -13 12 -28l49 -63l48 63q12 16 12 28v58q0 14 -21 35q21 20 21 34v96q0 41 -39 39v232h5q47 0 79 -29q33 29 80 29h5v-232zM130 363v0v0z" />
    <glyph glyph-name="w" unicode="w" horiz-adv-x="670" 
d="M594 568q-40 2 -40 -39v-95q0 -12 22 -35q-22 -22 -22 -36v-151q0 -24 -20 -50l-131 -170l-106 137l-106 -137l-131 170q-20 25 -20 50v151q0 14 -22 36q22 23 22 35v95q0 41 -40 39v232h6q46 0 79 -29q32 29 79 29h6v-232q-40 2 -40 -39v-94q0 -15 22 -36
q-22 -21 -22 -36l1 -57q0 -13 11 -28l49 -63l49 63q12 16 12 28v58q-2 14 -22 35q20 20 22 34v96q0 41 -40 39v232h6q47 0 79 -29q33 29 79 29h6v-232q-40 2 -40 -39v-94q0 -15 22 -36q-22 -21 -22 -36v-59q0 -11 12 -26l49 -63l48 63q12 16 12 28v57q0 15 -21 36
q21 21 21 36v94q0 41 -39 39v232h6q46 0 79 -29q32 29 79 29h6v-232zM130 363z" />
    <glyph glyph-name="x" unicode="x" horiz-adv-x="456" 
d="M380 0h-6q-45 0 -79 30q-33 -30 -79 -30h-5v231q39 0 39 39v57q0 30 -30 30h-60q-30 0 -30 -30v-57q0 -39 38 -39v-231h-5q-45 0 -79 30q-33 -30 -79 -30h-5v231q39 0 39 39v47q0 45 28 81q-28 36 -28 80v52q0 40 -39 39v231h5q46 0 79 -29q33 29 79 29h5v-231
q-38 1 -38 -39v-62q0 -30 30 -30h60q30 0 30 30v62q0 40 -39 39v231h5q47 0 79 -29q33 29 79 29h6v-231q-39 1 -39 -39v-52q0 -44 -28 -80q28 -36 28 -81v-47q0 -39 39 -39v-231z" />
    <glyph glyph-name="y" unicode="y" 
d="M381 569q-40 1 -40 -39v-52q0 -47 -31 -84t-74 -37v-86q0 -39 39 -39v-232q-52 0 -85 30q-33 -30 -84 -30v0v232q39 0 39 39v86q-43 0 -74.5 37t-31.5 84v52q0 40 -39 39v231h6q46 0 79 -29q32 29 78 29h6v-231q-39 1 -39 -39v-62q0 -30 30 -30h60q31 0 31 30v62
q0 40 -40 39v231h5q48 0 80 -29q32 29 79 29h6v-231z" />
    <glyph glyph-name="z" unicode="z" horiz-adv-x="375" 
d="M299 0h-131q-50 0 -83 30q-33 -30 -84 -30h-1v232l91 154q6 10 -2 40q17 4 21 6q11 4 15 12l40 67q4 7 4 18q0 39 -39 39q-40 0 -40 -39v-56h-90v327h154q37 -6 60 -28q24 22 61 28h24v-232l-98 -165q-6 -10 2 -40q-19 -5 -21 -6q-11 -5 -15 -12l-31 -53q-6 -10 -6 -21
q0 -39 39 -39q40 0 40 39v56h90v-327z" />
    <glyph glyph-name="braceleft" unicode="{" horiz-adv-x="405" 
d="M329 829v-30q-66 -1 -87 -36q-15 -25 -15 -93v-65q0 -95 -18 -133q-25 -55 -104 -73q80 -18 105 -72q17 -38 17 -133v-66q0 -68 15 -93q21 -35 87 -36v-29q-108 0 -149 30q-49 36 -49 139v94q0 78 -27 109t-104 39v37q77 7 104 38.5t27 109.5v94q0 102 49 139
q41 30 149 30z" />
    <glyph glyph-name="braceright" unicode="}" horiz-adv-x="405" 
d="M0 829v-30q66 -1 87 -36q15 -25 15 -93v-65q0 -95 18 -133q25 -55 104 -73q-79 -18 -105 -72q-17 -38 -17 -133v-66q0 -68 -15 -93q-21 -35 -87 -36v-29q108 0 149 30q49 36 49 139v94q0 78 27 109t104 39v37q-77 7 -104 38.5t-27 109.5v94q0 102 -49 139q-41 30 -149 30
z" />
  </font>
</defs>
</svg>
