<?xml version="1.0" standalone="no"?>
<!DOCTYPE svg PUBLIC "-//W3C//DTD SVG 1.1//EN" "http://www.w3.org/Graphics/SVG/1.1/DTD/svg11.dtd" >
<svg xmlns="http://www.w3.org/2000/svg" xmlns:xlink="http://www.w3.org/1999/xlink" version="1.1">
<metadata>
Created by FontForge 20161116 at Wed Mar 23 17:16:37 2011
 By Jimmy Warting
Copyright 1994, 2001, 2002 Adobe Systems Incorporated. All rights reserved. Nueva is either a registered trademark or a trademark of Adobe Systems Incorporated in the United States and/or other countries.
</metadata>
<defs>
<font id="NuevaStd-Bold" horiz-adv-x="365" >
  <font-face 
    font-family="Nueva Std Bold"
    font-weight="700"
    font-stretch="normal"
    units-per-em="1000"
    panose-1="2 11 8 3 7 5 4 2 2 3"
    ascent="680"
    descent="-320"
    x-height="455"
    cap-height="616"
    bbox="-135.077 -250 1081 766"
    underline-thickness="30"
    underline-position="-100"
    stemh="24"
    stemv="141"
    unicode-range="U+0020-FB02"
  />
<missing-glyph horiz-adv-x="500" 
d="M0 0v700h500v-700h-500zM250 395l170 255h-340zM280 350l170 -255v510zM80 50h340l-170 255zM50 605v-510l170 255z" />
    <glyph glyph-name="f_i" unicode="fi" horiz-adv-x="654" 
d="M433 419l-199 -8c-2 -65 -4 -172 -4 -188c0 -32 -2 -164 -1 -189c0 -9 4 -11 11 -12l78 -11c3 0 5 -6 5 -11c0 -1 -1 -2 -3 -2c-60 1 -98 2 -153 2c-56 0 -102 -1 -130 -2c-2 0 -2 1 -2 2c0 3 2 12 4 12l55 9c6 1 9 5 9 13c0 38 -6 151 -8 199c-2 40 -5 159 -5 176
l-78 -2c-2 0 -4 1 -4 4c0 4 3 13 5 19c2 9 8 15 18 15h58c14 138 111 234 293 234c40 0 74 -6 91 -12c3 -1 6 -5 6 -9l7 -116c0 -4 -10 -9 -15 -9c-1 0 -1 1 -3 4c-18 32 -34 63 -52 94c-4 7 -10 13 -15 18c-8 6 -22 10 -38 10c-68 0 -126 -65 -129 -214l345 -3
c7 0 9 -2 9 -7c-1 -41 -6 -158 -7 -207c-1 -44 -4 -155 -4 -194c0 -9 3 -11 10 -13l50 -10c2 0 5 -8 5 -11c0 -1 0 -2 -2 -2c-24 1 -71 2 -125 2c-55 0 -102 -1 -122 -2c-3 0 -3 1 -3 2c0 4 2 10 5 11l47 11c7 2 11 4 11 13c0 22 -3 142 -4 191c-1 41 -4 154 -5 178
c-1 9 -2 15 -11 15z" />
    <glyph glyph-name="f_l" unicode="fl" horiz-adv-x="646" 
d="M89 411l-78 -4c-3 0 -4 1 -4 4c0 4 2 12 4 18c3 10 8 16 19 16h59c12 128 124 234 317 234c90 0 141 -10 169 -19c5 -2 8 -6 8 -13c0 -15 -7 -186 -9 -302c-2 -72 -5 -292 -5 -311c0 -9 3 -11 10 -13l52 -9c3 0 6 -7 6 -12c0 -1 0 -2 -3 -2c-26 1 -74 2 -132 2
c-55 0 -98 -1 -119 -2c-2 0 -3 1 -3 2c0 4 2 11 6 12l49 9c7 2 11 4 11 12c2 27 -4 346 -6 389l-207 -11c-3 -65 -5 -172 -5 -188c0 -32 0 -164 1 -189c0 -9 4 -11 11 -12l80 -11c3 0 6 -6 6 -11c0 -1 -1 -2 -3 -2c-60 1 -101 2 -156 2c-56 0 -101 -1 -130 -2
c-2 0 -2 1 -2 2c0 3 2 12 4 12l55 9c6 1 9 5 9 13c0 38 -7 151 -9 199c-2 40 -5 158 -5 178zM233 445l207 -2c-2 68 -4 158 -5 182c0 8 -1 13 -6 18c-9 10 -27 15 -48 15c-74 0 -144 -72 -148 -213z" />
    <glyph glyph-name=".notdef" horiz-adv-x="500" 
d="M0 0v700h500v-700h-500zM250 395l170 255h-340zM280 350l170 -255v510zM80 50h340l-170 255zM50 605v-510l170 255z" />
    <glyph glyph-name="space" unicode=" " horiz-adv-x="194" 
 />
    <glyph glyph-name="exclam" unicode="!" horiz-adv-x="196" 
d="M88 159h-1c-1 0 -3 1 -3 3c-19 169 -38 341 -42 405c-1 23 6 41 48 50c23 4 51 8 61 8c4 0 6 -2 6 -6c-4 -67 -33 -285 -51 -451c-1 -4 -13 -9 -18 -9zM97 94h1c30 0 51 -25 51 -52c0 -25 -21 -49 -53 -49c-27 0 -51 20 -51 48c0 26 20 53 52 53z" />
    <glyph glyph-name="quotedbl" unicode="&#x22;" horiz-adv-x="211" 
d="M58 487h-1c-5 0 -16 1 -16 6c-7 55 -17 151 -18 167c0 7 5 12 17 13c14 1 29 2 40 2c4 0 6 -2 6 -6c-1 -15 -17 -117 -26 -180c0 -1 -1 -2 -2 -2zM160 487h-1c-4 0 -15 1 -16 6c-7 55 -17 151 -18 167c0 7 5 12 17 13c14 1 30 2 41 2c3 0 5 -2 5 -6
c-1 -14 -16 -117 -26 -180c0 -1 -1 -2 -2 -2z" />
    <glyph glyph-name="numbersign" unicode="#" horiz-adv-x="392" 
d="M31 345h71c4 22 11 54 15 74c-23 0 -52 -1 -71 -2c-3 0 -4 2 -4 4c0 10 6 40 15 40c15 0 43 -1 69 -1c9 41 20 91 29 134c1 3 3 3 6 3c16 0 48 -10 45 -25c-9 -30 -25 -89 -31 -113c17 0 45 -1 71 -2c8 39 19 95 29 137c0 3 2 3 5 3c16 0 49 -9 45 -24
c-9 -33 -22 -80 -31 -116c20 -1 50 -1 68 -1c2 0 3 -1 3 -3c0 -14 -6 -27 -11 -27c-21 -1 -47 -2 -70 -3c-6 -21 -17 -57 -22 -79h75c2 0 2 -1 2 -2c0 -10 -5 -28 -10 -28c-23 -2 -50 -3 -77 -4c-13 -43 -30 -103 -43 -147c-1 -4 -2 -4 -4 -4c-8 0 -22 6 -20 13
c9 44 20 97 28 137c-25 -1 -60 -3 -82 -4c-10 -38 -25 -88 -40 -137c-1 -6 -20 -11 -28 -11c-2 0 -3 1 -2 4c11 50 23 104 31 143c-16 0 -43 -2 -56 -2c-5 0 -8 23 -8 39c0 3 0 4 3 4zM238 422l-74 -1c-5 -19 -16 -57 -21 -76c15 0 50 -1 78 -1c5 21 13 56 17 78z" />
    <glyph glyph-name="dollar" unicode="$" horiz-adv-x="453" 
d="M219 56l-1 -103c0 -1 -1 -2 -2 -2c-6 0 -25 2 -25 4l1 99c-13 -1 -28 -1 -42 -1c-35 0 -74 2 -91 8c-4 2 -7 3 -8 8l-12 108c0 3 8 9 12 9c1 0 2 -1 3 -3c15 -27 33 -58 49 -81c4 -8 10 -13 18 -18c15 -8 37 -12 56 -12c75 0 127 31 127 80c0 48 -38 73 -121 101
c-92 30 -141 65 -141 132c0 70 75 137 186 154l2 100c0 4 22 6 25 6c2 0 3 -1 3 -2l-2 -102c13 1 25 2 36 2c35 0 66 -4 81 -11c4 -2 6 -4 6 -7l10 -104c0 -2 -8 -8 -11 -8c-2 0 -3 1 -4 2c-15 28 -31 55 -47 81c-5 9 -9 13 -18 18c-12 6 -24 9 -43 9
c-59 0 -114 -34 -114 -83c0 -39 38 -67 111 -97c83 -28 148 -66 148 -131c1 -83 -72 -141 -192 -156z" />
    <glyph glyph-name="percent" unicode="%" horiz-adv-x="741" 
d="M26 443v1c0 98 77 154 177 154c22 0 54 -4 68 -9c28 -2 223 -8 278 11c3 1 9 -18 9 -30c0 -3 -1 -7 -2 -10c-106 -182 -205 -366 -323 -563c-1 -2 -2 -3 -5 -3c-22 0 -30 2 -28 6c88 175 198 394 279 560c-36 -1 -134 4 -175 10c27 -20 53 -55 53 -101
c0 -93 -80 -154 -180 -154c-85 0 -151 44 -151 128zM185 332h1c44 0 84 46 84 133c0 67 -29 116 -71 116c-50 0 -88 -44 -88 -133c0 -69 31 -116 74 -116zM535 -8h-1c-84 0 -150 44 -150 127c0 95 77 156 178 156c93 0 153 -55 153 -132c0 -96 -80 -151 -180 -151zM543 9h1
c45 0 84 44 84 131c0 66 -27 118 -70 118c-51 0 -89 -45 -89 -134c0 -69 32 -115 74 -115z" />
    <glyph glyph-name="ampersand" unicode="&#x26;" horiz-adv-x="687" 
d="M482 324l182 11c2 0 3 -1 3 -3c0 -3 -1 -11 -3 -12l-37 -11c-7 -2 -13 -5 -16 -22c-12 -55 -47 -121 -78 -156c37 -40 85 -92 116 -135c5 -4 0 -9 -14 -9c-25 0 -48 2 -54 7c-24 18 -68 53 -100 78c-54 -47 -117 -80 -225 -80c-130 0 -227 44 -227 142
c0 82 69 137 139 160c9 2 17 6 25 8v2c-4 3 -9 7 -14 11c-44 35 -90 80 -90 145c0 88 94 148 210 148c102 0 183 -43 183 -124c0 -66 -70 -116 -139 -139c-4 -1 -11 -3 -20 -6v-4c68 -58 154 -139 191 -183c18 37 27 96 23 134c-2 17 -3 20 -10 20l-43 3c-3 0 -5 8 -5 12
c0 2 1 3 3 3zM297 591h-1c-44 0 -77 -35 -77 -100c0 -54 34 -93 83 -137c39 22 63 74 63 127c0 68 -26 110 -68 110zM170 166v-1c0 -84 73 -130 153 -130c54 0 109 25 136 53c-62 52 -188 155 -244 198c-26 -25 -45 -67 -45 -120z" />
    <glyph glyph-name="quoteright" unicode="&#x2019;" horiz-adv-x="119" 
d="M106 671v-1c0 -43 -39 -147 -80 -191c-1 -2 -3 -2 -4 -1c-2 0 -9 6 -8 10c17 51 22 122 23 154c0 9 4 17 24 23c13 4 35 10 41 10c2 0 4 -1 4 -4z" />
    <glyph glyph-name="parenleft" unicode="(" horiz-adv-x="257" 
d="M30 299v1c0 214 96 375 223 437c2 1 12 -2 14 -5c1 -1 1 -2 -1 -4c-86 -66 -146 -241 -146 -431c0 -194 36 -328 122 -430c1 -1 1 -2 0 -3c-3 -3 -10 -6 -12 -5c-98 71 -200 211 -200 440z" />
    <glyph glyph-name="parenright" unicode=")" horiz-adv-x="257" 
d="M222 313v-1c0 -228 -108 -383 -216 -455c-2 -2 -9 1 -12 4c-1 1 -1 2 0 4c84 91 138 235 138 444c0 191 -46 351 -131 416c-2 2 -2 3 -1 5c2 3 13 6 16 5c125 -60 206 -212 206 -422z" />
    <glyph glyph-name="asterisk" unicode="*" horiz-adv-x="229" 
d="M115 468h-1c-5 0 -10 0 -10 2c-3 28 -4 54 -7 84c-23 -10 -43 -20 -64 -30c-2 -1 -7 2 -9 9c-4 5 -4 10 -1 12c20 15 36 25 56 41c-20 15 -40 27 -57 39c-2 1 -2 6 2 14c3 9 8 12 11 10c20 -10 37 -19 60 -29c1 29 2 52 4 79c0 3 9 4 15 4c8 0 16 -1 16 -4
c1 -25 1 -51 3 -80c23 10 42 19 62 29c3 1 7 -3 11 -10c3 -8 4 -12 1 -15c-23 -15 -36 -23 -58 -38c16 -12 34 -25 56 -42c1 -1 1 -6 -2 -10c-4 -5 -7 -10 -9 -9c-22 11 -41 22 -61 31c-3 -30 -5 -56 -10 -85c0 -2 -3 -2 -8 -2z" />
    <glyph glyph-name="plus" unicode="+" 
d="M33 310v1c0 3 1 4 4 4c34 -1 76 -5 117 -7c-3 51 -9 114 -10 144c0 3 1 5 7 5c36 0 60 -4 60 -13c-1 -35 -5 -93 -8 -139c41 -2 99 -4 126 -6c3 0 3 -1 3 -3c0 -10 -2 -22 -6 -22c-26 -4 -77 -7 -124 -10c-4 -68 -8 -134 -10 -173c0 -2 -1 -4 -4 -4c-12 0 -21 5 -21 9
c-4 38 -8 101 -12 166c-43 -2 -89 -7 -108 -7c-10 0 -14 34 -14 55z" />
    <glyph glyph-name="comma" unicode="," horiz-adv-x="185" 
d="M133 79v-1c0 -43 -43 -149 -87 -192c-2 -1 -3 -2 -4 -2c-2 0 -12 8 -11 12c17 55 20 118 21 150c0 5 4 13 17 18c22 8 57 19 61 19c2 0 3 -1 3 -4z" />
    <glyph glyph-name="hyphen" unicode="-" horiz-adv-x="264" 
d="M234 308v-1c0 -10 -4 -25 -11 -25c-43 -4 -138 -14 -190 -17c-2 0 -3 2 -3 5c0 15 4 45 12 45c68 -2 142 -4 189 -4c2 0 3 -1 3 -3z" />
    <glyph glyph-name="period" unicode="." horiz-adv-x="185" 
d="M93 99h1c31 0 52 -26 52 -55c0 -26 -21 -51 -54 -51c-30 0 -53 20 -53 51c0 27 20 55 54 55z" />
    <glyph glyph-name="slash" unicode="/" horiz-adv-x="279" 
d="M4 -11h-1c-2 0 -5 2 -3 6c66 188 150 440 212 630c1 4 2 6 5 6c29 0 62 -25 53 -46c-62 -156 -144 -366 -238 -588c-2 -5 -19 -8 -28 -8z" />
    <glyph glyph-name="zero" unicode="0" horiz-adv-x="548" 
d="M262 -8h-1c-124 0 -220 99 -220 278c0 200 98 328 249 328c149 0 218 -125 218 -275c0 -202 -77 -331 -246 -331zM186 278v-2c0 -166 35 -266 95 -266c59 0 83 91 83 303c0 159 -27 266 -87 266c-64 0 -91 -102 -91 -301z" />
    <glyph glyph-name="one" unicode="1" horiz-adv-x="334" 
d="M88 502l-68 -13c-4 -1 -9 6 -11 11c-1 2 -1 4 1 5l221 90c2 1 4 1 5 1c5 0 8 -4 8 -9c0 -13 -9 -262 -9 -318c-1 -85 -4 -224 -4 -236c0 -9 11 -11 18 -13l54 -7c3 -1 6 -8 6 -12c0 -2 0 -3 -3 -3c-31 1 -78 2 -136 2s-113 -1 -136 -2c-2 0 -2 1 -2 3c0 3 2 11 6 12l58 8
c6 1 13 3 13 11c1 28 -2 193 -3 228c-1 50 -3 189 -6 230c-1 8 -6 13 -12 12z" />
    <glyph glyph-name="two" unicode="2" horiz-adv-x="457" 
d="M114 30l1 -2c13 0 27 1 43 1c24 2 131 8 189 21c8 2 18 9 24 19l38 63c1 2 3 3 4 3c5 0 13 -7 12 -10l-19 -115c-2 -9 -5 -12 -13 -12c-30 0 -92 2 -212 2c-74 0 -116 -2 -143 -2c-13 0 -22 4 -27 19c-3 7 -6 16 -6 20c0 2 1 4 3 6c116 100 250 222 250 368
c0 89 -47 133 -107 133c-53 0 -91 -29 -118 -62c-1 -2 -2 -2 -3 -2c-3 0 -11 16 -6 23c31 49 104 95 195 95c108 0 188 -66 188 -180c0 -159 -163 -298 -254 -364c-8 -5 -23 -15 -39 -24z" />
    <glyph glyph-name="three" unicode="3" horiz-adv-x="454" 
d="M237 320v-4c9 0 20 -3 32 -5c96 -14 145 -76 145 -141c0 -123 -121 -178 -259 -178c-60 0 -116 15 -147 38c-8 6 -1 23 2 23c1 0 1 0 3 -1c25 -16 71 -25 113 -25c80 0 145 47 145 130c0 68 -45 136 -178 138c-6 0 -8 6 -9 15c0 3 1 4 5 4c119 7 163 66 163 140
c0 57 -38 98 -97 98c-47 0 -97 -30 -122 -63c-1 -1 -3 -2 -4 -2c-4 0 -12 17 -8 22c28 42 96 89 196 89c113 0 175 -57 175 -137c0 -69 -63 -116 -131 -135c-7 -2 -14 -5 -24 -6z" />
    <glyph glyph-name="four" unicode="4" horiz-adv-x="542" 
d="M529 170v-1c0 -7 -3 -14 -8 -15c-23 -2 -78 -4 -96 -5c-2 -42 -3 -81 -4 -116c0 -9 4 -11 11 -13l40 -7c3 -1 5 -9 5 -13c0 -1 0 -2 -3 -2c-42 1 -72 2 -108 2c-57 0 -100 -1 -123 -2c-2 0 -2 1 -2 3c0 4 3 11 6 12l50 8c7 1 11 3 11 12c0 28 -1 84 -2 112
c-42 0 -179 -1 -254 -1c-14 0 -23 8 -33 26c-3 7 -8 18 -8 22c0 3 1 5 3 7c86 119 189 262 265 368c15 21 27 25 50 25c27 0 67 -3 100 -9c5 -1 7 -3 7 -6c0 -59 -10 -380 -10 -396c33 -3 78 -6 101 -7c2 0 2 -1 2 -4zM115 214l2 -4c13 -3 26 -4 34 -6
c52 -6 122 -14 154 -15c0 31 -2 261 -2 277c0 17 1 54 2 85h-4c-10 -19 -20 -35 -26 -47c-53 -100 -105 -194 -134 -247c-8 -13 -18 -29 -26 -43z" />
    <glyph glyph-name="five" unicode="5" horiz-adv-x="470" 
d="M159 -8h-1c-55 0 -110 12 -138 38c-7 6 0 21 2 21c1 0 2 0 3 -1c35 -20 78 -25 114 -25c84 0 157 47 157 132c0 84 -67 144 -244 140c-5 0 -7 4 -6 9c3 45 28 256 30 278c0 3 4 6 9 6c42 0 89 -3 140 -4c84 -2 167 -3 184 -3c1 0 2 0 2 -2c0 -7 -4 -21 -8 -22
c-50 -6 -222 -31 -272 -45c-7 -3 -12 -7 -15 -14c-9 -21 -27 -79 -36 -117c219 11 347 -57 347 -194c0 -127 -123 -197 -268 -197z" />
    <glyph glyph-name="six" unicode="6" horiz-adv-x="536" 
d="M178 274l4 -2c5 14 11 28 15 34c26 47 71 78 133 78c107 0 171 -78 171 -181c0 -119 -93 -211 -233 -211c-122 0 -227 67 -227 230c0 114 45 208 109 276c66 68 152 106 228 118c7 1 15 -5 15 -8c0 -2 -2 -3 -5 -4c-66 -27 -112 -69 -149 -131c-34 -59 -50 -117 -56 -160
c-1 -7 -4 -23 -5 -39zM278 10h1c61 0 81 73 81 179c0 87 -25 154 -75 154c-45 0 -82 -48 -97 -123c-3 -9 -4 -14 -4 -26c0 -109 37 -184 94 -184z" />
    <glyph glyph-name="seven" unicode="7" horiz-adv-x="463" 
d="M302 535v3c-10 1 -20 4 -31 6c-40 10 -128 22 -155 22c-13 0 -17 -6 -21 -13l-63 -119c0 -2 -2 -3 -3 -3c-5 0 -13 5 -13 9l17 144c1 5 3 7 7 7c17 0 91 -1 169 -1c83 0 183 2 213 2c3 0 6 -1 7 -4c19 -30 22 -43 22 -53c0 -7 -1 -16 -8 -28
c-65 -121 -184 -360 -262 -504c-4 -7 -11 -12 -20 -12c-22 0 -49 6 -46 15c60 173 123 349 173 489c4 12 8 25 14 40z" />
    <glyph glyph-name="eight" unicode="8" horiz-adv-x="539" 
d="M345 315v-3c7 -2 16 -3 21 -4c81 -17 143 -65 143 -149c0 -93 -89 -167 -248 -167c-133 0 -234 47 -234 147c0 77 58 132 132 154c10 3 19 5 28 8v3c-8 3 -17 6 -20 7c-55 15 -113 59 -113 131c0 91 102 156 228 156c125 0 198 -58 198 -138c0 -71 -53 -121 -116 -140
c-4 -1 -10 -3 -19 -5zM271 318h1c56 0 79 71 79 134c0 74 -25 127 -81 127c-55 0 -85 -55 -85 -126c0 -80 36 -135 86 -135zM272 11h1c62 0 100 54 100 131c0 89 -43 152 -107 152c-60 0 -101 -60 -101 -151c0 -86 44 -132 107 -132z" />
    <glyph glyph-name="nine" unicode="9" horiz-adv-x="530" 
d="M353 316l-4 2c-4 -15 -10 -28 -13 -35c-23 -43 -67 -72 -129 -72c-101 0 -172 72 -172 177c0 116 90 210 230 210c123 0 224 -78 224 -241c0 -110 -40 -204 -106 -268s-147 -99 -238 -106c-7 -1 -16 6 -16 10c0 2 2 3 4 4c64 19 123 63 160 120c36 57 50 115 56 160
c1 7 3 22 4 39zM257 580h-1c-58 0 -85 -73 -85 -176c0 -89 25 -154 78 -154c45 0 80 40 95 111c2 9 3 20 3 32c0 101 -31 187 -90 187z" />
    <glyph glyph-name="colon" unicode=":" horiz-adv-x="185" 
d="M93 373h1c31 0 52 -26 52 -54c0 -27 -21 -52 -54 -52c-30 0 -53 21 -53 51c0 27 20 55 54 55zM93 99h1c31 0 52 -26 52 -55c0 -27 -21 -51 -54 -51c-30 0 -53 20 -53 51c0 27 20 55 54 55z" />
    <glyph glyph-name="semicolon" unicode=";" horiz-adv-x="185" 
d="M93 373h1c31 0 52 -26 52 -54c0 -27 -20 -52 -54 -52c-29 0 -53 21 -53 51c0 27 20 55 54 55zM132 79v-1c0 -43 -44 -149 -88 -192c-1 -1 -2 -2 -4 -2s-11 8 -10 12c17 55 20 118 21 150c0 5 4 13 17 18c21 7 55 19 61 19c2 0 3 -1 3 -4z" />
    <glyph glyph-name="less" unicode="&#x3c;" 
d="M68 251v1c0 2 1 6 4 9c39 37 146 130 183 164c2 1 3 1 4 0c7 -8 10 -13 6 -18c-31 -40 -87 -114 -113 -150c35 -44 88 -109 118 -143c4 -4 1 -10 -4 -17c-1 -1 -2 -2 -4 0c-38 30 -153 115 -191 146c-2 2 -3 5 -3 8z" />
    <glyph glyph-name="equal" unicode="=" 
d="M328 341v-1c0 -8 -3 -22 -6 -22c-50 -4 -252 -17 -270 -18c-11 0 -15 33 -15 53c0 3 2 5 4 5c34 -2 235 -12 284 -14c2 0 3 -1 3 -3zM328 232v-1c0 -8 -3 -22 -9 -22c-47 -4 -248 -17 -266 -18c-11 0 -14 33 -14 54c0 3 2 4 4 4c34 -2 235 -11 282 -14c2 0 3 -1 3 -3z
" />
    <glyph glyph-name="greater" unicode="&#x3e;" 
d="M296 269v-1c0 -2 -1 -5 -4 -8c-39 -37 -146 -130 -184 -164c-2 -2 -3 -1 -4 0c-7 7 -8 14 -5 18c33 40 87 114 113 150c-35 44 -89 110 -117 143c-3 4 -2 9 5 17c1 1 2 2 4 0c36 -30 151 -115 189 -146c2 -3 3 -6 3 -9z" />
    <glyph glyph-name="question" unicode="?" horiz-adv-x="404" 
d="M375 473v-1c0 -99 -83 -172 -200 -215c-9 -4 -11 -11 -11 -20c-1 -25 3 -58 7 -83c1 -5 -8 -11 -10 -11c-1 0 -2 1 -3 2c-12 18 -37 66 -42 93c-3 13 0 21 10 29c79 60 112 118 112 192c0 60 -40 112 -106 112c-43 0 -82 -22 -109 -57c-1 -1 -2 -3 -3 -3
c-3 0 -10 10 -8 15c23 45 94 98 184 98c130 0 179 -77 179 -151zM169 94h1c30 0 51 -26 51 -52s-21 -49 -53 -49c-27 0 -51 20 -51 48c0 26 20 53 52 53z" />
    <glyph glyph-name="at" unicode="@" horiz-adv-x="599" 
d="M381 420l10 27c1 2 2 2 4 2c16 0 47 -7 46 -21c-1 -16 -7 -85 -9 -123c-1 -24 -3 -55 -3 -80c0 -18 6 -26 17 -26c32 1 72 59 72 156c0 106 -41 238 -181 238c-148 0 -248 -158 -248 -341c0 -172 106 -225 184 -225c54 0 95 19 118 36c2 2 5 -2 5 -11c0 -5 -1 -8 -5 -12
c-19 -17 -62 -42 -139 -42c-97 0 -210 62 -210 248c0 223 152 373 311 373c130 0 206 -100 206 -256c0 -121 -71 -204 -165 -204c-20 0 -34 12 -34 35c0 19 4 47 6 67c1 5 3 18 5 27l-3 2c-2 -5 -2 -9 -3 -14c-25 -69 -67 -116 -125 -116c-55 0 -78 41 -78 99
c0 79 52 192 146 192c35 0 50 -9 66 -24c2 -3 5 -6 7 -7zM314 431h-1c-43 0 -71 -85 -71 -154c0 -46 9 -75 35 -75c50 0 83 101 93 151c1 4 1 12 1 16c0 5 -1 13 -2 15c-10 21 -23 47 -55 47z" />
    <glyph glyph-name="A" unicode="A" horiz-adv-x="600" 
d="M290 618h1c35 0 62 -1 84 -2c3 0 7 -2 8 -4c32 -108 135 -453 175 -576c2 -6 7 -11 13 -13l37 -10c3 -1 5 -6 5 -13c0 -1 -1 -2 -3 -2c-21 0 -69 2 -119 2c-56 0 -110 -1 -137 -2c-3 0 -3 1 -3 2c0 6 3 13 6 14l54 9c8 1 9 8 7 16c-11 33 -48 129 -59 163
c-45 -1 -161 -4 -213 -8c-3 0 -6 -3 -7 -8c-6 -29 -25 -110 -31 -146c-1 -12 3 -15 10 -17l52 -10c3 0 6 -7 6 -13c0 -2 -1 -2 -3 -2c-25 1 -65 2 -105 2c-34 0 -64 -1 -84 -2c-2 0 -2 1 -2 3c0 3 2 12 5 13l25 8c8 2 13 6 18 18c49 120 153 427 198 549c9 24 22 29 62 29z
M243 539h-6c-5 -15 -8 -25 -10 -34c-25 -83 -57 -199 -76 -268c-1 -4 2 -7 5 -7c46 -6 153 -10 196 -9c-17 48 -69 193 -96 283c-3 9 -7 21 -13 35z" />
    <glyph glyph-name="B" unicode="B" horiz-adv-x="586" 
d="M377 334v-4c6 -1 13 -2 15 -2c94 -15 158 -78 158 -157c0 -125 -127 -173 -323 -173c-18 0 -74 2 -93 2c-26 0 -70 -1 -103 -2c-3 0 -3 1 -3 2c0 5 2 12 6 13l45 9c7 2 11 6 11 16c1 40 -1 227 -1 269c0 46 -2 232 -3 264c0 11 -3 15 -11 16l-45 4c-5 1 -7 9 -7 14
c0 1 1 2 4 2c55 7 142 13 234 13c174 0 256 -48 256 -142c0 -69 -64 -121 -124 -139c-4 -1 -10 -3 -16 -5zM257 602h-1c-14 0 -22 -7 -22 -17c-5 -72 -10 -233 -10 -256c4 -3 13 -4 18 -4c65 0 129 48 129 139c0 88 -51 138 -114 138zM401 161v1c0 89 -82 144 -155 144
c-9 0 -19 0 -23 -3c-2 -38 -6 -250 -6 -271c0 -9 13 -14 27 -14c88 0 157 44 157 143z" />
    <glyph glyph-name="C" unicode="C" horiz-adv-x="559" 
d="M42 266v1c0 130 55 223 119 276c63 51 144 81 239 81c49 0 88 -7 110 -19c4 -2 5 -5 5 -10l11 -140c1 -5 -9 -11 -14 -11c-1 0 -2 0 -4 3c-19 42 -41 91 -57 124c-4 8 -9 15 -15 20c-6 6 -19 13 -39 13c-39 0 -82 -22 -117 -61c-53 -63 -80 -151 -80 -264
c0 -172 95 -242 186 -242c19 0 44 3 58 6c28 5 56 15 87 27c3 1 5 -3 5 -13c0 -3 -1 -5 -3 -7c-23 -12 -76 -36 -113 -47c-18 -5 -53 -11 -86 -11c-158 0 -292 73 -292 274z" />
    <glyph glyph-name="D" unicode="D" horiz-adv-x="658" 
d="M74 588l-47 4c-3 0 -6 7 -6 12c0 2 0 4 3 4c46 6 161 14 248 14c219 0 346 -93 346 -282c0 -216 -155 -342 -362 -342c-30 0 -95 2 -118 2c-39 0 -80 -1 -106 -2c-3 0 -3 1 -3 3c0 5 2 12 5 12l44 9c7 1 12 4 12 15c2 39 -1 232 -2 274c0 44 -3 231 -4 262
c0 10 -2 14 -10 15zM261 16h1c87 0 201 71 201 321c0 159 -70 266 -198 266c-18 0 -22 -5 -23 -17c-7 -68 -17 -522 -15 -552c0 -11 13 -18 34 -18z" />
    <glyph glyph-name="E" unicode="E" horiz-adv-x="530" 
d="M509 126l-26 -126c-1 -3 -3 -5 -8 -5c-7 0 -30 1 -80 3c-50 1 -126 2 -240 2c-39 0 -89 -1 -122 -2c-3 0 -3 1 -3 2c0 4 2 11 5 12l46 10c7 2 11 5 11 16c1 30 -1 233 -1 278c-1 39 -3 226 -5 259c0 12 -4 16 -10 18l-41 8c-2 0 -5 7 -5 14c0 1 0 2 2 2c24 0 47 -1 68 -1
h56c223 0 300 3 312 3c4 0 6 -2 6 -6l7 -131c0 -3 -9 -8 -12 -8c-1 0 -2 0 -3 2c-14 31 -28 61 -43 93c-5 9 -13 12 -25 14c-44 9 -131 16 -146 16c-10 -1 -11 -4 -11 -11c-5 -61 -11 -220 -10 -253c69 -3 181 -5 207 -6c2 0 2 -1 2 -2c0 -6 -5 -17 -8 -17
c-39 -4 -138 -9 -190 -14c-9 -1 -12 -3 -12 -11c-1 -33 -5 -223 -5 -251c0 -11 4 -13 11 -13c43 0 134 4 183 17c10 3 17 8 21 15c20 27 38 55 55 83c1 2 2 2 3 2c4 -1 12 -8 11 -12z" />
    <glyph glyph-name="F" unicode="F" horiz-adv-x="509" 
d="M472 613l9 -134c0 -4 -9 -9 -12 -9c-2 0 -3 0 -4 3c-15 32 -30 63 -47 95c-4 9 -9 12 -21 14c-42 8 -131 16 -147 16c-8 0 -11 -3 -11 -11c-3 -56 -8 -236 -8 -266c50 -2 176 -6 212 -6c1 0 2 -1 2 -2c0 -5 -2 -16 -8 -17c-42 -4 -141 -10 -198 -14c-7 0 -9 -3 -9 -9
c-1 -33 -4 -214 -4 -236c0 -11 5 -13 12 -14l68 -10c3 0 6 -7 6 -12c0 -2 -1 -3 -3 -3c-31 1 -86 2 -142 2c-49 0 -96 -1 -129 -2c-3 0 -3 1 -3 3c0 5 3 12 6 13l41 8c7 2 9 4 10 14c1 35 -3 233 -3 274c0 38 -3 236 -5 269c0 9 -3 13 -9 14l-43 9c-3 1 -4 8 -4 13
c0 1 0 3 3 3c29 -1 50 -1 68 -2h50c208 0 301 4 316 4c4 0 7 -2 7 -7z" />
    <glyph glyph-name="G" unicode="G" horiz-adv-x="630" 
d="M344 268h267c2 0 2 -1 2 -2c0 -6 -2 -12 -5 -13l-38 -8c-7 -1 -9 -5 -10 -13c-4 -47 -7 -153 -9 -215c0 -5 -2 -8 -6 -9c-38 -13 -99 -16 -175 -16c-187 0 -328 78 -328 278c0 122 50 212 117 267c73 63 165 87 260 87c54 0 96 -8 117 -18c5 -2 6 -6 6 -11l7 -129
c0 -4 -8 -9 -12 -9c-2 0 -3 0 -4 3c-18 37 -36 74 -55 112c-3 6 -8 13 -13 18c-10 8 -25 15 -47 15c-50 0 -102 -24 -139 -70c-47 -61 -78 -142 -78 -255c0 -161 90 -269 195 -269c10 0 22 3 27 7c4 3 6 8 6 16c-1 36 -4 158 -9 200c0 7 -3 10 -10 11l-62 8c-4 0 -6 7 -6 12
c0 2 0 3 2 3z" />
    <glyph glyph-name="H" unicode="H" horiz-adv-x="696" 
d="M32 616h261c2 0 2 -1 2 -2c0 -4 -1 -15 -5 -15l-40 -8c-8 -2 -12 -6 -12 -14c-4 -62 -8 -210 -8 -228c1 -13 6 -14 16 -15c47 -2 176 -5 221 -5c1 30 -2 228 -2 243c0 11 -3 17 -11 19l-39 8c-4 1 -6 8 -6 15c0 1 0 2 3 2h257c2 0 3 -1 3 -3c0 -4 -2 -13 -5 -14l-38 -8
c-6 -1 -9 -4 -10 -13c-3 -41 -10 -229 -11 -274c-2 -48 -5 -239 -6 -266c0 -10 2 -13 6 -15l50 -10c2 -1 5 -7 5 -12c0 -2 0 -3 -2 -3c-22 1 -68 2 -123 2c-58 0 -115 -1 -132 -2c-3 0 -3 1 -3 3c0 4 3 11 6 12l50 10c6 2 10 3 10 13c0 36 -1 253 -2 274
c-46 -2 -177 -7 -225 -10c-9 -1 -13 -6 -13 -13c-2 -53 -4 -215 -4 -253c0 -8 5 -11 12 -12l42 -9c4 -1 7 -7 7 -12c0 -2 0 -3 -3 -3c-24 1 -69 2 -126 2c-52 0 -94 -1 -121 -2c-3 0 -3 1 -3 3c0 4 1 11 4 12l45 10c7 1 10 4 10 15c0 40 -2 228 -3 266c0 38 -4 246 -4 269
c0 11 -4 16 -10 17l-41 9c-3 1 -5 9 -5 14c0 2 0 3 3 3z" />
    <glyph glyph-name="I" unicode="I" horiz-adv-x="319" 
d="M32 616h259c2 0 2 -1 2 -4c0 -4 -1 -13 -5 -14l-39 -7c-7 -1 -10 -6 -10 -14c-5 -64 -8 -229 -9 -275c-1 -37 -4 -255 -4 -268c0 -8 4 -10 11 -12l41 -9c4 -1 6 -8 6 -12c0 -2 -1 -3 -3 -3c-17 1 -71 2 -127 2c-52 0 -97 -1 -120 -2c-2 0 -2 1 -2 3c0 5 2 12 5 13l46 9
c7 1 9 4 9 13c1 40 -2 209 -3 277c-1 72 -3 229 -5 258c0 11 -3 18 -11 20l-38 7c-3 1 -5 7 -5 15c0 2 0 3 2 3z" />
    <glyph glyph-name="J" unicode="J" horiz-adv-x="481" 
d="M179 616h283c3 0 3 -1 3 -2c0 -6 -1 -14 -4 -15l-40 -9c-7 -2 -10 -8 -10 -16c-1 -68 0 -230 0 -267c-1 -45 -2 -109 -19 -160c-40 -119 -157 -163 -277 -163c-34 0 -65 3 -85 9c-3 1 -6 4 -7 9l-19 136c-1 4 9 11 12 11c2 0 3 -1 4 -2c22 -38 47 -82 68 -110
c7 -9 14 -15 23 -20c10 -6 27 -10 44 -10c70 0 100 45 113 142c6 42 4 111 2 159c-2 52 -10 227 -14 264c-1 11 -3 17 -11 18l-63 9c-4 0 -6 9 -6 14c0 2 0 3 3 3z" />
    <glyph glyph-name="K" unicode="K" horiz-adv-x="622" 
d="M33 616h258c2 0 2 -1 2 -3c0 -4 -1 -13 -5 -14l-42 -9c-7 -2 -10 -5 -11 -14c-4 -68 -9 -183 -9 -214c0 -13 -1 -30 -2 -44l3 -1c9 11 22 25 29 33c56 62 151 171 188 224c9 12 5 17 -2 19l-40 7c-4 0 -6 7 -6 12c0 2 0 4 2 4h201c3 0 3 -1 3 -3c0 -5 -3 -13 -6 -14
l-23 -6c-7 -3 -17 -6 -27 -14c-52 -40 -152 -132 -215 -189c-6 -6 -12 -13 -17 -21v-3c7 -8 13 -14 20 -20c89 -85 171 -193 254 -304c8 -11 14 -16 24 -19l28 -9c5 -2 7 -8 7 -12c0 -2 -1 -4 -3 -4c-22 1 -58 2 -108 2c-46 0 -103 -1 -129 -2c-3 0 -4 2 -4 4c0 6 2 10 6 11
l45 9c9 2 11 8 3 16c-50 51 -141 136 -201 187c-8 7 -17 17 -31 31l-3 -2v-49c-1 -53 -1 -159 -1 -171c0 -9 3 -11 9 -12l46 -9c2 0 6 -6 6 -11c0 -3 -1 -4 -3 -4c-16 1 -73 2 -132 2c-50 0 -96 -1 -113 -2c-2 0 -2 1 -2 3c0 6 2 12 5 12l45 10c8 1 10 4 10 15
c0 39 -3 244 -4 283c0 38 -4 232 -5 251c-1 11 -3 16 -11 18l-37 9c-3 1 -5 8 -5 14c0 2 0 3 3 3z" />
    <glyph glyph-name="L" unicode="L" horiz-adv-x="531" 
d="M34 616h279c2 0 2 -1 2 -2c0 -7 -2 -14 -5 -14l-54 -8c-8 -2 -11 -5 -12 -16c-4 -53 -9 -223 -11 -267c-1 -49 -6 -252 -6 -279c0 -9 6 -11 13 -11c28 0 139 7 183 19c10 4 22 10 29 21l56 89c1 2 2 3 4 2c4 -1 11 -8 11 -11l-27 -135c-2 -6 -3 -9 -12 -9
c-4 0 -38 1 -95 3c-56 1 -136 2 -234 2c-39 0 -75 -1 -122 -2c-2 0 -2 1 -2 3c0 5 2 12 5 12l45 9c7 1 11 4 11 15c1 33 -2 217 -2 258c0 38 -2 250 -4 281c0 11 -2 14 -11 16l-39 9c-3 1 -5 6 -5 12c0 2 0 3 3 3z" />
    <glyph glyph-name="M" unicode="M" horiz-adv-x="852" 
d="M609 616h206c2 0 2 -1 2 -3c0 -6 -2 -14 -6 -15l-35 -7c-11 -3 -13 -11 -14 -22c-1 -30 2 -221 2 -259c1 -47 3 -222 4 -270c1 -11 4 -14 11 -16l39 -11c3 -1 5 -9 5 -13c0 -1 0 -2 -2 -2c-20 1 -59 2 -111 2c-57 0 -111 -1 -132 -2c-3 0 -3 1 -3 3c0 4 2 11 5 12l54 12
c7 2 8 9 8 18c-1 65 -19 328 -23 423c-1 11 -2 24 -2 36h-7c-5 -13 -10 -26 -13 -34c-49 -122 -139 -349 -182 -446c-6 -13 -11 -16 -36 -18h-30c-4 0 -7 1 -8 5c-41 91 -128 294 -171 404c-3 8 -11 24 -14 34h-6c-1 -11 -3 -26 -4 -35c-12 -98 -36 -323 -41 -375
c-1 -10 2 -14 9 -15l60 -9c3 0 6 -7 6 -13c0 -1 0 -2 -3 -2c-19 1 -51 2 -86 2c-32 0 -57 -1 -74 -2c-2 0 -2 1 -2 3c0 4 3 12 6 12l39 9c7 1 11 4 11 15c1 47 8 224 9 265c1 38 8 245 8 271c-1 10 -3 15 -14 18l-41 8c-3 1 -5 9 -5 14c0 2 1 3 4 3h211c4 0 6 -2 7 -5
c39 -96 128 -359 163 -450c3 -8 7 -20 13 -33h6c6 13 10 28 13 36c38 95 116 325 158 447c1 3 3 5 6 5z" />
    <glyph glyph-name="N" unicode="N" horiz-adv-x="620" 
d="M14 616h171c5 0 8 -2 10 -5c53 -71 222 -338 294 -445c6 -11 12 -22 18 -32l4 3c0 16 -1 31 -1 45c-2 75 -6 320 -14 391c-1 12 -6 17 -16 19l-55 8c-3 1 -5 9 -5 13c0 2 0 3 2 3h193c3 0 3 -1 3 -3c0 -4 -2 -12 -5 -13l-37 -8c-10 -2 -14 -7 -16 -24
c-3 -34 -11 -188 -14 -262c-3 -56 -8 -264 -9 -300c0 -4 -2 -6 -6 -8c-11 -3 -35 -8 -47 -8c-9 0 -18 2 -26 12c-82 99 -225 291 -304 397c-4 6 -11 17 -15 23l-5 -1c-1 -14 -1 -25 -1 -33c-4 -75 -13 -287 -14 -350c-1 -10 3 -13 10 -15l64 -11c3 -1 5 -6 5 -11
c0 -2 0 -3 -3 -3c-15 1 -51 2 -90 2c-35 0 -66 -1 -83 -2c-2 0 -2 1 -2 3c0 4 2 11 5 11l51 11c7 1 11 4 11 15c0 29 -6 206 -7 262c-1 44 -7 240 -9 271c-1 11 -4 18 -15 20l-40 8c-3 1 -5 8 -5 14c0 2 0 3 3 3z" />
    <glyph glyph-name="O" unicode="O" horiz-adv-x="671" 
d="M325 -8h-1c-177 0 -282 101 -282 289c0 199 117 343 317 343c177 0 272 -120 272 -288c0 -211 -106 -344 -306 -344zM343 11h1c92 0 128 122 128 308c0 146 -46 287 -135 287c-85 0 -138 -119 -138 -314c0 -146 54 -281 144 -281z" />
    <glyph glyph-name="P" unicode="P" horiz-adv-x="554" 
d="M75 586l-42 5c-3 0 -5 7 -5 12c0 2 0 4 2 4c39 4 147 13 258 13c175 0 245 -71 245 -173c0 -96 -99 -204 -268 -204c-14 0 -34 0 -40 2c-2 -39 -4 -177 -4 -208c0 -8 5 -11 12 -12l67 -12c3 0 7 -7 7 -12c0 -2 -1 -3 -3 -3c-40 1 -91 2 -142 2c-56 0 -96 -1 -122 -2
c-2 0 -3 1 -3 3c0 5 2 11 6 12l39 9c7 2 11 5 11 16c1 34 -1 231 -2 279c0 39 -3 213 -4 252c0 11 -3 16 -12 17zM255 263h1c72 0 124 71 124 177c0 81 -45 162 -114 162c-17 0 -29 -7 -30 -21c-4 -93 -10 -281 -10 -303c-1 -10 13 -15 29 -15z" />
    <glyph glyph-name="Q" unicode="Q" horiz-adv-x="673" 
d="M632 335v-1c0 -201 -102 -286 -176 -315c53 -31 122 -60 183 -81c1 0 2 -1 2 -2c0 -6 -10 -17 -15 -17c-90 14 -209 48 -271 67c-9 3 -20 6 -31 6c-169 0 -282 104 -282 292c0 201 121 340 318 340c181 0 272 -126 272 -289zM473 314v1c0 145 -43 290 -133 290
c-84 0 -140 -114 -140 -305c0 -153 56 -288 145 -288c94 0 128 132 128 302z" />
    <glyph glyph-name="R" unicode="R" horiz-adv-x="603" 
d="M532 457v-1c0 -78 -66 -130 -121 -156c46 -65 107 -179 147 -261c4 -8 8 -12 15 -14l40 -11c5 -2 7 -8 7 -13c0 -2 0 -3 -3 -3c-26 1 -56 2 -112 2c-38 0 -79 -1 -124 -2c-3 0 -3 1 -3 3c0 5 2 11 6 12l40 8c9 2 14 6 8 15c-46 69 -106 151 -164 217c-3 3 -6 5 -10 5
c-5 0 -25 1 -33 1c-1 -42 -4 -180 -4 -220c0 -10 3 -13 10 -15l44 -11c3 -1 6 -7 6 -12c0 -2 -1 -3 -3 -3c-28 1 -72 2 -122 2c-51 0 -98 -1 -119 -2c-3 0 -3 1 -3 3c0 6 2 12 5 12l44 9c7 2 10 6 10 14c0 39 -2 219 -2 267c-1 40 -3 229 -5 266c-1 11 -3 16 -9 17l-40 6
c-3 1 -6 7 -6 13c0 1 0 3 3 3c50 4 146 12 243 12c177 0 255 -60 255 -163zM249 277h1c73 0 130 73 130 173c0 86 -47 153 -115 153c-20 0 -28 -3 -28 -15c-5 -76 -12 -277 -12 -295c0 -12 5 -16 24 -16z" />
    <glyph glyph-name="S" unicode="S" horiz-adv-x="517" 
d="M477 191v-1c0 -116 -110 -198 -304 -198c-41 0 -88 3 -110 11c-5 2 -8 4 -9 10l-15 136c-1 3 10 10 13 10c2 0 3 -1 4 -3c19 -34 37 -70 56 -102c7 -11 12 -16 24 -23c16 -11 41 -16 68 -16c86 0 151 42 151 107c0 60 -43 96 -146 135c-106 40 -159 89 -159 165
c0 105 124 202 290 202c41 0 81 -5 99 -14c5 -2 7 -4 7 -9l12 -130c0 -3 -9 -9 -13 -9c-2 0 -3 0 -4 2c-19 36 -38 72 -58 107c-4 7 -8 12 -19 18c-13 7 -29 12 -54 12c-71 0 -132 -46 -132 -109c0 -54 38 -84 123 -126c94 -43 176 -88 176 -175z" />
    <glyph glyph-name="T" unicode="T" horiz-adv-x="570" 
d="M563 614l6 -146c0 -4 -8 -8 -12 -8c-1 0 -2 1 -3 2l-44 101c-5 11 -10 17 -20 20c-34 10 -104 15 -122 16c-3 -59 -7 -228 -9 -281c-1 -56 -4 -243 -4 -283c0 -10 4 -12 11 -13l50 -9c3 0 5 -6 5 -12c0 -2 0 -3 -3 -3c-22 1 -77 2 -135 2c-53 0 -102 -1 -124 -2
c-3 0 -3 1 -3 2c0 5 2 13 5 13l51 10c7 1 8 4 8 14c1 40 -3 238 -4 285c0 40 -4 226 -5 277c-17 -1 -86 -6 -120 -15c-10 -3 -16 -9 -22 -21l-46 -100c-1 -2 -2 -3 -4 -3c-3 0 -12 5 -12 8l10 147c0 4 2 7 7 7c8 0 27 -1 68 -3c42 -1 105 -3 199 -3c91 0 154 1 196 3
c42 1 63 2 70 2c4 0 6 -2 6 -7z" />
    <glyph glyph-name="U" unicode="U" horiz-adv-x="641" 
d="M29 616h250c3 0 3 0 3 -2c0 -7 -2 -14 -5 -14l-45 -7c-8 -1 -12 -4 -13 -13c-9 -89 -11 -186 -11 -303c0 -179 47 -266 124 -266c86 0 117 69 117 271c0 104 -2 229 -10 296c-1 10 -5 13 -12 15l-46 7c-4 0 -5 8 -5 13c0 2 0 3 3 3h239c2 0 3 -1 3 -3c0 -7 -3 -13 -6 -14
l-30 -6c-8 -2 -11 -5 -10 -14c6 -75 15 -165 15 -294c-1 -198 -110 -293 -280 -293c-148 0 -256 55 -256 286c1 129 20 265 23 298c2 10 -2 15 -12 17l-34 7c-3 0 -5 7 -5 13c0 2 0 3 3 3z" />
    <glyph glyph-name="V" unicode="V" horiz-adv-x="596" 
d="M343 41h7c3 11 7 22 9 29c33 122 93 345 114 508c2 8 -1 13 -9 14l-44 7c-3 1 -6 8 -6 13c0 3 0 4 2 4h194c3 0 3 -1 3 -3c0 -6 -1 -13 -5 -14l-19 -5c-9 -3 -15 -6 -19 -17c-36 -110 -165 -473 -205 -559c-7 -17 -11 -18 -89 -19h-43c-5 0 -7 2 -8 5
c-54 137 -136 425 -182 577c-2 6 -5 11 -11 13l-26 5c-3 1 -5 11 -5 15c0 1 0 2 3 2h264c3 0 3 -1 3 -2c0 -7 -2 -14 -6 -14l-43 -7c-7 -1 -10 -8 -9 -16c23 -109 93 -396 121 -506c2 -9 5 -20 9 -30z" />
    <glyph glyph-name="W" unicode="W" horiz-adv-x="907" 
d="M302 46h6c3 11 7 22 10 32c36 132 91 342 123 482c6 29 10 31 67 36c14 2 28 3 36 3c5 0 8 -3 9 -7c33 -123 92 -385 123 -520c3 -10 5 -19 9 -28h5c3 8 6 21 8 29c29 125 72 345 94 501c1 11 -2 17 -9 18l-47 7c-4 1 -6 9 -6 14c0 2 0 3 2 3h192c2 0 3 -1 3 -3
c0 -5 -2 -12 -5 -13l-22 -7c-8 -2 -15 -6 -18 -18c-28 -98 -138 -456 -175 -550c-7 -22 -13 -24 -88 -26h-40c-4 0 -7 3 -9 7c-31 99 -76 234 -99 324c-4 13 -9 36 -15 57h-6c-6 -22 -14 -48 -20 -67c-22 -65 -75 -223 -106 -296c-9 -21 -14 -23 -101 -25h-31
c-5 0 -7 2 -9 8c-29 98 -99 400 -138 574c-2 7 -5 12 -12 13l-26 5c-3 1 -6 9 -6 14c0 2 1 3 3 3h273c3 0 3 -1 3 -4c0 -4 -3 -12 -7 -13l-50 -7c-7 -1 -11 -7 -10 -15c16 -108 58 -363 82 -497c2 -8 5 -22 7 -34z" />
    <glyph glyph-name="X" unicode="X" horiz-adv-x="594" 
d="M-8 616h288c3 0 3 -1 3 -3c0 -4 -2 -13 -5 -13l-37 -7c-10 -2 -11 -8 -8 -15c27 -51 65 -116 91 -163c3 -6 10 -19 14 -27h3c5 9 11 19 14 23c29 48 70 112 93 164c5 11 -1 17 -9 19l-37 5c-3 1 -5 9 -5 14c0 2 1 3 3 3h184c2 0 2 -1 2 -2c0 -6 -2 -14 -5 -15l-20 -5
c-9 -3 -18 -8 -27 -18c-42 -44 -107 -131 -162 -193c-3 -5 -10 -14 -16 -21v-4c7 -9 12 -18 16 -24c57 -84 124 -197 180 -294c4 -6 10 -11 16 -14l37 -13c3 -1 6 -7 6 -12c0 -2 -1 -3 -3 -3c-31 1 -66 2 -110 2c-38 0 -85 -1 -126 -2c-3 0 -3 1 -3 3c0 4 2 12 5 12l43 9
c9 2 14 5 8 13c-34 50 -105 150 -145 206c-4 5 -10 15 -16 23h-3c-3 -5 -9 -15 -13 -24c-44 -72 -89 -144 -119 -202c-7 -13 1 -15 9 -17l39 -7c3 -1 6 -8 6 -13c0 -2 0 -3 -3 -3c-23 1 -68 2 -111 2c-35 0 -65 -1 -87 -2c-3 0 -3 2 -3 4c0 4 3 11 6 12l28 9c8 2 18 9 29 20
c54 53 133 159 185 226c4 5 10 13 16 22v3c-6 9 -12 17 -18 24c-40 50 -142 201 -189 264c-6 6 -12 11 -20 13l-22 5c-3 0 -5 6 -5 13c0 2 1 3 3 3z" />
    <glyph glyph-name="Y" unicode="Y" horiz-adv-x="580" 
d="M410 616h191c2 0 3 -1 3 -3c0 -5 -2 -12 -5 -13l-21 -7c-9 -3 -15 -7 -22 -19c-43 -79 -147 -244 -190 -321c-5 -8 -8 -21 -8 -35c-1 -40 -2 -170 -2 -184c0 -8 4 -11 11 -13l48 -8c4 -1 7 -7 7 -12c0 -2 0 -3 -3 -3c-24 1 -74 2 -132 2c-53 0 -104 -1 -126 -2
c-3 0 -3 1 -3 3c0 5 2 11 6 12l51 10c7 1 9 4 9 15c1 38 -3 141 -4 180c-1 8 -4 18 -7 26c-45 88 -118 213 -179 337c-3 6 -9 11 -14 12l-28 6c-3 1 -5 8 -5 14c0 2 1 3 4 3h281c2 0 3 -1 3 -3c0 -6 -3 -13 -6 -14l-47 -6c-7 -2 -14 -6 -11 -14c36 -88 67 -165 110 -263
c4 -9 14 -33 20 -46h4c7 13 14 26 18 36c41 90 75 173 102 272c3 10 0 13 -8 15l-43 6c-5 1 -7 9 -7 14c0 2 1 3 3 3z" />
    <glyph glyph-name="Z" unicode="Z" horiz-adv-x="571" 
d="M378 564l-3 3c-13 3 -29 4 -40 6c-55 10 -151 20 -186 20c-8 0 -13 -4 -18 -13l-65 -125c-1 -2 -3 -2 -5 -2s-14 6 -13 10l20 147c1 5 3 7 7 7c22 0 112 -1 211 -1c132 0 193 1 213 2c4 0 7 -2 8 -5c19 -33 25 -58 25 -71c0 -10 -3 -18 -10 -29
c-91 -120 -290 -365 -369 -454c-6 -8 -15 -19 -23 -28v-3h28c55 0 224 14 293 31c11 3 21 5 27 18l51 94c1 2 2 2 3 2c3 0 14 -6 13 -10l-23 -156c-1 -8 -3 -10 -11 -10s-64 3 -282 3c-60 0 -133 -1 -169 -1c-15 0 -25 5 -36 36c-4 9 -8 21 -8 26c0 3 1 5 2 7
c84 117 258 351 333 459c8 13 17 25 27 37z" />
    <glyph glyph-name="bracketleft" unicode="[" horiz-adv-x="257" 
d="M265 -138l-201 -1c-5 -1 -6 1 -6 10c0 10 -6 400 -7 470c-2 95 -4 355 -4 362c0 9 1 11 8 10l215 -2c3 0 4 -1 4 -3c0 -6 -6 -13 -8 -13l-106 -8c-11 -1 -14 -13 -14 -24c-2 -21 -8 -290 -8 -343c-1 -53 -3 -272 -5 -411c0 -12 4 -24 15 -25l113 -6c3 0 7 -8 7 -13
c0 -2 -1 -3 -3 -3z" />
    <glyph glyph-name="backslash" unicode="\" horiz-adv-x="281" 
d="M59 628h1c3 0 4 -2 5 -5c59 -186 144 -438 210 -628c0 -5 1 -6 -4 -6c-9 0 -26 3 -28 8c-95 222 -173 422 -237 579c-10 23 37 52 53 52z" />
    <glyph glyph-name="bracketright" unicode="]" horiz-adv-x="257" 
d="M189 -139l-201 1c-2 0 -3 1 -3 3c0 5 4 13 7 13l114 6c10 1 14 13 14 25c-1 139 -3 358 -3 421c0 48 -4 303 -5 333c-1 11 -3 23 -14 24l-107 7c-2 0 -8 7 -8 13c0 2 1 3 4 3l216 3c7 1 8 -1 8 -10c0 -8 -5 -261 -7 -372c-1 -60 -8 -450 -8 -460c0 -9 -1 -11 -7 -10z" />
    <glyph glyph-name="asciicircum" unicode="^" 
d="M182 441h1c3 0 5 -2 8 -7c21 -39 93 -170 134 -242c2 -5 -2 -10 -8 -14c-2 -2 -4 -1 -7 2c-38 47 -86 103 -129 155c-36 -44 -79 -97 -126 -155c-2 -3 -3 -3 -6 -1c-7 4 -11 8 -8 13c36 64 117 212 133 243c3 5 4 6 8 6z" />
    <glyph glyph-name="underscore" unicode="_" horiz-adv-x="500" 
d="M0 -85h500v-30h-500v30z" />
    <glyph glyph-name="quoteleft" unicode="&#x2018;" horiz-adv-x="119" 
d="M14 481v1c0 42 39 146 80 191c1 1 2 2 3 2c2 0 9 -8 8 -11c-16 -51 -21 -123 -22 -154c0 -10 -4 -18 -22 -23c-15 -5 -39 -10 -44 -10c-2 0 -3 1 -3 4z" />
    <glyph glyph-name="a" unicode="a" horiz-adv-x="528" 
d="M323 267l4 1c-1 21 -5 44 -9 61c-12 46 -40 84 -88 84s-93 -21 -145 -66c-1 -1 -2 -2 -3 -2c-3 0 -11 12 -6 17c56 59 130 101 234 101c134 0 155 -113 155 -214c0 -19 -2 -76 -4 -110c-2 -45 -4 -89 -4 -105c0 -7 2 -10 10 -12l42 -10c4 -2 6 -6 6 -10c0 -2 -1 -3 -4 -3
c-12 1 -53 1 -92 1c-34 0 -55 0 -72 -1c-3 0 -5 1 -5 5c-1 8 -3 44 -3 66c0 5 -1 20 -1 28l-3 2c-4 -8 -9 -17 -14 -25c-25 -38 -75 -83 -159 -83c-65 0 -133 43 -133 134c0 90 58 183 187 183c40 0 72 -14 87 -26c6 -4 14 -10 20 -16zM236 43h1c39 0 75 38 94 93
c4 11 7 24 7 36c0 11 -3 24 -9 38c-13 34 -44 74 -87 74c-51 0 -74 -65 -74 -133c0 -70 28 -108 68 -108z" />
    <glyph glyph-name="b" unicode="b" horiz-adv-x="569" 
d="M189 275l5 -1c3 9 6 19 9 26c22 52 87 163 200 163c90 0 132 -86 132 -189c0 -147 -74 -282 -229 -282c-63 0 -103 24 -142 64c-7 7 -10 8 -15 2l-58 -61c-2 -2 -4 -2 -5 -2c-8 0 -22 5 -22 8c-1 55 -3 264 -4 349c-1 69 -2 253 -3 273c-1 11 -5 14 -11 14l-48 2
c-4 0 -7 7 -7 12c0 3 1 4 3 4l200 22c7 1 10 -1 10 -8c0 -10 -9 -276 -12 -350c0 -9 -2 -33 -3 -46zM292 10h1c63 0 100 78 100 218c0 81 -23 160 -70 160c-62 0 -121 -114 -137 -204c-1 -7 -2 -17 -2 -23c0 -9 2 -21 2 -26c11 -83 60 -125 106 -125z" />
    <glyph glyph-name="c" unicode="c" horiz-adv-x="463" 
d="M37 192v1c0 83 39 159 101 207c51 41 114 63 192 63c42 0 70 -5 86 -12c3 -1 5 -4 5 -9l6 -108c0 -3 -9 -8 -12 -8c-2 0 -3 0 -4 2c-15 29 -31 61 -45 85c-4 8 -9 15 -18 21c-9 7 -22 9 -35 9c-36 0 -69 -29 -96 -87c-19 -39 -30 -91 -30 -148c0 -117 61 -172 134 -172
c14 0 34 2 51 6c28 6 48 14 66 23c2 1 5 -3 5 -9c0 -4 -1 -7 -4 -8c-19 -12 -56 -31 -100 -46c-17 -6 -36 -10 -83 -10c-122 0 -219 53 -219 200z" />
    <glyph glyph-name="d" unicode="d" horiz-adv-x="574" 
d="M283 663l224 16c7 1 8 -3 8 -8c0 -6 -9 -322 -9 -364c-1 -26 -3 -260 -3 -270c0 -11 2 -13 9 -15l51 -10c3 -1 6 -6 6 -10c0 -2 -1 -3 -3 -3c-29 1 -60 1 -96 1c-37 0 -64 0 -82 -1c-4 0 -6 2 -6 9c0 14 -1 97 -1 118c0 15 2 29 2 44l-4 1c-4 -10 -7 -19 -11 -29
c-34 -69 -92 -150 -188 -150c-83 0 -143 67 -143 183c0 160 82 288 230 288c44 0 73 -15 92 -29c7 -5 12 -11 17 -17l3 1c-2 17 -3 40 -4 52c-1 18 -3 115 -5 161c-1 8 -5 13 -13 13l-70 4c-4 0 -7 8 -7 13c0 1 0 2 3 2zM251 63h1c52 0 100 72 128 186c3 11 5 26 5 33
c0 13 -2 30 -4 44c-13 58 -49 117 -102 117c-63 0 -102 -80 -102 -221c0 -86 25 -159 74 -159z" />
    <glyph glyph-name="e" unicode="e" horiz-adv-x="500" 
d="M467 264v-1c0 -12 -8 -24 -20 -28c-37 -12 -218 -12 -265 -8c-1 -23 2 -54 5 -68c17 -75 73 -122 131 -122c24 0 50 3 67 7c20 5 52 15 73 26c2 1 5 -5 5 -12c0 -3 -2 -4 -4 -6c-23 -14 -72 -38 -115 -50c-22 -7 -44 -10 -88 -10c-126 0 -219 59 -219 206
c0 135 98 265 240 265c134 0 190 -115 190 -199zM260 444l-1 -1c-39 0 -79 -59 -77 -198c56 -4 113 1 129 6c8 4 14 11 14 32c0 54 -12 161 -65 161z" />
    <glyph glyph-name="f" unicode="f" horiz-adv-x="387" 
d="M235 446l173 -3c2 0 3 -1 3 -3c0 -5 -3 -16 -6 -17l-170 -12c-2 -65 -5 -171 -6 -188c-1 -32 -2 -164 -2 -188c1 -9 5 -12 12 -13l88 -9c3 0 5 -8 5 -13c0 -1 -1 -2 -3 -2c-51 1 -108 2 -163 2c-57 0 -102 -1 -131 -2c-2 0 -2 1 -2 2c0 3 2 12 5 12l54 9c7 1 10 5 10 13
c0 38 -5 151 -6 199c-1 40 -5 159 -5 177l-78 -2c-2 0 -3 1 -3 4c0 4 2 13 4 18c3 10 9 15 18 15h60c6 118 76 234 248 234c39 0 62 -5 80 -13c3 -1 5 -3 5 -6l6 -108c0 -4 -9 -10 -13 -10c-1 0 -2 1 -4 4c-15 28 -33 64 -45 85c-4 8 -10 15 -16 19c-7 5 -16 9 -28 9
c-50 0 -88 -75 -90 -213z" />
    <glyph glyph-name="g" unicode="g" horiz-adv-x="548" 
d="M45 288v1c0 101 97 174 242 174c44 0 74 -4 98 -6c10 -2 21 -2 31 -2l133 1c2 0 3 -1 3 -3c0 -5 -2 -13 -5 -13l-101 -16c36 -26 47 -69 47 -100c0 -105 -95 -157 -208 -174c-11 -2 -31 -6 -50 -11c-42 -10 -62 -20 -62 -33c0 -16 35 -22 145 -34
c150 -16 224 -40 224 -105c0 -85 -88 -159 -299 -159c-124 0 -236 28 -236 97c0 40 30 54 166 111c-34 8 -72 20 -90 29c-16 8 -24 23 -24 47c0 7 3 12 9 14c47 16 87 29 129 43c-91 8 -152 68 -152 139zM268 166h1c51 0 82 39 82 140c0 76 -22 139 -77 139
c-63 0 -86 -57 -86 -145c0 -79 35 -134 80 -134zM280 -172h1c85 0 124 38 125 83c0 57 -73 74 -193 96c-15 2 -18 3 -24 -2c-21 -16 -39 -41 -39 -80c0 -58 56 -97 130 -97z" />
    <glyph glyph-name="h" unicode="h" horiz-adv-x="608" 
d="M-4 660l213 19c6 1 8 -3 8 -9c0 -8 -11 -336 -14 -415c0 -9 -1 -21 -2 -33h5c3 13 8 24 10 30c28 78 104 211 207 211c81 0 120 -81 120 -211c0 -88 -8 -174 -11 -208c-1 -16 1 -20 8 -22l48 -10c2 0 5 -6 5 -12c0 -1 -1 -2 -3 -2c-18 1 -61 2 -119 2
c-59 0 -105 -1 -126 -2c-3 0 -3 1 -3 2c0 4 1 12 4 12l50 9c8 1 10 5 11 14c3 26 5 84 5 146c0 95 -13 189 -66 189c-56 0 -113 -99 -137 -219c-5 -26 -9 -87 -9 -117c0 -9 4 -11 11 -12l49 -10c2 0 5 -6 5 -11c0 -2 0 -3 -3 -3c-21 1 -72 2 -128 2c-55 0 -100 -1 -116 -2
c-3 0 -3 1 -3 3c0 4 3 11 5 11l48 11c6 1 7 4 8 12c1 27 -1 236 -1 293c0 44 -3 263 -4 300c0 9 -2 13 -11 14l-61 3c-3 0 -6 6 -6 12c0 1 0 3 3 3z" />
    <glyph glyph-name="i" unicode="i" horiz-adv-x="286" 
d="M138 645h1c42 0 68 -31 68 -65c0 -38 -29 -69 -69 -69c-35 0 -73 25 -73 66c0 32 27 68 73 68zM15 430l197 33c6 1 9 -3 9 -8c-2 -40 -7 -178 -8 -227c-1 -45 -3 -156 -3 -194c0 -9 2 -11 9 -13l50 -10c2 0 5 -7 5 -10c0 -2 0 -3 -2 -3c-24 1 -71 2 -125 2
c-55 0 -102 -1 -122 -2c-3 0 -3 1 -3 2c0 4 2 10 5 11l47 11c7 2 11 4 11 13c0 22 -3 142 -4 191c-1 41 -4 147 -5 172c-1 8 -2 15 -11 15l-45 2c-3 0 -7 7 -7 13c0 1 0 2 2 2z" />
    <glyph glyph-name="j" unicode="j" horiz-adv-x="283" 
d="M137 645h1c39 0 67 -31 67 -65c0 -39 -29 -68 -70 -68c-35 0 -72 28 -72 66c0 31 27 67 74 67zM6 428l212 34c7 1 9 -1 9 -8c-1 -41 -2 -184 -4 -240c-2 -43 -2 -98 -11 -156c-19 -133 -86 -250 -257 -250c-24 0 -51 2 -67 7c-3 1 -4 3 -5 7l-18 105c-1 4 8 10 11 10
c1 0 2 0 3 -2c17 -25 36 -53 53 -74c9 -11 15 -16 22 -21c9 -6 20 -10 32 -10c55 0 94 57 102 191c2 44 2 131 1 173c0 35 -3 160 -8 197c-1 9 -2 16 -11 17l-59 2c-5 0 -8 10 -8 14c0 3 0 4 3 4z" />
    <glyph glyph-name="k" unicode="k" horiz-adv-x="550" 
d="M341 455h189c3 0 3 -2 3 -4c0 -4 -2 -11 -5 -12l-24 -6c-10 -3 -16 -6 -28 -13c-51 -33 -118 -78 -167 -111c-5 -3 -8 -6 -12 -9v-4c7 -6 15 -14 23 -24c67 -71 138 -155 202 -235c5 -5 13 -12 22 -15l28 -10c4 -1 5 -7 5 -11c0 -2 0 -3 -3 -3c-20 1 -61 2 -96 2
c-39 0 -82 -1 -120 -2c-2 0 -3 1 -3 3c0 4 1 9 5 10l37 9c10 3 12 7 4 14c-41 36 -117 99 -173 143c-6 5 -14 11 -22 18l-3 -1c0 -15 -1 -30 -1 -38c-1 -38 -3 -107 -2 -124c1 -9 2 -10 9 -11l52 -9c4 -1 6 -7 6 -11c0 -2 -1 -3 -4 -3c-23 1 -71 2 -126 2
c-57 0 -101 -1 -120 -2c-3 0 -3 1 -3 3c0 3 1 10 6 11l49 9c5 1 8 4 8 12c1 32 -2 250 -2 293c0 34 -3 265 -4 301c0 9 -3 13 -12 14l-60 4c-2 0 -6 8 -6 12c0 1 0 2 3 2l212 20c7 1 9 -2 9 -7c-1 -37 -11 -302 -13 -384c0 -10 -2 -26 -2 -36l3 -1l24 24
c44 36 106 89 159 141c5 5 6 12 -1 14l-42 8c-4 1 -7 8 -7 14c0 2 0 3 3 3z" />
    <glyph glyph-name="l" unicode="l" horiz-adv-x="280" 
d="M-5 657l214 22c6 1 8 -1 8 -8c0 -13 -7 -210 -9 -326c-1 -72 -5 -292 -5 -311c0 -9 3 -11 10 -13l52 -9c3 0 6 -7 6 -12c0 -1 0 -2 -2 -2c-26 1 -74 2 -133 2c-55 0 -98 -1 -119 -2c-2 0 -3 1 -3 3c0 3 2 10 6 11l49 9c7 2 11 4 11 12c2 28 -3 267 -3 302
c0 36 -5 248 -6 289c0 9 -3 14 -12 14l-59 3c-4 0 -8 7 -8 12c0 2 0 4 3 4z" />
    <glyph glyph-name="m" unicode="m" horiz-adv-x="918" 
d="M854 24l50 -12c3 -1 5 -7 5 -11c0 -2 0 -3 -3 -3c-30 1 -64 2 -120 2s-99 -1 -123 -2c-3 0 -3 1 -3 2c0 4 2 11 5 12l45 11c6 1 9 5 10 12c3 26 3 114 3 142c0 98 -16 193 -70 193c-65 0 -104 -115 -118 -208c-7 -49 -9 -112 -9 -125c0 -8 3 -11 11 -13l54 -12
c3 -1 5 -7 5 -11c0 -2 0 -3 -2 -3c-32 1 -70 2 -127 2s-96 -1 -122 -2c-3 0 -3 1 -3 3c0 3 1 10 5 11l43 11c8 2 10 5 11 13c3 23 2 100 2 136c0 102 -12 198 -69 198c-60 0 -102 -104 -120 -202c-4 -33 -9 -95 -9 -133c0 -7 2 -10 9 -12l46 -11c4 -1 6 -7 6 -11
c0 -2 0 -3 -3 -3c-42 1 -70 2 -124 2c-52 0 -81 -1 -114 -2c-3 0 -3 1 -3 2c0 4 2 11 5 12l45 10c6 2 10 4 10 13c0 44 -2 152 -2 197c-1 33 -3 142 -6 169c-1 9 -2 15 -11 16l-43 2c-3 0 -6 6 -6 12c0 2 0 3 4 4l193 27c6 1 7 -2 7 -7c0 -12 -5 -127 -9 -180
c0 -8 -2 -22 -2 -32l6 -2c3 12 7 25 9 31c27 75 87 191 195 191c73 0 113 -69 116 -177v-29l4 -1c2 7 6 21 9 30c23 67 84 177 191 177c73 0 118 -70 118 -211c0 -76 -9 -185 -11 -212c0 -11 2 -14 10 -16z" />
    <glyph glyph-name="n" unicode="n" horiz-adv-x="612" 
d="M548 23l51 -12c3 0 5 -7 5 -11c0 -1 0 -2 -2 -2c-34 1 -69 2 -127 2c-57 0 -100 -1 -125 -2c-2 0 -3 1 -3 2c0 3 2 11 5 11l48 11c8 2 11 6 12 14c2 21 5 99 5 145c0 87 -12 188 -68 188c-48 0 -97 -76 -127 -198c-8 -35 -16 -99 -15 -136c0 -9 3 -12 9 -13l49 -11
c3 0 5 -7 5 -11c0 -1 -1 -2 -3 -2c-39 1 -71 2 -125 2s-92 -1 -122 -2c-2 0 -2 1 -2 2c0 4 2 11 5 12l51 9c6 2 9 5 9 14c0 30 -2 147 -2 191c-1 34 -4 146 -5 172c-1 9 -1 15 -10 16l-44 3c-3 0 -6 7 -6 12c0 2 0 3 3 3l194 31c6 1 8 -2 8 -8c-1 -14 -6 -141 -8 -195
c0 -10 -1 -23 -2 -34l5 -1c3 10 7 23 9 28c28 89 104 210 202 210c80 0 121 -75 121 -214c0 -74 -7 -167 -11 -209c-1 -10 1 -15 11 -17z" />
    <glyph glyph-name="o" unicode="o" horiz-adv-x="564" 
d="M257 -8h-1c-141 0 -219 86 -219 214c0 134 84 257 269 257c157 0 223 -100 223 -219c0 -132 -89 -252 -272 -252zM286 11h1c71 0 92 92 92 219c0 115 -28 214 -96 214c-66 0 -97 -88 -97 -221c0 -115 36 -212 100 -212z" />
    <glyph glyph-name="p" unicode="p" horiz-adv-x="585" 
d="M208 34l-3 -1c1 -22 0 -45 0 -60c-2 -51 -2 -112 -2 -122c0 -9 2 -11 9 -12l68 -11c3 -1 5 -7 5 -11c0 -2 0 -3 -2 -3c-44 1 -88 2 -140 2c-49 0 -82 -1 -117 -2c-2 0 -2 1 -2 2c0 5 2 12 5 12l41 9c7 1 10 4 10 13c2 32 -2 190 -3 251c0 58 -3 268 -5 298
c0 10 -1 14 -9 15l-52 1c-5 1 -8 8 -8 13c0 2 0 3 3 4l203 31c5 1 7 -2 7 -7c0 -20 -4 -114 -5 -154c0 -10 -2 -19 -2 -27l6 -1c3 10 7 21 11 29c26 63 90 160 194 160c89 0 132 -88 132 -191c0 -145 -72 -280 -230 -280c-44 0 -75 13 -95 27c-6 4 -12 9 -19 15zM314 11h1
c63 0 95 81 95 213c0 80 -22 163 -73 163c-57 0 -110 -109 -131 -212c-1 -8 -2 -19 -2 -25c0 -8 1 -17 2 -23c16 -84 65 -116 108 -116z" />
    <glyph glyph-name="q" unicode="q" horiz-adv-x="572" 
d="M422 405l58 55c1 1 3 2 5 2c9 0 29 -7 29 -18c0 -47 -6 -255 -7 -331c-1 -74 -5 -243 -5 -267c0 -6 4 -9 10 -10l45 -8c2 -1 4 -6 4 -11c0 -2 0 -3 -2 -3c-11 1 -65 2 -124 2c-55 0 -109 -1 -137 -2c-2 0 -2 1 -2 2c0 5 2 11 5 12l65 9c7 2 12 5 13 15
c0 15 -2 179 -2 242c0 14 0 47 2 70l-4 1c-4 -11 -9 -25 -13 -33c-38 -75 -99 -140 -186 -140s-139 77 -139 185c0 160 83 286 238 286c60 0 93 -16 120 -37c7 -5 17 -14 24 -21h3zM284 444h-1c-69 0 -105 -94 -105 -227c0 -92 29 -155 71 -155c59 0 106 83 130 186
c2 6 5 23 5 33c0 11 -1 27 -2 35c-8 68 -41 128 -98 128z" />
    <glyph glyph-name="r" unicode="r" horiz-adv-x="438" 
d="M209 224h4c2 11 4 20 5 26c23 95 75 213 166 213c14 0 25 -3 32 -8c2 -2 3 -4 3 -7l7 -139c0 -4 -9 -9 -11 -9c-1 0 -2 0 -3 2c-12 23 -28 50 -40 69c-7 10 -17 17 -28 17c-55 0 -102 -100 -129 -236c-5 -28 -10 -94 -10 -118c0 -9 4 -11 11 -12l78 -11c2 0 5 -7 5 -10
c0 -2 0 -3 -2 -3c-28 1 -86 2 -154 2c-59 0 -111 -1 -123 -2c-2 0 -2 1 -2 2c0 5 2 11 5 11l50 10c6 2 9 5 9 13c0 26 -2 150 -3 190c-1 43 -2 146 -4 174c0 9 -2 15 -11 16l-45 3c-4 0 -6 8 -6 12c0 2 0 4 3 4l194 29c8 2 10 -2 10 -9c0 -15 -6 -145 -10 -200
c0 -9 -1 -21 -1 -29z" />
    <glyph glyph-name="s" unicode="s" horiz-adv-x="448" 
d="M44 306v1c0 77 102 156 247 156c44 0 76 -5 91 -12c3 -3 5 -5 5 -9l9 -102c0 -4 -9 -10 -13 -10c-2 0 -3 0 -4 3c-15 25 -29 50 -44 76c-5 7 -10 12 -17 17c-13 8 -36 14 -64 14c-49 0 -87 -31 -87 -71s27 -61 101 -88c94 -32 143 -65 143 -129
c0 -95 -104 -160 -266 -160c-21 0 -70 4 -90 12c-4 2 -6 4 -7 10l-8 104c0 5 10 9 13 9c1 0 3 0 4 -2c14 -25 29 -54 45 -79c5 -8 11 -12 18 -17c11 -7 38 -15 63 -15c60 0 108 26 108 73c0 43 -29 64 -110 91c-99 31 -137 68 -137 128z" />
    <glyph glyph-name="t" unicode="t" horiz-adv-x="408" 
d="M404 425l-172 -13c-5 -64 -6 -144 -6 -209c0 -127 30 -172 100 -172c9 0 22 1 33 2s31 6 53 14c3 1 4 -4 4 -11c0 -4 -2 -6 -4 -7c-20 -10 -63 -28 -102 -35c-11 -1 -26 -2 -48 -2c-110 0 -178 40 -179 185c0 67 8 166 17 235l-86 -3c-2 0 -4 1 -4 4s1 11 3 17
c3 13 11 17 20 17h71c3 17 8 57 14 81c5 19 15 32 47 46c28 12 72 30 78 30c4 0 6 -3 5 -9c-4 -33 -12 -113 -14 -150l175 -1c1 0 2 -1 2 -3c0 -7 -4 -16 -7 -16z" />
    <glyph glyph-name="u" unicode="u" horiz-adv-x="591" 
d="M384 418l-45 4c-3 0 -6 6 -6 10c0 2 0 4 3 5l178 25c5 1 8 -2 8 -8c-1 -37 0 -190 0 -230c0 -47 3 -159 5 -185c1 -9 3 -14 12 -16l38 -10c3 -1 5 -9 5 -12c0 -1 0 -2 -3 -2c-26 1 -58 1 -97 1c-34 0 -66 0 -86 -1c-4 0 -6 3 -6 10c0 12 -1 95 0 133v31h-5
c-4 -11 -6 -20 -9 -26c-40 -98 -99 -155 -183 -155c-72 0 -131 59 -131 206c0 71 8 157 14 204c1 12 -2 17 -11 17h-42c-4 0 -8 8 -8 13c0 2 1 3 4 3l177 27c6 1 8 -2 8 -9c-1 -32 -6 -148 -6 -196c0 -137 19 -197 66 -197c60 0 110 103 125 238c3 26 5 81 5 100
c0 13 -3 19 -10 20z" />
    <glyph glyph-name="v" unicode="v" horiz-adv-x="516" 
d="M343 455h180c2 0 2 -1 2 -3c0 -4 -2 -11 -6 -12l-19 -6c-7 -2 -13 -4 -16 -14c-29 -72 -144 -342 -172 -400c-10 -17 -14 -19 -74 -21h-41c-5 0 -8 1 -10 6c-34 77 -114 303 -148 415c-1 6 -5 11 -11 13l-27 7c-3 1 -4 5 -4 12c0 2 1 3 3 3h256c3 0 3 -1 3 -3
c0 -5 -2 -11 -5 -12l-37 -6c-7 -2 -9 -6 -7 -14c14 -77 56 -256 79 -338c2 -7 6 -18 9 -29h5c5 13 9 24 12 32c31 92 66 237 83 332c2 10 -1 14 -9 16l-45 7c-3 0 -4 8 -4 13c0 1 0 2 3 2z" />
    <glyph glyph-name="w" unicode="w" horiz-adv-x="818" 
d="M285 56h6c4 12 9 25 11 31c32 88 69 211 97 317c6 21 12 25 67 28c13 2 25 2 32 2c4 0 6 -2 7 -6c25 -80 76 -262 100 -343c1 -6 7 -20 9 -30h6c4 10 8 22 10 29c25 97 60 249 71 332c1 11 -2 16 -10 17l-44 8c-3 0 -5 7 -5 12c0 1 1 2 3 2h178c2 0 2 -1 2 -3
c0 -5 -2 -11 -5 -12l-18 -5c-9 -2 -15 -5 -18 -16c-22 -66 -120 -325 -157 -404c-6 -12 -10 -14 -78 -16h-37c-5 0 -8 2 -9 6c-28 72 -62 161 -85 232c-4 12 -7 22 -11 34h-4c-3 -10 -10 -28 -15 -39c-25 -65 -71 -172 -88 -214c-8 -15 -12 -18 -85 -19h-34c-3 0 -6 2 -7 6
c-30 83 -91 295 -123 417c-1 6 -7 12 -13 13l-25 5c-3 1 -5 8 -5 12c0 2 0 3 4 3h255c3 0 3 -1 3 -3c0 -4 -2 -11 -5 -11l-38 -6c-7 -1 -11 -6 -10 -14c12 -79 43 -252 61 -337c2 -8 5 -18 7 -28z" />
    <glyph glyph-name="x" unicode="x" horiz-adv-x="510" 
d="M-1 455h258c3 0 4 -1 4 -3c0 -3 -2 -11 -5 -12l-29 -7c-6 -2 -9 -7 -5 -12c21 -36 49 -79 63 -101c5 -8 9 -15 14 -24h4c4 8 9 16 14 23c19 29 41 66 57 98c4 8 1 14 -7 15l-32 7c-5 1 -6 8 -6 13c0 2 0 3 2 3h164c2 0 2 -1 2 -3c0 -6 -2 -12 -6 -13l-20 -5
c-7 -2 -15 -5 -21 -11c-48 -49 -84 -94 -120 -133c-5 -6 -8 -10 -14 -16v-3c7 -9 12 -16 19 -25c48 -65 90 -133 138 -207c5 -10 12 -15 19 -18l24 -9c4 -1 5 -8 5 -11c0 -2 0 -3 -3 -3c-22 1 -56 2 -93 2c-40 0 -82 -1 -111 -2c-3 0 -3 1 -3 3c0 3 2 10 6 11l32 8
c10 2 13 7 7 14c-28 39 -75 97 -108 134c-6 7 -11 15 -19 23h-3c-5 -9 -10 -16 -14 -22c-31 -46 -60 -91 -82 -130c-5 -10 -1 -15 6 -17l35 -10c4 -1 6 -6 6 -11c0 -2 -1 -3 -4 -3c-27 1 -61 2 -96 2c-36 0 -67 -1 -83 -2c-3 0 -3 1 -3 3c0 5 2 10 6 11l37 13
c7 2 16 9 24 18c30 32 100 108 131 145c6 7 13 15 20 23v4c-6 6 -13 14 -19 20c-37 45 -97 123 -151 187c-4 5 -9 10 -16 12l-21 5c-4 1 -5 8 -5 13c0 2 0 3 2 3z" />
    <glyph glyph-name="y" unicode="y" horiz-adv-x="510" 
d="M341 455h177c3 0 3 -1 3 -3c0 -5 -2 -12 -6 -13l-16 -5c-9 -2 -14 -5 -19 -17c-25 -70 -123 -297 -184 -402c-48 -78 -139 -207 -234 -207c-29 0 -38 5 -40 11l-19 111c-1 3 8 11 12 11c1 0 2 0 3 -1l29 -48c11 -16 21 -21 38 -21c28 0 89 24 131 86c4 5 5 11 1 19
c-38 86 -140 331 -178 443c-3 6 -6 12 -12 13l-26 7c-4 1 -6 7 -6 13c0 2 0 3 4 3h254c3 0 3 -1 3 -3c0 -5 -3 -12 -7 -13l-37 -7c-7 -1 -11 -7 -9 -15c20 -71 62 -221 87 -305c2 -6 5 -16 8 -27h5c5 12 10 23 11 29c30 86 71 228 81 302c2 12 -1 15 -9 17l-42 6
c-4 1 -6 7 -6 13c0 2 0 3 3 3z" />
    <glyph glyph-name="z" unicode="z" horiz-adv-x="491" 
d="M126 26l1 -1c12 -1 23 0 34 0c30 1 156 10 216 26c8 2 16 7 21 16l43 75c1 2 2 2 3 2c4 0 13 -5 12 -9l-19 -131c0 -4 -3 -6 -9 -6c-35 0 -121 2 -229 2c-70 0 -98 -1 -139 -1c-14 0 -21 6 -32 30c-3 7 -8 20 -8 24c0 3 1 5 2 7c85 106 215 260 260 322c6 9 15 19 21 27
v3c-7 3 -15 4 -23 5c-45 8 -117 18 -148 18c-9 0 -14 -4 -18 -12l-54 -98c-1 -2 -2 -2 -3 -2c-4 0 -14 7 -13 11l15 116c0 5 3 8 7 8c21 -1 83 -3 159 -3c88 0 178 1 197 1c4 0 6 -2 7 -5c14 -31 19 -55 19 -66c0 -9 -1 -18 -9 -28c-75 -90 -219 -237 -288 -305
c-6 -7 -17 -18 -25 -26z" />
    <glyph glyph-name="braceleft" unicode="{" horiz-adv-x="257" 
d="M71 303v-5c58 -10 72 -47 71 -88c-4 -101 -20 -164 -2 -226c16 -52 57 -88 110 -101c2 0 3 -1 3 -2c0 -3 -4 -10 -8 -10c-90 9 -151 47 -174 93c-25 49 -9 104 1 241c3 46 -9 87 -73 84c-2 0 -5 10 -5 16c0 3 1 4 3 4c70 -2 73 46 71 73c-8 136 -31 196 -8 246
c22 46 81 87 186 93c2 0 8 -7 8 -10c0 -1 0 -2 -2 -2c-54 -11 -82 -47 -97 -99c-19 -61 -9 -131 -9 -219c0 -44 -21 -80 -75 -88z" />
    <glyph glyph-name="bar" unicode="|" horiz-adv-x="230" 
d="M87 750h56v-1000h-56v1000z" />
    <glyph glyph-name="braceright" unicode="}" horiz-adv-x="257" 
d="M185 299v4c-54 8 -75 44 -75 89c0 87 10 157 -8 218c-16 53 -43 89 -97 99c-2 0 -2 1 -2 2c0 3 6 10 8 10c106 -6 164 -46 186 -92c23 -50 0 -111 -9 -248c-1 -26 1 -74 71 -72c2 0 3 -1 3 -4c0 -6 -3 -16 -5 -16c-64 3 -76 -38 -73 -85c10 -136 25 -191 0 -240
c-23 -46 -83 -84 -173 -93c-4 0 -9 7 -9 10c0 2 1 2 3 3c54 11 94 48 110 100c18 62 3 125 -1 227c-1 40 13 77 71 88z" />
    <glyph glyph-name="asciitilde" unicode="~" 
d="M125 362h1c23 0 45 -13 67 -34c24 -20 41 -29 60 -29c29 0 43 37 44 62c0 5 9 7 18 7c1 0 2 -1 2 -2c3 -47 -9 -121 -67 -121c-24 0 -48 12 -69 27c-22 18 -39 27 -60 27c-29 0 -49 -28 -53 -55c-2 -6 -7 -7 -18 -7c-2 0 -2 2 -2 4c-2 54 24 121 77 121z" />
    <glyph glyph-name="exclamdown" unicode="&#xa1;" horiz-adv-x="196" 
d="M100 362h-1c-30 0 -51 25 -51 51s21 50 53 50c27 0 51 -20 51 -49c0 -26 -20 -52 -52 -52zM109 296h1c1 0 3 -1 3 -3c19 -169 38 -341 42 -404c1 -24 -5 -43 -41 -50c-25 -5 -61 -9 -68 -9c-4 0 -6 1 -6 6c3 67 33 285 51 452c1 4 13 8 18 8z" />
    <glyph glyph-name="cent" unicode="&#xa2;" horiz-adv-x="412" 
d="M238 87l-5 -100c0 -1 -1 -2 -2 -2c-6 0 -24 4 -25 6l3 95c-96 5 -170 50 -170 159c0 63 29 120 67 156c35 31 80 51 124 59l4 99c1 3 18 6 26 6c1 0 2 -1 2 -2l-4 -100c42 3 79 -3 98 -9c2 -2 4 -4 4 -9l5 -88c0 -2 -8 -6 -10 -6s-2 0 -3 2c-12 22 -23 45 -37 69
c-4 6 -7 10 -12 15c-8 5 -17 8 -29 8c-34 0 -65 -25 -85 -62c-14 -28 -26 -71 -26 -124c0 -93 51 -135 114 -135c13 0 29 2 42 4c22 5 39 11 54 18c2 1 3 1 3 -2c1 -4 1 -11 0 -12c-18 -11 -46 -25 -83 -37c-13 -4 -33 -8 -55 -8z" />
    <glyph glyph-name="sterling" unicode="&#xa3;" horiz-adv-x="505" 
d="M423 294l-179 -12c-5 -45 -15 -94 -33 -138c-15 -37 -43 -80 -80 -109c-9 -6 -6 -10 1 -10c42 0 212 5 260 18c9 3 16 8 21 16c17 26 33 52 49 78c1 2 2 2 3 2c4 0 12 -8 11 -11l-23 -125c-1 -3 -3 -5 -7 -5c-16 -1 -100 2 -307 2c-61 0 -108 -1 -134 -2c-2 0 -3 1 -3 2
c0 4 2 13 5 13l51 11c8 1 18 6 25 13c17 20 25 55 31 97c7 45 7 118 6 147l-85 -2c-3 0 -4 1 -4 4c0 11 9 34 22 34l67 1c7 160 86 280 246 280c38 0 66 -5 82 -13c3 -1 5 -4 5 -8l5 -107c0 -4 -8 -9 -13 -9c-1 0 -1 1 -3 4c-14 30 -29 63 -44 92c-3 5 -6 10 -10 12
c-8 7 -20 10 -33 10c-56 0 -103 -71 -108 -263l179 -3c2 0 3 -1 3 -2c0 -6 -3 -17 -6 -17z" />
    <glyph glyph-name="fraction" unicode="&#x2044;" horiz-adv-x="98" 
d="M254 599h1c4 0 5 -3 3 -8c-106 -190 -210 -397 -328 -594c-1 -2 -3 -3 -5 -3c-21 0 -27 2 -25 6c92 174 201 414 283 583c7 14 24 17 71 16z" />
    <glyph glyph-name="yen" unicode="&#xa5;" horiz-adv-x="547" 
d="M449 165l-120 -4c-1 -53 -2 -118 -2 -127c0 -8 4 -11 10 -13l48 -8c3 -1 7 -7 7 -12c0 -2 0 -3 -3 -3c-23 1 -69 2 -127 2c-54 0 -89 -1 -110 -2c-2 0 -2 1 -2 3c0 5 2 11 5 12l50 10c7 1 10 4 10 15c0 25 -1 79 -2 123l-113 -4c-11 -1 -13 2 -13 28c0 3 1 4 3 4l121 -2
v23c0 6 -2 14 -3 18l-116 -3c-2 0 -3 1 -3 5c0 22 6 29 13 29l96 -3c-45 85 -101 196 -156 299c-3 6 -8 10 -14 12l-27 6c-3 1 -5 8 -5 14c0 2 0 3 3 3h254c3 0 3 -1 3 -3c0 -6 -3 -13 -5 -13l-42 -8c-7 -1 -14 -5 -11 -13c29 -72 60 -164 96 -250c4 -9 13 -32 18 -45h5
c6 13 11 24 15 34c36 83 70 172 96 260c3 10 0 13 -8 15l-39 7c-4 0 -6 8 -6 13c0 2 0 3 3 3h175c2 0 3 -1 3 -3c0 -5 -3 -12 -5 -13l-21 -7c-9 -3 -15 -7 -22 -19c-42 -82 -121 -218 -168 -293l116 -1c1 0 2 -1 2 -2c0 -9 -3 -19 -9 -19c-38 -2 -78 -3 -116 -5
c-2 -3 -3 -10 -3 -14v-26l124 -2c2 0 2 -1 2 -3c0 -7 -2 -18 -7 -18z" />
    <glyph glyph-name="florin" unicode="&#x192;" horiz-adv-x="464" 
d="M407 301l-176 -12c-7 -63 -49 -340 -62 -405c-2 -15 -57 -24 -72 -24c-3 0 -4 1 -4 5c3 39 16 385 18 423l-83 -2c-2 0 -4 1 -4 4c0 15 11 33 22 33l68 1c14 165 93 274 253 274c39 0 65 -6 81 -13c4 -1 5 -3 5 -7l-2 -105c0 -4 -9 -9 -13 -9c-1 0 -2 1 -3 4
c-12 28 -23 59 -36 85c-2 6 -6 10 -10 14c-9 8 -20 12 -34 12c-57 0 -96 -73 -121 -256l177 -3c1 0 2 0 2 -1c0 -6 -4 -18 -6 -18z" />
    <glyph glyph-name="section" unicode="&#xa7;" horiz-adv-x="450" 
d="M389 605l9 -108c0 -2 -8 -8 -11 -8c-2 0 -3 1 -4 2c-15 29 -29 56 -46 84c-4 7 -8 12 -15 17c-10 4 -24 9 -48 9c-59 0 -124 -37 -124 -91c0 -60 58 -83 126 -109c90 -32 143 -73 143 -146c0 -62 -37 -103 -70 -126c23 -19 40 -52 40 -86c0 -100 -104 -161 -251 -161
c-35 0 -76 4 -91 9c-3 2 -6 4 -7 9l-12 112c0 3 9 9 12 9c1 0 3 0 4 -2c15 -28 30 -56 45 -82c5 -8 11 -14 18 -20c14 -9 39 -13 58 -13c75 0 133 33 133 85c0 63 -47 87 -135 118c-82 29 -129 69 -129 143c0 53 38 101 69 123c-20 17 -40 44 -40 82c0 86 106 169 241 169
c35 0 63 -4 79 -11c4 -1 6 -4 6 -8zM347 195v1c0 70 -61 101 -147 132c-30 9 -59 20 -80 32c-13 -13 -21 -36 -21 -57c0 -66 45 -89 140 -123c38 -12 67 -24 91 -40c12 16 17 41 17 55z" />
    <glyph glyph-name="currency" unicode="&#xa4;" horiz-adv-x="477" 
d="M436 314v-1c0 -71 -30 -131 -75 -169c20 -31 38 -59 47 -71c2 -4 -9 -11 -21 -11c-5 0 -7 1 -10 4c-8 9 -26 33 -45 57c-26 -16 -65 -29 -114 -29c-33 0 -69 7 -86 18c-18 -23 -38 -48 -46 -58c-2 -3 -6 -4 -11 -4c-11 0 -23 6 -20 10c7 11 28 43 47 73
c-36 28 -59 79 -59 137c0 66 28 127 64 163c-17 21 -35 45 -41 52c-5 10 18 38 23 38c1 0 3 -1 4 -3c11 -16 27 -40 43 -63c29 23 74 38 120 38c41 0 79 -10 101 -28c17 26 30 46 35 53c4 4 8 6 13 6c11 0 35 -9 31 -14c-12 -17 -32 -46 -49 -69c29 -29 49 -77 49 -129z
M236 117h1c65 0 94 85 94 187c0 92 -32 166 -85 166c-61 0 -99 -81 -99 -190c0 -89 36 -163 89 -163z" />
    <glyph glyph-name="quotesingle" unicode="'" horiz-adv-x="111" 
d="M59 487h-1c-4 0 -16 1 -16 6c-7 55 -18 151 -19 167c0 7 5 12 17 13c14 1 30 2 43 2c3 0 5 -2 5 -6c-1 -15 -17 -117 -27 -180c0 -1 -1 -2 -2 -2z" />
    <glyph glyph-name="quotedblleft" unicode="&#x201c;" horiz-adv-x="226" 
d="M14 481v1c0 43 37 147 78 191c1 1 2 2 3 2c2 0 9 -7 8 -10c-16 -52 -21 -123 -22 -155c0 -9 -4 -17 -21 -22c-15 -5 -38 -11 -43 -11c-2 0 -3 1 -3 4zM123 481v1c0 43 37 147 78 192c1 0 2 1 3 1c2 0 9 -7 8 -10c-16 -52 -21 -123 -22 -155c0 -9 -4 -17 -22 -22
c-15 -5 -37 -11 -42 -11c-2 0 -3 1 -3 4z" />
    <glyph glyph-name="guillemotleft" unicode="&#xab;" horiz-adv-x="277" 
d="M17 255v1c0 1 1 3 4 6c27 28 86 82 110 108c2 2 3 2 4 1c3 -3 8 -9 7 -11c-15 -31 -40 -80 -51 -102c12 -22 36 -66 50 -91c1 -1 -3 -7 -6 -10c-1 -1 -2 -1 -3 0c-26 19 -84 69 -112 93c-2 1 -3 3 -3 5zM133 255v1c0 1 1 3 3 6c28 28 86 82 111 108c1 2 2 2 3 1
c4 -3 8 -9 7 -11c-14 -31 -39 -80 -51 -102c12 -22 36 -66 50 -91c1 -1 -2 -7 -6 -10c-1 -1 -2 -1 -3 0c-26 19 -83 69 -112 93c-2 1 -2 3 -2 5z" />
    <glyph glyph-name="guilsinglleft" unicode="&#x2039;" horiz-adv-x="162" 
d="M17 255v1c0 1 1 3 4 6c27 28 86 82 110 108c2 2 3 2 4 1c3 -3 8 -9 7 -11c-15 -31 -40 -80 -51 -101c12 -23 36 -67 50 -92c1 -1 -3 -7 -6 -10c-1 -1 -2 -1 -3 0c-26 19 -84 69 -112 93c-2 1 -3 3 -3 5z" />
    <glyph glyph-name="guilsinglright" unicode="&#x203a;" horiz-adv-x="162" 
d="M145 271v-1c0 -1 -2 -3 -4 -6c-27 -28 -86 -82 -110 -107c-2 -1 -3 -1 -4 0c-3 3 -8 9 -7 11c15 30 40 78 51 100c-12 22 -35 65 -50 92c-1 1 3 8 6 11c1 1 2 1 3 0c24 -21 84 -71 112 -95c2 -1 3 -3 3 -5z" />
    <glyph glyph-name="fi" unicode="&#xfb01;" horiz-adv-x="654" 
d="M433 419l-199 -8c-2 -65 -4 -172 -4 -188c0 -32 -2 -164 -1 -189c0 -9 4 -11 11 -12l78 -11c3 0 5 -6 5 -11c0 -1 -1 -2 -3 -2c-60 1 -98 2 -153 2c-56 0 -102 -1 -130 -2c-2 0 -2 1 -2 2c0 3 2 12 4 12l55 9c6 1 9 5 9 13c0 38 -6 151 -8 199c-2 40 -5 159 -5 176
l-78 -2c-2 0 -4 1 -4 4c0 4 3 13 5 19c2 9 8 15 18 15h58c14 138 111 234 293 234c40 0 74 -6 91 -12c3 -1 6 -5 6 -9l7 -116c0 -4 -10 -9 -15 -9c-1 0 -1 1 -3 4c-18 32 -34 63 -52 94c-4 7 -10 13 -15 18c-8 6 -22 10 -38 10c-68 0 -126 -65 -129 -214l345 -3
c7 0 9 -2 9 -7c-1 -41 -6 -158 -7 -207c-1 -44 -4 -155 -4 -194c0 -9 3 -11 10 -13l50 -10c2 0 5 -8 5 -11c0 -1 0 -2 -2 -2c-24 1 -71 2 -125 2c-55 0 -102 -1 -122 -2c-3 0 -3 1 -3 2c0 4 2 10 5 11l47 11c7 2 11 4 11 13c0 22 -3 142 -4 191c-1 41 -4 154 -5 178
c-1 9 -2 15 -11 15z" />
    <glyph glyph-name="fl" unicode="&#xfb02;" horiz-adv-x="646" 
d="M89 411l-78 -4c-3 0 -4 1 -4 4c0 4 2 12 4 18c3 10 8 16 19 16h59c12 128 124 234 317 234c90 0 141 -10 169 -19c5 -2 8 -6 8 -13c0 -15 -7 -186 -9 -302c-2 -72 -5 -292 -5 -311c0 -9 3 -11 10 -13l52 -9c3 0 6 -7 6 -12c0 -1 0 -2 -3 -2c-26 1 -74 2 -132 2
c-55 0 -98 -1 -119 -2c-2 0 -3 1 -3 2c0 4 2 11 6 12l49 9c7 2 11 4 11 12c2 27 -4 346 -6 389l-207 -11c-3 -65 -5 -172 -5 -188c0 -32 0 -164 1 -189c0 -9 4 -11 11 -12l80 -11c3 0 6 -6 6 -11c0 -1 -1 -2 -3 -2c-60 1 -101 2 -156 2c-56 0 -101 -1 -130 -2
c-2 0 -2 1 -2 2c0 3 2 12 4 12l55 9c6 1 9 5 9 13c0 38 -7 151 -9 199c-2 40 -5 158 -5 178zM233 445l207 -2c-2 68 -4 158 -5 182c0 8 -1 13 -6 18c-9 10 -27 15 -48 15c-74 0 -144 -72 -148 -213z" />
    <glyph glyph-name="endash" unicode="&#x2013;" horiz-adv-x="438" 
d="M408 308l-1 -1c0 -12 -4 -29 -9 -29c-95 -3 -272 -11 -364 -13c-3 0 -4 2 -4 5c0 20 6 44 12 44c66 0 223 -4 363 -3c2 0 3 -1 3 -3z" />
    <glyph glyph-name="dagger" unicode="&#x2020;" horiz-adv-x="435" 
d="M169 378l-139 -5c-3 0 -4 1 -4 5c0 28 17 50 34 49c36 0 72 -1 107 -2c-2 71 -6 143 -7 164c0 24 52 35 95 35c4 0 5 -2 5 -6c0 -16 -6 -126 -9 -195l161 -6c2 0 3 -1 3 -3c0 -9 -4 -21 -10 -22l-154 -11c-7 -154 -16 -370 -22 -481c-1 -12 -18 -23 -36 -23
c-2 0 -3 1 -3 5c-5 114 -15 324 -21 496z" />
    <glyph glyph-name="daggerdbl" unicode="&#x2021;" horiz-adv-x="435" 
d="M180 126l-120 -4c-11 0 -22 19 -22 47c0 3 1 5 6 5l135 -4c-3 66 -7 144 -9 207l-140 -4c-3 0 -3 2 -3 5c0 30 11 51 30 50l112 -3c-3 69 -7 133 -7 161c-1 27 58 38 94 38c3 0 4 -2 4 -6c0 -16 -5 -125 -8 -194l159 -6c3 0 3 -2 3 -4c0 -9 -4 -21 -10 -21l-152 -13
c-3 -64 -7 -141 -10 -211l154 -5c2 0 2 -1 2 -4c0 -8 -3 -20 -9 -20l-148 -11c-4 -87 -9 -174 -12 -229c0 -12 -17 -23 -35 -23c-2 0 -3 1 -3 5c-3 59 -7 153 -11 244z" />
    <glyph glyph-name="periodcentered" unicode="&#xb7;" horiz-adv-x="185" 
d="M93 370h1c31 0 52 -26 52 -54c0 -27 -21 -52 -54 -52c-30 0 -53 21 -53 51c0 27 20 55 54 55z" />
    <glyph glyph-name="paragraph" unicode="&#xb6;" horiz-adv-x="537" 
d="M512 594h-49c-11 -54 -25 -506 -32 -700c0 -6 -19 -17 -23 -17c-2 0 -3 1 -3 4c-3 183 -16 645 -19 715l-20 1c-9 0 -11 -9 -11 -20c-2 -79 -18 -561 -22 -687c0 -4 -17 -13 -23 -13c-2 0 -3 1 -3 4c-3 163 -9 320 -9 339c-161 -12 -263 58 -263 171
c0 143 133 229 312 229c65 0 145 -6 170 -11c2 0 2 -1 2 -3c0 -7 -3 -12 -7 -12zM282 238h1c13 0 15 3 15 13s-12 313 -14 344c-79 -2 -129 -77 -129 -190c0 -114 67 -167 127 -167z" />
    <glyph glyph-name="bullet" unicode="&#x2022;" horiz-adv-x="258" 
d="M130 357h1c43 0 77 -37 77 -78c0 -43 -34 -80 -79 -80c-46 0 -79 34 -79 78c0 41 32 80 80 80z" />
    <glyph glyph-name="quotesinglbase" unicode="&#x201a;" horiz-adv-x="119" 
d="M104 77v-1c0 -43 -39 -147 -80 -192c-1 -1 -3 -1 -4 -1c-2 1 -8 7 -7 10c16 52 21 123 22 155c0 9 4 17 24 23c13 4 35 10 41 10c3 0 4 -1 4 -4z" />
    <glyph glyph-name="quotedblbase" unicode="&#x201e;" horiz-adv-x="226" 
d="M102 77v-1c0 -43 -37 -147 -78 -191c-1 -2 -2 -2 -3 -2c-2 0 -9 7 -8 10c16 52 21 123 22 155c0 9 4 17 24 23c13 4 35 10 40 10c2 0 3 -1 3 -4zM211 77v-1c0 -43 -37 -147 -78 -191c-1 -2 -3 -2 -4 -2s-9 7 -8 10c16 52 21 123 23 155c0 9 4 17 24 23c13 4 36 10 40 10
c1 0 3 -1 3 -4z" />
    <glyph glyph-name="quotedblright" unicode="&#x201d;" horiz-adv-x="226" 
d="M104 671v-1c0 -43 -37 -147 -78 -191c-1 -1 -2 -2 -3 -2c-2 0 -10 7 -9 11c17 51 22 122 23 154c0 9 4 18 24 23c13 4 35 10 40 10c2 0 3 -1 3 -4zM213 671v-1c0 -43 -37 -147 -78 -191c-1 -1 -2 -2 -3 -2c-2 0 -9 7 -8 11c16 51 21 122 22 154c0 9 4 17 24 23
c13 4 36 10 40 10c2 0 3 -1 3 -4z" />
    <glyph glyph-name="guillemotright" unicode="&#xbb;" horiz-adv-x="277" 
d="M145 271v-1c0 -1 -2 -3 -4 -6c-28 -28 -86 -81 -110 -107c-2 -1 -3 -1 -4 0c-3 3 -8 9 -7 11c15 30 40 78 51 100c-12 22 -35 65 -50 92c-1 1 3 8 6 11c1 1 2 1 3 0c24 -21 81 -71 112 -95c2 -2 3 -3 3 -5zM261 271v-1c0 -1 -2 -3 -4 -6c-28 -28 -86 -82 -110 -107
c-2 -1 -3 -1 -4 0c-4 3 -9 9 -8 11c16 30 41 78 51 100c-11 22 -35 65 -50 92c-1 1 3 8 7 11c1 1 2 1 3 0c23 -21 81 -71 112 -95c2 -2 3 -3 3 -5z" />
    <glyph glyph-name="ellipsis" unicode="&#x2026;" horiz-adv-x="875" 
d="M147 99h1c30 0 52 -26 52 -55c0 -26 -21 -51 -54 -51c-30 0 -54 21 -54 51c0 27 21 55 55 55zM438 99h1c31 0 52 -26 52 -55c0 -26 -21 -51 -54 -51c-30 0 -53 21 -53 51c0 27 20 55 54 55zM730 99h1c30 0 52 -26 52 -55c0 -26 -21 -51 -54 -51c-30 0 -54 21 -54 51
c0 27 21 55 55 55z" />
    <glyph glyph-name="perthousand" unicode="&#x2030;" horiz-adv-x="1106" 
d="M26 443v1c0 98 77 154 177 154c22 0 54 -4 68 -9c28 -2 223 -8 278 11c3 1 9 -19 9 -29c0 -4 -1 -8 -2 -10c-106 -183 -205 -367 -323 -564c-1 -2 -2 -3 -5 -3c-23 0 -30 1 -28 6c89 175 198 394 278 560c-35 -1 -133 4 -174 10c27 -20 53 -55 53 -101
c0 -93 -80 -154 -180 -154c-85 0 -151 44 -151 128zM185 332h1c44 0 84 46 84 133c0 67 -29 116 -71 116c-50 0 -88 -44 -88 -133c0 -69 31 -116 74 -116zM535 -8h-1c-84 0 -150 45 -150 127c0 95 77 156 178 156c93 0 153 -55 153 -132c0 -96 -80 -151 -180 -151zM543 9h1
c45 0 84 44 84 131c0 66 -27 118 -70 118c-51 0 -89 -45 -89 -134c0 -69 32 -115 74 -115zM901 -8h-1c-84 0 -151 45 -151 127c0 95 78 156 178 156c93 0 154 -55 154 -132c0 -96 -80 -151 -180 -151zM909 9h1c45 0 84 44 84 131c0 66 -27 118 -71 118
c-50 0 -88 -45 -88 -134c0 -69 31 -115 74 -115z" />
    <glyph glyph-name="questiondown" unicode="&#xbf;" horiz-adv-x="404" 
d="M47 -17v1c0 99 83 172 200 215c9 3 11 11 11 20c1 24 -3 57 -7 83c-1 4 8 11 10 11c1 0 2 -1 3 -2c12 -18 37 -67 42 -93c3 -13 0 -22 -9 -29c-80 -61 -113 -119 -113 -192c0 -61 40 -112 106 -112c43 0 82 22 109 57c1 1 2 2 3 2c3 0 10 -10 8 -14
c-23 -45 -94 -99 -184 -99c-130 0 -179 78 -179 152zM253 362h-1c-30 0 -51 25 -51 52c0 25 21 49 53 49c28 0 51 -20 51 -49c0 -26 -20 -52 -52 -52z" />
    <glyph glyph-name="grave" unicode="`" horiz-adv-x="171" 
d="M70 634h1c9 0 15 -5 19 -13c7 -16 26 -59 50 -102c2 -3 -7 -11 -10 -11c-1 0 -2 1 -4 2c-34 33 -85 92 -97 112c-2 3 -1 6 2 7c10 2 33 5 39 5z" />
    <glyph glyph-name="acute" unicode="&#xb4;" horiz-adv-x="171" 
d="M41 508h-1c-1 0 -12 6 -9 13c24 42 43 84 50 100c3 8 10 12 19 12c8 1 31 -3 40 -4c3 -1 4 -3 2 -7c-12 -21 -68 -83 -98 -113c-1 -1 -2 -1 -3 -1z" />
    <glyph glyph-name="circumflex" unicode="&#x2c6;" horiz-adv-x="209" 
d="M103 640h1c3 0 5 -3 7 -6c15 -24 41 -67 67 -112c2 -4 -3 -8 -5 -11c-1 -1 -3 -1 -5 0c-25 26 -41 42 -65 65c-22 -22 -36 -38 -62 -64c-2 -1 -3 -2 -5 0c-3 2 -8 6 -6 10c25 44 54 94 65 111c3 4 4 7 8 7z" />
    <glyph glyph-name="tilde" unicode="&#x2dc;" horiz-adv-x="227" 
d="M151 525h-1c-13 0 -29 10 -39 17c-12 8 -24 13 -36 13c-14 0 -25 -10 -30 -31c-1 -3 -8 -5 -14 -5c-1 0 -1 1 -1 2c0 36 19 78 49 78c18 0 31 -9 43 -18c11 -8 22 -16 36 -16c15 0 23 17 25 33c0 5 8 7 12 7c2 0 2 -1 2 -2c0 -31 -12 -78 -46 -78z" />
    <glyph glyph-name="macron" unicode="&#xaf;" horiz-adv-x="224" 
d="M194 567v-1c0 -6 -4 -19 -7 -19c-38 -4 -119 -10 -155 -12c-2 0 -2 1 -2 2c0 12 3 41 9 41c52 -2 111 -6 153 -8c2 0 2 -1 2 -3z" />
    <glyph glyph-name="breve" unicode="&#x2d8;" horiz-adv-x="211" 
d="M33 605h1c8 0 10 -1 12 -6c11 -19 30 -36 62 -36c29 0 50 21 57 37c1 5 6 5 12 5c3 0 4 -1 3 -6c-3 -25 -26 -80 -75 -80c-47 0 -70 45 -75 79c-1 6 0 7 3 7z" />
    <glyph glyph-name="dotaccent" unicode="&#x2d9;" horiz-adv-x="131" 
d="M68 594h1c19 0 34 -16 34 -35c0 -20 -15 -38 -37 -38s-38 16 -38 36c0 19 16 37 40 37z" />
    <glyph glyph-name="dieresis" unicode="&#xa8;" horiz-adv-x="270" 
d="M66 593h1c19 0 33 -15 33 -34s-14 -36 -35 -36c-22 0 -36 15 -36 34c0 18 14 36 37 36zM207 593h1c19 0 33 -14 33 -34c0 -19 -13 -36 -35 -36c-20 0 -35 15 -35 34c0 18 13 36 36 36z" />
    <glyph glyph-name="ring" unicode="&#x2da;" horiz-adv-x="178" 
d="M91 618h1c38 0 63 -20 63 -50c0 -32 -26 -54 -65 -54c-38 0 -67 17 -67 51c0 29 26 53 68 53zM91 601h-1c-19 0 -33 -17 -33 -35c0 -22 15 -34 33 -34s31 15 31 36c0 20 -13 33 -30 33z" />
    <glyph glyph-name="cedilla" unicode="&#xb8;" horiz-adv-x="159" 
d="M129 0l-42 -48c-2 -2 -1 -3 2 -3c21 -1 35 -15 35 -36c0 -36 -41 -61 -82 -65c-5 -1 -11 3 -12 8c-1 2 0 4 1 4c31 9 48 25 48 45c0 15 -12 25 -30 24c-2 0 -5 4 -3 7l57 64h26z" />
    <glyph glyph-name="hungarumlaut" unicode="&#x2dd;" horiz-adv-x="252" 
d="M40 509h-1c-2 0 -11 6 -8 13c18 39 33 79 39 96c3 7 9 10 22 11c10 1 25 1 29 1s5 -3 2 -9c-11 -20 -50 -75 -80 -110c0 -1 -1 -2 -3 -2zM120 508h-1c-2 0 -10 9 -5 17c24 37 46 78 53 93c4 7 9 12 20 12c10 0 25 -3 33 -5c3 -1 4 -3 2 -7c-12 -20 -61 -75 -99 -107
c-2 -2 -2 -3 -3 -3z" />
    <glyph glyph-name="ogonek" unicode="&#x2db;" horiz-adv-x="149" 
d="M98 0h21c-29 -26 -49 -64 -49 -95c0 -25 18 -32 42 -24c2 0 2 0 2 -2c0 -5 -1 -11 -4 -14c-5 -3 -19 -8 -33 -8c-28 0 -50 13 -50 42c0 42 43 83 71 101z" />
    <glyph glyph-name="caron" unicode="&#x2c7;" horiz-adv-x="209" 
d="M105 510h-1c-3 0 -5 3 -7 6c-15 24 -41 67 -67 112c-2 4 3 9 6 11c2 1 3 1 4 -1c27 -25 39 -39 66 -64c24 25 35 37 62 64c2 1 4 1 5 0c2 -3 7 -6 5 -10c-25 -44 -54 -93 -65 -111c-2 -4 -4 -7 -8 -7z" />
    <glyph glyph-name="emdash" unicode="&#x2014;" horiz-adv-x="875" 
d="M845 308v-1c0 -14 -5 -29 -9 -29c-430 -2 -714 -13 -802 -13c-3 0 -4 1 -4 9c0 17 6 40 12 40c63 0 388 -3 800 -3c2 0 3 -1 3 -3z" />
    <glyph glyph-name="AE" unicode="&#xc6;" horiz-adv-x="807" 
d="M753 613l7 -131c0 -3 -9 -8 -12 -8c-1 0 -2 0 -3 2c-14 31 -28 62 -43 93c-5 9 -14 12 -25 14c-43 9 -127 16 -142 16c-9 -1 -11 -4 -11 -11c-4 -61 -8 -221 -8 -284c70 -2 176 -6 200 -6c2 0 2 -1 2 -3c0 -5 -4 -16 -7 -16c-39 -4 -131 -8 -183 -12
c-9 -1 -12 -3 -13 -11c-1 -33 -4 -194 -4 -222c0 -10 4 -13 11 -13c43 0 128 4 175 17c10 3 18 8 22 15c20 27 37 55 55 83c1 2 2 2 3 2c3 0 11 -8 10 -12l-26 -126c-1 -3 -3 -5 -7 -5c-7 0 -29 1 -77 3c-48 1 -122 2 -236 2c-39 0 -89 -1 -122 -2c-3 0 -3 1 -3 2
c0 4 2 11 5 12l46 10c7 2 12 5 12 16c0 24 -2 151 -4 228c-42 0 -137 -2 -164 -5c-3 0 -7 -3 -9 -7c-23 -49 -74 -157 -96 -214c-5 -11 1 -15 8 -17l52 -10c4 0 6 -7 6 -12c0 -2 0 -3 -3 -3c-24 1 -72 2 -113 2c-34 0 -67 -1 -87 -2c-2 0 -2 1 -2 2c0 4 2 13 5 14l26 8
c8 2 15 6 21 15c69 102 251 430 335 570c4 6 8 9 13 9h78c110 0 183 1 229 2c47 0 67 1 73 1c4 0 6 -2 6 -6zM366 568h-6c-9 -16 -17 -33 -21 -40c-32 -65 -78 -154 -110 -221c-2 -4 -2 -9 3 -10c24 -3 99 -7 142 -8c0 33 -5 179 -5 212c0 9 -1 34 -3 67z" />
    <glyph glyph-name="ordfeminine" unicode="&#xaa;" horiz-adv-x="357" 
d="M225 376l-2 1c-2 -4 -5 -10 -8 -15c-20 -27 -56 -46 -100 -46c-51 0 -89 28 -89 81c0 54 38 110 122 110c22 0 41 -8 53 -15c4 -2 9 -6 13 -10l3 1c-1 10 -3 26 -6 35c-8 27 -24 48 -54 48c-28 0 -58 -12 -91 -39c-1 -1 -2 -2 -3 -2c-3 0 -10 10 -6 15
c36 35 82 59 149 59c87 0 100 -68 100 -129c0 -11 0 -45 -2 -66c-1 -26 -3 -48 -3 -58c0 -4 2 -6 7 -7l27 -7c3 0 4 -5 4 -10c0 -1 0 -2 -2 -2c-9 1 -35 1 -60 1c-22 0 -35 -1 -47 -1c-2 0 -4 1 -4 3c0 6 -1 23 -1 36v17zM161 350h1c23 0 46 22 57 53c3 6 5 14 5 21
s-2 15 -6 23c-9 20 -28 38 -52 38c-34 0 -49 -35 -49 -73c0 -41 18 -62 44 -62z" />
    <glyph glyph-name="Lslash" unicode="&#x141;" horiz-adv-x="562" 
d="M122 247l-84 -44c-3 -2 -5 -1 -5 5c0 28 2 36 14 42l74 37c-1 39 -3 258 -6 289c-1 11 -3 14 -11 16l-39 9c-4 1 -5 6 -5 12c0 2 0 3 2 3h279c3 0 3 -1 3 -2c0 -7 -3 -14 -5 -14l-55 -8c-8 -2 -10 -5 -11 -16c-4 -44 -7 -171 -9 -235l135 67c2 1 4 1 4 -2
c0 -12 -1 -21 -6 -24l-134 -77c-1 -60 -4 -250 -4 -275c0 -9 5 -11 13 -11c27 0 139 7 182 19c11 4 23 10 29 21l56 89c2 2 3 3 5 2c4 -1 11 -8 10 -11l-26 -135c-2 -6 -4 -9 -12 -9c-5 0 -39 1 -95 3c-57 1 -137 2 -234 2c-40 0 -76 -1 -122 -2c-3 0 -3 1 -3 3
c0 5 2 12 5 12l45 9c7 1 12 4 12 15c0 24 -1 142 -2 210z" />
    <glyph glyph-name="Oslash" unicode="&#xd8;" horiz-adv-x="671" 
d="M358 624h1c63 0 116 -17 157 -42c16 24 32 48 47 71c1 2 3 4 5 4c5 0 29 -32 22 -43c-13 -20 -27 -40 -41 -61c57 -54 82 -133 82 -217c0 -216 -114 -344 -306 -344c-55 0 -105 9 -147 30c-19 -23 -39 -47 -58 -71c-3 -3 -10 -5 -22 -5c-4 0 -5 3 -3 7c20 27 39 56 58 83
c-72 51 -111 134 -111 245c0 196 115 343 316 343zM338 606h-1c-83 0 -140 -119 -140 -314c0 -49 8 -107 24 -164c76 117 154 238 229 356c-18 70 -55 122 -112 122zM474 319v1c0 32 -4 71 -11 112c-75 -111 -151 -224 -227 -337c25 -55 63 -83 105 -83
c88 0 133 107 133 307z" />
    <glyph glyph-name="OE" unicode="&#x152;" horiz-adv-x="898" 
d="M843 612l7 -130c0 -3 -9 -8 -12 -8c-1 0 -2 0 -3 2c-14 31 -28 62 -43 93c-5 9 -14 12 -25 14c-44 9 -132 16 -148 16c-9 -1 -10 -4 -10 -11c-4 -61 -8 -220 -8 -253c70 -3 180 -6 205 -6c2 0 2 -1 2 -2c0 -6 -4 -17 -7 -17c-39 -4 -136 -9 -188 -14
c-9 -1 -12 -3 -13 -11c-1 -33 -4 -223 -4 -251c0 -10 4 -13 11 -13c43 0 132 4 180 17c10 3 17 8 22 15c20 27 37 55 55 83c1 2 2 2 3 2c3 0 11 -8 10 -12l-26 -126c-1 -3 -3 -5 -7 -5c-7 0 -34 1 -84 3c-50 1 -124 2 -228 2c-14 0 -37 -2 -49 -2c-4 0 -7 2 -7 7v40v19h-4
c-4 -6 -10 -13 -16 -20c-26 -29 -77 -52 -136 -52c-171 0 -278 100 -278 292c0 181 89 340 294 340c49 0 89 -18 121 -48c6 -6 9 -10 13 -16h4v22c-1 7 -1 23 -1 28s2 6 6 6h52c110 0 184 1 231 2c48 0 69 1 75 1c4 0 6 -3 6 -7zM336 12h1c71 0 120 86 120 307
c0 142 -31 286 -124 286c-78 0 -134 -112 -134 -313c0 -148 54 -280 137 -280z" />
    <glyph glyph-name="ordmasculine" unicode="&#xba;" 
d="M168 316h-1c-91 0 -141 52 -141 129c0 80 53 154 173 154c101 0 143 -60 143 -131c0 -80 -57 -152 -174 -152zM186 334h1c46 0 58 51 58 126c0 66 -16 121 -60 121c-43 0 -62 -51 -62 -126c0 -68 21 -121 63 -121z" />
    <glyph glyph-name="ae" unicode="&#xe6;" horiz-adv-x="779" 
d="M411 392h3c4 6 9 12 14 17c31 34 79 54 129 54c136 0 189 -115 189 -199c0 -14 -7 -25 -21 -29c-31 -11 -216 -12 -263 -8c0 -23 2 -47 6 -68c16 -75 74 -122 132 -122c23 0 49 3 65 7c21 5 50 15 70 25c2 1 5 -4 5 -11c0 -3 -2 -6 -4 -7c-22 -13 -69 -37 -111 -49
c-19 -6 -51 -10 -81 -10c-82 0 -145 28 -181 86c-6 9 -11 18 -15 29h-5c-5 -8 -10 -17 -16 -24c-30 -43 -80 -91 -164 -91c-69 0 -134 44 -134 134s59 183 186 183c41 0 71 -14 88 -26c6 -4 13 -11 19 -16l4 1c-1 21 -4 44 -9 61c-12 46 -38 83 -88 83
c-49 0 -92 -20 -143 -65c-2 -1 -3 -2 -4 -2c-4 0 -10 13 -6 17c54 59 128 101 221 101c55 0 86 -22 103 -50c5 -7 8 -14 11 -21zM541 444h-1c-39 0 -79 -60 -77 -199c56 -4 113 2 127 6c10 4 15 12 15 31c0 53 -11 162 -64 162zM169 151v-1c0 -69 27 -107 66 -107
c37 0 78 40 95 94c4 11 7 23 7 35c0 11 -3 25 -9 38c-15 35 -44 74 -86 74c-51 0 -73 -65 -73 -133z" />
    <glyph glyph-name="dotlessi" unicode="&#x131;" horiz-adv-x="286" 
d="M15 430l197 33c6 1 9 -3 9 -8c-2 -40 -7 -178 -8 -227c-1 -45 -3 -156 -3 -194c0 -9 2 -11 9 -13l50 -10c2 0 5 -7 5 -10c0 -2 0 -3 -2 -3c-24 1 -71 2 -125 2c-55 0 -102 -1 -122 -2c-3 0 -3 1 -3 2c0 4 2 10 5 11l47 11c7 2 11 4 11 13c0 22 -3 142 -4 191
c-1 41 -4 147 -5 172c-1 8 -2 15 -11 15l-45 2c-3 0 -7 7 -7 13c0 1 0 2 2 2z" />
    <glyph glyph-name="lslash" unicode="&#x142;" horiz-adv-x="323" 
d="M228 361l93 46c2 1 4 1 4 -1c0 -10 0 -20 -6 -24l-92 -55c-1 -64 -5 -274 -5 -293c0 -9 3 -11 10 -13l52 -9c3 -1 6 -7 6 -11c0 -2 0 -3 -2 -3c-26 1 -74 2 -132 2c-55 0 -98 -1 -120 -2c-2 0 -2 1 -2 3c0 3 2 10 5 11l49 9c7 2 11 4 12 12c1 20 -2 165 -3 238l-71 -38
c-3 -1 -5 0 -5 5c0 31 3 37 16 44l60 30c-1 47 -4 259 -7 312c0 9 -2 14 -11 14l-59 3c-4 0 -9 7 -9 12c0 2 0 4 4 4l213 22c6 1 9 -1 9 -7c0 -13 -6 -188 -9 -311z" />
    <glyph glyph-name="oslash" unicode="&#xf8;" horiz-adv-x="564" 
d="M306 463h1c41 0 79 -8 112 -24c15 23 29 45 44 67c2 2 4 3 7 1c11 -9 22 -27 16 -36c-12 -16 -25 -32 -37 -49c55 -40 80 -107 80 -178c0 -132 -88 -252 -272 -252c-40 0 -77 8 -107 20c-17 -21 -34 -43 -53 -64c-3 -5 -13 -6 -22 -6c-4 0 -6 2 -3 6c19 25 39 51 57 75
c-59 37 -92 102 -92 183c0 134 84 257 269 257zM283 444h-1c-65 0 -102 -89 -102 -221c0 -38 5 -83 13 -122c58 90 116 180 173 269c-14 44 -42 74 -83 74zM385 230v1c0 31 -3 65 -7 99c-58 -83 -116 -168 -175 -254c17 -40 48 -65 83 -65c72 0 99 93 99 219z" />
    <glyph glyph-name="oe" unicode="&#x153;" horiz-adv-x="832" 
d="M456 386h4c4 7 8 13 14 19c33 36 82 58 137 58c135 0 189 -115 189 -199c0 -13 -9 -24 -21 -29c-28 -11 -217 -12 -265 -8c0 -23 2 -49 6 -68c15 -75 74 -123 132 -123c24 0 50 4 66 8c20 5 51 15 71 26c2 1 5 -4 5 -12c0 -3 -1 -5 -4 -6c-22 -14 -69 -37 -112 -50
c-19 -6 -47 -10 -75 -10c-70 0 -108 19 -145 53c-5 4 -11 11 -17 20h-2c-6 -7 -11 -14 -16 -18c-39 -35 -89 -55 -159 -55c-148 0 -227 80 -227 214s83 257 262 257c62 0 110 -22 142 -56c5 -6 11 -13 15 -21zM284 11h1c70 0 92 92 92 220c0 114 -27 213 -93 213
s-98 -88 -98 -221c0 -115 35 -212 98 -212zM594 444h-1c-40 0 -80 -60 -78 -199c56 -4 113 1 128 6c10 4 15 13 15 29c0 51 -10 164 -64 164z" />
    <glyph glyph-name="germandbls" unicode="&#xdf;" horiz-adv-x="652" 
d="M90 409l-66 2c-4 0 -5 1 -5 3c0 19 8 25 16 26l55 3c3 121 91 236 272 236c119 0 163 -55 163 -110c0 -70 -73 -104 -113 -132c-20 -14 -30 -31 -30 -50c0 -45 41 -60 106 -86c93 -33 131 -76 131 -142c0 -99 -111 -167 -229 -167c-23 0 -49 1 -68 6c-4 2 -6 4 -7 10
l-7 84c0 4 9 9 13 9c1 0 1 0 2 -2c11 -18 22 -37 33 -55c6 -9 9 -14 18 -21c9 -6 26 -10 42 -10c43 0 90 30 90 78c0 40 -21 69 -95 104c-69 30 -106 67 -106 131c0 54 43 89 65 119c24 33 38 76 38 119c0 42 -22 95 -68 95c-69 0 -104 -77 -108 -215
c-2 -66 -3 -205 -3 -221c0 -32 -3 -164 -2 -189c1 -9 4 -11 11 -13l33 -10c3 -1 6 -6 6 -11c0 -1 -1 -2 -3 -2c-45 1 -79 2 -108 2c-57 0 -103 -1 -132 -2c-2 0 -2 1 -2 3s2 11 5 11l55 9c7 1 10 5 10 13c0 38 -6 152 -8 199c-2 40 -4 159 -4 176z" />
    <glyph glyph-name="onesuperior" unicode="&#xb9;" horiz-adv-x="245" 
d="M22 543l143 54c5 2 8 -1 8 -5c0 -7 -5 -159 -5 -192c-1 -52 -3 -127 -3 -135c0 -4 4 -6 9 -7l37 -5c2 0 4 -6 4 -11c0 -2 0 -3 -2 -3c-20 1 -51 1 -88 1c-38 0 -73 0 -88 -1c-2 0 -2 1 -2 3c0 5 2 11 5 11l38 5c4 1 8 4 8 10c0 14 -2 109 -2 128c-1 30 -3 110 -4 134
c-1 5 -4 7 -8 7l-44 -8c-2 0 -5 5 -7 10c-1 2 -1 3 1 4z" />
    <glyph glyph-name="logicalnot" unicode="&#xac;" 
d="M41 318v1c0 3 1 4 4 4c34 -2 224 -8 277 -10c2 0 2 -3 3 -3c-4 -65 -9 -120 -11 -157c0 -2 -1 -4 -4 -4c-4 0 -18 5 -18 9c-3 35 -10 87 -13 116c-51 -1 -205 -8 -218 -8c-16 0 -20 29 -20 52z" />
    <glyph glyph-name="mu" unicode="&#xb5;" horiz-adv-x="588" 
d="M18 435l177 27c6 1 8 -2 8 -9c-1 -32 -6 -148 -6 -196c0 -137 19 -196 68 -196c45 0 80 54 101 134c11 42 23 122 25 182c0 14 1 27 2 38c1 25 21 42 71 44l43 1c10 0 12 -4 12 -14c0 -41 -2 -182 -2 -222c0 -62 3 -159 4 -185c1 -9 3 -14 12 -16l37 -10c4 -1 6 -8 6 -11
c0 -2 0 -3 -3 -3c-24 1 -57 1 -95 1c-35 0 -66 0 -86 -1c-4 0 -6 2 -6 10c0 11 -1 95 -1 134c0 7 1 18 1 30h-5c-3 -10 -6 -20 -9 -28c-26 -78 -77 -147 -143 -147c-23 0 -44 8 -61 24c-4 -54 -12 -140 -16 -185c-2 -20 -39 -28 -86 -28c-2 0 -4 2 -4 5c-1 114 1 269 2 343
c1 94 6 198 11 245c1 12 -2 17 -11 17h-42c-4 0 -8 8 -8 13c0 2 1 3 4 3z" />
    <glyph glyph-name="trademark" unicode="&#x2122;" horiz-adv-x="328" 
d="M73 616h1c33 0 51 1 59 1c3 0 2 -1 2 -2l1 -34c0 -1 -4 -3 -7 -3c-1 0 -1 1 -1 2l-9 19l-4 4c-7 2 -20 3 -25 3c0 -10 -1 -43 -1 -55v-56c0 -1 0 -3 1 -3l11 -1c1 0 2 -6 2 -7s0 -2 -1 -2h-59c-2 0 -2 1 -2 2c0 2 1 7 3 7l10 1c2 1 1 2 1 3v57c0 9 -2 46 -2 54
c-4 0 -15 -1 -22 -2c-3 -1 -4 -1 -5 -3l-9 -21c-2 -1 -1 -2 -2 -2c-2 0 -8 2 -8 3c1 11 2 23 2 34c0 2 1 2 3 2c8 0 23 -1 61 -1zM329 482h-55c-1 0 -1 1 -1 2c0 2 1 7 2 7l9 2c3 1 2 2 2 3c-1 12 -4 56 -5 76c0 3 0 9 -1 11h-1c-1 -3 -1 -6 -2 -9c-12 -29 -27 -67 -36 -86
c-2 -3 -4 -4 -8 -4h-11c-2 0 -1 -1 -2 1c-11 19 -30 63 -39 85l-3 9h-1v-8c-1 -21 -4 -66 -5 -75c0 -2 0 -4 2 -4l13 -1c1 0 1 -6 1 -7s1 -2 -1 -2h-42c-2 0 -2 1 -2 2c0 2 1 7 2 7l11 1c2 1 2 1 2 3c0 9 2 45 2 54c0 7 1 49 1 53c0 2 -1 3 -3 4l-8 1c-2 1 -3 5 -3 8
c0 1 1 1 3 1h49c2 0 2 -1 2 -3c9 -23 28 -72 35 -91l3 -9h1l3 9c6 21 24 72 31 92c1 2 2 2 5 2h46c2 0 2 0 2 -1c0 -3 -1 -8 -2 -8l-8 -1c-2 -1 -2 -2 -2 -4v-52c0 -9 0 -45 1 -53c0 -2 1 -4 2 -4l10 -2c1 -1 1 -5 1 -7v-2z" />
    <glyph glyph-name="Eth" unicode="&#xd0;" horiz-adv-x="678" 
d="M108 286l-77 -2c-3 0 -4 2 -4 4c0 5 3 15 6 23s8 11 20 11h54c0 53 -2 222 -3 250c0 11 -3 15 -11 16l-46 4c-3 0 -5 7 -5 12c0 2 0 4 2 4c46 6 161 14 248 14c219 0 346 -93 346 -282c0 -216 -155 -342 -362 -342c-30 0 -95 2 -118 2c-38 0 -79 -1 -106 -2
c-3 0 -3 1 -3 3c0 5 2 12 5 12l45 9c7 1 11 4 12 15c1 35 -2 187 -3 249zM252 321l128 -1c2 0 3 -1 3 -3c0 -6 -4 -18 -9 -19l-123 -8c-3 -122 -5 -242 -4 -256c1 -11 13 -18 35 -18c86 0 200 71 200 321c0 159 -71 266 -196 266c-20 0 -24 -5 -25 -17
c-3 -32 -7 -150 -9 -265z" />
    <glyph glyph-name="onehalf" unicode="&#xbd;" horiz-adv-x="666" 
d="M484 600h1c4 0 4 -4 2 -8c-106 -191 -210 -398 -328 -595c-1 -2 -3 -3 -6 -3c-19 0 -26 2 -24 6c92 174 201 415 283 583c8 15 25 17 72 17zM21 543l144 54c4 2 7 -1 7 -5c0 -7 -4 -157 -5 -190c-1 -53 -2 -130 -2 -136c0 -5 4 -6 9 -7l36 -6c2 0 5 -6 5 -11
c0 -2 -1 -3 -2 -3c-20 1 -51 1 -89 1c-37 0 -72 0 -87 -1c-2 0 -2 1 -2 3c0 6 2 11 4 11l38 6c5 0 8 3 8 7c0 16 -1 111 -2 130c0 30 -2 110 -4 134c0 5 -3 7 -8 7l-43 -8c-3 0 -6 5 -8 10c0 2 0 3 1 4zM442 21l1 -2c7 0 17 1 23 1c15 1 77 3 111 10c6 2 11 6 15 13l27 39
c1 2 3 2 4 2c3 0 9 -5 9 -7l-12 -71c-1 -5 -2 -8 -7 -8c-20 0 -58 2 -132 2c-44 0 -81 -1 -93 -1c-7 0 -13 2 -17 13l-3 8c-1 3 0 5 2 6c74 60 154 133 154 221c0 52 -28 77 -65 77c-28 0 -53 -16 -70 -35c-1 -2 -2 -2 -3 -2c-4 0 -9 12 -6 16c19 28 65 56 123 56
c69 0 118 -40 118 -107c0 -97 -93 -177 -154 -217c-5 -3 -14 -8 -25 -14z" />
    <glyph glyph-name="plusminus" unicode="&#xb1;" 
d="M33 313v1c0 4 1 6 4 6c34 -2 76 -6 117 -7c-3 51 -8 111 -10 143c0 2 1 5 6 5c30 0 62 -4 62 -10c-2 -40 -6 -95 -8 -140c41 -3 98 -5 126 -7c2 0 3 -1 3 -4c0 -8 -3 -21 -6 -21c-27 -3 -77 -8 -124 -11c-5 -56 -8 -99 -11 -137c0 -2 -1 -4 -5 -4c-11 0 -20 6 -20 10
c-4 35 -6 71 -12 129c-43 -2 -89 -6 -107 -6c-11 0 -15 34 -15 53zM325 77v-1c0 -5 -2 -22 -6 -22c-49 -4 -251 -16 -264 -16c-16 -1 -20 32 -20 50c0 3 1 5 4 5c34 -2 231 -11 283 -13c3 0 3 -1 3 -3z" />
    <glyph glyph-name="Thorn" unicode="&#xde;" horiz-adv-x="558" 
d="M29 616h259c2 0 3 -1 3 -3c0 -4 -2 -14 -5 -14l-45 -8c-7 -2 -10 -5 -10 -11c-1 -19 -2 -58 -2 -76c14 2 33 4 52 4c176 0 246 -68 246 -170c0 -95 -94 -200 -263 -200c-14 0 -35 0 -42 3c-1 -37 -1 -73 -1 -104c0 -9 5 -11 12 -12l64 -12c3 0 7 -7 7 -12
c0 -2 -1 -3 -3 -3c-40 1 -88 2 -139 2c-56 0 -96 -1 -122 -2c-2 0 -3 1 -3 3c0 5 2 11 6 12l39 9c7 2 11 5 11 16c1 34 -3 231 -4 279c-1 39 -4 213 -6 252c0 14 -4 20 -10 21l-42 9c-4 1 -5 9 -5 14c0 2 0 3 3 3zM254 157h1c70 0 122 69 122 174c0 85 -46 158 -114 158
c-19 0 -34 -7 -34 -21c-4 -93 -6 -272 -6 -295c0 -10 14 -16 31 -16z" />
    <glyph glyph-name="onequarter" unicode="&#xbc;" horiz-adv-x="665" 
d="M511 355h1c16 0 40 -2 61 -5c5 0 6 -2 6 -5c0 -34 -6 -200 -6 -231c21 -2 51 -4 64 -4c2 0 2 -1 2 -2c0 -9 -2 -14 -5 -14c-15 -1 -50 -2 -61 -3c-2 -26 -3 -46 -3 -66c0 -4 2 -7 7 -8l25 -4c3 -1 4 -7 4 -11c0 -2 0 -3 -2 -3c-27 1 -47 1 -70 1c-37 0 -65 0 -80 -1
c-2 0 -2 1 -2 2c0 5 3 12 4 12l33 5c4 0 7 3 7 7c0 15 0 45 -1 64h-163c-8 0 -14 5 -20 15c-2 5 -5 11 -5 15c0 2 1 3 2 5c55 69 120 152 171 219c8 10 16 12 31 12zM375 133l1 -3c8 -1 16 -2 22 -3c33 -4 73 -8 97 -9c-1 15 -2 147 -2 157s1 33 2 53h-3
c-6 -12 -10 -22 -15 -29c-35 -60 -64 -107 -85 -139c-5 -9 -12 -19 -17 -27zM486 600h1c3 0 4 -3 2 -7c-108 -192 -211 -399 -329 -596c-1 -2 -3 -3 -6 -3c-20 0 -26 1 -24 5c92 175 201 416 283 584c8 15 25 17 73 17zM21 543l144 54c4 2 8 -1 8 -5c0 -7 -5 -147 -6 -180
c-1 -62 -2 -141 -2 -146s4 -6 9 -7l36 -6c2 0 5 -6 5 -11c0 -2 -1 -3 -2 -3c-20 1 -51 1 -89 1c-37 0 -72 0 -87 -1c-2 0 -2 1 -2 3c0 5 2 11 4 11l38 6c5 1 8 2 8 7c0 16 -1 111 -2 130c0 30 -2 110 -4 134c0 5 -3 7 -8 7l-43 -8c-3 0 -6 5 -8 10c0 2 0 3 1 4z" />
    <glyph glyph-name="divide" unicode="&#xf7;" 
d="M182 446h1c23 0 38 -18 38 -39s-15 -38 -40 -38c-22 0 -39 14 -39 38c0 19 15 39 40 39zM328 298v-1c0 -5 -3 -22 -6 -22c-50 -5 -252 -17 -265 -17c-15 -1 -20 34 -20 52c0 3 2 4 4 4c34 -1 231 -11 284 -13c2 0 3 -1 3 -3zM183 204h1c22 0 37 -18 37 -39
c0 -20 -15 -38 -40 -38c-21 0 -38 14 -38 38c0 19 14 39 40 39z" />
    <glyph glyph-name="brokenbar" unicode="&#xa6;" horiz-adv-x="230" 
d="M87 675h56v-350h-56v350zM87 175h56v-350h-56v350z" />
    <glyph glyph-name="degree" unicode="&#xb0;" horiz-adv-x="217" 
d="M110 635h1c51 0 82 -28 82 -69c0 -44 -32 -77 -85 -77c-48 0 -83 25 -83 72c0 41 31 74 85 74zM150 562v1c0 27 -14 51 -41 51c-25 0 -41 -26 -41 -52c0 -30 16 -52 42 -52c24 0 40 24 40 52z" />
    <glyph glyph-name="thorn" unicode="&#xfe;" horiz-adv-x="580" 
d="M204 34l-3 -1c0 -22 -1 -44 -1 -60c-1 -50 -2 -112 -2 -122c0 -9 3 -11 10 -12l67 -11c3 -1 5 -7 5 -11c0 -2 0 -3 -2 -3c-43 2 -88 2 -140 2c-49 0 -81 -1 -116 -2c-2 0 -3 1 -3 3c0 4 2 11 6 11l41 9c6 1 9 4 9 13c2 32 -1 233 -2 295c-1 58 -3 357 -5 387
c-1 9 -2 14 -10 14l-52 1c-4 1 -8 8 -8 14c0 2 0 2 3 3l203 31c6 1 8 -2 8 -7c0 -19 -4 -239 -6 -279c0 -10 -1 -26 -1 -34l5 -1c3 10 7 21 11 29c26 63 90 160 195 160c89 0 131 -88 131 -191c0 -145 -72 -280 -227 -280c-49 0 -76 12 -98 27c-5 4 -12 9 -18 15zM309 11h1
c63 0 95 81 95 210c0 87 -23 166 -72 166c-57 0 -111 -110 -131 -212c-2 -8 -3 -19 -3 -25c0 -8 1 -17 2 -23c17 -84 66 -116 108 -116z" />
    <glyph glyph-name="threequarters" unicode="&#xbe;" horiz-adv-x="714" 
d="M565 355h1c14 0 35 -1 60 -4c5 -1 7 -2 7 -6c0 -34 -7 -209 -7 -231c21 -2 51 -4 65 -4c2 0 2 -1 2 -3c0 -7 -3 -13 -6 -13c-15 -1 -50 -2 -61 -3c-1 -27 -2 -46 -2 -66c0 -5 2 -7 6 -8l26 -4c2 -1 3 -7 3 -11c0 -2 0 -3 -2 -3c-26 1 -46 1 -69 1c-38 0 -65 0 -81 -1
c-1 0 -1 1 -1 2c0 5 2 12 4 12l33 5c4 1 7 2 7 7c0 15 -1 45 -1 64h-164c-7 0 -13 5 -19 15c-3 5 -6 11 -6 14c0 2 2 4 3 6c55 69 120 152 171 219c7 10 16 12 31 12zM428 133l1 -3l24 -3c31 -4 71 -8 95 -9c0 16 -1 147 -1 157s1 33 1 53h-3c-6 -12 -11 -23 -15 -30
c-36 -58 -65 -107 -85 -139c-5 -8 -12 -18 -17 -26zM539 600h1c3 0 4 -3 2 -7c-107 -192 -210 -399 -328 -596c-1 -2 -3 -3 -6 -3c-19 0 -26 2 -24 6c92 174 201 415 283 584c8 14 24 16 72 16zM164 431v-3c6 0 13 -1 21 -3c63 -8 95 -46 95 -84c0 -75 -78 -107 -170 -107
c-31 0 -64 7 -83 19c-5 4 -3 19 -1 19c1 0 2 -1 4 -2c16 -8 41 -13 63 -13c49 0 94 26 94 78c0 37 -23 79 -109 79c-3 0 -6 5 -6 13c0 2 1 2 3 2c75 7 99 40 99 83c0 32 -24 57 -60 57c-28 0 -57 -15 -69 -31c-1 -1 -2 -1 -4 -1c-3 0 -8 11 -5 15c14 21 57 46 109 46
c81 0 120 -35 120 -83c0 -40 -40 -69 -86 -81c-5 -1 -8 -2 -15 -3z" />
    <glyph glyph-name="twosuperior" unicode="&#xb2;" horiz-adv-x="317" 
d="M93 260l1 -1h24c15 1 77 3 110 11c7 2 12 6 16 12l27 40c1 1 2 1 3 1c4 0 10 -4 10 -7l-12 -71c-2 -5 -3 -8 -8 -8c-19 1 -58 2 -131 2h-93c-8 0 -13 2 -17 13l-4 8c0 2 0 5 2 6c75 59 155 132 155 220c0 53 -29 77 -65 77c-29 0 -53 -16 -70 -35c-1 -1 -2 -2 -4 -2
c-3 0 -9 12 -6 17c20 28 65 55 124 55c68 0 118 -39 118 -107c0 -96 -94 -177 -155 -216c-4 -4 -14 -9 -25 -15z" />
    <glyph glyph-name="registered" unicode="&#xae;" horiz-adv-x="231" 
d="M121 639h1c62 0 104 -42 104 -101c0 -62 -45 -106 -115 -106c-51 0 -103 36 -103 97c0 67 48 110 113 110zM118 626h-1c-52 0 -92 -36 -92 -96c0 -58 45 -84 90 -84c55 0 94 36 94 91c0 49 -31 89 -91 89zM113 598h1c34 0 52 -12 52 -31c0 -14 -12 -25 -24 -31
c10 -12 22 -29 29 -42c0 -1 2 -2 3 -3l6 -2c1 -1 2 -5 2 -7c0 -1 0 -1 -1 -1c-5 1 -16 0 -22 0c-8 0 -19 1 -25 0c-1 0 -2 0 -2 1s2 7 3 7l6 1c1 1 2 1 1 2c-9 10 -20 24 -29 33c0 1 -1 1 -2 1h-5c-1 -6 -1 -29 -1 -33c0 -1 1 -2 2 -2l7 -2c1 0 2 -6 2 -7s0 -1 -1 -1h-24
h-26c-1 0 -2 0 -2 1c0 3 1 6 2 6l8 2c1 1 3 1 3 3c0 6 -1 37 -1 46c0 7 -2 36 -2 44c0 1 -2 3 -3 4l-7 1c-1 0 -2 3 -2 6c0 1 -1 2 0 2c11 1 34 2 52 2zM109 536h1c11 0 22 12 22 31c0 14 -10 22 -20 22c-4 0 -6 -1 -6 -3c0 -12 -1 -44 -1 -48c0 -1 1 -2 4 -2z" />
    <glyph glyph-name="minus" unicode="&#x2212;" 
d="M328 298v-1c0 -5 -3 -25 -6 -25c-49 -5 -252 -16 -265 -16c-15 -1 -20 35 -20 53c0 3 2 4 4 4c34 -1 231 -11 284 -12c2 0 3 -1 3 -3z" />
    <glyph glyph-name="eth" unicode="&#xf0;" horiz-adv-x="556" 
d="M291 574l-113 -60c-2 -1 -5 -1 -6 4c-3 25 -2 33 11 39l85 41c-22 26 -74 65 -113 80c-1 0 -2 1 -2 2c0 3 8 13 13 13c47 -2 121 -29 171 -63l114 49c2 1 4 1 4 -2c0 -9 -1 -18 -5 -19l-85 -47c86 -64 154 -173 154 -328s-84 -291 -266 -291c-130 0 -216 79 -216 209
s90 252 244 252c27 0 55 -9 69 -19c6 -5 12 -10 18 -16l3 2c-4 13 -9 24 -12 33c-13 40 -42 93 -68 121zM279 11h1c64 0 94 103 94 231c0 55 -5 106 -18 139c-13 32 -37 53 -72 53c-69 0 -100 -105 -100 -224c0 -115 32 -199 95 -199z" />
    <glyph glyph-name="multiply" unicode="&#xd7;" 
d="M291 135h-1c-1 0 -3 0 -5 2c-19 17 -67 68 -104 103c-42 -42 -73 -74 -105 -107c-1 -1 -3 -3 -5 -3c-4 0 -17 17 -14 22c22 30 50 65 93 122c-35 36 -85 90 -99 104c-7 9 31 52 38 52c1 0 3 0 5 -2c25 -31 61 -81 91 -115c30 41 66 90 85 116c1 1 3 2 5 2
c7 0 46 -39 40 -47c-23 -26 -62 -68 -100 -110c31 -41 79 -102 95 -125c3 -4 -12 -14 -19 -14z" />
    <glyph glyph-name="threesuperior" unicode="&#xb3;" horiz-adv-x="318" 
d="M164 431v-3c6 0 13 -1 21 -3c63 -8 95 -46 95 -84c0 -75 -78 -107 -170 -107c-31 0 -64 7 -83 19c-5 4 -3 19 -1 19c1 0 2 -1 4 -2c16 -8 41 -13 63 -13c49 0 94 26 94 78c0 37 -23 79 -109 79c-3 0 -6 5 -6 13c0 2 1 2 3 2c75 7 99 40 99 83c0 32 -24 57 -61 57
c-27 0 -56 -15 -68 -31c-1 -1 -2 -1 -4 -1c-3 0 -8 11 -5 15c14 21 57 46 109 46c81 0 120 -35 120 -83c0 -40 -40 -69 -86 -81c-5 -1 -8 -2 -15 -3z" />
    <glyph glyph-name="copyright" unicode="&#xa9;" horiz-adv-x="558" 
d="M261 40h-1c-110 0 -226 79 -226 238c0 179 118 298 265 298c143 0 225 -120 225 -249c0 -160 -91 -287 -263 -287zM265 62h1c151 0 230 118 230 260c0 110 -64 233 -205 233c-131 0 -229 -117 -229 -274c0 -156 110 -219 203 -219zM389 455l6 -71c0 -3 -8 -7 -11 -7
c-1 0 -1 0 -2 2l-29 58c-2 4 -5 9 -7 11c-3 3 -12 7 -21 7c-20 0 -39 -12 -53 -30c-24 -32 -38 -74 -38 -132c0 -86 40 -121 91 -121c12 0 23 2 31 3c13 3 26 8 45 14c1 1 2 -4 2 -10c0 -3 0 -4 -2 -6c-13 -7 -39 -17 -58 -22c-9 -2 -24 -5 -47 -5c-88 0 -155 38 -155 140
c0 63 28 114 67 143c34 26 75 41 121 41c24 0 45 -4 56 -10c3 -1 4 -2 4 -5z" />
    <glyph glyph-name="Aacute" unicode="&#xc1;" horiz-adv-x="600" 
d="M290 618h1c35 0 62 -1 84 -2c3 0 7 -2 8 -4c32 -108 135 -453 175 -576c2 -6 7 -11 13 -13l37 -10c3 -1 5 -6 5 -13c0 -1 -1 -2 -3 -2c-21 0 -69 2 -119 2c-56 0 -110 -1 -137 -2c-3 0 -3 1 -3 2c0 6 3 13 6 14l54 9c8 1 9 8 7 16c-11 33 -48 129 -59 163
c-45 -1 -161 -4 -213 -8c-3 0 -6 -3 -7 -8c-6 -29 -25 -110 -31 -146c-1 -12 3 -15 10 -17l52 -10c3 0 6 -7 6 -13c0 -2 -1 -2 -3 -2c-25 1 -65 2 -105 2c-34 0 -64 -1 -84 -2c-2 0 -2 1 -2 3c0 3 2 12 5 13l25 8c8 2 13 6 18 18c49 120 153 427 198 549c9 24 22 29 62 29z
M243 539h-6c-5 -15 -8 -25 -10 -34c-25 -83 -57 -199 -76 -268c-1 -4 2 -7 5 -7c46 -6 153 -10 196 -9c-17 48 -69 193 -96 283c-3 9 -7 21 -13 35zM285 650h-1c-3 0 -11 7 -8 10c36 34 63 70 75 86c4 6 10 10 20 10c12 0 30 -3 40 -4c5 -1 5 -5 3 -8
c-14 -20 -81 -69 -125 -92c-2 -1 -2 -2 -4 -2z" />
    <glyph glyph-name="Acircumflex" unicode="&#xc2;" horiz-adv-x="600" 
d="M290 618h1c35 0 62 -1 84 -2c3 0 7 -2 8 -4c32 -108 135 -453 175 -576c2 -6 7 -11 13 -13l37 -10c3 -1 5 -6 5 -13c0 -1 -1 -2 -3 -2c-21 0 -69 2 -119 2c-56 0 -110 -1 -137 -2c-3 0 -3 1 -3 2c0 6 3 13 6 14l54 9c8 1 9 8 7 16c-11 33 -48 129 -59 163
c-45 -1 -161 -4 -213 -8c-3 0 -6 -3 -7 -8c-6 -29 -25 -110 -31 -146c-1 -12 3 -15 10 -17l52 -10c3 0 6 -7 6 -13c0 -2 -1 -2 -3 -2c-25 1 -65 2 -105 2c-34 0 -64 -1 -84 -2c-2 0 -2 1 -2 3c0 3 2 12 5 13l25 8c8 2 13 6 18 18c49 120 153 427 198 549c9 24 22 29 62 29z
M243 539h-6c-5 -15 -8 -25 -10 -34c-25 -83 -57 -199 -76 -268c-1 -4 2 -7 5 -7c46 -6 153 -10 196 -9c-17 48 -69 193 -96 283c-3 9 -7 21 -13 35zM307 756h1c1 0 4 -2 6 -5c20 -22 55 -59 82 -90c3 -3 -1 -8 -3 -11c-2 -1 -4 -1 -6 0c-30 18 -55 34 -81 50
c-23 -15 -48 -30 -80 -50c-2 -1 -3 -1 -5 1c-3 3 -6 8 -4 11c27 30 66 72 81 88c2 4 5 6 9 6z" />
    <glyph glyph-name="Adieresis" unicode="&#xc4;" horiz-adv-x="600" 
d="M290 618h1c35 0 62 -1 84 -2c3 0 7 -2 8 -4c32 -108 135 -453 175 -576c2 -6 7 -11 13 -13l37 -10c3 -1 5 -6 5 -13c0 -1 -1 -2 -3 -2c-21 0 -69 2 -119 2c-56 0 -110 -1 -137 -2c-3 0 -3 1 -3 2c0 6 3 13 6 14l54 9c8 1 9 8 7 16c-11 33 -48 129 -59 163
c-45 -1 -161 -4 -213 -8c-3 0 -6 -3 -7 -8c-6 -29 -25 -110 -31 -146c-1 -12 3 -15 10 -17l52 -10c3 0 6 -7 6 -13c0 -2 -1 -2 -3 -2c-25 1 -65 2 -105 2c-34 0 -64 -1 -84 -2c-2 0 -2 1 -2 3c0 3 2 12 5 13l25 8c8 2 13 6 18 18c49 120 153 427 198 549c9 24 22 29 62 29z
M243 539h-6c-5 -15 -8 -25 -10 -34c-25 -83 -57 -199 -76 -268c-1 -4 2 -7 5 -7c46 -6 153 -10 196 -9c-17 48 -69 193 -96 283c-3 9 -7 21 -13 35zM232 734h1c21 0 35 -15 35 -34c0 -20 -14 -37 -36 -37s-37 15 -37 35c0 19 14 36 37 36zM383 734h1c19 0 34 -15 34 -34
c0 -20 -15 -37 -36 -37c-22 0 -37 16 -37 35c0 18 14 36 38 36z" />
    <glyph glyph-name="Agrave" unicode="&#xc0;" horiz-adv-x="600" 
d="M290 618h1c35 0 62 -1 84 -2c3 0 7 -2 8 -4c32 -108 135 -453 175 -576c2 -6 7 -11 13 -13l37 -10c3 -1 5 -6 5 -13c0 -1 -1 -2 -3 -2c-21 0 -69 2 -119 2c-56 0 -110 -1 -137 -2c-3 0 -3 1 -3 2c0 6 3 13 6 14l54 9c8 1 9 8 7 16c-11 33 -48 129 -59 163
c-45 -1 -161 -4 -213 -8c-3 0 -6 -3 -7 -8c-6 -29 -25 -110 -31 -146c-1 -12 3 -15 10 -17l52 -10c3 0 6 -7 6 -13c0 -2 -1 -2 -3 -2c-25 1 -65 2 -105 2c-34 0 -64 -1 -84 -2c-2 0 -2 1 -2 3c0 3 2 12 5 13l25 8c8 2 13 6 18 18c49 120 153 427 198 549c9 24 22 29 62 29z
M243 539h-6c-5 -15 -8 -25 -10 -34c-25 -83 -57 -199 -76 -268c-1 -4 2 -7 5 -7c46 -6 153 -10 196 -9c-17 48 -69 193 -96 283c-3 9 -7 21 -13 35zM330 651h-1c-1 0 -2 0 -3 1c-44 23 -111 73 -125 93c-2 3 -1 6 2 7c11 2 30 4 43 4c10 0 14 -4 19 -10
c12 -16 39 -51 74 -85c3 -4 -7 -10 -9 -10z" />
    <glyph glyph-name="Aring" unicode="&#xc5;" horiz-adv-x="600" 
d="M290 618h1c35 0 62 -1 84 -2c3 0 7 -2 8 -4c32 -108 135 -453 175 -576c2 -6 7 -11 13 -13l37 -10c3 -1 5 -6 5 -13c0 -1 -1 -2 -3 -2c-21 0 -69 2 -119 2c-56 0 -110 -1 -137 -2c-3 0 -3 1 -3 2c0 6 3 13 6 14l54 9c8 1 9 8 7 16c-11 33 -48 129 -59 163
c-45 -1 -161 -4 -213 -8c-3 0 -6 -3 -7 -8c-6 -29 -25 -110 -31 -146c-1 -12 3 -15 10 -17l52 -10c3 0 6 -7 6 -13c0 -2 -1 -2 -3 -2c-25 1 -65 2 -105 2c-34 0 -64 -1 -84 -2c-2 0 -2 1 -2 3c0 3 2 12 5 13l25 8c8 2 13 6 18 18c49 120 153 427 198 549c9 24 22 29 62 29z
M243 539h-6c-5 -15 -8 -25 -10 -34c-25 -83 -57 -199 -76 -268c-1 -4 2 -7 5 -7c46 -6 153 -10 196 -9c-17 48 -69 193 -96 283c-3 9 -7 21 -13 35zM302 763h1c40 0 68 -20 68 -53c0 -31 -30 -55 -71 -55c-40 0 -70 19 -70 53c0 30 29 55 72 55zM299 746h-1
c-18 0 -33 -16 -33 -38s15 -35 35 -35c21 0 35 16 35 37c0 24 -14 36 -36 36z" />
    <glyph glyph-name="Atilde" unicode="&#xc3;" horiz-adv-x="600" 
d="M290 618h1c35 0 62 -1 84 -2c3 0 7 -2 8 -4c32 -108 135 -453 175 -576c2 -6 7 -11 13 -13l37 -10c3 -1 5 -6 5 -13c0 -1 -1 -2 -3 -2c-21 0 -69 2 -119 2c-56 0 -110 -1 -137 -2c-3 0 -3 1 -3 2c0 6 3 13 6 14l54 9c8 1 9 8 7 16c-11 33 -48 129 -59 163
c-45 -1 -161 -4 -213 -8c-3 0 -6 -3 -7 -8c-6 -29 -25 -110 -31 -146c-1 -12 3 -15 10 -17l52 -10c3 0 6 -7 6 -13c0 -2 -1 -2 -3 -2c-25 1 -65 2 -105 2c-34 0 -64 -1 -84 -2c-2 0 -2 1 -2 3c0 3 2 12 5 13l25 8c8 2 13 6 18 18c49 120 153 427 198 549c9 24 22 29 62 29z
M243 539h-6c-5 -15 -8 -25 -10 -34c-25 -83 -57 -199 -76 -268c-1 -4 2 -7 5 -7c46 -6 153 -10 196 -9c-17 48 -69 193 -96 283c-3 9 -7 21 -13 35zM340 661h-1c-11 0 -32 10 -42 17c-14 7 -27 13 -39 13c-15 0 -28 -10 -35 -33c-1 -3 -5 -5 -13 -5c-1 0 -1 1 -1 3
c0 40 20 80 53 80c17 0 34 -9 46 -17c10 -6 26 -16 38 -16c17 0 28 15 30 35c1 5 5 7 13 7c2 0 2 -1 2 -3c0 -37 -14 -81 -51 -81z" />
    <glyph glyph-name="Ccedilla" unicode="&#xc7;" horiz-adv-x="559" 
d="M331 -8l-37 -42c-2 -2 -1 -2 3 -3c22 0 40 -15 40 -36c0 -39 -47 -63 -88 -68c-4 0 -10 3 -12 9c0 2 0 3 2 4c32 8 51 24 51 46c0 17 -15 27 -34 25c-3 0 -5 4 -3 8l52 58c-145 9 -263 84 -263 273c0 131 55 224 119 277c63 51 144 81 239 81c49 0 88 -7 110 -19
c4 -2 5 -5 5 -10l11 -140c1 -5 -9 -11 -14 -11c-1 0 -2 0 -4 3c-19 42 -41 91 -57 124c-4 8 -9 15 -14 20c-7 6 -20 13 -40 13c-39 0 -82 -22 -117 -61c-53 -63 -80 -151 -80 -264c0 -172 95 -242 186 -242c19 0 44 3 58 6c28 5 56 15 87 27c3 1 5 -3 5 -13
c0 -3 -1 -5 -3 -7c-23 -12 -76 -36 -113 -47c-18 -5 -49 -11 -89 -11z" />
    <glyph glyph-name="Eacute" unicode="&#xc9;" horiz-adv-x="530" 
d="M509 126l-26 -126c-1 -3 -3 -5 -8 -5c-7 0 -30 1 -80 3c-50 1 -126 2 -240 2c-39 0 -89 -1 -122 -2c-3 0 -3 1 -3 2c0 4 2 11 5 12l46 10c7 2 11 5 11 16c1 30 -1 233 -1 278c-1 39 -3 226 -5 259c0 12 -4 16 -10 18l-41 8c-2 0 -5 7 -5 14c0 1 0 2 2 2c24 0 47 -1 68 -1
h56c223 0 300 3 312 3c4 0 6 -2 6 -6l7 -131c0 -3 -9 -8 -12 -8c-1 0 -2 0 -3 2c-14 31 -28 61 -43 93c-5 9 -13 12 -25 14c-44 9 -131 16 -146 16c-10 -1 -11 -4 -11 -11c-5 -61 -11 -220 -10 -253c69 -3 181 -5 207 -6c2 0 2 -1 2 -2c0 -6 -5 -17 -8 -17
c-39 -4 -138 -9 -190 -14c-9 -1 -12 -3 -12 -11c-1 -33 -5 -223 -5 -251c0 -11 4 -13 11 -13c43 0 134 4 183 17c10 3 17 8 21 15c20 27 38 55 55 83c1 2 2 2 3 2c4 -1 12 -8 11 -12zM261 650h-1c-3 0 -11 7 -7 10c35 34 62 70 74 86c5 6 10 10 20 10c12 0 30 -3 41 -4
c5 -1 5 -5 2 -8c-13 -20 -81 -69 -125 -92c-1 -1 -2 -2 -4 -2z" />
    <glyph glyph-name="Ecircumflex" unicode="&#xca;" horiz-adv-x="530" 
d="M509 126l-26 -126c-1 -3 -3 -5 -8 -5c-7 0 -30 1 -80 3c-50 1 -126 2 -240 2c-39 0 -89 -1 -122 -2c-3 0 -3 1 -3 2c0 4 2 11 5 12l46 10c7 2 11 5 11 16c1 30 -1 233 -1 278c-1 39 -3 226 -5 259c0 12 -4 16 -10 18l-41 8c-2 0 -5 7 -5 14c0 1 0 2 2 2c24 0 47 -1 68 -1
h56c223 0 300 3 312 3c4 0 6 -2 6 -6l7 -131c0 -3 -9 -8 -12 -8c-1 0 -2 0 -3 2c-14 31 -28 61 -43 93c-5 9 -13 12 -25 14c-44 9 -131 16 -146 16c-10 -1 -11 -4 -11 -11c-5 -61 -11 -220 -10 -253c69 -3 181 -5 207 -6c2 0 2 -1 2 -2c0 -6 -5 -17 -8 -17
c-39 -4 -138 -9 -190 -14c-9 -1 -12 -3 -12 -11c-1 -33 -5 -223 -5 -251c0 -11 4 -13 11 -13c43 0 134 4 183 17c10 3 17 8 21 15c20 27 38 55 55 83c1 2 2 2 3 2c4 -1 12 -8 11 -12zM284 762h1c2 0 4 -2 6 -5c20 -23 55 -60 83 -90c2 -3 -1 -9 -4 -11c-1 -2 -3 -2 -6 0
c-30 18 -55 34 -81 49c-23 -14 -47 -30 -80 -49c-2 -1 -3 -1 -5 1c-3 2 -6 7 -3 10c26 30 66 72 80 89c3 3 5 6 9 6z" />
    <glyph glyph-name="Edieresis" unicode="&#xcb;" horiz-adv-x="530" 
d="M509 126l-26 -126c-1 -3 -3 -5 -8 -5c-7 0 -30 1 -80 3c-50 1 -126 2 -240 2c-39 0 -89 -1 -122 -2c-3 0 -3 1 -3 2c0 4 2 11 5 12l46 10c7 2 11 5 11 16c1 30 -1 233 -1 278c-1 39 -3 226 -5 259c0 12 -4 16 -10 18l-41 8c-2 0 -5 7 -5 14c0 1 0 2 2 2c24 0 47 -1 68 -1
h56c223 0 300 3 312 3c4 0 6 -2 6 -6l7 -131c0 -3 -9 -8 -12 -8c-1 0 -2 0 -3 2c-14 31 -28 61 -43 93c-5 9 -13 12 -25 14c-44 9 -131 16 -146 16c-10 -1 -11 -4 -11 -11c-5 -61 -11 -220 -10 -253c69 -3 181 -5 207 -6c2 0 2 -1 2 -2c0 -6 -5 -17 -8 -17
c-39 -4 -138 -9 -190 -14c-9 -1 -12 -3 -12 -11c-1 -33 -5 -223 -5 -251c0 -11 4 -13 11 -13c43 0 134 4 183 17c10 3 17 8 21 15c20 27 38 55 55 83c1 2 2 2 3 2c4 -1 12 -8 11 -12zM207 737h1c21 0 35 -15 35 -34s-14 -37 -36 -37s-37 16 -37 35s14 36 37 36zM358 737h1
c19 0 34 -15 34 -34s-15 -37 -36 -37c-22 0 -37 16 -37 35c0 18 14 36 38 36z" />
    <glyph glyph-name="Egrave" unicode="&#xc8;" horiz-adv-x="530" 
d="M509 126l-26 -126c-1 -3 -3 -5 -8 -5c-7 0 -30 1 -80 3c-50 1 -126 2 -240 2c-39 0 -89 -1 -122 -2c-3 0 -3 1 -3 2c0 4 2 11 5 12l46 10c7 2 11 5 11 16c1 30 -1 233 -1 278c-1 39 -3 226 -5 259c0 12 -4 16 -10 18l-41 8c-2 0 -5 7 -5 14c0 1 0 2 2 2c24 0 47 -1 68 -1
h56c223 0 300 3 312 3c4 0 6 -2 6 -6l7 -131c0 -3 -9 -8 -12 -8c-1 0 -2 0 -3 2c-14 31 -28 61 -43 93c-5 9 -13 12 -25 14c-44 9 -131 16 -146 16c-10 -1 -11 -4 -11 -11c-5 -61 -11 -220 -10 -253c69 -3 181 -5 207 -6c2 0 2 -1 2 -2c0 -6 -5 -17 -8 -17
c-39 -4 -138 -9 -190 -14c-9 -1 -12 -3 -12 -11c-1 -33 -5 -223 -5 -251c0 -11 4 -13 11 -13c43 0 134 4 183 17c10 3 17 8 21 15c20 27 38 55 55 83c1 2 2 2 3 2c4 -1 12 -8 11 -12zM304 650h-1c-1 0 -2 1 -3 2c-44 23 -111 73 -125 93c-2 3 -1 6 2 7c11 2 30 4 43 4
c10 0 14 -4 19 -10c12 -16 39 -51 74 -85c3 -4 -7 -11 -9 -11z" />
    <glyph glyph-name="Iacute" unicode="&#xcd;" horiz-adv-x="319" 
d="M32 616h259c2 0 2 -1 2 -4c0 -4 -1 -13 -5 -14l-39 -7c-7 -1 -10 -6 -10 -14c-5 -64 -8 -229 -9 -275c-1 -37 -4 -255 -4 -268c0 -8 4 -10 11 -12l41 -9c4 -1 6 -8 6 -12c0 -2 -1 -3 -3 -3c-17 1 -71 2 -127 2c-52 0 -97 -1 -120 -2c-2 0 -2 1 -2 3c0 5 2 12 5 13l46 9
c7 1 9 4 9 13c1 40 -2 209 -3 277c-1 72 -3 229 -5 258c0 11 -3 18 -11 20l-38 7c-3 1 -5 7 -5 15c0 2 0 3 2 3zM149 650h-1c-4 0 -11 7 -8 10c36 34 63 70 74 86c5 6 10 10 20 10c12 0 31 -3 41 -4c5 -1 5 -5 3 -8c-14 -20 -82 -69 -125 -92c-2 -1 -2 -2 -4 -2z" />
    <glyph glyph-name="Icircumflex" unicode="&#xce;" horiz-adv-x="319" 
d="M32 616h259c2 0 2 -1 2 -4c0 -4 -1 -13 -5 -14l-39 -7c-7 -1 -10 -6 -10 -14c-5 -64 -8 -229 -9 -275c-1 -37 -4 -255 -4 -268c0 -8 4 -10 11 -12l41 -9c4 -1 6 -8 6 -12c0 -2 -1 -3 -3 -3c-17 1 -71 2 -127 2c-52 0 -97 -1 -120 -2c-2 0 -2 1 -2 3c0 5 2 12 5 13l46 9
c7 1 9 4 9 13c1 40 -2 209 -3 277c-1 72 -3 229 -5 258c0 11 -3 18 -11 20l-38 7c-3 1 -5 7 -5 15c0 2 0 3 2 3zM161 762h1c2 0 4 -2 6 -5c20 -23 55 -60 83 -90c2 -3 -1 -9 -4 -11c-1 -2 -3 -2 -6 0c-30 18 -55 34 -81 49c-23 -14 -47 -30 -79 -49c-2 -1 -4 -1 -6 1
c-3 2 -6 7 -3 10c26 30 66 72 80 89c3 3 6 6 9 6z" />
    <glyph glyph-name="Idieresis" unicode="&#xcf;" horiz-adv-x="319" 
d="M32 616h259c2 0 2 -1 2 -4c0 -4 -1 -13 -5 -14l-39 -7c-7 -1 -10 -6 -10 -14c-5 -64 -8 -229 -9 -275c-1 -37 -4 -255 -4 -268c0 -8 4 -10 11 -12l41 -9c4 -1 6 -8 6 -12c0 -2 -1 -3 -3 -3c-17 1 -71 2 -127 2c-52 0 -97 -1 -120 -2c-2 0 -2 1 -2 3c0 5 2 12 5 13l46 9
c7 1 9 4 9 13c1 40 -2 209 -3 277c-1 72 -3 229 -5 258c0 11 -3 18 -11 20l-38 7c-3 1 -5 7 -5 15c0 2 0 3 2 3zM89 738h1c20 0 34 -16 34 -35s-14 -36 -36 -36c-21 0 -37 15 -37 34s15 37 38 37zM239 738h1c20 0 34 -16 34 -35s-14 -36 -36 -36c-21 0 -36 15 -36 34
c0 18 13 37 37 37z" />
    <glyph glyph-name="Igrave" unicode="&#xcc;" horiz-adv-x="319" 
d="M32 616h259c2 0 2 -1 2 -4c0 -4 -1 -13 -5 -14l-39 -7c-7 -1 -10 -6 -10 -14c-5 -64 -8 -229 -9 -275c-1 -37 -4 -255 -4 -268c0 -8 4 -10 11 -12l41 -9c4 -1 6 -8 6 -12c0 -2 -1 -3 -3 -3c-17 1 -71 2 -127 2c-52 0 -97 -1 -120 -2c-2 0 -2 1 -2 3c0 5 2 12 5 13l46 9
c7 1 9 4 9 13c1 40 -2 209 -3 277c-1 72 -3 229 -5 258c0 11 -3 18 -11 20l-38 7c-3 1 -5 7 -5 15c0 2 0 3 2 3zM180 651h-1c-1 0 -2 0 -3 1c-44 23 -111 73 -125 93c-2 3 -1 6 2 7c11 2 30 4 43 4c10 0 14 -4 19 -10c12 -16 39 -51 74 -85c3 -4 -7 -10 -9 -10z" />
    <glyph glyph-name="Ntilde" unicode="&#xd1;" horiz-adv-x="620" 
d="M14 616h171c5 0 8 -2 10 -5c53 -71 222 -338 294 -445c6 -11 12 -22 18 -32l4 3c0 16 -1 31 -1 45c-2 75 -6 320 -14 391c-1 12 -6 17 -16 19l-55 8c-3 1 -5 9 -5 13c0 2 0 3 2 3h193c3 0 3 -1 3 -3c0 -4 -2 -12 -5 -13l-37 -8c-10 -2 -14 -7 -16 -24
c-3 -34 -11 -188 -14 -262c-3 -56 -8 -264 -9 -300c0 -4 -2 -6 -6 -8c-11 -3 -35 -8 -47 -8c-9 0 -18 2 -26 12c-82 99 -225 291 -304 397c-4 6 -11 17 -15 23l-5 -1c-1 -14 -1 -25 -1 -33c-4 -75 -13 -287 -14 -350c-1 -10 3 -13 10 -15l64 -11c3 -1 5 -6 5 -11
c0 -2 0 -3 -3 -3c-15 1 -51 2 -90 2c-35 0 -66 -1 -83 -2c-2 0 -2 1 -2 3c0 4 2 11 5 11l51 11c7 1 11 4 11 15c0 29 -6 206 -7 262c-1 44 -7 240 -9 271c-1 11 -4 18 -15 20l-40 8c-3 1 -5 8 -5 14c0 2 0 3 3 3zM372 659h-1c-11 0 -32 10 -42 17c-14 7 -27 13 -39 13
c-15 0 -28 -10 -35 -33c-1 -3 -5 -5 -13 -5c-1 0 -1 1 -1 3c0 40 20 80 53 80c17 0 34 -9 46 -17c10 -6 26 -16 38 -16c17 0 28 15 30 35c1 5 5 7 13 7c2 0 2 -1 2 -3c0 -37 -14 -81 -51 -81z" />
    <glyph glyph-name="Oacute" unicode="&#xd3;" horiz-adv-x="671" 
d="M325 -8h-1c-177 0 -282 101 -282 289c0 199 117 343 317 343c177 0 272 -120 272 -288c0 -211 -106 -344 -306 -344zM343 11h1c92 0 128 122 128 308c0 146 -46 287 -135 287c-85 0 -138 -119 -138 -314c0 -146 54 -281 144 -281zM337 660h-1c-3 0 -11 7 -7 10
c36 34 62 70 74 86c5 6 10 10 20 10c12 0 31 -3 41 -4c5 -1 5 -5 3 -8c-14 -20 -82 -69 -126 -92c-1 -1 -2 -2 -4 -2z" />
    <glyph glyph-name="Ocircumflex" unicode="&#xd4;" horiz-adv-x="671" 
d="M325 -8h-1c-177 0 -282 101 -282 289c0 199 117 343 317 343c177 0 272 -120 272 -288c0 -211 -106 -344 -306 -344zM343 11h1c92 0 128 122 128 308c0 146 -46 287 -135 287c-85 0 -138 -119 -138 -314c0 -146 54 -281 144 -281zM344 762h1c2 0 4 -2 6 -5
c20 -23 55 -60 83 -90c2 -3 -1 -9 -4 -11c-1 -2 -3 -2 -6 0c-30 18 -55 34 -81 49c-23 -14 -48 -30 -80 -49c-2 -1 -3 -1 -5 1c-3 2 -6 7 -3 10c26 30 65 72 80 89c3 3 5 6 9 6z" />
    <glyph glyph-name="Odieresis" unicode="&#xd6;" horiz-adv-x="671" 
d="M325 -8h-1c-177 0 -282 101 -282 289c0 199 117 343 317 343c177 0 272 -120 272 -288c0 -211 -106 -344 -306 -344zM343 11h1c92 0 128 122 128 308c0 146 -46 287 -135 287c-85 0 -138 -119 -138 -314c0 -146 54 -281 144 -281zM272 737h1c20 0 34 -15 34 -34
s-14 -37 -36 -37c-21 0 -37 16 -37 35s15 36 38 36zM422 737h1c20 0 34 -15 34 -34s-14 -37 -36 -37c-21 0 -36 16 -36 35c0 18 13 36 37 36z" />
    <glyph glyph-name="Ograve" unicode="&#xd2;" horiz-adv-x="671" 
d="M325 -8h-1c-177 0 -282 101 -282 289c0 199 117 343 317 343c177 0 272 -120 272 -288c0 -211 -106 -344 -306 -344zM343 11h1c92 0 128 122 128 308c0 146 -46 287 -135 287c-85 0 -138 -119 -138 -314c0 -146 54 -281 144 -281zM350 660h-1l-2 2
c-45 23 -111 73 -125 93c-2 3 -2 6 1 7c12 2 31 4 43 4c10 0 15 -4 19 -10c12 -16 40 -51 74 -85c4 -4 -6 -11 -9 -11z" />
    <glyph glyph-name="Otilde" unicode="&#xd5;" horiz-adv-x="671" 
d="M325 -8h-1c-177 0 -282 101 -282 289c0 199 117 343 317 343c177 0 272 -120 272 -288c0 -211 -106 -344 -306 -344zM343 11h1c92 0 128 122 128 308c0 146 -46 287 -135 287c-85 0 -138 -119 -138 -314c0 -146 54 -281 144 -281zM372 665h-1c-12 0 -32 10 -43 16
c-13 7 -26 13 -39 13c-14 0 -27 -9 -34 -33c-1 -3 -5 -4 -13 -4c-1 0 -2 1 -1 3c0 40 20 79 53 79c17 0 34 -9 46 -17c10 -6 26 -15 38 -15c17 0 28 15 30 35c1 4 5 6 13 6c2 0 2 -1 2 -2c0 -38 -14 -81 -51 -81z" />
    <glyph glyph-name="Scaron" unicode="&#x160;" horiz-adv-x="517" 
d="M477 191v-1c0 -116 -110 -198 -304 -198c-41 0 -88 3 -110 11c-5 2 -8 4 -9 10l-15 136c-1 3 10 10 13 10c2 0 3 -1 4 -3c19 -34 37 -70 56 -102c7 -11 12 -16 24 -23c16 -11 41 -16 68 -16c86 0 151 42 151 107c0 60 -43 96 -146 135c-106 40 -159 89 -159 165
c0 105 124 202 290 202c41 0 81 -5 99 -14c5 -2 7 -4 7 -9l12 -130c0 -3 -9 -9 -13 -9c-2 0 -3 0 -4 2c-19 36 -38 72 -58 107c-4 7 -8 12 -19 18c-13 7 -29 12 -54 12c-71 0 -132 -46 -132 -109c0 -54 38 -84 123 -126c94 -43 176 -88 176 -175zM272 652h-1c-2 0 -5 2 -7 5
c-19 22 -55 60 -82 90c-3 3 1 9 4 12c1 1 3 2 4 1c34 -21 60 -36 83 -50c24 14 49 29 80 49c2 1 3 1 5 -1c2 -3 6 -8 3 -11c-27 -30 -66 -72 -80 -89c-3 -3 -6 -6 -9 -6z" />
    <glyph glyph-name="Uacute" unicode="&#xda;" horiz-adv-x="641" 
d="M29 616h250c3 0 3 0 3 -2c0 -7 -2 -14 -5 -14l-45 -7c-8 -1 -12 -4 -13 -13c-9 -89 -11 -186 -11 -303c0 -179 47 -266 124 -266c86 0 117 69 117 271c0 104 -2 229 -10 296c-1 10 -5 13 -12 15l-46 7c-4 0 -5 8 -5 13c0 2 0 3 3 3h239c2 0 3 -1 3 -3c0 -7 -3 -13 -6 -14
l-30 -6c-8 -2 -11 -5 -10 -14c6 -75 15 -165 15 -294c-1 -198 -110 -293 -280 -293c-148 0 -256 55 -256 286c1 129 20 265 23 298c2 10 -2 15 -12 17l-34 7c-3 0 -5 7 -5 13c0 2 0 3 3 3zM337 650h-1c-3 0 -11 7 -8 10c36 34 63 70 75 86c4 6 9 10 19 10c12 0 31 -3 41 -4
c5 -1 5 -5 3 -8c-14 -20 -82 -69 -125 -92c-2 -1 -2 -2 -4 -2z" />
    <glyph glyph-name="Ucircumflex" unicode="&#xdb;" horiz-adv-x="641" 
d="M29 616h250c3 0 3 0 3 -2c0 -7 -2 -14 -5 -14l-45 -7c-8 -1 -12 -4 -13 -13c-9 -89 -11 -186 -11 -303c0 -179 47 -266 124 -266c86 0 117 69 117 271c0 104 -2 229 -10 296c-1 10 -5 13 -12 15l-46 7c-4 0 -5 8 -5 13c0 2 0 3 3 3h239c2 0 3 -1 3 -3c0 -7 -3 -13 -6 -14
l-30 -6c-8 -2 -11 -5 -10 -14c6 -75 15 -165 15 -294c-1 -198 -110 -293 -280 -293c-148 0 -256 55 -256 286c1 129 20 265 23 298c2 10 -2 15 -12 17l-34 7c-3 0 -5 7 -5 13c0 2 0 3 3 3zM340 762h1c2 0 5 -2 7 -5c19 -23 54 -60 82 -90c2 -3 -1 -9 -4 -11
c-1 -2 -3 -2 -6 0c-30 18 -55 34 -81 49c-23 -14 -47 -30 -79 -49c-2 -1 -4 -1 -6 1c-3 2 -6 7 -3 10c26 30 66 72 80 89c3 3 6 6 9 6z" />
    <glyph glyph-name="Udieresis" unicode="&#xdc;" horiz-adv-x="641" 
d="M29 616h250c3 0 3 0 3 -2c0 -7 -2 -14 -5 -14l-45 -7c-8 -1 -12 -4 -13 -13c-9 -89 -11 -186 -11 -303c0 -179 47 -266 124 -266c86 0 117 69 117 271c0 104 -2 229 -10 296c-1 10 -5 13 -12 15l-46 7c-4 0 -5 8 -5 13c0 2 0 3 3 3h239c2 0 3 -1 3 -3c0 -7 -3 -13 -6 -14
l-30 -6c-8 -2 -11 -5 -10 -14c6 -75 15 -165 15 -294c-1 -198 -110 -293 -280 -293c-148 0 -256 55 -256 286c1 129 20 265 23 298c2 10 -2 15 -12 17l-34 7c-3 0 -5 7 -5 13c0 2 0 3 3 3zM263 738h1c20 0 34 -16 34 -35s-14 -36 -36 -36c-21 0 -37 15 -37 34s15 37 38 37z
M413 738h1c20 0 34 -16 34 -35s-14 -36 -36 -36c-21 0 -36 15 -36 34c0 18 13 37 37 37z" />
    <glyph glyph-name="Ugrave" unicode="&#xd9;" horiz-adv-x="641" 
d="M29 616h250c3 0 3 0 3 -2c0 -7 -2 -14 -5 -14l-45 -7c-8 -1 -12 -4 -13 -13c-9 -89 -11 -186 -11 -303c0 -179 47 -266 124 -266c86 0 117 69 117 271c0 104 -2 229 -10 296c-1 10 -5 13 -12 15l-46 7c-4 0 -5 8 -5 13c0 2 0 3 3 3h239c2 0 3 -1 3 -3c0 -7 -3 -13 -6 -14
l-30 -6c-8 -2 -11 -5 -10 -14c6 -75 15 -165 15 -294c-1 -198 -110 -293 -280 -293c-148 0 -256 55 -256 286c1 129 20 265 23 298c2 10 -2 15 -12 17l-34 7c-3 0 -5 7 -5 13c0 2 0 3 3 3zM353 651h-1c-1 0 -2 0 -3 1c-44 23 -111 73 -125 93c-2 3 -1 6 2 7c11 2 30 4 42 4
c10 0 15 -4 20 -10c12 -16 39 -51 74 -85c3 -4 -7 -10 -9 -10z" />
    <glyph glyph-name="Yacute" unicode="&#xdd;" horiz-adv-x="580" 
d="M410 616h191c2 0 3 -1 3 -3c0 -5 -2 -12 -5 -13l-21 -7c-9 -3 -15 -7 -22 -19c-43 -79 -147 -244 -190 -321c-5 -8 -8 -21 -8 -35c-1 -40 -2 -170 -2 -184c0 -8 4 -11 11 -13l48 -8c4 -1 7 -7 7 -12c0 -2 0 -3 -3 -3c-24 1 -74 2 -132 2c-53 0 -104 -1 -126 -2
c-3 0 -3 1 -3 3c0 5 2 11 6 12l51 10c7 1 9 4 9 15c1 38 -3 141 -4 180c-1 8 -4 18 -7 26c-45 88 -118 213 -179 337c-3 6 -9 11 -14 12l-28 6c-3 1 -5 8 -5 14c0 2 1 3 4 3h281c2 0 3 -1 3 -3c0 -6 -3 -13 -6 -14l-47 -6c-7 -2 -14 -6 -11 -14c36 -88 67 -165 110 -263
c4 -9 14 -33 20 -46h4c7 13 14 26 18 36c41 90 75 173 102 272c3 10 0 13 -8 15l-43 6c-5 1 -7 9 -7 14c0 2 1 3 3 3zM341 650h-1c-3 0 -11 7 -7 10c36 34 63 70 74 86c5 6 10 10 20 10c12 0 31 -3 41 -4c5 -1 5 -5 3 -8c-14 -20 -82 -69 -126 -92c-1 -1 -2 -2 -4 -2z" />
    <glyph glyph-name="Ydieresis" unicode="&#x178;" horiz-adv-x="580" 
d="M410 616h191c2 0 3 -1 3 -3c0 -5 -2 -12 -5 -13l-21 -7c-9 -3 -15 -7 -22 -19c-43 -79 -147 -244 -190 -321c-5 -8 -8 -21 -8 -35c-1 -40 -2 -170 -2 -184c0 -8 4 -11 11 -13l48 -8c4 -1 7 -7 7 -12c0 -2 0 -3 -3 -3c-24 1 -74 2 -132 2c-53 0 -104 -1 -126 -2
c-3 0 -3 1 -3 3c0 5 2 11 6 12l51 10c7 1 9 4 9 15c1 38 -3 141 -4 180c-1 8 -4 18 -7 26c-45 88 -118 213 -179 337c-3 6 -9 11 -14 12l-28 6c-3 1 -5 8 -5 14c0 2 1 3 4 3h281c2 0 3 -1 3 -3c0 -6 -3 -13 -6 -14l-47 -6c-7 -2 -14 -6 -11 -14c36 -88 67 -165 110 -263
c4 -9 14 -33 20 -46h4c7 13 14 26 18 36c41 90 75 173 102 272c3 10 0 13 -8 15l-43 6c-5 1 -7 9 -7 14c0 2 1 3 3 3zM262 738h1c20 0 34 -16 34 -35s-14 -36 -36 -36c-21 0 -37 15 -37 34s15 37 38 37zM412 738h1c20 0 34 -16 34 -35s-14 -36 -36 -36c-21 0 -36 15 -36 34
c0 18 13 37 37 37z" />
    <glyph glyph-name="Zcaron" unicode="&#x17d;" horiz-adv-x="571" 
d="M378 564l-3 3c-13 3 -29 4 -40 6c-55 10 -151 20 -186 20c-8 0 -13 -4 -18 -13l-65 -125c-1 -2 -3 -2 -5 -2s-14 6 -13 10l20 147c1 5 3 7 7 7c22 0 112 -1 211 -1c132 0 193 1 213 2c4 0 7 -2 8 -5c19 -33 25 -58 25 -71c0 -10 -3 -18 -10 -29
c-91 -120 -290 -365 -369 -454c-6 -8 -15 -19 -23 -28v-3h28c55 0 224 14 293 31c11 3 21 5 27 18l51 94c1 2 2 2 3 2c3 0 14 -6 13 -10l-23 -156c-1 -8 -3 -10 -11 -10s-64 3 -282 3c-60 0 -133 -1 -169 -1c-15 0 -25 5 -36 36c-4 9 -8 21 -8 26c0 3 1 5 2 7
c84 117 258 351 333 459c8 13 17 25 27 37zM303 652h-1c-1 0 -4 2 -6 5c-20 23 -55 60 -82 90c-3 3 0 9 4 12c1 1 3 2 4 1c34 -21 60 -36 83 -50c24 14 49 29 80 49c1 1 3 1 5 -1c2 -3 5 -8 3 -11c-27 -30 -66 -72 -81 -89c-3 -3 -5 -6 -9 -6z" />
    <glyph glyph-name="aacute" unicode="&#xe1;" horiz-adv-x="528" 
d="M323 267l4 1c-1 21 -5 44 -9 61c-12 46 -40 84 -88 84s-93 -21 -145 -66c-1 -1 -2 -2 -3 -2c-3 0 -11 12 -6 17c56 59 130 101 234 101c134 0 155 -113 155 -214c0 -19 -2 -76 -4 -110c-2 -45 -4 -89 -4 -105c0 -7 2 -10 10 -12l42 -10c4 -2 6 -6 6 -10c0 -2 -1 -3 -4 -3
c-12 1 -53 1 -92 1c-34 0 -55 0 -72 -1c-3 0 -5 1 -5 5c-1 8 -3 44 -3 66c0 5 -1 20 -1 28l-3 2c-4 -8 -9 -17 -14 -25c-25 -38 -75 -83 -159 -83c-65 0 -133 43 -133 134c0 90 58 183 187 183c40 0 72 -14 87 -26c6 -4 14 -10 20 -16zM236 43h1c39 0 75 38 94 93
c4 11 7 24 7 36c0 11 -3 24 -9 38c-13 34 -44 74 -87 74c-51 0 -74 -65 -74 -133c0 -70 28 -108 68 -108zM265 508h-1c-1 0 -13 6 -9 13c24 42 42 84 49 100c3 8 10 12 19 12c9 1 32 -3 41 -4c3 -1 3 -3 1 -7c-11 -21 -68 -83 -98 -113c-1 -1 -1 -1 -2 -1z" />
    <glyph glyph-name="acircumflex" unicode="&#xe2;" horiz-adv-x="528" 
d="M323 267l4 1c-1 21 -5 44 -9 61c-12 46 -40 84 -88 84s-93 -21 -145 -66c-1 -1 -2 -2 -3 -2c-3 0 -11 12 -6 17c56 59 130 101 234 101c134 0 155 -113 155 -214c0 -19 -2 -76 -4 -110c-2 -45 -4 -89 -4 -105c0 -7 2 -10 10 -12l42 -10c4 -2 6 -6 6 -10c0 -2 -1 -3 -4 -3
c-12 1 -53 1 -92 1c-34 0 -55 0 -72 -1c-3 0 -5 1 -5 5c-1 8 -3 44 -3 66c0 5 -1 20 -1 28l-3 2c-4 -8 -9 -17 -14 -25c-25 -38 -75 -83 -159 -83c-65 0 -133 43 -133 134c0 90 58 183 187 183c40 0 72 -14 87 -26c6 -4 14 -10 20 -16zM236 43h1c39 0 75 38 94 93
c4 11 7 24 7 36c0 11 -3 24 -9 38c-13 34 -44 74 -87 74c-51 0 -74 -65 -74 -133c0 -70 28 -108 68 -108zM279 640h1c3 0 5 -3 7 -6c15 -24 41 -67 67 -112c2 -4 -2 -8 -4 -11c-2 -1 -4 -1 -5 1c-26 25 -42 41 -66 64c-21 -22 -36 -38 -62 -63c-2 -2 -3 -3 -5 -1
c-3 2 -7 6 -5 10c25 44 53 94 64 111c3 4 4 7 8 7z" />
    <glyph glyph-name="adieresis" unicode="&#xe4;" horiz-adv-x="528" 
d="M323 267l4 1c-1 21 -5 44 -9 61c-12 46 -40 84 -88 84s-93 -21 -145 -66c-1 -1 -2 -2 -3 -2c-3 0 -11 12 -6 17c56 59 130 101 234 101c134 0 155 -113 155 -214c0 -19 -2 -76 -4 -110c-2 -45 -4 -89 -4 -105c0 -7 2 -10 10 -12l42 -10c4 -2 6 -6 6 -10c0 -2 -1 -3 -4 -3
c-12 1 -53 1 -92 1c-34 0 -55 0 -72 -1c-3 0 -5 1 -5 5c-1 8 -3 44 -3 66c0 5 -1 20 -1 28l-3 2c-4 -8 -9 -17 -14 -25c-25 -38 -75 -83 -159 -83c-65 0 -133 43 -133 134c0 90 58 183 187 183c40 0 72 -14 87 -26c6 -4 14 -10 20 -16zM236 43h1c39 0 75 38 94 93
c4 11 7 24 7 36c0 11 -3 24 -9 38c-13 34 -44 74 -87 74c-51 0 -74 -65 -74 -133c0 -70 28 -108 68 -108zM206 593h1c19 0 32 -15 32 -34s-13 -36 -35 -36c-21 0 -35 15 -35 34c0 18 14 36 37 36zM347 593h1c19 0 33 -14 33 -34c0 -19 -13 -36 -35 -36c-20 0 -35 15 -35 34
c0 18 13 36 36 36z" />
    <glyph glyph-name="agrave" unicode="&#xe0;" horiz-adv-x="528" 
d="M323 267l4 1c-1 21 -5 44 -9 61c-12 46 -40 84 -88 84s-93 -21 -145 -66c-1 -1 -2 -2 -3 -2c-3 0 -11 12 -6 17c56 59 130 101 234 101c134 0 155 -113 155 -214c0 -19 -2 -76 -4 -110c-2 -45 -4 -89 -4 -105c0 -7 2 -10 10 -12l42 -10c4 -2 6 -6 6 -10c0 -2 -1 -3 -4 -3
c-12 1 -53 1 -92 1c-34 0 -55 0 -72 -1c-3 0 -5 1 -5 5c-1 8 -3 44 -3 66c0 5 -1 20 -1 28l-3 2c-4 -8 -9 -17 -14 -25c-25 -38 -75 -83 -159 -83c-65 0 -133 43 -133 134c0 90 58 183 187 183c40 0 72 -14 87 -26c6 -4 14 -10 20 -16zM236 43h1c39 0 75 38 94 93
c4 11 7 24 7 36c0 11 -3 24 -9 38c-13 34 -44 74 -87 74c-51 0 -74 -65 -74 -133c0 -70 28 -108 68 -108zM248 634h1c9 0 15 -5 19 -13c7 -16 26 -59 50 -102c2 -3 -7 -11 -10 -11c-1 0 -3 1 -4 2c-35 33 -86 92 -97 112c-2 3 -1 6 1 7c11 2 34 5 40 5z" />
    <glyph glyph-name="aring" unicode="&#xe5;" horiz-adv-x="528" 
d="M323 267l4 1c-1 21 -5 44 -9 61c-12 46 -40 84 -88 84s-93 -21 -145 -66c-1 -1 -2 -2 -3 -2c-3 0 -11 12 -6 17c56 59 130 101 234 101c134 0 155 -113 155 -214c0 -19 -2 -76 -4 -110c-2 -45 -4 -89 -4 -105c0 -7 2 -10 10 -12l42 -10c4 -2 6 -6 6 -10c0 -2 -1 -3 -4 -3
c-12 1 -53 1 -92 1c-34 0 -55 0 -72 -1c-3 0 -5 1 -5 5c-1 8 -3 44 -3 66c0 5 -1 20 -1 28l-3 2c-4 -8 -9 -17 -14 -25c-25 -38 -75 -83 -159 -83c-65 0 -133 43 -133 134c0 90 58 183 187 183c40 0 72 -14 87 -26c6 -4 14 -10 20 -16zM236 43h1c39 0 75 38 94 93
c4 11 7 24 7 36c0 11 -3 24 -9 38c-13 34 -44 74 -87 74c-51 0 -74 -65 -74 -133c0 -70 28 -108 68 -108zM282 618h1c37 0 62 -20 62 -50c0 -32 -26 -54 -65 -54c-37 0 -66 17 -66 51c0 29 25 53 68 53zM281 601h-1c-19 0 -33 -17 -33 -35c0 -22 15 -34 33 -34s31 15 31 36
c0 20 -13 33 -30 33z" />
    <glyph glyph-name="atilde" unicode="&#xe3;" horiz-adv-x="528" 
d="M323 267l4 1c-1 21 -5 44 -9 61c-12 46 -40 84 -88 84s-93 -21 -145 -66c-1 -1 -2 -2 -3 -2c-3 0 -11 12 -6 17c56 59 130 101 234 101c134 0 155 -113 155 -214c0 -19 -2 -76 -4 -110c-2 -45 -4 -89 -4 -105c0 -7 2 -10 10 -12l42 -10c4 -2 6 -6 6 -10c0 -2 -1 -3 -4 -3
c-12 1 -53 1 -92 1c-34 0 -55 0 -72 -1c-3 0 -5 1 -5 5c-1 8 -3 44 -3 66c0 5 -1 20 -1 28l-3 2c-4 -8 -9 -17 -14 -25c-25 -38 -75 -83 -159 -83c-65 0 -133 43 -133 134c0 90 58 183 187 183c40 0 72 -14 87 -26c6 -4 14 -10 20 -16zM236 43h1c39 0 75 38 94 93
c4 11 7 24 7 36c0 11 -3 24 -9 38c-13 34 -44 74 -87 74c-51 0 -74 -65 -74 -133c0 -70 28 -108 68 -108zM312 525h-1c-13 0 -29 10 -40 17c-11 8 -23 13 -35 13c-14 0 -26 -10 -31 -31c-1 -3 -7 -5 -13 -5c-1 0 -2 1 -2 2c1 36 20 78 50 78c17 0 30 -9 42 -18
c11 -8 23 -16 36 -16c15 0 24 17 25 33c0 5 8 7 13 7c1 0 1 -1 1 -2c0 -31 -11 -78 -45 -78z" />
    <glyph glyph-name="ccedilla" unicode="&#xe7;" horiz-adv-x="463" 
d="M37 192v1c0 83 39 158 100 206c51 41 115 64 193 64c42 0 70 -5 86 -12c3 -1 5 -4 5 -9l6 -108c0 -3 -9 -8 -12 -8c-2 0 -3 0 -4 2c-15 29 -31 61 -45 85c-4 8 -9 15 -18 21c-9 7 -22 9 -35 9c-36 0 -69 -29 -96 -87c-19 -39 -30 -91 -30 -148c0 -117 61 -172 134 -172
c14 0 34 2 51 6c28 6 48 14 66 23c2 1 5 -3 5 -9c0 -4 -1 -7 -4 -8c-19 -12 -56 -31 -100 -46c-16 -5 -33 -9 -74 -10l-35 -40c-2 -1 -1 -3 2 -3c20 -1 35 -15 35 -36c0 -36 -42 -60 -82 -65c-6 -1 -12 3 -13 9c0 1 0 3 2 3c31 8 47 25 47 45c0 15 -12 25 -30 24
c-2 0 -5 4 -2 8l50 55c-114 5 -202 60 -202 200z" />
    <glyph glyph-name="eacute" unicode="&#xe9;" horiz-adv-x="500" 
d="M467 264v-1c0 -12 -8 -24 -20 -28c-37 -12 -218 -12 -265 -8c-1 -23 2 -54 5 -68c17 -75 73 -122 131 -122c24 0 50 3 67 7c20 5 52 15 73 26c2 1 5 -5 5 -12c0 -3 -2 -4 -4 -6c-23 -14 -72 -38 -115 -50c-22 -7 -44 -10 -88 -10c-126 0 -219 59 -219 206
c0 135 98 265 240 265c134 0 190 -115 190 -199zM260 444l-1 -1c-39 0 -79 -59 -77 -198c56 -4 113 1 129 6c8 4 14 11 14 32c0 54 -12 161 -65 161zM259 507l-1 1c-1 0 -13 6 -9 13c24 42 42 84 50 100c3 8 9 12 19 12c8 1 31 -3 40 -4c3 -1 4 -3 2 -7
c-12 -21 -69 -83 -98 -114c-1 -1 -2 -1 -3 -1z" />
    <glyph glyph-name="ecircumflex" unicode="&#xea;" horiz-adv-x="500" 
d="M467 264v-1c0 -12 -8 -24 -20 -28c-37 -12 -218 -12 -265 -8c-1 -23 2 -54 5 -68c17 -75 73 -122 131 -122c24 0 50 3 67 7c20 5 52 15 73 26c2 1 5 -5 5 -12c0 -3 -2 -4 -4 -6c-23 -14 -72 -38 -115 -50c-22 -7 -44 -10 -88 -10c-126 0 -219 59 -219 206
c0 135 98 265 240 265c134 0 190 -115 190 -199zM260 444l-1 -1c-39 0 -79 -59 -77 -198c56 -4 113 1 129 6c8 4 14 11 14 32c0 54 -12 161 -65 161zM268 640h1c3 0 5 -3 7 -6c15 -24 41 -67 67 -112c2 -4 -2 -8 -4 -11c-2 -1 -4 -1 -5 0c-26 26 -42 42 -66 65
c-22 -22 -36 -38 -62 -64c-2 -1 -3 -2 -5 0c-3 2 -7 6 -5 10c25 44 53 94 64 111c3 4 4 7 8 7z" />
    <glyph glyph-name="edieresis" unicode="&#xeb;" horiz-adv-x="500" 
d="M467 264v-1c0 -12 -8 -24 -20 -28c-37 -12 -218 -12 -265 -8c-1 -23 2 -54 5 -68c17 -75 73 -122 131 -122c24 0 50 3 67 7c20 5 52 15 73 26c2 1 5 -5 5 -12c0 -3 -2 -4 -4 -6c-23 -14 -72 -38 -115 -50c-22 -7 -44 -10 -88 -10c-126 0 -219 59 -219 206
c0 135 98 265 240 265c134 0 190 -115 190 -199zM260 444l-1 -1c-39 0 -79 -59 -77 -198c56 -4 113 1 129 6c8 4 14 11 14 32c0 54 -12 161 -65 161zM192 593h1c18 0 32 -15 32 -34s-14 -36 -35 -36s-35 15 -35 34c0 18 14 36 37 36zM333 593h1c19 0 32 -14 32 -34
c0 -19 -13 -36 -34 -36s-36 15 -36 34c0 18 14 36 37 36z" />
    <glyph glyph-name="egrave" unicode="&#xe8;" horiz-adv-x="500" 
d="M467 264v-1c0 -12 -8 -24 -20 -28c-37 -12 -218 -12 -265 -8c-1 -23 2 -54 5 -68c17 -75 73 -122 131 -122c24 0 50 3 67 7c20 5 52 15 73 26c2 1 5 -5 5 -12c0 -3 -2 -4 -4 -6c-23 -14 -72 -38 -115 -50c-22 -7 -44 -10 -88 -10c-126 0 -219 59 -219 206
c0 135 98 265 240 265c134 0 190 -115 190 -199zM260 444l-1 -1c-39 0 -79 -59 -77 -198c56 -4 113 1 129 6c8 4 14 11 14 32c0 54 -12 161 -65 161zM216 634h1c9 0 15 -5 18 -13c8 -16 27 -59 51 -102c2 -3 -7 -12 -10 -12c-1 0 -3 2 -4 3c-35 33 -86 92 -97 112
c-2 3 -1 6 1 7c10 2 34 5 40 5z" />
    <glyph glyph-name="iacute" unicode="&#xed;" horiz-adv-x="286" 
d="M15 430l197 33c6 1 9 -3 9 -8c-2 -40 -7 -178 -8 -227c-1 -45 -3 -156 -3 -194c0 -9 2 -11 9 -13l50 -10c2 0 5 -7 5 -10c0 -2 0 -3 -2 -3c-24 1 -71 2 -125 2c-55 0 -102 -1 -122 -2c-3 0 -3 1 -3 2c0 4 2 10 5 11l47 11c7 2 11 4 11 13c0 22 -3 142 -4 191
c-1 41 -4 147 -5 172c-1 8 -2 15 -11 15l-45 2c-3 0 -7 7 -7 13c0 1 0 2 2 2zM138 508h-1c-1 0 -13 6 -9 13c24 42 42 84 50 100c3 8 9 12 19 12c8 1 31 -3 40 -4c3 -1 4 -3 2 -7c-12 -21 -69 -83 -98 -113c-1 -1 -2 -1 -3 -1z" />
    <glyph glyph-name="icircumflex" unicode="&#xee;" horiz-adv-x="286" 
d="M15 430l197 33c6 1 9 -3 9 -8c-2 -40 -7 -178 -8 -227c-1 -45 -3 -156 -3 -194c0 -9 2 -11 9 -13l50 -10c2 0 5 -7 5 -10c0 -2 0 -3 -2 -3c-24 1 -71 2 -125 2c-55 0 -102 -1 -122 -2c-3 0 -3 1 -3 2c0 4 2 10 5 11l47 11c7 2 11 4 11 13c0 22 -3 142 -4 191
c-1 41 -4 147 -5 172c-1 8 -2 15 -11 15l-45 2c-3 0 -7 7 -7 13c0 1 0 2 2 2zM141 640h1c3 0 5 -3 7 -6c15 -24 41 -67 67 -112c2 -4 -2 -8 -4 -11c-2 -1 -4 -1 -5 1c-26 25 -42 41 -66 64c-21 -22 -36 -38 -62 -63c-2 -2 -3 -3 -5 -1c-3 2 -7 6 -5 10c25 44 53 94 64 111
c3 4 4 7 8 7z" />
    <glyph glyph-name="idieresis" unicode="&#xef;" horiz-adv-x="286" 
d="M15 430l197 33c6 1 9 -3 9 -8c-2 -40 -7 -178 -8 -227c-1 -45 -3 -156 -3 -194c0 -9 2 -11 9 -13l50 -10c2 0 5 -7 5 -10c0 -2 0 -3 -2 -3c-24 1 -71 2 -125 2c-55 0 -102 -1 -122 -2c-3 0 -3 1 -3 2c0 4 2 10 5 11l47 11c7 2 11 4 11 13c0 22 -3 142 -4 191
c-1 41 -4 147 -5 172c-1 8 -2 15 -11 15l-45 2c-3 0 -7 7 -7 13c0 1 0 2 2 2zM74 593h1c19 0 33 -15 33 -34s-14 -36 -35 -36c-22 0 -36 15 -36 34c0 18 14 36 37 36zM215 593h1c19 0 33 -14 33 -34c0 -19 -13 -36 -35 -36c-20 0 -35 15 -35 34c0 18 13 36 36 36z" />
    <glyph glyph-name="igrave" unicode="&#xec;" horiz-adv-x="286" 
d="M15 430l197 33c6 1 9 -3 9 -8c-2 -40 -7 -178 -8 -227c-1 -45 -3 -156 -3 -194c0 -9 2 -11 9 -13l50 -10c2 0 5 -7 5 -10c0 -2 0 -3 -2 -3c-24 1 -71 2 -125 2c-55 0 -102 -1 -122 -2c-3 0 -3 1 -3 2c0 4 2 10 5 11l47 11c7 2 11 4 11 13c0 22 -3 142 -4 191
c-1 41 -4 147 -5 172c-1 8 -2 15 -11 15l-45 2c-3 0 -7 7 -7 13c0 1 0 2 2 2zM88 634h1c10 0 15 -5 19 -13c7 -16 26 -59 51 -102c2 -3 -8 -12 -10 -12c-1 0 -3 2 -4 3c-35 33 -86 92 -98 112c-1 3 -1 6 2 7c10 2 33 5 39 5z" />
    <glyph glyph-name="ntilde" unicode="&#xf1;" horiz-adv-x="612" 
d="M548 23l51 -12c3 0 5 -7 5 -11c0 -1 0 -2 -2 -2c-34 1 -69 2 -127 2c-57 0 -100 -1 -125 -2c-2 0 -3 1 -3 2c0 3 2 11 5 11l48 11c8 2 11 6 12 14c2 21 5 99 5 145c0 87 -12 188 -68 188c-48 0 -97 -76 -127 -198c-8 -35 -16 -99 -15 -136c0 -9 3 -12 9 -13l49 -11
c3 0 5 -7 5 -11c0 -1 -1 -2 -3 -2c-39 1 -71 2 -125 2s-92 -1 -122 -2c-2 0 -2 1 -2 2c0 4 2 11 5 12l51 9c6 2 9 5 9 14c0 30 -2 147 -2 191c-1 34 -4 146 -5 172c-1 9 -1 15 -10 16l-44 3c-3 0 -6 7 -6 12c0 2 0 3 3 3l194 31c6 1 8 -2 8 -8c-1 -14 -6 -141 -8 -195
c0 -10 -1 -23 -2 -34l5 -1c3 10 7 23 9 28c28 89 104 210 202 210c80 0 121 -75 121 -214c0 -74 -7 -167 -11 -209c-1 -10 1 -15 11 -17zM377 525h-1c-13 0 -29 10 -39 17c-12 8 -24 13 -35 13c-15 0 -26 -10 -31 -31c-1 -3 -8 -5 -14 -5c-1 0 -1 1 -1 2c0 36 19 78 49 78
c18 0 31 -9 43 -18c11 -8 23 -16 36 -16c15 0 23 17 25 33c0 5 8 7 13 7c1 0 1 -1 1 -2c0 -31 -12 -78 -46 -78z" />
    <glyph glyph-name="oacute" unicode="&#xf3;" horiz-adv-x="564" 
d="M257 -8h-1c-141 0 -219 86 -219 214c0 134 84 257 269 257c157 0 223 -100 223 -219c0 -132 -89 -252 -272 -252zM286 11h1c71 0 92 92 92 219c0 115 -28 214 -96 214c-66 0 -97 -88 -97 -221c0 -115 36 -212 100 -212zM285 508h-1c-1 0 -13 6 -9 13c24 42 42 84 49 100
c3 8 10 12 19 12c9 1 32 -3 41 -4c3 -1 3 -3 1 -7c-11 -21 -68 -83 -98 -113c-1 -1 -1 -1 -2 -1z" />
    <glyph glyph-name="ocircumflex" unicode="&#xf4;" horiz-adv-x="564" 
d="M257 -8h-1c-141 0 -219 86 -219 214c0 134 84 257 269 257c157 0 223 -100 223 -219c0 -132 -89 -252 -272 -252zM286 11h1c71 0 92 92 92 219c0 115 -28 214 -96 214c-66 0 -97 -88 -97 -221c0 -115 36 -212 100 -212zM286 640h1c3 0 5 -3 7 -6c15 -24 42 -67 67 -112
c2 -4 -2 -8 -4 -11c-2 -1 -4 -1 -5 1c-26 25 -42 41 -66 64c-21 -22 -36 -38 -62 -63c-2 -2 -3 -3 -4 -1c-4 2 -8 6 -6 10c25 44 53 94 64 111c3 4 5 7 8 7z" />
    <glyph glyph-name="odieresis" unicode="&#xf6;" horiz-adv-x="564" 
d="M257 -8h-1c-141 0 -219 86 -219 214c0 134 84 257 269 257c157 0 223 -100 223 -219c0 -132 -89 -252 -272 -252zM286 11h1c71 0 92 92 92 219c0 115 -28 214 -96 214c-66 0 -97 -88 -97 -221c0 -115 36 -212 100 -212zM214 593h1c19 0 33 -15 33 -34s-14 -36 -35 -36
c-22 0 -36 15 -36 34c0 18 14 36 37 36zM355 593h1c19 0 33 -14 33 -34c0 -19 -13 -36 -35 -36c-20 0 -35 15 -35 34c0 18 13 36 36 36z" />
    <glyph glyph-name="ograve" unicode="&#xf2;" horiz-adv-x="564" 
d="M257 -8h-1c-141 0 -219 86 -219 214c0 134 84 257 269 257c157 0 223 -100 223 -219c0 -132 -89 -252 -272 -252zM286 11h1c71 0 92 92 92 219c0 115 -28 214 -96 214c-66 0 -97 -88 -97 -221c0 -115 36 -212 100 -212zM232 634h1c10 0 15 -5 19 -13
c7 -16 26 -59 51 -102c2 -3 -7 -12 -10 -12c-1 0 -3 2 -4 3c-35 33 -86 92 -98 112c-1 3 -1 6 2 7c10 2 33 5 39 5z" />
    <glyph glyph-name="otilde" unicode="&#xf5;" horiz-adv-x="564" 
d="M257 -8h-1c-141 0 -219 86 -219 214c0 134 84 257 269 257c157 0 223 -100 223 -219c0 -132 -89 -252 -272 -252zM286 11h1c71 0 92 92 92 219c0 115 -28 214 -96 214c-66 0 -97 -88 -97 -221c0 -115 36 -212 100 -212zM323 525h-1c-13 0 -29 10 -39 17
c-12 8 -24 13 -36 13c-14 0 -25 -10 -30 -31c-1 -3 -8 -5 -14 -5c-1 0 -1 1 -1 2c0 36 19 78 49 78c18 0 31 -9 43 -18c11 -8 22 -16 36 -16c15 0 23 17 25 33c0 5 8 7 12 7c2 0 2 -1 2 -2c0 -31 -12 -78 -46 -78z" />
    <glyph glyph-name="scaron" unicode="&#x161;" horiz-adv-x="448" 
d="M44 306v1c0 77 102 156 247 156c44 0 76 -5 91 -12c3 -3 5 -5 5 -9l9 -102c0 -4 -9 -10 -13 -10c-2 0 -3 0 -4 3c-15 25 -29 50 -44 76c-5 7 -10 12 -17 17c-13 8 -36 14 -64 14c-49 0 -87 -31 -87 -71s27 -61 101 -88c94 -32 143 -65 143 -129
c0 -95 -104 -160 -266 -160c-21 0 -70 4 -90 12c-4 2 -6 4 -7 10l-8 104c0 5 10 9 13 9c1 0 3 0 4 -2c14 -25 29 -54 45 -79c5 -8 11 -12 18 -17c11 -7 38 -15 63 -15c60 0 108 26 108 73c0 43 -29 64 -110 91c-99 31 -137 68 -137 128zM230 510h-1c-3 0 -5 3 -7 6
c-15 24 -41 67 -67 112c-2 4 3 9 5 11c2 1 3 1 5 -1c26 -25 39 -39 65 -64c24 25 36 37 63 64c2 1 4 1 5 0c2 -3 6 -6 4 -10c-24 -44 -53 -93 -64 -111c-3 -4 -4 -7 -8 -7z" />
    <glyph glyph-name="uacute" unicode="&#xfa;" horiz-adv-x="591" 
d="M384 418l-45 4c-3 0 -6 6 -6 10c0 2 0 4 3 5l178 25c5 1 8 -2 8 -8c-1 -37 0 -190 0 -230c0 -47 3 -159 5 -185c1 -9 3 -14 12 -16l38 -10c3 -1 5 -9 5 -12c0 -1 0 -2 -3 -2c-26 1 -58 1 -97 1c-34 0 -66 0 -86 -1c-4 0 -6 3 -6 10c0 12 -1 95 0 133v31h-5
c-4 -11 -6 -20 -9 -26c-40 -98 -99 -155 -183 -155c-72 0 -131 59 -131 206c0 71 8 157 14 204c1 12 -2 17 -11 17h-42c-4 0 -8 8 -8 13c0 2 1 3 4 3l177 27c6 1 8 -2 8 -9c-1 -32 -6 -148 -6 -196c0 -137 19 -197 66 -197c60 0 110 103 125 238c3 26 5 81 5 100
c0 13 -3 19 -10 20zM292 508h-1c-1 0 -13 6 -9 13c24 42 42 84 50 100c3 8 9 12 19 12c8 1 31 -3 40 -4c3 -1 4 -3 2 -7c-12 -21 -69 -83 -98 -113c-1 -1 -2 -1 -3 -1z" />
    <glyph glyph-name="ucircumflex" unicode="&#xfb;" horiz-adv-x="591" 
d="M384 418l-45 4c-3 0 -6 6 -6 10c0 2 0 4 3 5l178 25c5 1 8 -2 8 -8c-1 -37 0 -190 0 -230c0 -47 3 -159 5 -185c1 -9 3 -14 12 -16l38 -10c3 -1 5 -9 5 -12c0 -1 0 -2 -3 -2c-26 1 -58 1 -97 1c-34 0 -66 0 -86 -1c-4 0 -6 3 -6 10c0 12 -1 95 0 133v31h-5
c-4 -11 -6 -20 -9 -26c-40 -98 -99 -155 -183 -155c-72 0 -131 59 -131 206c0 71 8 157 14 204c1 12 -2 17 -11 17h-42c-4 0 -8 8 -8 13c0 2 1 3 4 3l177 27c6 1 8 -2 8 -9c-1 -32 -6 -148 -6 -196c0 -137 19 -197 66 -197c60 0 110 103 125 238c3 26 5 81 5 100
c0 13 -3 19 -10 20zM298 640h1c3 0 5 -3 7 -6c15 -24 41 -67 67 -112c2 -4 -2 -8 -5 -11c-1 -1 -3 -1 -4 1c-26 25 -42 41 -66 64c-22 -22 -36 -38 -62 -63c-2 -2 -3 -3 -5 -1c-3 2 -7 6 -5 10c25 44 53 94 64 111c3 4 4 7 8 7z" />
    <glyph glyph-name="udieresis" unicode="&#xfc;" horiz-adv-x="591" 
d="M384 418l-45 4c-3 0 -6 6 -6 10c0 2 0 4 3 5l178 25c5 1 8 -2 8 -8c-1 -37 0 -190 0 -230c0 -47 3 -159 5 -185c1 -9 3 -14 12 -16l38 -10c3 -1 5 -9 5 -12c0 -1 0 -2 -3 -2c-26 1 -58 1 -97 1c-34 0 -66 0 -86 -1c-4 0 -6 3 -6 10c0 12 -1 95 0 133v31h-5
c-4 -11 -6 -20 -9 -26c-40 -98 -99 -155 -183 -155c-72 0 -131 59 -131 206c0 71 8 157 14 204c1 12 -2 17 -11 17h-42c-4 0 -8 8 -8 13c0 2 1 3 4 3l177 27c6 1 8 -2 8 -9c-1 -32 -6 -148 -6 -196c0 -137 19 -197 66 -197c60 0 110 103 125 238c3 26 5 81 5 100
c0 13 -3 19 -10 20zM226 593h1c19 0 33 -15 33 -34s-14 -36 -35 -36c-22 0 -36 15 -36 34c0 18 14 36 37 36zM368 593h1c19 0 32 -14 32 -34c0 -19 -13 -36 -34 -36s-36 15 -36 34c0 18 14 36 37 36z" />
    <glyph glyph-name="ugrave" unicode="&#xf9;" horiz-adv-x="591" 
d="M384 418l-45 4c-3 0 -6 6 -6 10c0 2 0 4 3 5l178 25c5 1 8 -2 8 -8c-1 -37 0 -190 0 -230c0 -47 3 -159 5 -185c1 -9 3 -14 12 -16l38 -10c3 -1 5 -9 5 -12c0 -1 0 -2 -3 -2c-26 1 -58 1 -97 1c-34 0 -66 0 -86 -1c-4 0 -6 3 -6 10c0 12 -1 95 0 133v31h-5
c-4 -11 -6 -20 -9 -26c-40 -98 -99 -155 -183 -155c-72 0 -131 59 -131 206c0 71 8 157 14 204c1 12 -2 17 -11 17h-42c-4 0 -8 8 -8 13c0 2 1 3 4 3l177 27c6 1 8 -2 8 -9c-1 -32 -6 -148 -6 -196c0 -137 19 -197 66 -197c60 0 110 103 125 238c3 26 5 81 5 100
c0 13 -3 19 -10 20zM244 634h1c10 0 15 -5 19 -13c7 -16 26 -59 51 -102c2 -3 -7 -12 -10 -12c-1 0 -3 2 -4 3c-35 33 -86 92 -98 112c-1 3 -1 6 2 7c10 2 33 5 39 5z" />
    <glyph glyph-name="yacute" unicode="&#xfd;" horiz-adv-x="510" 
d="M341 455h177c3 0 3 -1 3 -3c0 -5 -2 -12 -6 -13l-16 -5c-9 -2 -14 -5 -19 -17c-25 -70 -123 -297 -184 -402c-48 -78 -139 -207 -234 -207c-29 0 -38 5 -40 11l-19 111c-1 3 8 11 12 11c1 0 2 0 3 -1l29 -48c11 -16 21 -21 38 -21c28 0 89 24 131 86c4 5 5 11 1 19
c-38 86 -140 331 -178 443c-3 6 -6 12 -12 13l-26 7c-4 1 -6 7 -6 13c0 2 0 3 4 3h254c3 0 3 -1 3 -3c0 -5 -3 -12 -7 -13l-37 -7c-7 -1 -11 -7 -9 -15c20 -71 62 -221 87 -305c2 -6 5 -16 8 -27h5c5 12 10 23 11 29c30 86 71 228 81 302c2 12 -1 15 -9 17l-42 6
c-4 1 -6 7 -6 13c0 2 0 3 3 3zM305 507h-1c-1 0 -13 7 -9 14c24 42 42 84 49 100c4 8 10 12 20 12c8 1 31 -3 40 -4c3 -1 3 -4 1 -7c-11 -21 -68 -83 -98 -114c-1 -1 -1 -1 -2 -1z" />
    <glyph glyph-name="ydieresis" unicode="&#xff;" horiz-adv-x="510" 
d="M341 455h177c3 0 3 -1 3 -3c0 -5 -2 -12 -6 -13l-16 -5c-9 -2 -14 -5 -19 -17c-25 -70 -123 -297 -184 -402c-48 -78 -139 -207 -234 -207c-29 0 -38 5 -40 11l-19 111c-1 3 8 11 12 11c1 0 2 0 3 -1l29 -48c11 -16 21 -21 38 -21c28 0 89 24 131 86c4 5 5 11 1 19
c-38 86 -140 331 -178 443c-3 6 -6 12 -12 13l-26 7c-4 1 -6 7 -6 13c0 2 0 3 4 3h254c3 0 3 -1 3 -3c0 -5 -3 -12 -7 -13l-37 -7c-7 -1 -11 -7 -9 -15c20 -71 62 -221 87 -305c2 -6 5 -16 8 -27h5c5 12 10 23 11 29c30 86 71 228 81 302c2 12 -1 15 -9 17l-42 6
c-4 1 -6 7 -6 13c0 2 0 3 3 3zM231 593h1c19 0 32 -15 32 -34s-13 -36 -35 -36c-21 0 -35 15 -35 34c0 18 14 36 37 36zM372 593h1c19 0 33 -14 33 -34c0 -19 -13 -36 -35 -36c-20 0 -35 15 -35 34c0 18 13 36 36 36z" />
    <glyph glyph-name="zcaron" unicode="&#x17e;" horiz-adv-x="491" 
d="M126 26l1 -1c12 -1 23 0 34 0c30 1 156 10 216 26c8 2 16 7 21 16l43 75c1 2 2 2 3 2c4 0 13 -5 12 -9l-19 -131c0 -4 -3 -6 -9 -6c-35 0 -121 2 -229 2c-70 0 -98 -1 -139 -1c-14 0 -21 6 -32 30c-3 7 -8 20 -8 24c0 3 1 5 2 7c85 106 215 260 260 322c6 9 15 19 21 27
v3c-7 3 -15 4 -23 5c-45 8 -117 18 -148 18c-9 0 -14 -4 -18 -12l-54 -98c-1 -2 -2 -2 -3 -2c-4 0 -14 7 -13 11l15 116c0 5 3 8 7 8c21 -1 83 -3 159 -3c88 0 178 1 197 1c4 0 6 -2 7 -5c14 -31 19 -55 19 -66c0 -9 -1 -18 -9 -28c-75 -90 -219 -237 -288 -305
c-6 -7 -17 -18 -25 -26zM265 510h-1c-3 0 -5 3 -7 6c-15 24 -41 67 -67 112c-2 4 3 9 5 11c2 1 3 1 5 -1c27 -25 39 -39 65 -64c24 25 36 37 63 64c2 1 4 1 5 0c2 -3 6 -6 4 -10c-24 -44 -53 -93 -64 -111c-3 -4 -4 -7 -8 -7z" />
    <glyph glyph-name="Omega" unicode="&#x2126;" horiz-adv-x="656" 
d="M50 296v1c0 211 122 327 294 327c170 0 265 -130 265 -287c0 -143 -68 -243 -147 -300c-10 -7 -3 -15 6 -15c39 0 52 5 89 12c12 3 21 8 27 16c21 25 33 53 50 81c1 1 4 2 5 1c4 0 13 -6 12 -10l-20 -121c-2 -3 -3 -5 -10 -5c-18 0 -20 1 -39 2c-18 1 -53 2 -138 2
c-30 0 -47 -1 -66 -1c-6 0 -10 3 -10 7c0 5 12 11 15 15c51 44 74 143 74 312c0 139 -48 271 -127 271c-85 0 -131 -124 -131 -320c0 -113 46 -222 89 -263c3 -4 15 -10 15 -15c0 -4 -6 -7 -12 -7c-32 0 -60 1 -85 1c-64 0 -105 -1 -132 -2s-38 -2 -43 -2c-7 0 -8 2 -10 5
l-19 121c-1 4 7 10 11 10c1 0 4 0 5 -2c18 -28 33 -57 53 -82c4 -7 29 -15 38 -17c24 -5 37 -9 76 -9c9 0 12 8 3 14c-58 41 -138 129 -138 260z" />
    <glyph glyph-name="pi" unicode="&#x3c0;" horiz-adv-x="562" 
d="M196 445h1c92 0 258 -4 310 -4c10 0 16 0 20 6l14 21c2 3 8 5 11 5c3 -1 8 -4 7 -6c-3 -11 -6 -28 -11 -44c-3 -12 -7 -29 -11 -40c-2 -7 -9 -10 -17 -10c-4 0 -27 2 -46 3c-1 -25 -3 -60 -3 -134c0 -67 -2 -174 -2 -204c0 -7 0 -12 10 -13c16 -1 34 -4 49 -5
c5 -1 9 -5 9 -7c0 -3 -4 -6 -8 -7c-14 -2 -37 -4 -59 -7c-25 -2 -98 -7 -105 -7c-5 0 -11 6 -12 13c-2 5 -7 148 -12 222c-1 12 -9 119 -10 153c-56 2 -92 4 -139 7c-2 -62 -3 -112 -7 -178c-3 -68 -8 -137 -20 -196c-3 -14 -6 -24 -28 -22l-113 8c-21 2 -25 4 -25 10
c0 5 8 7 34 12c12 2 22 4 32 7c17 5 49 131 59 183c11 64 18 116 23 176c-51 2 -88 -3 -127 -25c-2 -2 -9 5 -9 8c0 2 1 3 3 5c60 55 96 70 182 70z" />
    <glyph glyph-name="Euro" unicode="&#x20ac;" horiz-adv-x="488" 
d="M310 -8h-1c-131 0 -239 65 -254 230c-16 -1 -32 -2 -45 -2c-3 0 -5 2 -5 5c0 17 5 37 11 36h37c1 17 1 32 3 48c-10 -1 -20 -1 -28 -1c-3 0 -5 2 -5 4c0 20 4 37 11 37c6 0 20 -1 28 -1c17 83 58 145 113 187c53 40 119 63 188 63c42 0 77 -8 96 -19c4 -2 6 -4 6 -9
l8 -134c0 -5 -9 -9 -13 -9c-2 0 -4 1 -5 3c-17 40 -33 84 -48 116c-3 7 -8 15 -13 19c-6 6 -16 12 -32 12c-40 0 -73 -22 -98 -54c-34 -44 -55 -106 -64 -176c71 -1 151 -2 224 -2c2 0 3 -3 3 -5c0 -10 -3 -22 -7 -22c-56 -2 -142 -5 -223 -6c-1 -16 -2 -32 -1 -49
c69 1 145 2 214 3c2 0 3 -3 3 -5c0 -10 -4 -23 -8 -23c-53 -2 -130 -6 -207 -10c13 -137 87 -193 158 -193c17 0 35 3 49 6c20 5 44 15 70 27c3 1 6 -2 6 -12c0 -3 -2 -6 -4 -8c-20 -12 -60 -35 -93 -45c-16 -5 -44 -11 -74 -11z" />
    <glyph glyph-name="estimated" unicode="&#x212e;" horiz-adv-x="771" 
d="M723 285h-545c-3 0 -5 -1 -5 -4v-165c0 -7 2 -14 7 -19c53 -55 126 -89 206 -89c87 0 164 40 217 101h49c-60 -71 -158 -119 -267 -119c-185 0 -335 136 -335 303s150 302 336 302s337 -135 337 -302v-8zM599 306v166c0 7 -3 14 -8 19c-53 52 -124 86 -204 86
s-153 -34 -206 -88c-5 -5 -8 -13 -8 -21v-162c0 -2 2 -5 5 -5h417c3 0 4 3 4 5z" />
    <glyph glyph-name="partialdiff" unicode="&#x2202;" horiz-adv-x="513" 
d="M23 166v1c0 132 104 195 220 195c50 0 97 -23 116 -64c3 26 3 58 3 90c0 43 -11 104 -34 150c-26 51 -68 92 -130 92c-49 0 -84 -15 -126 -37c-2 -1 -7 5 -9 11c-1 2 0 5 2 7c43 25 82 46 133 46c101 0 171 -38 216 -94c50 -62 70 -146 70 -226c0 -72 -21 -171 -72 -244
c-42 -60 -106 -101 -196 -101c-105 0 -193 57 -193 174zM159 166v-1c0 -116 32 -153 66 -153c39 0 68 45 91 114c15 45 26 98 34 142c-10 30 -44 68 -84 68c-77 0 -107 -82 -107 -170z" />
    <glyph glyph-name="product" unicode="&#x220f;" horiz-adv-x="653" 
d="M423 247v1c0 29 -5 303 -5 315c0 13 -4 17 -12 19c-30 4 -51 5 -74 5c-22 0 -79 -2 -79 -2c-7 0 -15 -8 -15 -15c-3 -67 -12 -293 -12 -308c0 -37 -6 -276 -4 -317c0 -9 3 -10 9 -11l46 -11c3 -1 5 -5 5 -8s0 -6 -2 -6c-22 1 -90 2 -122 2c-26 0 -108 -1 -121 -2
c-2 0 -3 3 -3 7c0 3 2 7 5 8l43 9c7 2 10 4 10 15c0 33 -1 263 -1 301s-7 306 -7 317c0 19 -2 23 -20 26l-29 7c-3 1 -6 4 -6 9s2 8 6 8c54 0 258 -1 307 -1c55 0 230 1 276 1c6 0 8 -2 7 -8c0 -6 -7 -10 -13 -11l-24 -5c-12 -2 -14 -5 -15 -22c-4 -38 -12 -264 -14 -328
c-1 -43 -6 -272 -6 -287s1 -18 8 -20l47 -11c2 0 6 -4 6 -8c0 -3 -1 -7 -4 -7c-9 1 -113 2 -132 2c-27 0 -103 -1 -117 -2c-2 0 -3 2 -3 5s1 8 5 9l50 11c7 2 9 5 10 13c2 29 0 269 0 300z" />
    <glyph glyph-name="summation" unicode="&#x2211;" horiz-adv-x="527" 
d="M203 -113h-1c-60 0 -118 -1 -154 -1c-15 0 -13 3 -25 34c-3 9 -6 21 -6 26c0 2 1 5 2 7c83 92 157 171 247 268c-72 91 -136 175 -224 290c-8 11 -11 19 -11 29c0 13 9 40 28 73c1 3 4 5 8 5c19 -1 76 -2 208 -2c99 0 164 1 186 1c4 0 6 -2 7 -7c7 -49 15 -105 20 -147
c1 -4 -11 -10 -13 -10s-4 0 -5 2l-65 125c-5 9 -10 13 -18 13c-35 0 -105 -10 -160 -18c-11 -2 -28 -5 -42 -7l-1 -2c11 -14 21 -28 30 -41c53 -75 89 -129 165 -234c-87 -108 -201 -238 -278 -325l1 -3h32c59 2 203 7 270 20c11 2 19 7 27 19l48 76c1 2 4 3 5 3
c3 0 14 -6 13 -10c-8 -50 -18 -125 -24 -178c-1 -7 -3 -10 -10 -10c-8 0 -43 4 -260 4z" />
    <glyph glyph-name="uni2219" unicode="&#x2219;" horiz-adv-x="185" 
d="M93 370h1c31 0 52 -26 52 -54c0 -27 -21 -52 -54 -52c-30 0 -53 21 -53 51c0 27 20 55 54 55z" />
    <glyph glyph-name="radical" unicode="&#x221a;" horiz-adv-x="500" 
d="M450 751h1c8 0 26 -4 36 -12c6 -5 10 -11 10 -19c0 -10 -3 -21 -6 -35c-38 -199 -100 -470 -158 -733c-4 -17 -12 -22 -58 -22l-28 -1c-7 0 -11 2 -13 7c-29 72 -98 236 -162 377c-2 6 -9 11 -17 9l-38 -10c-7 -2 -14 1 -15 5c0 5 5 11 11 13c36 15 111 46 152 67
c4 1 10 -5 10 -5c27 -98 95 -306 118 -388c3 -8 6 -17 8 -27h6c3 14 5 28 8 43c37 222 86 515 118 723c2 9 9 8 17 8z" />
    <glyph glyph-name="infinity" unicode="&#x221e;" horiz-adv-x="599" 
d="M31 266c0 79 56 125 132 125c59 0 100 -36 140 -86c37 40 75 86 142 86c69 0 123 -43 123 -122c0 -73 -49 -127 -128 -127c-46 0 -88 21 -139 87c-40 -48 -81 -87 -145 -87c-65 0 -125 44 -125 124zM85 264v-1c0 -41 35 -75 79 -75c45 0 77 37 109 75
c-29 38 -59 82 -112 82c-47 0 -76 -35 -76 -81zM513 265v1c0 43 -27 79 -75 79s-81 -44 -110 -77c47 -58 72 -80 114 -80c45 0 71 43 71 77z" />
    <glyph glyph-name="integral" unicode="&#x222b;" horiz-adv-x="313" 
d="M110 41l-19 308c-9 156 30 236 74 283c30 31 76 57 120 57s72 -17 72 -41c0 -21 -13 -36 -48 -36c-21 0 -39 14 -47 25c-9 11 -15 21 -25 21c-11 0 -20 -10 -25 -28c-6 -21 -6 -65 -3 -110l17 -268c9 -150 -17 -241 -60 -297c-32 -42 -82 -65 -128 -65
c-39 0 -84 12 -84 40c0 19 16 34 47 34c15 0 32 -8 51 -24c11 -10 20 -20 31 -20s22 13 25 37c4 21 4 54 2 84z" />
    <glyph glyph-name="approxequal" unicode="&#x2248;" 
d="M125 403h1c23 0 45 -14 67 -34c24 -20 41 -28 60 -28c30 0 43 35 45 61c0 4 8 6 17 6c2 0 2 -1 2 -2c3 -47 -9 -117 -67 -117c-24 0 -48 11 -69 27c-22 17 -39 26 -60 26c-29 0 -49 -28 -54 -54c-1 -6 -6 -7 -18 -7c-1 0 -2 2 -2 4c-2 51 25 118 78 118zM125 270h1
c23 0 45 -13 67 -33c24 -21 41 -29 60 -29c30 0 43 36 45 61c0 5 8 7 17 7c2 0 2 -1 2 -2c3 -45 -9 -118 -67 -118c-24 0 -48 12 -69 28c-22 17 -39 26 -60 26c-29 0 -49 -28 -54 -54c-1 -6 -6 -7 -18 -7c-1 0 -2 1 -2 4c-2 53 25 117 78 117z" />
    <glyph glyph-name="notequal" unicode="&#x2260;" 
d="M37 353v1c0 2 2 4 4 4c18 -1 83 -4 147 -7c13 30 25 58 34 81c1 3 12 4 26 1c14 -2 33 -14 30 -20c-10 -18 -22 -41 -35 -65c32 -1 62 -2 82 -4c2 0 3 -1 3 -3c0 -8 -3 -23 -6 -23c-18 -1 -56 -4 -98 -6c-12 -23 -25 -46 -38 -70c53 -3 107 -5 139 -7c2 0 3 -1 3 -3
c0 -9 -3 -23 -9 -23c-25 -2 -95 -7 -157 -11c-19 -34 -36 -66 -51 -92c-1 -2 -12 -1 -17 0c-6 1 -10 4 -8 6c10 23 22 52 36 83c-35 -2 -63 -4 -69 -4c-11 0 -14 33 -14 53c0 3 2 5 4 5c14 -1 54 -3 100 -5c9 21 18 42 27 64c-56 -4 -109 -8 -118 -8c-11 0 -15 33 -15 53z
" />
    <glyph glyph-name="lessequal" unicode="&#x2264;" 
d="M70 306v1c0 2 1 6 4 9c39 37 146 129 183 163c2 1 3 1 4 0c7 -8 10 -13 6 -18c-31 -40 -87 -113 -113 -149c35 -44 88 -108 118 -142c4 -4 1 -10 -4 -18c-1 -1 -2 -1 -4 0c-38 30 -153 115 -191 146c-2 2 -3 5 -3 8zM327 110v-1c0 -10 -3 -19 -9 -19
c-46 -4 -246 -16 -264 -16c-11 0 -14 28 -14 49c0 3 1 5 4 5c34 -2 233 -11 280 -14c2 0 3 -2 3 -4z" />
    <glyph glyph-name="greaterequal" unicode="&#x2265;" 
d="M296 325v-1c0 -2 -1 -6 -4 -9c-39 -37 -146 -129 -184 -163c-2 -1 -3 -1 -4 0c-7 8 -8 15 -5 18c33 41 87 114 113 150c-35 44 -89 109 -117 142c-3 4 -2 9 5 17c1 1 2 2 4 0c36 -30 151 -115 189 -146c2 -2 3 -5 3 -8zM327 110v-1c0 -10 -3 -19 -9 -19
c-46 -4 -246 -16 -264 -16c-11 0 -14 28 -14 49c0 3 1 5 4 5c34 -2 233 -11 280 -14c2 0 3 -2 3 -4z" />
    <glyph glyph-name="lozenge" unicode="&#x25ca;" horiz-adv-x="498" 
d="M469 294l-186 -318h-69l-185 318l189 320h66zM396 293l-143 256h-6l-146 -253l146 -257h6z" />
    <glyph glyph-name="uni02C9" unicode="&#x2c9;" horiz-adv-x="224" 
d="M194 567v-1c0 -6 -4 -19 -7 -19c-38 -4 -119 -10 -155 -12c-2 0 -2 1 -2 2c0 12 3 41 9 41c52 -2 111 -6 153 -8c2 0 2 -1 2 -3z" />
    <glyph glyph-name="uni00AD" unicode="&#xad;" horiz-adv-x="264" 
d="M234 308v-1c0 -10 -4 -25 -11 -25c-43 -4 -138 -14 -190 -17c-2 0 -3 2 -3 5c0 15 4 45 12 45c68 -2 142 -4 189 -4c2 0 3 -1 3 -3z" />
    <glyph glyph-name="uni03A9" unicode="&#x3a9;" horiz-adv-x="656" 
d="M50 296v1c0 211 122 327 294 327c170 0 265 -130 265 -287c0 -143 -68 -243 -147 -300c-10 -7 -3 -15 6 -15c39 0 52 5 89 12c12 3 21 8 27 16c21 25 33 53 50 81c1 1 4 2 5 1c4 0 13 -6 12 -10l-20 -121c-2 -3 -3 -5 -10 -5c-18 0 -20 1 -39 2c-18 1 -53 2 -138 2
c-30 0 -47 -1 -66 -1c-6 0 -10 3 -10 7c0 5 12 11 15 15c51 44 74 143 74 312c0 139 -48 271 -127 271c-85 0 -131 -124 -131 -320c0 -113 46 -222 89 -263c3 -4 15 -10 15 -15c0 -4 -6 -7 -12 -7c-32 0 -60 1 -85 1c-64 0 -105 -1 -132 -2s-38 -2 -43 -2c-7 0 -8 2 -10 5
l-19 121c-1 4 7 10 11 10c1 0 4 0 5 -2c18 -28 33 -57 53 -82c4 -7 29 -15 38 -17c24 -5 37 -9 76 -9c9 0 12 8 3 14c-58 41 -138 129 -138 260z" />
    <glyph glyph-name="uni00A0" unicode="&#xa0;" horiz-adv-x="194" 
 />
    <glyph glyph-name="afii61289" unicode="&#x2113;" horiz-adv-x="383" 
d="M248 668h1c64 0 110 -48 110 -122c0 -112 -91 -193 -172 -264v-67c0 -131 36 -175 86 -175c39 0 80 29 108 53c3 2 6 5 14 -4c4 -4 4 -8 -1 -12c-48 -47 -95 -85 -168 -85c-126 0 -155 73 -155 168v57c-17 -11 -33 -21 -51 -33c-2 -2 -7 -2 -9 4c-3 9 -5 11 2 16
c19 16 39 30 58 45v140c0 119 56 279 177 279zM245 648h-1c-27 0 -57 -40 -57 -215v-113c57 55 106 123 106 220c0 66 -23 108 -48 108z" />
    <glyph glyph-name="uni03BC" unicode="&#x3bc;" horiz-adv-x="588" 
d="M18 435l177 27c6 1 8 -2 8 -9c-1 -32 -6 -148 -6 -196c0 -137 19 -196 68 -196c45 0 80 54 101 134c11 42 23 122 25 182c0 14 1 27 2 38c1 25 21 42 71 44l43 1c10 0 12 -4 12 -14c0 -41 -2 -182 -2 -222c0 -62 3 -159 4 -185c1 -9 3 -14 12 -16l37 -10c4 -1 6 -8 6 -11
c0 -2 0 -3 -3 -3c-24 1 -57 1 -95 1c-35 0 -66 0 -86 -1c-4 0 -6 2 -6 10c0 11 -1 95 -1 134c0 7 1 18 1 30h-5c-3 -10 -6 -20 -9 -28c-26 -78 -77 -147 -143 -147c-23 0 -44 8 -61 24c-4 -54 -12 -140 -16 -185c-2 -20 -39 -28 -86 -28c-2 0 -4 2 -4 5c-1 114 1 269 2 343
c1 94 6 198 11 245c1 12 -2 17 -11 17h-42c-4 0 -8 8 -8 13c0 2 1 3 4 3z" />
    <glyph glyph-name="uni2215" unicode="&#x2215;" horiz-adv-x="98" 
d="M254 599h1c4 0 5 -3 3 -8c-106 -190 -210 -397 -328 -594c-1 -2 -3 -3 -5 -3c-21 0 -27 2 -25 6c92 174 201 414 283 583c7 14 24 17 71 16z" />
    <glyph glyph-name="a.superior" horiz-adv-x="357" 
d="M225 376l-2 1c-2 -4 -5 -10 -8 -15c-20 -27 -56 -46 -100 -46c-51 0 -89 28 -89 81c0 54 38 110 122 110c22 0 41 -8 53 -15c4 -2 9 -6 13 -10l3 1c-1 10 -3 26 -6 35c-8 27 -24 48 -54 48c-28 0 -58 -12 -91 -39c-1 -1 -2 -2 -3 -2c-3 0 -10 10 -6 15
c36 35 82 59 149 59c87 0 100 -68 100 -129c0 -11 0 -45 -2 -66c-1 -26 -3 -48 -3 -58c0 -4 2 -6 7 -7l27 -7c3 0 4 -5 4 -10c0 -1 0 -2 -2 -2c-9 1 -35 1 -60 1c-22 0 -35 -1 -47 -1c-2 0 -4 1 -4 3c0 6 -1 23 -1 36v17zM161 350h1c23 0 46 22 57 53c3 6 5 14 5 21
s-2 15 -6 23c-9 20 -28 38 -52 38c-34 0 -49 -35 -49 -73c0 -41 18 -62 44 -62z" />
    <glyph glyph-name="o.superior" 
d="M168 316h-1c-91 0 -141 52 -141 129c0 80 53 154 173 154c101 0 143 -60 143 -131c0 -80 -57 -152 -174 -152zM186 334h1c46 0 58 51 58 126c0 66 -16 121 -60 121c-43 0 -62 -51 -62 -126c0 -68 21 -121 63 -121z" />
    <glyph glyph-name="one.superior" horiz-adv-x="245" 
d="M22 543l143 54c5 2 8 -1 8 -5c0 -7 -5 -159 -5 -192c-1 -52 -3 -127 -3 -135c0 -4 4 -6 9 -7l37 -5c2 0 4 -6 4 -11c0 -2 0 -3 -2 -3c-20 1 -51 1 -88 1c-38 0 -73 0 -88 -1c-2 0 -2 1 -2 3c0 5 2 11 5 11l38 5c4 1 8 4 8 10c0 14 -2 109 -2 128c-1 30 -3 110 -4 134
c-1 5 -4 7 -8 7l-44 -8c-2 0 -5 5 -7 10c-1 2 -1 3 1 4z" />
    <glyph glyph-name="two.superior" horiz-adv-x="317" 
d="M93 260l1 -1h24c15 1 77 3 110 11c7 2 12 6 16 12l27 40c1 1 2 1 3 1c4 0 10 -4 10 -7l-12 -71c-2 -5 -3 -8 -8 -8c-19 1 -58 2 -131 2h-93c-8 0 -13 2 -17 13l-4 8c0 2 0 5 2 6c75 59 155 132 155 220c0 53 -29 77 -65 77c-29 0 -53 -16 -70 -35c-1 -1 -2 -2 -4 -2
c-3 0 -9 12 -6 17c20 28 65 55 124 55c68 0 118 -39 118 -107c0 -96 -94 -177 -155 -216c-4 -4 -14 -9 -25 -15z" />
    <glyph glyph-name="three.superior" horiz-adv-x="318" 
d="M164 431v-3c6 0 13 -1 21 -3c63 -8 95 -46 95 -84c0 -75 -78 -107 -170 -107c-31 0 -64 7 -83 19c-5 4 -3 19 -1 19c1 0 2 -1 4 -2c16 -8 41 -13 63 -13c49 0 94 26 94 78c0 37 -23 79 -109 79c-3 0 -6 5 -6 13c0 2 1 2 3 2c75 7 99 40 99 83c0 32 -24 57 -61 57
c-27 0 -56 -15 -68 -31c-1 -1 -2 -1 -4 -1c-3 0 -8 11 -5 15c14 21 57 46 109 46c81 0 120 -35 120 -83c0 -40 -40 -69 -86 -81c-5 -1 -8 -2 -15 -3z" />
    <glyph glyph-name="uni2206" unicode="&#x2206;" horiz-adv-x="569" 
d="M273 618h1c42 0 64 -1 90 -2c5 -1 8 -2 9 -4c36 -120 135 -467 177 -608c2 -3 -1 -8 -8 -8c-24 0 -94 1 -161 2s-132 2 -149 2c-49 0 -161 -1 -207 -3c-8 0 -13 12 -10 17c61 159 144 415 202 571c9 27 21 33 56 33zM387 44h1c11 0 15 4 12 13c-51 150 -106 306 -157 458
c-3 7 -5 15 -10 25h-5c-3 -10 -6 -22 -8 -29c-39 -144 -87 -317 -124 -458c-2 -8 4 -11 12 -11c37 -1 70 -1 125 -1c57 1 117 2 154 3z" />
    <glyph glyph-name="uni2010" unicode="&#x2010;" horiz-adv-x="264" 
d="M234 308v-1c0 -10 -4 -25 -11 -25c-43 -4 -138 -14 -190 -17c-2 0 -3 2 -3 5c0 15 4 45 12 45c68 -2 142 -4 189 -4c2 0 3 -1 3 -3z" />
    </font>
</defs>
</svg>
