<?xml version="1.0" standalone="no"?>
<!DOCTYPE svg PUBLIC "-//W3C//DTD SVG 1.1//EN" "http://www.w3.org/Graphics/SVG/1.1/DTD/svg11.dtd" >
<svg xmlns="http://www.w3.org/2000/svg" xmlns:xlink="http://www.w3.org/1999/xlink" version="1.1">
<metadata>
Created by FontForge 20160407 at Fri Nov 25 14:14:56 2016
 By Jimmy Warting
Copyright \(c\) Manfred Klein; , 2004. All rights reserved.
</metadata>
<defs>
<font id="OptimusPrinceps" horiz-adv-x="361" >
  <font-face 
    font-family="OptimusPrinceps"
    font-weight="500"
    font-stretch="normal"
    units-per-em="1000"
    panose-1="2 0 6 5 6 0 0 2 0 4"
    ascent="800"
    descent="-200"
    x-height="619"
    cap-height="741"
    bbox="-27 -244.8 1444 862"
    underline-thickness="20"
    underline-position="-143"
    unicode-range="U+0005-E000"
  />
<missing-glyph horiz-adv-x="279" 
d="M257 691q0 15 -9.5 27t-26.5 12q-14 0 -23 -10.5t-9 -24.5q0 -13 11 -26t25 -13t23 10.5t9 24.5zM90 691q0 15 -10 27t-26 12q-14 0 -23 -10.5t-9 -24.5q0 -13 11 -26t25 -13t23 10.5t9 24.5z" />
    <glyph glyph-name=".notdef" horiz-adv-x="279" 
d="M257 691q0 15 -9.5 27t-26.5 12q-14 0 -23 -10.5t-9 -24.5q0 -13 11 -26t25 -13t23 10.5t9 24.5zM90 691q0 15 -10 27t-26 12q-14 0 -23 -10.5t-9 -24.5q0 -13 11 -26t25 -13t23 10.5t9 24.5z" />
    <glyph glyph-name="breve" horiz-adv-x="270" 
d="M248 836q-20 -23 -47.5 -39.5t-59.5 -16.5q-29 0 -52 16.5t-38 39.5q-10 -6 -19.5 -15.5t-9.5 -22.5t11.5 -21.5t27 -13t31.5 -6t25 -1.5q19 0 41 4t41 13t32.5 24.5t16.5 38.5z" />
    <glyph glyph-name="dotaccent" horiz-adv-x="124" 
d="M102 786q0 18 -12 32.5t-31 14.5q-16 0 -26.5 -9t-10.5 -26q0 -16 9.5 -33.5t28.5 -17.5q16 0 29 11t13 28z" />
    <glyph glyph-name="ring" horiz-adv-x="201" 
d="M179 805q0 26 -18.5 41.5t-43.5 15.5q-17 0 -34 -6t-30.5 -16.5t-22 -26t-8.5 -33.5q0 -20 12 -34t32 -14q10 0 20 3.5t18 8.5q13 1 26.5 5t24 11.5t17.5 18.5t7 26zM141 796q0 -13 -10.5 -25t-23.5 -12q-19 0 -35 12.5t-16 32.5q0 16 13.5 27t28.5 11q18 0 30.5 -14.5
t12.5 -31.5z" />
    <glyph glyph-name="hungarumlaut" unicode="&#xa;" horiz-adv-x="269" 
d="M247 826q-5 11 -13.5 22.5t-22.5 11.5q-11 0 -24 -14.5t-25.5 -33t-23.5 -37t-18 -27.5q12 9 28 21.5t33 25t34.5 21.5t31.5 10zM140 834q-5 8 -13 14.5t-18 6.5q-16 0 -28 -13t-22 -30.5t-19 -35.5t-18 -28q29 22 57.5 44.5t60.5 41.5z" />
    <glyph glyph-name="ogonek" horiz-adv-x="196" 
d="M174 -91q-19 -5 -36 -2t-30 13t-21 25t-8 35q0 27 16.5 48.5t39.5 32.5q-18 -5 -38 -13t-36.5 -20t-27.5 -28.5t-11 -38.5q0 -17 7 -30.5t18.5 -23.5t26.5 -15.5t31 -5.5q19 0 36.5 6t32.5 17z" />
    <glyph glyph-name="caron" horiz-adv-x="258" 
d="M236 843q-13 -4 -26.5 -13.5t-26.5 -19t-25 -17.5t-23 -10q-26 8 -45.5 28t-40.5 36q-8 -7 -15 -14.5t-12 -16.5q26 -21 53 -41t56 -38q29 24 55.5 50.5t49.5 55.5z" />
    <glyph glyph-name="Lslash" 
 />
    <glyph glyph-name="Zcaron" 
 />
    <glyph glyph-name="space" unicode=" " horiz-adv-x="244" 
 />
    <glyph glyph-name="exclam" unicode="!" horiz-adv-x="132" 
d="M109 691l-5 4q-12 -2 -26 -10t-26.5 -19.5t-21 -25.5t-8.5 -27q0 -18 1 -53t3.5 -78.5t5.5 -90t7.5 -87.5t10.5 -72.5t13 -43.5q2 -3 5 -2t3 4q6 62 10 125.5t9 125.5q5 63 9.5 125t9.5 125zM110 89q0 20 -13 35t-33 15q-17 0 -29 -9.5t-12 -28.5q0 -9 2.5 -18.5t8 -17.5
t13 -13.5t18.5 -5.5q17 0 31 12.5t14 30.5z" />
    <glyph glyph-name="quotedbl" unicode="&#x22;" horiz-adv-x="229" 
d="M207 765q0 15 -11.5 26t-26.5 11q-18 0 -28 -13t-10 -30q0 -41 3.5 -83t8.5 -84q2 -17 3.5 -34t3.5 -34q1 -8 6.5 -13t13.5 -5q12 0 15.5 10t3.5 20v5q0 18 2.5 35.5t4.5 36.5q4 38 7.5 76.5t3.5 75.5zM98 765q0 15 -11.5 26t-25.5 11q-17 0 -28 -13t-11 -30
q0 -41 3.5 -83t8.5 -84q2 -17 3.5 -34t3.5 -34q1 -8 7 -13t14 -5q11 0 14.5 10t3.5 20v5q0 18 2.5 35.5t4.5 36.5q4 38 7.5 76.5t3.5 75.5z" />
    <glyph glyph-name="numbersign" unicode="#" horiz-adv-x="495" 
d="M473 550q0 5 -4 5h-69q22 91 32 186q0 3 -3 3l-47 8q-4 0 -4 -3q-10 -49 -19 -97.5t-19 -97.5q-37 -1 -71.5 -2.5t-71.5 -2.5q8 50 15.5 96t14.5 97q0 4 -3 4l-45 6q-5 0 -5 -3q-10 -51 -19 -101.5t-19 -101.5l-65 -2q-4 0 -4 -3l-8 -43q0 -5 4 -5q17 -1 32.5 -1.5
t31.5 -1.5q-7 -41 -12 -79.5t-12 -80.5l-70 -3q-4 0 -4 -3l-7 -44q0 -5 4 -5q17 -1 34.5 -2.5t34.5 -2.5q-2 -14 -4 -24t-4 -24q-6 -39 -11 -79l-10 -80q0 -4 3 -4l26 -7q3 -1 5 3q4 14 7.5 30.5t7.5 31.5q8 35 17 75t14 78q39 -2 75 -3t74 -3l-28 -198q0 -5 4 -5l25 -4
q2 0 4 2q12 30 19.5 66t13.5 72q3 17 5.5 33.5t6.5 32.5l76 -2q4 0 4 3l12 70q0 5 -4 5q-18 0 -36.5 -0.5t-35.5 -0.5q8 37 13.5 71.5t13.5 71.5l71 -2q4 0 4 2zM328 481q-6 -38 -12 -71.5t-12 -71.5q-23 -4 -49 -4.5t-52 -0.5h-23q-10 0 -21 -1q8 41 15 78t15 77z" />
    <glyph glyph-name="dollar" unicode="$" horiz-adv-x="369" 
d="M347 222q0 31 -10 59.5t-28 52t-42.5 41.5t-52.5 29q1 7 1 12t1 12q4 49 8 98.5t12 99.5q29 -5 52 -25t23 -50q0 -6 -2 -16q-1 -3 2.5 -4.5t4.5 1.5q8 20 10.5 41.5t2.5 44.5v11q0 6 -1 12q0 4 -2 4q-16 8 -33.5 14t-37.5 4q-4 0 -8.5 -0.5t-8.5 -0.5q2 10 2 17t1 16
q1 8 1.5 17t2.5 19q0 5 -4 5q-12 0 -18.5 -4.5t-10.5 -12.5t-5 -17t-1 -18v-26q-33 1 -62.5 -8.5t-51 -28.5t-34.5 -47t-13 -62q0 -61 37 -105.5t92 -64.5q-5 -60 -9 -120t-10 -120q-24 0 -43.5 10.5t-33 27.5t-20.5 38t-7 44q0 7 -6 3l-12 -8q-8 -18 -9.5 -39t-1.5 -41v-14
q0 -6 1 -14q0 -3 2 -3q29 -16 60.5 -28t63.5 -16q-2 -8 -2 -15q0 -6 -1 -15q-1 -8 -1.5 -16t-2.5 -18q0 -5 4 -5l10 -1q17 0 21.5 16t6.5 33l2 12t3 11q33 3 62 15t50 32t33.5 48t12.5 63zM200 625q-12 -98 -18 -197q-32 16 -53.5 44t-21.5 65q0 41 27 64t66 24zM283 203
q0 -42 -27 -67.5t-65 -31.5q2 28 4 54t4 55q2 26 4 52.5t4 52.5q33 -17 54.5 -47.5t21.5 -67.5z" />
    <glyph glyph-name="percent" unicode="%" horiz-adv-x="656" 
d="M634 213q0 27 -8.5 53.5t-24 46.5t-39 32.5t-53.5 12.5q-31 0 -57 -11.5t-44.5 -31t-28.5 -46.5t-10 -57q0 -29 9 -56t25.5 -47.5t40.5 -33t55 -12.5t56 12.5t42.5 33.5t27 48t9.5 56zM480 663l-4 6q-13 -2 -37 -3t-53 -3q-39 -3 -83.5 -5.5t-85 -6t-71 -7.5t-40.5 -8
q-37 -17 -60.5 -49t-23.5 -74q0 -28 11 -56.5t30.5 -52t45 -38t55.5 -14.5t55.5 15.5t43.5 40t28 54t10 56.5q0 62 -46 99q39 6 77.5 8t76.5 4q5 0 9 0.5t9 0.5q-51 -116 -103 -230.5t-104 -229.5q-12 -26 -23.5 -52.5t-23.5 -52.5q-2 -6 4 -6q3 0 6.5 -0.5t6.5 -0.5
q11 -1 22.5 2t20.5 11q6 11 22.5 47.5t38 88t46.5 112t48.5 119t44 109.5t33.5 83q5 12 8.5 20t5.5 13zM579 224q0 -18 -3.5 -37t-11 -37t-18.5 -33t-27 -25q-23 5 -41.5 19t-31.5 33t-20 41.5t-7 44.5q0 39 21 69.5t62 30.5q21 0 35.5 -10t23.5 -25t13.5 -34t4.5 -37z
M242 514q0 -35 -13.5 -71t-45.5 -54q-25 1 -44.5 13t-32.5 31t-19.5 41.5t-6.5 45.5q0 19 5 37.5t15 33t25.5 23.5t36.5 9t36.5 -10t25 -26t14 -35t4.5 -38z" />
    <glyph glyph-name="ampersand" unicode="&#x26;" horiz-adv-x="711" 
d="M689 67l-2 8q-62 8 -115 40.5t-97 76.5q13 17 24 41t20.5 50t16.5 52t12 47q0 2 -2 4q-20 11 -41.5 15.5t-43.5 4.5q-23 0 -42 -6q-3 -1 -3 -4q0 -2 3 -3q28 -4 47 -19t19 -45q0 -29 -13 -60.5t-29 -57.5q-8 7 -18 16t-21 19q-35 32 -77 72.5t-78.5 83.5t-61 85.5
t-24.5 78.5q0 42 27.5 69t69.5 27q21 0 42 -7.5t36.5 -21t24.5 -32t8 -40.5l-1 -16q0 -3 3 -3.5t5 2.5q13 35 13 75q0 32 -7 59q0 3 -3 3q-25 10 -51.5 14t-52.5 4q-34 0 -67 -12.5t-59.5 -35t-42.5 -53t-16 -66.5q0 -31 13.5 -56.5t33.5 -45.5q-23 -19 -44 -39.5t-37 -44
t-26 -50.5t-10 -60q0 -42 18.5 -75.5t48 -57t67 -36.5t76.5 -13q54 0 102 26t90 57q21 -18 40 -32.5t38.5 -24t42 -14.5t51.5 -5h6h22t26 0.5t24 2t15 3.5zM396 159q-27 -30 -62.5 -49.5t-75.5 -19.5q-34 0 -64 13.5t-53 36.5t-36.5 53t-13.5 64q0 40 18 77t45 66
q54 -66 113.5 -126.5t128.5 -114.5z" />
    <glyph glyph-name="quotesingle" unicode="'" horiz-adv-x="122" 
d="M100 765q0 16 -12 26.5t-27 10.5q-17 0 -28 -13t-11 -30q0 -40 3.5 -79.5t8.5 -81.5q2 -19 4 -37t4 -37q1 -8 7 -13t14 -5q13 0 15.5 9.5t2.5 19.5v6q2 15 4 31t3 33l8 156q4 0 4 4z" />
    <glyph glyph-name="parenleft" unicode="(" horiz-adv-x="230" 
d="M207 17q-55 75 -89 163.5t-34 183.5q0 94 34 183t89 164q2 3 -1 5t-5 0q-38 -35 -70.5 -75.5t-56.5 -86t-38 -95.5t-14 -102q0 -51 14 -99t38 -91.5t56.5 -82.5t70.5 -72z" />
    <glyph glyph-name="parenright" unicode=")" horiz-adv-x="235" 
d="M213 371q0 52 -14 100.5t-38.5 92.5t-57.5 83.5t-70 72.5q-2 2 -5 0t-1 -5q54 -78 88.5 -167t34.5 -185q0 -95 -35 -183t-92 -163q-2 -2 1 -4.5t5 -0.5q39 34 72.5 74.5t58 86t39 95.5t14.5 103z" />
    <glyph glyph-name="asterisk" unicode="*" horiz-adv-x="283" 
d="M261 605q-2 13 -7.5 30.5t-18.5 25.5q-3 2 -5 0q-6 -6 -15 -14.5t-19 -15.5t-20.5 -12t-19.5 -5h-2q0 7 3 13t5 14q5 16 9 32t4 33q0 11 -3 20q-2 3 -5 3q-17 -3 -31.5 -8.5t-28.5 -16.5q-3 -3 -1 -4l9 -24q5 -14 10.5 -28t5.5 -28q0 -4 -1 -7q-10 5 -27 17
q-17 11 -35 22t-33 11q-4 0 -10 -2q-3 0 -3 -4q0 -6 0.5 -12.5t1.5 -14.5t1.5 -14.5t0.5 -14.5q0 -4 4 -4t8.5 -0.5t8.5 -0.5q4 -1 11 -1q8 0 13 1q12 1 26 0.5t22 -5.5q-4 -4 -9 -8t-11 -9q-10 -8 -21.5 -18.5t-21 -21t-16.5 -20t-7 -16.5q0 -4 3 -4q14 -3 28.5 -5.5
t30.5 -2.5h3q4 0 4 3q4 23 13.5 46.5t25.5 40.5q2 -5 5 -11t6 -17q4 -12 9 -24t10.5 -22t11.5 -16.5t13 -6.5q6 0 11.5 5.5t10 13t7.5 15l5 12.5q-3 11 -13.5 19t-22.5 16q-11 7 -20.5 15t-11.5 18q20 0 38.5 1.5t38.5 3.5q5 1 9 1q5 0 10 1z" />
    <glyph glyph-name="plus" unicode="+" horiz-adv-x="745" 
d="M723 392v38q0 4 -4 4h-326v333q0 4 -4 4h-37q-4 0 -4 -4v-333h-322q-4 0 -4 -4v-38q0 -4 4 -4h322v-331q0 -4 4 -4h37q4 0 4 4v331h326q4 0 4 4z" />
    <glyph glyph-name="comma" unicode="," horiz-adv-x="131" 
d="M109 116q0 19 -11 33t-28 23q-7 -2 -15.5 -6.5t-15.5 -11.5t-12 -15t-5 -16q2 -3 6 -8.5t7 -10.5q5 -7 10 -15.5t5 -21.5q0 -14 -4.5 -26.5t-9.5 -26.5v1q-2 -4 -3.5 -9.5t-3.5 -12.5q-1 -3 2 -4.5t5 0.5q12 12 24.5 26.5t23.5 31t18 34t7 35.5z" />
    <glyph glyph-name="hyphen" unicode="-" horiz-adv-x="304" 
d="M282 362v8q-6 2 -23 3t-39.5 1.5t-48.5 0.5h-50h-82q-4 0 -4 -3q-5 -14 -8 -30t-5 -32q0 -6 5 -4q34 13 70 20t71 12q29 5 57.5 10.5t56.5 13.5z" />
    <glyph glyph-name="period" unicode="." horiz-adv-x="135" 
d="M113 110q0 19 -14 36t-34 17t-31.5 -14t-11.5 -32q0 -17 10 -35.5t30 -18.5q18 0 34.5 13.5t16.5 33.5z" />
    <glyph glyph-name="slash" unicode="/" horiz-adv-x="468" 
d="M446 673l-1 6l-36 15q-3 2 -5 -2q-21 -32 -41.5 -65t-40.5 -66q-75 -121 -149 -239t-150 -237q0 -1 -0.5 -1.5t-0.5 -1.5q5 -12 15.5 -21t22.5 -11q2 0 4 2q97 156 192 310.5t190 310.5z" />
    <glyph glyph-name="zero" unicode="0" horiz-adv-x="482" 
d="M460 411q0 47 -11.5 93t-35.5 82.5t-62.5 59t-92.5 22.5q-61 0 -105.5 -25t-73.5 -66t-43 -93t-14 -106q0 -53 14.5 -110t44 -105t74.5 -79.5t107 -33.5q49 24 86 63.5t62 88.5t37.5 102.5t12.5 106.5zM379 383q0 -34 -5.5 -77.5t-18 -85.5t-34 -78t-53.5 -54
q-47 15 -79.5 49.5t-52.5 78.5t-29.5 93t-9.5 93q0 30 5 69.5t19.5 75t39.5 59.5t64 24q46 0 76 -25t47.5 -62t24 -80t6.5 -80z" />
    <glyph glyph-name="one" unicode="1" horiz-adv-x="329" 
d="M307 68q-5 8 -15 10.5t-22 3.5q-10 1 -20.5 3t-18.5 8t-13.5 17.5t-5.5 31.5v114q0 57 1 114t1 113v113v15v29q0 15 -2 29q0 6 -5 4q-48 -25 -94.5 -55t-88.5 -65q-2 -2 -1 -5t4 -2q14 2 26 7.5t24 10.5q13 6 25 10.5t20 4.5q12 0 21 -9v-433q0 -19 -5.5 -29.5t-15.5 -16
t-22.5 -8t-25.5 -3.5q-10 -1 -18 -2t-16 -3q-3 -1 -2.5 -4.5t3.5 -3.5q66 -3 131.5 -4t131.5 -1z" />
    <glyph glyph-name="two" unicode="2" horiz-adv-x="429" 
d="M406 205l-8 1q-11 -29 -25 -46t-32.5 -27t-41.5 -13t-51 -3h-124q-6 0 -11 1q44 30 91 75.5t86 98.5t64 110.5t25 112.5q0 46 -19 75.5t-49.5 46t-68 22.5t-74.5 6q-30 0 -58 -8t-53 -19q-2 0 -2 -4q-1 -8 -1.5 -15t-0.5 -15q0 -23 2.5 -45t9.5 -44q1 -3 4.5 -2.5
t3.5 3.5q0 23 7 43.5t19.5 36.5t31.5 25t43 9q28 0 52.5 -11.5t42 -31t27.5 -44.5t10 -53q0 -40 -18.5 -82t-48 -83t-65 -81.5t-69.5 -77.5q-23 -25 -44 -49t-38 -45q-4 -6 3 -6h331q13 0 22.5 18t15.5 41.5t8.5 46.5t2.5 33z" />
    <glyph glyph-name="three" unicode="3" horiz-adv-x="406" 
d="M384 265q0 29 -11 52.5t-29 41t-42 30.5t-50 21q16 13 31.5 27.5t27.5 31.5t19.5 36t7.5 41q0 27 -9.5 50t-26.5 40t-40 26.5t-50 9.5q-39 0 -80 -10t-76 -24q-2 0 -2 -4q-2 -14 -3 -28.5t-1 -28.5q0 -11 1 -22t4 -22q1 -3 4.5 -2.5t3.5 3.5q5 42 32.5 69.5t70.5 27.5
q22 0 42 -7.5t35 -21t24 -32.5t9 -41q0 -29 -9 -48t-22.5 -32.5t-30.5 -22t-32 -15.5q-14 -6 -25.5 -12.5t-18.5 -14.5q-3 -4 2 -6q28 -6 57.5 -19t54.5 -32.5t41 -46t16 -57.5q0 -29 -15 -54t-38 -43.5t-51.5 -29t-55.5 -10.5q-26 0 -45 9t-31 25t-18 36.5t-7 44.5
q0 3 -3 3.5t-5 -2.5q-9 -23 -14 -48t-3 -51l1 -22q0 -1 2 -3q47 -37 109 -37q42 0 86 18.5t80.5 49.5t59.5 71.5t23 84.5z" />
    <glyph glyph-name="four" unicode="4" horiz-adv-x="485" 
d="M463 280q0 7 -2 17q0 5 -4 3q-24 -9 -48 -9q-11 0 -20 1t-19 6v371q0 3 -2.5 4t-4.5 -1q-20 -21 -50 -54t-64.5 -72t-70.5 -81.5t-67 -83t-54.5 -75.5t-33.5 -59q-2 -6 3 -6h275q-1 -14 -0.5 -26.5t0.5 -27.5v-29q0 -14 -1.5 -29.5t-7.5 -29.5q-6 -13 -18 -16.5t-24 -4.5
q-10 -1 -17 -1.5t-12 -8.5q-4 -6 3 -6h71l149 1q3 0 4 2.5t-2 4.5q-16 9 -27.5 12.5t-19.5 5.5q-9 1 -14.5 3.5t-9 9.5t-5 21t-1.5 40v18t1 18q1 11 1.5 22t-0.5 22h17q12 0 25 0.5t24 4t18.5 11t7.5 22.5zM299 294h-209q54 67 104.5 131.5t104.5 131.5v-263z" />
    <glyph glyph-name="five" unicode="5" horiz-adv-x="376" 
d="M354 651l-4 4q-58 -5 -116 -6t-117 -1h-26q-4 0 -4 -3q-10 -54 -15 -107.5t-7 -108.5q0 -4 4 -4q36 -5 75 -20t71 -40t52.5 -59t20.5 -76q0 -30 -14 -55t-36.5 -44t-50.5 -29.5t-56 -10.5q-25 0 -42.5 8.5t-29 23.5t-16.5 35t-4 43q0 3 -3.5 3.5t-4.5 -2.5
q-6 -22 -7.5 -44t-1.5 -44v-23q0 -11 1 -22q0 -4 3 -4q45 -15 93 -15q44 0 85 14.5t72.5 41t50 64t18.5 84.5q0 52 -18.5 95t-50.5 74.5t-75.5 49t-93.5 17.5v4q0 26 2.5 51.5t5.5 50.5h171q22 0 28.5 -12.5t10.5 -25.5q3 -14 10 -22q2 -2 4 -2t3 3q12 54 12 114z" />
    <glyph glyph-name="six" unicode="6" horiz-adv-x="432" 
d="M410 233q0 31 -8.5 63.5t-26 59t-44 43.5t-62.5 17q-32 0 -61 -14t-54 -32q-2 -2 -1 -5.5t4 -1.5q14 6 30 10t32 4q33 0 57 -14.5t40 -37.5t24 -52t8 -58q0 -22 -5 -46t-16 -43.5t-29 -32t-44 -12.5q-36 0 -66.5 16.5t-52.5 42.5t-34.5 59.5t-12.5 67.5q0 56 20.5 113
t54 108.5t77 95.5t88.5 74q3 2 1 5.5t-5 1.5q-56 -24 -110.5 -65.5t-97 -94.5t-68.5 -115t-26 -126q0 -46 18.5 -87.5t50 -72.5t73.5 -49.5t88 -18.5q40 0 69.5 17.5t49 46t29.5 63.5t10 70z" />
    <glyph glyph-name="seven" unicode="7" horiz-adv-x="409" 
d="M387 642l-4 6q-23 0 -46 -0.5t-47 -1.5q-25 -1 -49.5 -1.5t-50.5 -0.5q-38 0 -76.5 3t-74.5 11q-5 2 -5 -3q-1 -10 -2 -19t-3 -19q-3 -19 -5 -38t-2 -39q0 -8 0.5 -15t5.5 -15q2 -2 4.5 -1.5t2.5 3.5q3 29 18.5 46.5t39 27.5t52 13t58.5 3q14 0 31 -0.5t30 -1.5
q14 -1 27 -1.5t24 -0.5q6 0 9 -1q-33 -56 -71 -124.5t-72.5 -140.5t-61.5 -143.5t-36 -132.5q0 -7 5 -5q9 2 21.5 6.5t24.5 10.5t22 14t14 17q8 21 14 42.5t11 44.5q4 18 8.5 34.5t9.5 33.5q34 99 78.5 196.5t95.5 191.5z" />
    <glyph glyph-name="eight" unicode="8" horiz-adv-x="419" 
d="M397 242q0 59 -34 98t-88 57q39 20 67 57.5t28 82.5q0 28 -12.5 53t-32.5 44t-46.5 29.5t-53.5 10.5q-33 0 -63.5 -14.5t-54.5 -38.5t-38.5 -55t-14.5 -64q0 -46 28.5 -77t69.5 -46q-27 -11 -50.5 -27t-41 -37.5t-28 -47t-10.5 -55.5q0 -37 16.5 -67.5t42.5 -52t59.5 -33
t68.5 -11.5q38 0 72.5 16t60 43t40.5 62t15 73zM308 532q0 -35 -18 -66.5t-48 -48.5q-25 0 -47 11t-38.5 29.5t-26 42.5t-9.5 48q0 21 8 37t22 27.5t31.5 17.5t37.5 6q21 0 37.5 -9t27.5 -23.5t17 -33.5t6 -38zM327 219q0 -21 -7 -44.5t-20.5 -42.5t-32 -31.5t-42.5 -12.5
q-31 0 -56 12.5t-42 33.5t-26.5 48.5t-9.5 56.5q0 53 30.5 88.5t84.5 35.5q28 0 50.5 -12.5t38.5 -33t24 -46.5t8 -52z" />
    <glyph glyph-name="nine" unicode="9" horiz-adv-x="420" 
d="M398 447q0 44 -17 86.5t-47 75.5t-70.5 53.5t-86.5 20.5q-38 0 -67 -18t-48.5 -46.5t-29.5 -63.5t-10 -68q0 -29 8.5 -58.5t25 -52.5t42 -37.5t58.5 -14.5q34 0 65.5 14t58.5 35q3 2 1 5t-5 1q-14 -8 -30.5 -14t-34.5 -6q-31 0 -55 16t-40.5 40.5t-25 54.5t-8.5 57
q0 44 20.5 72.5t67.5 28.5q38 0 67 -13t49 -36t30 -54t10 -67q0 -57 -18.5 -115t-50.5 -111.5t-74 -98.5t-89 -75q-3 -2 -1 -5.5t5 -1.5q57 24 111 64.5t96 92.5t67.5 113t25.5 126z" />
    <glyph glyph-name="colon" unicode=":" horiz-adv-x="135" 
d="M113 410q0 20 -14 36.5t-34 16.5q-21 0 -32 -13.5t-11 -33.5q0 -17 10 -35t30 -18q19 0 35 14t16 33zM113 135q0 20 -14 36.5t-34 16.5t-31.5 -13.5t-11.5 -32.5q0 -17 10 -35t30 -18q18 0 34.5 13.5t16.5 32.5z" />
    <glyph glyph-name="semicolon" unicode=";" horiz-adv-x="135" 
d="M113 410q0 20 -14 36.5t-34 16.5q-21 0 -32 -13.5t-11 -33.5q0 -17 9.5 -35t30.5 -18q19 0 35 14t16 33zM106 116q0 18 -8 34.5t-31 21.5q-10 -5 -23.5 -14t-13.5 -23q0 -5 2.5 -11t5.5 -14q5 -10 9 -21t4 -24q0 -18 -6.5 -34.5t-14.5 -31.5q-4 -6 3 -6q16 0 29.5 14.5
t23.5 34t15 40.5t5 34z" />
    <glyph glyph-name="less" unicode="&#x3c;" horiz-adv-x="229" 
d="M207 262v6l-26.5 26.5t-42 43t-38.5 41.5t-17 22q0 4 17.5 25.5t38.5 47.5t40.5 49.5t24.5 34.5q2 3 -1.5 5t-5.5 0q-45 -40 -89 -81t-85 -86q-2 -2 0 -4q35 -45 72 -87t75 -78q4 -4 6 1q6 8 13 17t18 17z" />
    <glyph glyph-name="equal" unicode="=" horiz-adv-x="304" 
d="M282 379v8q-6 2 -23 3t-39.5 1.5t-48.5 0.5h-50h-82q-4 0 -4 -3q-5 -14 -8 -30t-5 -33q0 -6 5 -4q34 13 70 20t71 13q29 5 57.5 10.5t56.5 13.5zM282 309v8q-6 2 -23 3t-39.5 1.5t-48.5 0.5h-50h-82q-4 0 -4 -3q-5 -14 -8 -29.5t-5 -32.5q0 -6 5 -4q34 13 70 20t71 13
q29 5 57.5 10t56.5 13z" />
    <glyph glyph-name="greater" unicode="&#x3e;" horiz-adv-x="231" 
d="M209 394v4q-35 48 -72 87.5t-75 77.5q-4 4 -6 -1q-7 -10 -14.5 -18.5t-16.5 -15.5q-4 -4 -1 -6q6 -6 26.5 -26t42 -42.5t38.5 -41t17 -22.5q0 -5 -19 -28.5t-42 -52.5q-20 -24 -37 -45t-22 -32q-2 -3 1 -5t5 0q42 32 75 64.5t65 66.5q9 9 17.5 18t17.5 18z" />
    <glyph glyph-name="question" unicode="?" horiz-adv-x="355" 
d="M333 566q0 30 -14.5 56t-37.5 45t-52 29.5t-57 10.5q-22 0 -48 -5t-48.5 -17t-38 -31t-15.5 -46q0 -18 7 -34t17 -31q1 -2 3 -2t3 3q4 19 10.5 37.5t16.5 33.5t25.5 24t37.5 9q21 0 41.5 -3t37 -12t26.5 -24.5t10 -39.5q0 -28 -12.5 -60.5t-30.5 -65t-38.5 -62.5
t-36.5 -54q-13 -18 -22 -31.5t-9 -18.5q0 -11 7 -24t18 -24t23.5 -19t23.5 -8q3 0 3.5 2.5t-1.5 4.5q-20 13 -20 36q0 27 22 61.5t51 69.5q17 22 34.5 45.5t31.5 47.5t23 48.5t9 48.5zM211 89q0 20 -13.5 35t-33.5 15q-17 0 -28.5 -9.5t-11.5 -28.5q0 -9 2.5 -18.5
t7.5 -17.5t12.5 -13.5t18.5 -5.5q17 0 31.5 12.5t14.5 30.5z" />
    <glyph glyph-name="at" unicode="@" horiz-adv-x="700" 
d="M678 395q9 68 -11.5 117.5t-61 82t-96.5 47.5t-117 15q-73 -1 -137 -24t-113 -65.5t-81.5 -102t-42.5 -133.5q-9 -66 10.5 -119.5t59 -90.5t94.5 -56.5t118 -19.5q48 1 93 12t93 27l2 1v1q-1 4 -3.5 16t-6.5 11q-37 -17 -75.5 -26t-76.5 -10q-61 0 -109.5 20.5t-80.5 57
t-45.5 88t-5.5 112.5q9 61 34.5 110.5t65.5 84.5t92.5 54t114.5 19q58 0 103 -17t74 -49.5t41 -79.5t4 -106q-3 -20 -10.5 -45.5t-20.5 -48t-32 -38t-45 -15.5q-24 0 -36.5 16.5t-9.5 39.5q5 38 12.5 75t14.5 75q2 13 5 25.5t5 23.5l-0.5 0.5t-0.5 1.5q-22 11 -48.5 17.5
t-52.5 6.5q-39 0 -70.5 -15t-55.5 -39.5t-39 -57.5t-20 -69q-3 -24 0.5 -47.5t14.5 -42t29.5 -30.5t45.5 -12h13q20 14 42.5 29t43.5 30q12 -28 36 -44t53 -15q40 0 72.5 18.5t57 48t40 65t20.5 70.5zM424 421l-18 -140q-15 -13 -33.5 -22t-36.5 -9q-22 0 -36.5 10.5
t-22.5 27t-10 36.5t1 39q2 17 9.5 35.5t19.5 34.5t28 26.5t36 10.5q22 0 38.5 -15.5t24.5 -33.5z" />
    <glyph glyph-name="A" unicode="A" horiz-adv-x="790" 
d="M765 4q3 0 3 4t-3 4q-34 3 -59 16.5t-42 44.5q-38 72 -72.5 149.5t-67 157.5t-62.5 160t-57 155q-5 15 -11 30t-11 29q-1 3 -4 3t-4 -3q-26 -70 -52.5 -142t-51.5 -143q-34 -97 -68 -192t-72 -190q-14 -35 -40.5 -54t-65.5 -25q-3 -1 -2.5 -4.5t3.5 -3.5q11 1 21.5 1.5
t21.5 1.5q17 2 35 3t36 1q17 0 34 -1t34 -3q8 -1 17 -1t17 -1v8q-8 1 -17.5 2.5t-17.5 5.5t-13.5 10.5t-5.5 16.5q0 15 9.5 49t22 71.5t25.5 72.5t20 52h212q24 -64 49 -127.5t49 -127.5l-54 -25q-3 -2 -2 -5.5t4 -2.5q5 1 12 1t12 1q25 2 50 3.5t50 1.5q10 0 21 -1t21 -2
q12 -2 25.5 -2.5t26.5 0.5zM460 332h-182q21 59 38.5 116t37.5 117q4 13 8.5 26.5t9.5 27.5z" />
    <glyph glyph-name="B" unicode="B" horiz-adv-x="553" 
d="M531 217q0 37 -12.5 70t-35 59t-52.5 45t-65 30q17 16 33.5 35.5t30 41t21.5 44.5t8 48q0 40 -19.5 70t-49.5 49.5t-67 29t-71 9.5q-20 0 -41 -1t-42 -3q-20 -2 -41 -4t-43 -2q-28 0 -58 6q-3 1 -4.5 -1t0.5 -4q8 -11 17.5 -13t20.5 -3q8 -1 15.5 -2.5t13.5 -6.5t9.5 -15
t3.5 -27v-565q0 -24 -2 -39.5t-8.5 -26t-20 -18t-36.5 -14.5q-3 -1 -2.5 -4.5t3.5 -3.5q32 0 64.5 -0.5t64.5 -1.5q33 -1 65 -1h64q47 0 89.5 15.5t75 44t52 69t19.5 90.5zM376 575q0 -44 -12.5 -71.5t-35.5 -43t-55.5 -21t-71.5 -5.5h-6v273q14 4 28 7t28 3
q29 0 52.5 -11.5t39.5 -31t24.5 -45.5t8.5 -54zM444 186q0 -30 -10 -58t-29 -50t-45 -35t-57 -13q-16 0 -35 5.5t-35.5 16t-27.5 25t-11 33.5v284h7q29 0 61 -2t59 -16q27 -13 49.5 -33.5t39 -45.5t25.5 -53.5t9 -57.5z" />
    <glyph glyph-name="C" unicode="C" horiz-adv-x="712" 
d="M690 145q0 18 -3 35q-1 3 -3.5 3.5t-4.5 -2.5q-18 -39 -36.5 -67.5t-43 -47.5t-56.5 -28.5t-76 -9.5q-77 0 -142.5 32t-113 85t-74 122t-26.5 143q0 71 22.5 129t63.5 99.5t99 64t129 22.5q43 0 82 -11.5t70 -34.5t51.5 -57t28.5 -79q1 -3 3 -3q3 0 4 3q7 46 12.5 91.5
t7.5 93.5q0 4 -4 4q-25 2 -51.5 5t-52.5 7q-35 5 -71.5 10t-73.5 5q-33 0 -71.5 -4t-76.5 -13.5t-72.5 -25.5t-59.5 -40q-31 -30 -55 -67t-40.5 -78t-25 -84t-8.5 -86q0 -83 28 -150.5t78.5 -116t119.5 -75t150 -26.5q66 0 130 6.5t128 17.5q3 0 3 2q14 28 22.5 61t8.5 65z
" />
    <glyph glyph-name="D" unicode="D" horiz-adv-x="788" 
d="M766 383v11q0 6 -1 12t-1 12v12q0 66 -33.5 124t-86 101t-117 67.5t-126.5 24.5q-26 0 -54 -1t-54 -2q-27 -2 -54 -3.5t-55 -1.5q-21 0 -42.5 1t-43.5 3q-17 1 -35.5 1.5t-36.5 0.5q-6 0 -3 -5q4 -7 11.5 -9t17.5 -4l18 -4t16.5 -7t12 -15t4.5 -27v-561q0 -22 -2 -38
t-9 -27.5t-20.5 -19.5t-35.5 -13q-3 -1 -2.5 -4.5t3.5 -3.5q41 2 82.5 -1t81.5 -6q35 -3 70.5 -5t70.5 -2q95 0 173 23.5t134 71.5t86.5 121.5t30.5 173.5zM676 345q0 -78 -24.5 -136.5t-69 -97.5t-106.5 -58.5t-137 -19.5q-36 0 -63.5 3.5t-45.5 16t-27 36t-9 62.5v539
q27 9 54 13t55 4q82 0 150.5 -25t118 -72t77 -114t27.5 -151z" />
    <glyph glyph-name="E" unicode="E" horiz-adv-x="485" 
d="M463 130l-7 1q-11 -46 -45.5 -71t-81.5 -25q-18 0 -37 4t-36.5 12t-32.5 20t-25 29v278h41h30q21 0 42.5 -1.5t40 -5.5t24.5 -11q8 -8 11 -16t5 -16t5 -15.5t8 -12.5q2 -2 4.5 -1t2.5 4q2 19 4.5 37.5t5.5 38.5q2 15 4 31l4 32q0 6 -5 4q-8 -2 -16 -5t-16 -7
q-11 -5 -21.5 -9.5t-17.5 -4.5h-157v283h107q45 0 74 -15.5t33 -64.5q0 -3 3.5 -3.5t4.5 2.5q1 5 2 8.5t2 8.5q6 26 11.5 54t8.5 56q0 7 -6 3q-6 -3 -23.5 -5t-42 -3t-55 -1.5t-62.5 -0.5q-42 0 -88 0.5t-79 1.5h-61q-2 0 -3 -2t1 -4q11 -8 20.5 -11.5t19.5 -5.5
q9 -2 16.5 -4.5t13.5 -7.5t9.5 -13.5t3.5 -23.5v-565q0 -18 -2.5 -35.5t-9.5 -31t-20 -22t-35 -9.5v-8q32 2 64 2h64t63 -0.5t63 -0.5q32 -1 64 -1h64l15 3q3 3 3 2q4 0 4 4l3 24v-1q4 24 7.5 48.5t8.5 48.5z" />
    <glyph glyph-name="F" unicode="F" horiz-adv-x="480" 
d="M457 748q1 2 -1.5 4.5t-4.5 0.5q-19 -8 -44.5 -11t-51.5 -3q-11 0 -21.5 0.5t-20.5 0.5q-9 0 -17.5 0.5t-15.5 0.5h-71q-91 0 -182 3q-3 0 -4 -2.5t2 -4.5q13 -7 23 -10t18 -5q9 -2 16.5 -4.5t13 -8t8.5 -15.5t3 -26v-565q0 -24 -1 -40t-7 -26.5t-20 -17t-40 -10.5
q-3 -1 -2.5 -4.5t3.5 -3.5h13q30 0 59 3q14 2 26.5 3t26.5 1q27 0 56 -3q14 -2 28 -3t28 -1h9v8q-18 -1 -34.5 7.5t-28.5 22.5t-19 31.5t-7 35.5v272h115q43 0 67 -17.5t23 -62.5q0 -3 3.5 -3.5t4.5 2.5q8 35 13 71.5t7 73.5q0 3 -2.5 4t-4.5 -1q-8 -8 -20.5 -17t-22.5 -9
h-183v270q16 0 32 2t31 4h-1q18 2 35.5 4t35.5 2q44 0 69 -18.5t25 -64.5q0 -3 3.5 -3.5t4.5 2.5q6 29 11.5 57t10.5 57z" />
    <glyph glyph-name="G" unicode="G" horiz-adv-x="777" 
d="M778 358l-1 8q-60 3 -118.5 4t-118.5 1q-3 0 -4 -2.5t2 -4.5q8 -5 16 -8t16 -5q19 -6 34 -14.5t15 -32.5v-225q-24 -25 -58 -32.5t-67 -7.5q-77 0 -143.5 29.5t-115 80t-76.5 118t-28 143.5q0 70 25.5 128.5t69.5 100t103.5 64.5t128.5 23q41 0 79 -9.5t68.5 -30
t51.5 -51.5t29 -74q1 -3 4.5 -2.5t3.5 3.5q1 6 2 12.5t2 13.5q5 35 10 69.5t7 70.5q0 4 -4 4q-20 2 -39.5 5t-39.5 6q-44 6 -89.5 11t-90.5 5q-84 0 -158 -23.5t-129.5 -70t-87.5 -115t-32 -157.5q0 -77 24 -146.5t68.5 -124t108 -88.5t142.5 -40q45 -3 89 -3q29 0 59.5 1.5
t61 7t59 16.5t52.5 29q2 2 2 3v253q0 29 20.5 40.5t46.5 16.5z" />
    <glyph glyph-name="H" unicode="H" horiz-adv-x="811" 
d="M789 9q-47 8 -68 31t-21 71v555q0 35 18.5 45.5t48.5 16.5q3 1 2.5 4.5t-3.5 3.5q-54 -3 -106 -3q-32 0 -65 1.5t-65 3.5q-3 0 -3.5 -3.5t2.5 -4.5l20 -6q12 -4 23 -7t19.5 -9t13 -16t4.5 -27v-232h-419v237q0 28 20 43.5t47 16.5q3 0 3 4t-3 4q-5 0 -11 -0.5t-11 -0.5
q-23 -1 -46 -1.5t-46 -0.5q-30 0 -60 1.5t-61 3.5v-8q28 -1 52.5 -16.5t24.5 -46.5v-576q0 -23 -2 -37t-9 -22.5t-20.5 -14t-36.5 -9.5q-3 -1 -2.5 -4.5t3.5 -3.5q5 0 12.5 -0.5t12.5 -0.5q18 -1 35 -1h34q15 0 34.5 0.5t34.5 0.5q21 1 42 1h41q3 0 3 4t-3 4q-44 4 -66.5 27
t-22.5 69v286h420v-284q0 -11 -2 -26.5t-7.5 -30.5t-14.5 -25.5t-22 -10.5q-5 0 -10 -1t-10 -3q-3 -1 -2.5 -4.5t3.5 -3.5q26 1 53 1.5t53 0.5q35 0 69 -1t69 -3z" />
    <glyph glyph-name="I" unicode="I" horiz-adv-x="299" 
d="M277 2v8q-49 5 -69 28t-20 74v558q0 18 5 28.5t14 17t21.5 10.5t27.5 7q3 1 2 5t-4 3q-27 -4 -54.5 -5.5t-55.5 -1.5q-61 0 -119 6q-3 0 -3 -4q0 -3 3 -4q29 -4 50.5 -17t21.5 -46v-561q0 -73 -68 -99q-3 -2 -2.5 -5t3.5 -3q38 1 76.5 1.5t76.5 0.5h46q24 0 48 -1z" />
    <glyph glyph-name="J" unicode="J" horiz-adv-x="289" 
d="M266 729l-1 8h-31h-79h-41q-20 0 -40.5 0.5t-42.5 2.5q-3 0 -4 -2.5t2 -4.5q11 -7 19.5 -10t16.5 -5q8 -3 16 -6.5t14 -9t9.5 -14.5t3.5 -23v-592q0 -54 -7.5 -95.5t-24 -77t-41.5 -68t-61 -69.5q-2 -3 0 -6t5 -1q44 21 84 52.5t70 70.5t48 85.5t18 98.5v603
q0 34 19 45.5t48 17.5z" />
    <glyph glyph-name="K" unicode="K" horiz-adv-x="772" 
d="M750 10l-2 7q-27 0 -58.5 13.5t-65 36.5t-68 53.5t-68.5 64.5t-66.5 68.5t-61.5 66.5q-26 29 -48 54t-41 42q21 19 45.5 45t49.5 54q32 35 67.5 72t71.5 68.5t72 53t70 25.5q3 1 3 4q0 4 -3 4l-30 1q-11 0 -22.5 0.5t-23.5 0.5h-58t-59 2q-6 0 -3 -5q7 -14 7 -27
q0 -21 -16 -47t-41 -54.5t-55.5 -58.5t-59.5 -57q-23 -22 -48 -46t-41 -44q-1 66 -1.5 127.5t-1.5 127.5q0 29 19.5 49t46.5 22q3 0 3 4t-3 4t-6.5 0.5t-6.5 0.5q-21 1 -45 0.5t-45 -2.5q-20 -1 -39.5 -2t-38.5 -1q-28 0 -53 3q-3 1 -3.5 -3t2.5 -5q13 -2 27 -7.5t25 -14
t18.5 -20.5t7.5 -27v-553q0 -23 -1 -40t-7.5 -29t-20.5 -19.5t-39 -11.5q-3 -1 -2.5 -4.5t3.5 -3.5q30 3 59.5 5t59.5 2t61 -2l62 -4q3 0 4 3t-2 5q-11 6 -22.5 10.5t-21.5 7.5q-12 4 -20 8t-13.5 12t-7.5 23t-2 41q0 45 0.5 90t1.5 91q0 20 0.5 40.5t0.5 40.5
q24 -23 49.5 -51.5t55.5 -62.5q41 -47 85.5 -96t91 -89t94 -66t93.5 -26q45 0 85 26z" />
    <glyph glyph-name="L" unicode="L" horiz-adv-x="509" 
d="M487 139l-8 3q-23 -47 -66.5 -76t-95.5 -29q-27 0 -50 8t-40 23t-27 37t-10 50v505q0 32 23.5 51.5t52.5 24.5q3 1 2.5 4.5t-3.5 3.5q-29 -2 -58.5 -4t-59.5 -2q-64 0 -125 3v-8q32 -1 54.5 -20.5t22.5 -53.5v-551q0 -14 -4.5 -30.5t-13 -30.5t-21 -24t-27.5 -11
q-3 0 -3 -4t3 -4q12 1 27 1q16 0 29 1q82 3 165 3q101 0 203 -9q2 0 4 2q1 2 2 3.5l1 1.5q0 3 -1 4q12 26 16 54.5t6 57.5q0 4 0.5 7.5t1.5 8.5z" />
    <glyph glyph-name="M" unicode="M" horiz-adv-x="1019" 
d="M997 9q-11 5 -20.5 7t-18.5 4q-16 3 -32.5 9.5t-30.5 26.5q-6 8 -13 40.5t-14 80t-14 106t-13.5 120t-12 121.5t-10.5 110q-2 22 -4.5 45t-4 42t-2.5 31l-1 12l-7 2l-10.5 -18t-24.5 -44.5t-29.5 -55t-24.5 -49.5q-5 -12 -10.5 -24t-11.5 -24q-22 -45 -42.5 -90.5
t-41.5 -90.5q-26 -58 -52 -117.5t-54 -117.5q-13 25 -33.5 74t-45.5 102q-21 43 -46.5 93.5t-52 101t-52 98t-45 83.5t-31.5 58l-12 22l-7 -2l-1.5 -12.5t-3.5 -32t-4.5 -43.5t-5.5 -48q-6 -52 -12 -114.5t-13 -126.5t-14 -125t-13 -109t-11 -79.5t-8 -35.5q-11 -16 -22 -20
t-27 -6q-3 -1 -7 -1q-3 0 -6 -1t-2 -5t4 -3q14 2 27.5 2.5t27.5 0.5q37 0 75 -3q37 -3 75 -3q3 0 4 3t-2 5q-7 3 -14 5.5t-13 4.5q-19 7 -31 15.5t-12 35.5q0 86 8 173.5t19 171.5q4 34 8 66.5t7 67.5q24 -45 42 -85t39 -87q41 -92 86.5 -188.5t108.5 -182.5q2 -2 4 -2t3 2
q19 39 37.5 78t36.5 78q46 97 91 197t95 194q4 -47 8.5 -87t10.5 -87v1q9 -75 16.5 -155.5t7.5 -156.5q0 -11 -4 -22.5t-8 -23.5l-2 -6l-2 -6q-2 -5 4 -5q54 -2 108 -2.5t108 -0.5z" />
    <glyph glyph-name="N" unicode="N" horiz-adv-x="836" 
d="M814 732l-1 8q-4 0 -12 0.5t-13 0.5q-10 2 -21 0.5t-21 -2.5l-35 -3q-29 -2 -58 1.5t-58 6.5q-3 1 -4.5 -1.5t0.5 -4.5q7 -6 16 -7.5t18 -3.5l20 -4t18.5 -9.5t13.5 -22t5 -39.5q0 -125 3 -249q3 -125 3 -249v-8q-141 159 -281 309.5t-288 302.5q-2 2 -6 0
q-5 -4 -7.5 -29.5t-4 -65.5t-2 -91t-0.5 -106q0 -81 0.5 -159t1.5 -133q1 -26 1 -45v-28q0 -18 -3.5 -29.5t-9.5 -19t-14 -12t-17 -9.5l-16 -10t-18 -13q-2 -2 -0.5 -5t3.5 -2q26 4 52 7t51 3q19 0 37.5 -1.5t36.5 -3.5q14 -2 28 -3l28 -2q3 0 3.5 2.5t-1.5 4.5
q-13 10 -25 13.5t-23 5.5q-10 2 -18.5 5t-15 10.5t-10 22t-3.5 40.5q0 52 -2 103t-4 103q-2 53 -4 104.5t-2 102.5q0 19 1.5 37t3.5 37q20 -22 35.5 -40.5t35.5 -41.5q118 -135 240 -268t258 -250q2 -2 4.5 -0.5t2.5 3.5q8 92 10.5 182.5t2.5 181.5v82q0 41 -1 82t-1 82v82
q0 10 5.5 17.5t14.5 12t19.5 7.5t19.5 6q2 1 4 1t4 1z" />
    <glyph glyph-name="O" unicode="O" horiz-adv-x="818" 
d="M796 349q0 87 -31.5 162.5t-87 131.5t-130.5 88t-162 32h-9q-4 0 -8 -1q-96 -20 -162 -51.5t-107 -81t-59 -120.5t-18 -169q0 -44 17 -87t46.5 -82t68 -73t81.5 -59t88 -39t87 -14q77 0 147 27t123 75.5t84.5 115t31.5 145.5zM709 351q0 -65 -18.5 -123.5t-55 -103
t-90 -71t-122.5 -26.5q-74 0 -131.5 33.5t-97 86.5t-60 120t-20.5 134q0 66 19 124.5t56 102t91 69t124 25.5q74 0 131 -33t95.5 -86t58.5 -119t20 -133z" />
    <glyph glyph-name="P" unicode="P" horiz-adv-x="524" 
d="M502 568q0 51 -14 84t-39.5 53t-62 28t-81.5 8h-124q-38 0 -77 1t-78 3q-3 0 -3.5 -3t2.5 -4q13 -3 27 -9.5t25 -16t18.5 -22t7.5 -27.5v-555q0 -24 -1 -40.5t-7 -28t-20 -18.5t-39 -11q-3 -1 -2.5 -4.5t3.5 -3.5q23 -1 46 -1h46h153q3 0 3 4t-3 4q-48 2 -68 22.5
t-20 67.5v597q38 16 72 16q37 0 66.5 -17t50 -44.5t31 -61.5t10.5 -68q0 -38 -11.5 -70t-33 -55t-52.5 -35.5t-70 -12.5h-12q-5 0 -11 1q-3 1 -3.5 -3t2.5 -5q30 -8 58 -8q46 0 84.5 20.5t66.5 53.5t44 75t16 86z" />
    <glyph glyph-name="Q" unicode="Q" horiz-adv-x="830" 
d="M1444 -104l-4 7q-51 -22 -104 -32.5t-108 -10.5q-80 0 -158 19t-153 50t-146.5 70t-137.5 79q39 29 70.5 66.5t53 81t33 91.5t11.5 96q0 82 -30.5 149.5t-83 116t-122.5 75t-149 26.5q-83 0 -154.5 -30t-125 -82t-84 -123.5t-30.5 -153.5q0 -87 28 -158.5t79 -123.5
t122.5 -80.5t158.5 -28.5q36 0 74 8t71 23q6 0 19.5 -5.5t30 -14t34 -18t32.5 -17.5v1q11 -6 18.5 -11t12.5 -7q54 -27 111 -52t117 -44.5t121 -31t122 -11.5q72 0 140.5 19.5t130.5 56.5zM700 407q0 -59 -16.5 -115t-48 -104t-76.5 -85.5t-101 -58.5q-74 10 -137 47
t-109 91.5t-72 122.5t-26 142q0 66 21.5 119.5t60.5 92t93 59t120 20.5q70 0 124 -27.5t91 -73t56.5 -105.5t19.5 -125z" />
    <glyph glyph-name="R" unicode="R" horiz-adv-x="786" 
d="M764 9l-2 8q-43 -5 -82.5 14.5t-76 53.5t-69.5 77t-63 84q-20 27 -39 53t-33 42q22 21 43.5 46.5t38 54.5t26.5 60.5t10 63.5q0 49 -19 83t-50.5 55.5t-71.5 31.5t-82 10q-17 0 -32.5 -0.5t-32.5 -1.5q-33 -3 -65 -3q-30 0 -60 3q-14 1 -29 1.5t-30 0.5h-19q-3 0 -3.5 -3
t2.5 -4q31 -8 54.5 -32t23.5 -56v-542q0 -32 -19.5 -59.5t-48.5 -40.5q-3 -2 -2 -5.5t4 -2.5q31 4 61 6.5t61 2.5t62 -2t62 -5v8q-40 4 -64.5 32.5t-24.5 69.5v193q11 1 22 1h22q26 0 52 -3.5t46 -20.5q26 -22 52.5 -56t47.5 -65t45 -62.5t52 -56.5t61 -41t72 -16
q26 0 50.5 6t47.5 17zM423 514q0 -72 -30 -114t-106 -42q-22 0 -45.5 1.5t-46.5 5.5v340q16 6 32.5 8.5t33.5 2.5q40 0 70 -18t50.5 -47t31 -65t10.5 -72z" />
    <glyph glyph-name="S" unicode="S" horiz-adv-x="430" 
d="M408 197q0 37 -13.5 68t-35.5 58t-50 51.5t-56 48.5q-26 21 -50.5 42.5t-43 44t-30 46t-11.5 50.5q0 26 9.5 48t26 37.5t39 24.5t48.5 9q25 0 45.5 -9.5t36 -25t26 -36.5t15.5 -45q1 -3 4.5 -2.5t3.5 3.5q0 2 0.5 3.5t0.5 3.5q5 32 8.5 64t6.5 64q0 4 -3 4q-46 13 -98 13
q-38 0 -82.5 -9.5t-82.5 -30.5t-64 -54t-26 -79q0 -30 14 -60t36 -59t50 -56.5t56 -54.5q27 -25 53 -51t46.5 -52t33 -52.5t12.5 -51.5q0 -27 -13.5 -49.5t-34.5 -38t-47 -24t-51 -8.5q-30 0 -55 8.5t-44 24.5t-29.5 40t-10.5 55v11q0 3 -3.5 3.5t-4.5 -2.5
q-2 -8 -3.5 -16.5t-3.5 -16.5q-4 -15 -7.5 -31t-3.5 -34q0 -25 11.5 -41.5t29.5 -27t40 -15t43 -4.5q42 0 88.5 15t85 43t63.5 66.5t25 86.5z" />
    <glyph glyph-name="T" unicode="T" horiz-adv-x="661" 
d="M639 736v8q0 4 -3 4q-7 -1 -13.5 -2t-11.5 -2q-8 -2 -17.5 -4.5t-17.5 -2.5h-434q-26 0 -46 3.5t-41 16.5q-4 4 -6 -2q-2 -9 -5 -18.5t-6 -19.5q-6 -20 -11 -39t-5 -39q0 -8 2 -18q0 -3 2.5 -3.5t4.5 2.5q12 28 36.5 50.5t56.5 22.5h165v-591q0 -24 -1.5 -39.5t-8 -25.5
t-20 -16t-37.5 -11q-3 -1 -2.5 -4.5t3.5 -3.5q26 2 51.5 3.5t51.5 1.5q36 0 71.5 -2t70.5 -5q3 0 3.5 3.5t-2.5 4.5q-38 6 -63.5 34t-25.5 68v584h121q22 0 42 -3.5t36 -12.5t26.5 -24.5t15.5 -40.5q1 -3 4 -3t4 3q8 27 9 60.5t1 62.5z" />
    <glyph glyph-name="U" unicode="U" horiz-adv-x="779" 
d="M757 733l-1 8h-12q-23 0 -44 0.5t-43 0.5h-47h-35q-17 0 -35 2q-3 0 -3.5 -3.5t2.5 -4.5q39 -6 59.5 -25t20.5 -60v-103t1 -102t1 -103v-102q0 -47 -16.5 -85t-45 -65.5t-67.5 -42.5t-85 -15q-45 0 -84 14.5t-67.5 41.5t-44.5 64.5t-16 83.5v104t1 104t1 103v104
q0 13 6.5 24.5t17 22t22 18.5t22.5 14q3 2 2 5t-4 3q-20 -1 -40 -1h-39q-39 0 -78.5 1t-79.5 3q-3 0 -3.5 -3.5t2.5 -4.5q37 -9 58.5 -25.5t21.5 -57.5q0 -11 -0.5 -27.5t-0.5 -36.5q0 -29 -0.5 -66t-0.5 -75q0 -41 0.5 -82t1.5 -75.5t3.5 -59.5t5.5 -35q15 -46 44.5 -84
t68.5 -65.5t85 -43t94 -15.5q64 0 116.5 24t89.5 65.5t57 96.5t20 117v363q0 29 19 52.5t49 28.5z" />
    <glyph glyph-name="V" unicode="V" horiz-adv-x="826" 
d="M804 734l-1 8q-27 -3 -54 -5t-53 -2t-52 2t-52 5q-3 1 -3.5 -3t2.5 -5q5 -1 14.5 -3.5t18.5 -6t16 -8.5t7 -11q0 -34 -17 -90t-43 -122t-56 -134.5t-55 -126.5q-12 -26 -22 -49t-18 -43q-7 19 -18 46t-28 67q-16 39 -34 84.5l-36 91t-35 89t-29.5 80.5t-20 64.5
t-7.5 40.5q0 6 6.5 10.5t15 7.5t17.5 5.5t14 3.5q2 1 1.5 4.5t-2.5 3.5h-32q-37 0 -71.5 1t-69.5 3q-20 1 -40 1.5t-40 1.5q-3 0 -4 -2t2 -4q13 -8 22.5 -10.5t17.5 -4.5q15 -4 28 -10t24 -24q18 -29 34.5 -67.5t30.5 -74.5q3 -8 6 -17t6 -16q14 -36 28 -73l28 -74
q35 -97 73 -192t92 -186q2 -2 4 -2t3 2q6 13 17 37t24.5 56.5t29.5 70t33 77.5q21 50 44 103.5t45 105t42 98t36 82.5t27.5 59t15.5 28q11 11 24 15.5t26 7.5q5 1 9 1.5t9 2.5z" />
    <glyph glyph-name="W" unicode="W" horiz-adv-x="1054" 
d="M1032 729v8q-19 -1 -38 -1h-39q-33 0 -66.5 1t-66.5 4q-3 0 -3 -4t3 -4q7 -1 17 -4t19.5 -8t16.5 -12t7 -16q0 -57 -12 -127t-30 -143t-39 -143t-39 -127q-17 48 -31 91t-30 91q-34 105 -70 207t-84 199q-2 2 -4.5 1.5t-3.5 -2.5q-57 -143 -113 -290.5t-110 -292.5
q-7 42 -15.5 82t-16.5 81q-20 96 -38.5 192t-28.5 190q12 11 27 19t30 13q3 1 2 5t-4 3q-28 -4 -55.5 -6t-54.5 -2q-29 0 -58 3.5t-58 6.5q-5 1 -10 1q-4 0 -9 1q-3 1 -4.5 -1.5t1.5 -4.5q7 -4 12.5 -7t10.5 -6q11 -6 20 -11t17 -12t15.5 -17.5t15.5 -25.5q14 -28 28 -70.5
t27 -94t25.5 -108.5t24.5 -114q8 -39 16.5 -79t17.5 -76.5t17.5 -69.5t16.5 -58q1 -3 3.5 -3.5t4.5 2.5q14 32 30 73t32.5 83.5t32 83.5t28.5 74q26 68 51.5 135t54.5 135q20 -51 36 -99t33 -100q33 -98 69 -196t83 -189q1 -2 3 -2q3 0 4 2q7 18 18.5 53.5t25 81t27.5 96.5
t28 99q18 64 35.5 128t33 116t28.5 87.5t21 44.5q14 14 28 24.5t34 8.5z" />
    <glyph glyph-name="X" unicode="X" horiz-adv-x="731" 
d="M709 10q-34 9 -64.5 36t-58 64.5t-52.5 80.5t-48 85q-20 35 -38.5 68.5t-39.5 61.5q13 17 27.5 41t31.5 52q22 37 47 77t52 73.5t54.5 56t56.5 24.5q3 0 3 4t-3 4q-23 -2 -46.5 -3t-46.5 -1q-54 0 -109 6q-3 0 -3.5 -3t2.5 -5q7 -2 15.5 -6.5t16 -10t12.5 -12.5t5 -15
q0 -11 -7.5 -26.5t-19.5 -34.5t-27 -40l-30 -42q-20 -27 -37 -51t-26 -40q-9 19 -25.5 45.5t-33.5 53.5q-13 20 -26.5 40.5t-24 39t-17 35t-6.5 27.5q0 17 12.5 27.5t27.5 14.5q3 1 2.5 4t-3.5 3q-15 0 -29.5 -1t-28.5 -3q-20 -2 -39.5 -3.5t-38.5 -1.5q-26 0 -51 2l-50 4
q-3 0 -3.5 -3.5t2.5 -4.5q39 -7 71.5 -34t60.5 -65t52 -82.5t44 -85.5q13 -25 24.5 -46.5t22.5 -39.5q-14 -19 -30.5 -46.5t-34.5 -59.5q-24 -42 -51 -88t-56.5 -84t-61 -64t-63.5 -28v-8q25 2 48.5 4t48.5 2q27 0 54.5 -1.5t55.5 -3.5v8q-11 0 -21.5 5t-17.5 13
q2 18 13 44.5t27.5 56.5t35.5 62t37 61q15 25 27.5 44.5t19.5 32.5l6 -10l9 -15q12 -20 28 -46t33 -54.5t33 -57t29 -52t21 -40t8 -21.5t-8.5 -13t-14.5 -13q-1 -1 0 0.5t0 0.5q-2 -2 -1 -4.5t3 -2.5q8 1 15 1q8 0 16 1q17 2 34 3t33 1q19 0 38 -1t39 -3q9 -1 18 -1t19 -1z
" />
    <glyph glyph-name="Y" unicode="Y" horiz-adv-x="756" 
d="M734 732l-1 8q-25 -2 -48.5 -4t-48.5 -2q-23 0 -46 0.5t-45 5.5q-3 1 -4 -3t2 -5q11 -4 19.5 -13t8.5 -22q0 -14 -9 -33.5t-22 -42t-29 -45.5t-29 -44q-10 -15 -18.5 -27.5t-13.5 -21.5q-19 -30 -32 -56.5t-24 -50.5h1q0 -1 -1 -2t-1 -2q-9 14 -26.5 42t-38 62.5
t-42.5 71t-39.5 68.5t-29 55t-11.5 30q0 10 7.5 16.5t14.5 11.5q2 2 1.5 4.5t-3.5 2.5q-21 -2 -43 -3.5t-44 -1.5q-19 0 -38 1.5t-37 3.5q-10 1 -19 2t-19 2q-3 0 -3.5 -3.5t2.5 -4.5q18 -6 47.5 -35.5t64 -72t69.5 -93t63.5 -97.5t46.5 -85.5t18 -57.5v-206
q0 -26 -19.5 -46t-43.5 -29q-3 -1 -2.5 -4.5t3.5 -3.5q32 2 62 3t62 1q60 0 122 -3q3 0 3.5 3.5t-2.5 4.5q-14 3 -30 8.5t-30.5 14.5t-24 21.5t-9.5 28.5v222q0 22 17 60.5t44 83t61 91t68.5 86.5t65.5 68.5t53 36.5z" />
    <glyph glyph-name="Z" unicode="Z" horiz-adv-x="612" 
d="M590 160l-7 3q-11 -17 -26 -37t-34 -36.5t-40 -27.5t-43 -11l-259 -1q-10 0 -21.5 0.5t-22.5 1.5q119 169 235.5 338.5t210.5 344.5q2 2 0 4t-4 2h-410q-24 0 -48 3.5t-47 8.5q-5 0 -5 -3q-3 -17 -5.5 -35t-4.5 -37q-3 -22 -6 -44.5t-8 -45.5q-1 -3 2 -4.5t5 0.5
q33 38 54 60.5t43.5 34.5t52 15.5t79.5 3.5h44q22 0 44 1q23 1 44 1h43q7 0 13 -2q-37 -58 -74.5 -113.5t-75.5 -112.5q-77 -115 -152 -230t-144 -235q-4 -6 3 -6h64q29 0 56.5 0.5t54.5 1.5q23 1 46.5 1.5t46.5 0.5q26 0 52 -0.5t52 -1.5t50.5 -1.5t50.5 -0.5h31t31 1
q4 0 4 4q1 7 1.5 12.5t1.5 12.5q5 32 9.5 64.5t12.5 64.5z" />
    <glyph glyph-name="bracketleft" unicode="[" horiz-adv-x="211" 
d="M186 14l-1 7q-5 2 -12.5 2.5t-16.5 1.5q-12 1 -25 3.5t-24 6.5t-18 10.5t-7 17.5v594q0 24 20 31.5t44 11.5q11 2 21.5 3.5t18.5 5.5q3 2 2 5t-4 3h-158q-4 0 -4 -4v-698q0 -4 4 -4q30 -1 60.5 -1.5t62.5 -0.5h3q8 0 17.5 0.5t16.5 4.5z" />
    <glyph glyph-name="backslash" unicode="\" horiz-adv-x="469" 
d="M447 82l-1 3q-76 119 -150 237t-149 239q-20 33 -40.5 66t-41.5 65q-2 4 -5 2l-36 -15q-3 -2 -1 -6q95 -156 190 -310.5t192 -310.5q2 -2 4 -2q12 2 22.5 11t15.5 21z" />
    <glyph glyph-name="bracketright" unicode="]" horiz-adv-x="217" 
d="M195 15v698q0 4 -4 4h-161q-3 0 -4 -3t2 -5q8 -4 17.5 -5.5t20.5 -3.5q12 -2 24 -4.5t21.5 -7t15.5 -12.5t6 -20v-588q0 -13 -5.5 -20.5t-14 -11.5t-19.5 -5.5t-23 -2.5q-13 -1 -25 -2.5t-21 -6.5q-3 -2 -2 -5t4 -3h164q4 0 4 4z" />
    <glyph glyph-name="underscore" unicode="_" horiz-adv-x="458" 
d="M436 -193v39q0 4 -4 4h-406q-4 0 -4 -4v-39q0 -4 4 -4h406q4 0 4 4z" />
    <glyph glyph-name="grave" unicode="`" horiz-adv-x="230" 
d="M208 750q-14 7 -24.5 15t-22.5 17q-21 17 -44.5 33t-45.5 16q-14 0 -26 -7.5t-21 -18.5q-4 -4 1 -6q7 -3 14.5 -5.5t14.5 -5.5q37 -15 74.5 -28t77.5 -17z" />
    <glyph glyph-name="a" unicode="a" horiz-adv-x="593" 
d="M571 77v8q-24 2 -42.5 12t-30.5 33q-57 108 -101.5 221t-85.5 225q-5 14 -10.5 27.5t-10.5 27.5q-1 3 -4 3t-4 -3q-19 -50 -36 -99.5t-35 -99.5q-26 -74 -53 -147t-56 -146v1q-22 -51 -77 -58q-3 -1 -2.5 -5t3.5 -3q20 2 40 3.5t40 1.5t40 -1.5t39 -3.5v8q-12 2 -25 6.5
t-13 19.5q0 11 7 35.5t16 52t18.5 53t14.5 38.5h155q17 -48 35.5 -93.5t35.5 -92.5l-39 -19q-3 -2 -2 -5t4 -3l46 4t46 2q9 0 17.5 -0.5t16.5 -1.5q14 -1 26.5 -2t26.5 1zM343 320h-129q19 54 34.5 104.5t32.5 103.5z" />
    <glyph glyph-name="b" unicode="b" horiz-adv-x="421" 
d="M399 233q0 57 -34 96t-86 56q26 24 46.5 55.5t20.5 68.5q0 30 -14.5 52t-37 36.5t-49.5 22t-53 7.5q-15 0 -30 -1t-30 -3q-16 -2 -31.5 -3t-30.5 -1q-11 0 -21.5 1t-21.5 4q-3 1 -4.5 -1.5t0.5 -4.5q5 -8 13.5 -10t16.5 -3q6 -1 11 -2t8.5 -4t6 -10t2.5 -20v-417
q0 -17 -1 -28.5t-5.5 -19t-14.5 -12.5t-27 -11q-3 -1 -2.5 -4.5t3.5 -3.5h47q24 0 48 -1t47 -1h48q35 0 66.5 11.5t55.5 32.5t38.5 51t14.5 67zM283 498q0 -33 -9 -53t-26 -31.5t-40.5 -15.5t-52.5 -4h-3v200q10 3 20 5t20 2q22 0 39 -8.5t28.5 -23t17.5 -33t6 -38.5z
M333 211q0 -22 -7.5 -42.5t-21 -36.5t-32.5 -25.5t-42 -9.5q-12 0 -25.5 4t-25.5 11.5t-20 18t-8 23.5v209q36 -1 68.5 -9.5t58 -26.5t40.5 -47t15 -69z" />
    <glyph glyph-name="c" unicode="c" horiz-adv-x="538" 
d="M516 181q0 7 -0.5 13t-1.5 12q-1 3 -3.5 4t-4.5 -2q-13 -29 -26.5 -50t-31.5 -34.5t-41.5 -20.5t-55.5 -7q-57 0 -105 23.5t-83 62.5t-54.5 89.5t-19.5 105.5q0 52 16.5 94.5t47 72.5t73 46.5t94.5 16.5q31 0 59.5 -8.5t51 -25t38 -41.5t20.5 -58q1 -3 4 -3t4 3
q5 33 9 67.5t6 69.5q0 4 -4 4q-19 2 -38 4.5t-39 5.5q-26 4 -52.5 7t-54.5 3q-69 0 -124.5 -19.5t-95 -57t-61 -92.5t-21.5 -126q0 -60 21 -110t58 -86t88 -56t111 -20q48 0 95 5t95 13q3 0 3 2q11 21 17 45t6 48z" />
    <glyph glyph-name="d" unicode="d" horiz-adv-x="594" 
d="M572 355q0 56 -20.5 105.5t-56.5 86t-85.5 57.5t-107.5 21q-19 0 -39.5 -0.5t-39.5 -2.5q-20 -2 -40 -3t-40 -1q-16 0 -34 1t-33 2q-13 1 -25 1.5t-25 0.5q-7 0 -3 -6q3 -5 9 -7t13 -3q12 -2 24 -8.5t12 -29.5v-413q0 -32 -7.5 -48t-40.5 -23q-3 -1 -2.5 -4.5t3.5 -3.5
q29 1 58.5 -1t58.5 -4q26 -2 53.5 -4t53.5 -2q70 0 128 17.5t99 53t64 90t23 128.5zM504 327q0 -57 -18 -100t-51 -71.5t-78.5 -43t-100.5 -14.5q-27 0 -46.5 2.5t-32.5 11.5t-19.5 26t-6.5 46v397q19 7 39 9t40 2q60 0 110.5 -18.5t86.5 -53t56.5 -83.5t20.5 -110z" />
    <glyph glyph-name="e" unicode="e" horiz-adv-x="370" 
d="M348 170l-8 2q-8 -34 -32.5 -52.5t-59.5 -18.5q-26 0 -53.5 11.5t-42.5 33.5v206h30h23t30.5 -1.5t29 -4t18.5 -7.5t7 -11l4 -12t3.5 -11t6.5 -10q2 -2 4.5 -1t2.5 4q2 12 3 25t3 25t3.5 26t2.5 26q0 6 -5 4q-11 -3 -22 -9l-16 -6t-13 -3h-116v205h79q32 0 54 -11t24 -46
q0 -3 3.5 -3.5t4.5 2.5q5 23 9.5 45.5t7.5 48.5q0 6 -5 4q-4 -2 -8.5 -3.5t-8.5 -3.5h-285q-3 0 -3.5 -2.5t1.5 -4.5q8 -5 15.5 -7.5l13.5 -4.5q11 -4 20.5 -10t9.5 -26v-416q0 -13 -1.5 -25.5t-6.5 -22.5t-14.5 -16.5t-24.5 -6.5v-8q27 1 54.5 1.5t54.5 0.5q20 0 39 -0.5
t39 -0.5q23 0 46.5 -0.5t46.5 -0.5q5 0 13 3l1 1q4 0 4 3q3 23 6 44.5t8 44.5z" />
    <glyph glyph-name="f" unicode="f" horiz-adv-x="366" 
d="M343 626q1 3 -1.5 5t-4.5 0q-18 -10 -42.5 -11t-47.5 0q-6 0 -11.5 0.5t-10.5 0.5h-71q-64 0 -127 3q-3 0 -4 -2.5t2 -4.5q8 -5 15.5 -7.5t12.5 -4.5q12 -3 21 -8.5t9 -28.5v-418q0 -18 -0.5 -29.5t-5 -19t-14.5 -12t-28 -7.5q-3 -1 -2.5 -4.5t3.5 -3.5h6q11 0 22.5 0.5
t23.5 1.5l20 2t20 1t20 -0.5t21 -1.5t21 -2t21 -1h7v8q-14 0 -26 6t-21 16t-14 23t-5 25v200h84q32 0 49.5 -12.5t16.5 -45.5q0 -3 3.5 -3.5t4.5 2.5q5 26 8.5 52.5t5.5 54.5q0 3 -2.5 4t-4.5 -1q-5 -6 -14 -12t-16 -6h-135v196q10 0 22 1t22 3q14 2 26.5 3.5t26.5 1.5
q32 0 50 -13.5t18 -46.5q0 -3 3.5 -3.5t4.5 2.5z" />
    <glyph glyph-name="g" unicode="g" horiz-adv-x="585" 
d="M563 337l-1 8q-87 3 -175 3q-3 0 -4 -2.5t2 -4.5q7 -4 13.5 -6t11.5 -4q13 -4 23.5 -10t10.5 -23v-166q-17 -15 -42.5 -21.5t-48.5 -6.5q-56 0 -104.5 21.5t-84.5 58.5t-56.5 87t-20.5 106q0 51 18.5 93.5t51 73t76.5 47.5t95 17q30 0 57.5 -7t50 -22t37.5 -38t21 -55
q1 -3 4 -3t4 3q1 5 1.5 11t1.5 11q4 26 8 50.5t4 51.5q0 4 -4 4q-13 2 -25 3.5t-26 3.5q-34 5 -69 9.5t-70 4.5q-62 0 -117 -17.5t-96 -52t-64.5 -85.5t-23.5 -117q0 -75 23.5 -131t66 -92.5t101 -55t128.5 -18.5q44 0 89 6.5t82 34.5q2 2 2 3v186q0 20 15 28.5t34 12.5z
" />
    <glyph glyph-name="h" unicode="h" horiz-adv-x="609" 
d="M587 80q-34 6 -49 23t-15 51v410q0 25 13 32.5t35 11.5q3 1 2.5 4.5t-3.5 3.5q-20 -1 -40.5 -1.5t-40.5 -0.5q-45 0 -93 3q-3 0 -3.5 -3.5t2.5 -4.5q4 -1 7.5 -2t7.5 -2q18 -5 30.5 -11.5t12.5 -30.5v-170h-306v174q0 20 14.5 31t32.5 11q3 0 3 4t-3 4h-21
q-17 0 -34 -0.5t-34 -0.5q-41 0 -83 3v-8q20 -1 37.5 -12t17.5 -33v-426q0 -16 -1.5 -26t-6.5 -16.5t-15 -10t-26 -6.5q-3 -1 -2.5 -4.5t3.5 -3.5q4 0 9.5 -0.5t9.5 -0.5q13 -1 26 -1h25q11 0 25.5 0.5t25.5 0.5q16 1 30 1h31q3 0 3 4t-3 4q-65 6 -65 69v210h307v-208
q0 -32 -9 -47t-40 -24q-3 -1 -2.5 -4.5t3.5 -3.5q20 1 38.5 1.5t37.5 0.5q52 0 105 -3z" />
    <glyph glyph-name="i" unicode="i" horiz-adv-x="234" 
d="M212 73v8q-36 3 -50.5 19.5t-14.5 54.5v412q0 26 13.5 33t35.5 12q3 1 2 5t-4 3q-20 -3 -41 -4t-42 -1q-22 0 -43 1t-42 3q-3 0 -3.5 -3.5t2.5 -4.5q21 -3 36.5 -12t15.5 -32v-415q0 -26 -11.5 -44.5t-36.5 -27.5q-3 -1 -2.5 -4.5t3.5 -3.5q27 1 53 1.5t53 0.5
q19 0 37.5 -0.5t38.5 -0.5z" />
    <glyph glyph-name="j" unicode="j" horiz-adv-x="222" 
d="M202 610l-1 8q-18 1 -36 0.5t-35 -0.5q-9 0 -18.5 -0.5t-18.5 -0.5q-34 0 -65 3q-3 0 -4 -2.5t2 -4.5q10 -5 15 -6.5t10 -3.5q13 -4 22.5 -10.5t9.5 -27.5v-437q0 -40 -5.5 -70t-17.5 -56t-31 -50t-45 -52q-2 -2 0 -5.5t5 -1.5q33 16 62.5 39t52 52.5t35.5 63.5t13 73
v444q0 24 14 32.5t36 12.5z" />
    <glyph glyph-name="k" unicode="k" horiz-adv-x="582" 
d="M560 78l-2 7q-31 0 -67 21t-73.5 54t-74 72t-68.5 74q-19 21 -35.5 39.5t-30.5 32.5q14 13 31.5 31.5t34.5 38.5q22 24 49 51.5t55 51.5t55 40.5t51 19.5q3 1 2.5 4.5t-3.5 3.5q-17 1 -33 1.5t-32 0.5h-39t-39 2q-7 0 -3 -6q5 -10 5 -20q0 -15 -11.5 -33.5t-29.5 -39.5
t-40.5 -43t-44.5 -42q-18 -17 -35 -33t-28 -30q-1 49 -1.5 91.5t-1.5 92.5q0 20 14 34.5t34 15.5q3 0 3 4t-3 4q-2 0 -5 0.5t-5 0.5q-17 1 -34.5 0.5t-34.5 -1.5q-14 -1 -26.5 -1.5t-24.5 -0.5q-11 0 -21.5 0.5t-21.5 1.5q-3 0 -3.5 -3.5t2.5 -4.5q20 -4 38 -16.5t18 -32.5
v-409q0 -17 -1 -29t-5.5 -20.5t-14.5 -14t-28 -8.5q-3 -1 -2.5 -4.5t3.5 -3.5q23 2 44 3.5t43 1.5q34 0 69 -3q6 -1 11 -1q6 0 12 -1q3 -1 4 2.5t-2 5.5q-8 5 -17 8t-16 5q-7 3 -12.5 6t-9.5 9.5t-6 17.5t-2 28q0 49 0.5 95.5t1.5 95.5q17 -16 34.5 -36t40.5 -46
q30 -34 63 -70.5t67.5 -66.5t70 -49t68.5 -19q17 0 33 5.5t30 14.5z" />
    <glyph glyph-name="l" unicode="l" horiz-adv-x="389" 
d="M367 177l-8 2q-17 -35 -49 -56.5t-70 -21.5q-39 0 -65.5 22.5t-26.5 64.5v372q0 21 17 35.5t38 18.5q3 1 2.5 4.5t-3.5 3.5q-54 -3 -106 -3h-37t-37 1v-8q24 -1 40 -15t16 -38v-407q0 -9 -3 -21t-9 -22.5t-15 -17.5t-20 -8q-3 0 -3 -4t3 -4q5 0 10.5 0.5t10.5 0.5l66 2
t66 1q41 0 80.5 -1.5t79.5 -5.5l3 1.5t3 4.5t-1 4q10 20 12.5 40.5t4.5 42.5q0 3 0.5 6t0.5 6z" />
    <glyph glyph-name="m" unicode="m" horiz-adv-x="765" 
d="M743 83q-8 4 -15.5 4.5t-14.5 2.5q-14 2 -24 6.5t-21 20.5q-5 6 -10 30.5t-10.5 60.5t-10.5 79.5t-10 89.5t-9.5 90t-7.5 81q-3 28 -4.5 49.5t-3.5 33.5q0 3 -2 3.5t-4 -1.5q-44 -65 -83 -148t-74 -164q-16 -37 -32.5 -74.5t-32.5 -69.5q-9 17 -20 42t-28 60
q-23 49 -50.5 106t-53 108t-47.5 89.5t-34 51.5q-2 2 -4.5 1.5t-2.5 -3.5q-2 -11 -4 -36.5t-6 -58.5q-4 -38 -9 -83.5t-10 -92.5t-10.5 -92t-10 -80.5t-8 -58.5t-5.5 -26q-7 -11 -15 -13.5t-19 -4.5q-4 0 -12 -2q-3 -1 -2 -5t4 -3q11 2 20 2h20q14 0 28 -0.5t28 -1.5
t27.5 -1.5t27.5 -0.5q3 0 4 3t-2 5q-2 1 -9 3.5t-11 4.5q-13 5 -22 11.5t-9 24.5q0 63 6 124t14 123q3 23 6 46.5t6 48.5q17 -34 29.5 -62.5t28.5 -63.5q30 -67 63.5 -133.5t79.5 -130.5q2 -2 4 -2t3 2q12 25 23.5 49.5t23.5 49.5q35 75 70 148t73 146q2 -35 5.5 -61.5
t7.5 -60.5q7 -56 12.5 -111.5t5.5 -112.5q0 -8 -3 -17l-6 -18q-1 -2 -1.5 -4t-1.5 -4q-2 -5 4 -5q39 -2 79 -2h81z" />
    <glyph glyph-name="n" unicode="n" horiz-adv-x="631" 
d="M609 612l-2 8q-5 0 -11 0.5t-11 0.5q-14 1 -27.5 0.5t-26.5 -0.5h-42q-20 0 -43 3q-2 1 -3.5 -2t0.5 -5q5 -5 11.5 -6.5t14.5 -2.5q7 -1 14 -3t13 -7.5t9.5 -16t3.5 -27.5q0 -43 1 -91.5t2 -91.5q1 -47 1.5 -92t0.5 -91v-3q-105 117 -207 226.5t-211 222.5q-1 2 -3 1
t-3 -3l-8 -16v-468q0 -23 -9.5 -33.5t-21.5 -16.5q-6 -3 -12.5 -7t-14.5 -11q-2 -2 -0.5 -5t4.5 -2q19 3 38 5.5t37 2.5q14 0 28.5 -1t28.5 -3q10 -1 19.5 -2t19.5 -2q3 0 3.5 2.5t-1.5 4.5q-11 8 -19 10.5t-16 4.5q-7 1 -13.5 3.5t-11 8.5t-7.5 16.5t-3 27.5q0 39 -1 77
t-3 76t-3 76t-1 76q0 25 3 52q14 -15 25 -28.5t25 -28.5q41 -48 86 -98.5t91.5 -100t94.5 -97t96 -88.5q2 -2 4.5 -0.5t2.5 3.5q5 57 7 113.5t2 114.5v41l-1 241q0 15 15.5 21t29.5 10q2 1 2.5 0.5t2.5 0.5z" />
    <glyph glyph-name="o" unicode="o" horiz-adv-x="616" 
d="M594 331q0 64 -23.5 122t-64.5 100.5t-96 66t-119 18.5l-13 -1q-71 -15 -120 -38.5t-79 -60t-43.5 -89t-13.5 -125.5q0 -48 27.5 -95t69.5 -84t92.5 -60t97.5 -23q57 0 108.5 20t90.5 56t62.5 85.5t23.5 107.5zM527 332q0 -48 -13.5 -91t-40 -75.5t-65.5 -52t-90 -19.5
q-54 0 -96 24.5t-71.5 64t-44.5 88.5t-15 99q0 48 14.5 90.5t41.5 75t66.5 51t90.5 18.5q54 0 95.5 -24t70 -63t43 -88t14.5 -98z" />
    <glyph glyph-name="p" unicode="p" horiz-adv-x="400" 
d="M378 491q0 38 -10 63t-29 39.5t-46 20.5t-61 6h-88q-29 0 -58 0.5t-60 3.5q-3 0 -3.5 -3.5t2.5 -4.5q20 -5 38 -18.5t18 -34.5v-410q0 -17 -0.5 -29.5t-5 -20.5t-14.5 -13t-28 -8q-3 -1 -2.5 -4.5t3.5 -3.5q17 -1 33 -1h34h114q3 0 3 4t-3 4q-34 2 -49 16t-15 47v441
q24 12 52 12q27 0 48.5 -12.5t36.5 -32.5t23 -44.5t8 -49.5q0 -56 -33 -91.5t-90 -35.5h-17q-3 0 -3.5 -3.5t2.5 -4.5q23 -5 43 -5q34 0 63 15t50 39.5t32.5 55.5t11.5 63z" />
    <glyph glyph-name="q" unicode="q" horiz-adv-x="626" 
d="M1072 -23l-4 7q-37 -17 -76.5 -24.5t-79.5 -7.5q-59 0 -116 14t-111.5 36.5t-107 51.5t-101.5 58q59 43 90.5 109t31.5 138q0 60 -22.5 110t-61 86t-90.5 55.5t-110 19.5q-61 0 -114 -22t-92.5 -61t-62.5 -91.5t-23 -113.5q0 -64 21 -117t59 -91.5t90.5 -59.5t116.5 -21
q26 0 55 6t52 17q5 0 15.5 -4.5t23 -10.5t25.5 -13t24 -13v1q7 -4 12 -7t8 -5q39 -20 81.5 -38.5t86.5 -33t89 -23t90 -8.5q53 0 104 14t97 42zM522 354q0 -44 -12.5 -85t-35.5 -76t-56 -62t-74 -43q-52 10 -97.5 37.5t-80 67.5t-54.5 89t-20 102q0 48 16 87.5t44.5 67.5
t68.5 43t88 15q51 0 90.5 -20t66.5 -53.5t41.5 -77.5t14.5 -92z" />
    <glyph glyph-name="r" unicode="r" horiz-adv-x="592" 
d="M570 77l-3 8q-30 -4 -59 10.5t-56 40t-51.5 57t-46.5 61.5q-15 20 -28 38.5t-24 30.5q33 31 59.5 74t26.5 91q0 36 -14 62t-37 42t-53 23.5t-61 7.5h-197q-3 0 -3.5 -3.5t2.5 -4.5q23 -6 39.5 -23.5t16.5 -40.5v-399q0 -23 -14 -43t-35 -30q-3 -2 -1.5 -5.5t4.5 -2.5
q23 3 44.5 5t44.5 2t45.5 -1.5t45.5 -3.5v8q-29 3 -46.5 23.5t-17.5 49.5v142q8 2 15 2h16q27 0 48.5 -10t40 -26.5t34 -37t29.5 -41.5q15 -23 31.5 -45t35.5 -39t43 -28t54 -11q18 0 36.5 4.5t35.5 12.5zM317 451q0 -54 -21.5 -84.5t-77.5 -30.5q-17 0 -33 1t-33 4v249
q11 5 23 6.5t24 1.5q29 0 51 -13.5t37 -34.5t22.5 -47t7.5 -52z" />
    <glyph glyph-name="s" unicode="s" horiz-adv-x="330" 
d="M308 219q0 27 -10 50t-26 43.5t-36.5 39t-41.5 35.5q-19 16 -37 31.5t-31.5 31.5t-22 33t-8.5 37q0 38 25.5 62.5t63.5 24.5q37 0 59.5 -25t30.5 -60q1 -3 4 -3t4 3q8 52 12 101q0 2 -3 4q-33 10 -73 10q-28 0 -61 -7.5t-61 -23t-47 -40t-19 -58.5q0 -23 10 -45t26 -43.5
t37 -42t42 -40.5q20 -19 39 -38t34 -38t24 -37.5t9 -37.5q0 -20 -10 -36.5t-25.5 -28t-34.5 -17.5t-37 -6q-19 0 -37.5 5.5t-32.5 17t-23 27.5t-9 37v15q0 3 -4 3t-4 -3l-5 -24q-2 -11 -4.5 -23t-2.5 -24q0 -19 8.5 -31.5t22 -20.5t30 -11.5t31.5 -3.5q31 0 65.5 11.5t63 32
t47 49.5t18.5 64z" />
    <glyph glyph-name="t" unicode="t" horiz-adv-x="501" 
d="M479 624l-5 4q-4 -1 -7 -2t-7 -2q-17 -5 -28 -5h-320q-18 0 -33.5 2.5t-30.5 12.5q-4 3 -6 -2q-2 -7 -4 -13.5t-4 -13.5q-4 -14 -8 -28.5t-4 -30.5l2 -13q0 -3 3 -4t4 2q8 21 26 37t42 16h120v-434q0 -17 -1 -28.5t-6 -18.5t-14.5 -11.5t-26.5 -8.5q-3 -1 -2.5 -5t3.5 -3
q20 2 39 3t39 1q26 0 51 -1.5t51 -3.5q3 0 3.5 3.5t-2.5 4.5q-28 5 -46 25t-18 49v429h88q32 0 55.5 -11.5t31.5 -46.5q1 -3 3 -3q3 0 4 3q6 22 7 48t1 49z" />
    <glyph glyph-name="u" unicode="u" horiz-adv-x="587" 
d="M565 610l-1 8q-18 1 -36 0.5t-35 -0.5q-8 0 -16.5 -0.5t-16.5 -0.5q-27 0 -55 3q-3 0 -3.5 -3.5t2.5 -4.5q28 -5 43 -18.5t15 -42.5l2 -302q0 -35 -11.5 -63t-32.5 -48t-50 -31t-63 -11q-33 0 -61.5 11t-49.5 30.5t-32.5 47t-11.5 61.5l2 306q0 18 16.5 33.5t32.5 23.5
q3 2 2 5t-4 3q-16 -1 -31 -1h-31q-56 0 -113 3q-3 0 -3.5 -3.5t2.5 -4.5q27 -7 42.5 -19t15.5 -41v-101q0 -21 -0.5 -46t-0.5 -51q0 -22 0.5 -44t1 -40.5t2 -33t4.5 -21.5q11 -33 33.5 -61t51.5 -49t62.5 -32.5t68.5 -11.5q48 0 86.5 17.5t65.5 48t42 71.5t15 87v268
q0 21 14 37.5t36 20.5z" />
    <glyph glyph-name="v" unicode="v" horiz-adv-x="622" 
d="M600 611l-1 8q-5 0 -9.5 -0.5t-9.5 -1.5h1q-30 -3 -61 -3q-29 0 -57 3h1q-5 1 -10 1t-10 1q-2 1 -3 -3t1 -5q3 -1 10 -2.5t14 -4t12 -6t5 -7.5q0 -24 -12.5 -65t-31.5 -88.5t-40.5 -97.5t-40.5 -93q-18 -41 -30 -69q-5 15 -13.5 36t-22.5 53q-18 44 -38 94.5t-37 97
t-28.5 82t-11.5 49.5q0 4 4.5 7t10.5 5.5t12 4t9 1.5t3 4t-3 4q-31 -1 -61.5 0t-60.5 3q-16 1 -31.5 1.5t-32.5 1.5q-3 0 -4 -2.5t2 -4.5q8 -5 16 -7t14 -4q11 -3 20 -7t17 -18q34 -55 59 -120t49 -134q23 -67 49 -132.5t63 -128.5q2 -2 4 -2t3 2q5 10 13.5 29.5t19.5 45
t24 56t27 63.5q23 55 47.5 112t45 105t35.5 80t19 37q8 8 17 11t19 5q4 1 14 3z" />
    <glyph glyph-name="w" unicode="w" horiz-adv-x="790" 
d="M768 608v8q-14 -1 -27 -1h-25q-26 0 -51.5 1t-51.5 3q-3 0 -3.5 -3.5t2.5 -4.5q5 -1 12.5 -3t14.5 -6t12 -9t5 -11q0 -41 -8.5 -91.5t-21.5 -103.5t-28.5 -105t-28.5 -94q-12 34 -22.5 66t-21.5 66q-26 77 -53.5 153t-60.5 145q-2 2 -4.5 1.5t-3.5 -2.5
q-43 -107 -83 -211t-80 -213q-6 31 -10.5 55.5t-11.5 56.5q-14 71 -28 140.5t-22 142.5q8 8 19 14t22 10q3 1 2 5t-4 3q-42 -6 -81 -6q-21 0 -40.5 2.5t-40.5 4.5q-5 1 -9 1t-9 1q-3 1 -4.5 -2t1.5 -5q5 -3 9.5 -5.5t8.5 -4.5q16 -9 26.5 -17t21.5 -30q24 -48 43.5 -126.5
t36.5 -162.5q11 -57 23 -110.5t25 -94.5q1 -3 3.5 -3.5t4.5 2.5q24 55 46.5 114t43.5 115l38 100t40 99q14 -37 24.5 -69.5t23.5 -70.5q25 -75 51.5 -148t61.5 -140q2 -2 4.5 -1.5t3.5 2.5q6 15 13.5 39t16.5 54.5t18.5 65.5t19.5 72q13 48 26 95.5t25 87t22.5 68t17.5 37.5
q8 8 21 17t25 7z" />
    <glyph glyph-name="x" unicode="x" horiz-adv-x="551" 
d="M529 82q-25 7 -47.5 27t-43 47t-39 59t-35.5 63q-14 25 -27.5 49.5t-28.5 45.5q9 13 19.5 30t22.5 37q17 27 35.5 56.5t38 54.5t40 41t41.5 18v8q-33 -3 -67 -3q-21 0 -41 1.5t-41 3.5q-3 0 -3.5 -3.5t2.5 -4.5q10 -4 23 -12.5t13 -19.5q0 -8 -6 -19.5t-15 -25t-20 -29
t-22 -30.5q-14 -20 -26 -37.5t-19 -29.5q-7 14 -19 33.5t-24 38.5q-8 13 -17.5 28.5t-17.5 30t-13.5 27t-5.5 18.5q0 12 9 19.5t20 10.5q3 1 2.5 4.5t-3.5 3.5q-11 0 -23 -1t-23 -2q-14 -2 -27.5 -3t-27.5 -1q-19 0 -37.5 1t-36.5 3q-3 0 -3.5 -3.5t2.5 -4.5q27 -5 51 -25
t45 -48.5t39 -61t33 -62.5q7 -14 15 -29.5t17 -32.5q-8 -14 -20 -33.5t-24 -40.5q-18 -32 -38.5 -66t-42 -62.5t-44.5 -48t-47 -20.5v-8q20 2 38 3t38 1t38 -1t38 -3v8q-17 2 -27 13q1 13 9.5 33t20.5 42t26 45.5t27 44.5q10 16 19 29.5t15 24.5q3 -5 5.5 -9.5t9.5 -15.5
q13 -22 30.5 -50.5t33.5 -56t28 -50t15 -32.5l-17 -19q-2 -2 -1 -4.5t4 -2.5q18 2 36 3t38 1q21 0 41.5 -1t40.5 -3z" />
    <glyph glyph-name="y" unicode="y" horiz-adv-x="570" 
d="M548 611l-1 8q-2 0 -5 -0.5t-5 -0.5q-17 -2 -35 -3t-37 -1q-14 0 -28.5 1t-27.5 4q-3 1 -4 -2.5t2 -5.5q8 -4 13.5 -10t5.5 -15q0 -6 -8.5 -24t-21.5 -41.5t-28 -48.5t-27 -46q-14 -24 -27 -45t-19 -32q-14 23 -37 61t-45 75.5t-38 67t-16 36.5q0 6 5.5 11t11.5 10
q1 1 0.5 0t0.5 0q2 2 1 4.5t-4 2.5q-30 -3 -58 -3q-23 0 -44.5 1.5t-45.5 3.5q-3 0 -3.5 -3.5t2.5 -4.5q13 -4 35 -25.5t47 -53t50.5 -68.5t46.5 -72t34 -63t13 -42v-152q0 -19 -13.5 -33t-30.5 -21q-3 -2 -2.5 -5t3.5 -3q25 2 49 2h51h40q21 0 41 -1q3 0 3.5 3.5t-2.5 4.5
q-10 2 -22 6t-22 10.5t-17 15t-7 20.5v164q0 17 12.5 45t32 61t44.5 67t50.5 63.5t48 50t38.5 26.5z" />
    <glyph glyph-name="z" unicode="z" horiz-adv-x="466" 
d="M444 192l-7 3q-8 -13 -19 -27t-25 -26t-29.5 -20t-31.5 -8l-191 -1h-15t-15 1q88 125 173 249.5t154 251.5q2 2 0 4t-4 2q-20 0 -46.5 -0.5t-49.5 -1.5q-29 -1 -57.5 -2t-57.5 -1q-42 0 -83.5 3.5t-77.5 11.5q-5 2 -5 -3q-2 -11 -3.5 -26t-3.5 -26q-2 -15 -4 -32.5
t-7 -35.5q-1 -3 2 -4.5t5 0.5q24 28 39.5 44.5t32 25.5t38.5 11.5t59 2.5q17 0 32.5 0.5t31.5 0.5h65h4t4 -1q-28 -43 -55 -83.5t-56 -83.5q-56 -85 -111.5 -169t-106.5 -172q-4 -6 3 -6h48q17 0 34 -0.5t34 -0.5q32 0 63 -0.5t63 -0.5q76 0 153 3q4 0 4 3q1 3 1 6t1 6
q5 26 7.5 51t9.5 51z" />
    <glyph glyph-name="braceleft" unicode="{" horiz-adv-x="250" 
d="M226 16q-26 12 -41.5 33t-23.5 47t-10 54t-2 54v24q0 8 0.5 16.5t0.5 17.5q0 19 -1.5 38t-6.5 36t-15 31t-26 23q19 9 29 24t14.5 33t5.5 38t1 38v24q0 24 0.5 49.5t7.5 47.5t22 38t44 22q3 1 2.5 4.5t-3.5 3.5q-50 -2 -77 -19t-39.5 -43.5t-15 -58.5t-3.5 -64
q0 -24 -1.5 -47t-8 -41.5t-19 -31t-35.5 -16.5q-3 -1 -3 -4q0 -2 3 -4q11 -5 19.5 -7t15.5 -4q8 -2 13 -4.5t7.5 -8.5t3.5 -17t1 -32v-74q0 -38 4 -74t18 -66t41.5 -53t74.5 -35z" />
    <glyph glyph-name="bar" unicode="|" horiz-adv-x="74" 
d="M52 4v760q0 4 -4 4h-22q-4 0 -4 -4v-760q0 -4 4 -4h22q4 0 4 4z" />
    <glyph glyph-name="braceright" unicode="}" horiz-adv-x="249" 
d="M227 385q-5 5 -13 7t-16 3q-12 2 -21.5 7t-9.5 25q0 11 0.5 21.5t0.5 21.5v47q0 36 -4 70t-18.5 61.5t-42 45.5t-73.5 23q-3 0 -4 -3t2 -5q2 -1 3 -2t3 -2v1q12 -8 24 -16.5t22 -19t16.5 -23t6.5 -27.5v-20q0 -10 -1 -21q-1 -12 -1.5 -25t-0.5 -27q0 -41 10 -79t42 -58
q-9 -6 -18 -19t-16 -27t-11 -28t-4 -22v-21q0 -11 1 -21q1 -13 1 -25v-26q0 -28 -3 -56t-11.5 -52.5t-24 -43.5t-41.5 -29q-3 -2 -2 -5.5t4 -2.5q45 10 73 32t43.5 51.5t20.5 66t5 77.5q0 5 -0.5 11.5t-0.5 14.5v38q0 16 0.5 31.5t4.5 24.5q5 13 14 15.5t20 2.5h9t9 1z" />
    <glyph glyph-name="quotesinglbase" unicode="&#x201a;" horiz-adv-x="124" 
d="M102 127q0 24 -15.5 37.5t-38.5 12.5l-21 -1q22 -36 22 -76q0 -32 -9.5 -63.5t-17.5 -62.5q13 13 27 31.5t26 39t19.5 42t7.5 40.5z" />
    <glyph glyph-name="florin" unicode="&#x192;" horiz-adv-x="518" 
d="M495 615l-1 31q-17 14 -37.5 22.5t-43.5 8.5q-46 0 -86 -31t-69.5 -76t-46.5 -95.5t-17 -90.5q0 -7 0.5 -13t1.5 -13q-5 -1 -9 -1.5t-9 -0.5q-11 0 -25.5 2t-28 0.5t-22.5 -8t-9 -24.5q25 2 50 2.5t50 -2.5q-13 -37 -16.5 -80.5t-5.5 -88t-6.5 -88t-19 -81t-43.5 -65.5
t-80 -41q63 0 101.5 22t61 58t32 82.5t14 96t9 98.5t15.5 90q15 4 34 4q20 0 38.5 -3t38.5 -3q38 0 44 35q-9 -2 -30.5 -3t-45.5 -1t-45.5 1t-30.5 3q-4 8 -5 17.5t-1 18.5q0 25 12 66.5t32 81.5t47 69t57 29q17 0 30 -11t22 -27.5t14.5 -34.5t8.5 -31q13 14 17 35.5t3 39.5
z" />
    <glyph glyph-name="quotedblbase" unicode="&#x201e;" horiz-adv-x="231" 
d="M209 126q0 24 -15 38.5t-39 12.5l-21 -1q23 -35 23 -76q0 -33 -10 -64t-18 -62q13 12 27 30.5t26 39.5t19.5 42.5t7.5 39.5zM102 127q0 24 -15.5 37.5t-38.5 12.5l-21 -1q22 -36 22 -76q0 -32 -9.5 -63.5t-17.5 -62.5q13 13 27 31.5t26 39t19.5 42t7.5 40.5z" />
    <glyph glyph-name="ellipsis" unicode="&#x2026;" horiz-adv-x="677" 
d="M655 107q0 19 -13 34.5t-33 15.5q-18 0 -28.5 -13t-10.5 -30q0 -16 9 -33t28 -17q17 0 32.5 12.5t15.5 30.5zM381 107q0 19 -13 34.5t-33 15.5q-18 0 -28.5 -13t-10.5 -30q0 -16 9 -33t28 -17q17 0 32.5 12.5t15.5 30.5zM107 107q0 19 -13 34.5t-33 15.5q-18 0 -28.5 -13
t-10.5 -30q0 -16 9 -33t28 -17q17 0 32.5 12.5t15.5 30.5z" />
    <glyph glyph-name="dagger" unicode="&#x2020;" horiz-adv-x="443" 
d="M421 611l-3 5l-15 7q-2 0 -3 -1q-35 -28 -77.5 -40t-87.5 -12q2 48 18 102.5t38 95.5q2 3 -2 5l-12 11q-1 0 -1.5 0.5t-1.5 0.5q-26 -6 -54 -6q-12 0 -24.5 1.5t-24.5 3.5q-3 0 -4 -1l-12 -13q-3 -3 -1 -5q24 -46 37 -95t19 -100h-10q-42 0 -82.5 14.5t-72.5 41.5
q-3 2 -5 0l-15 -11q-3 -2 -2 -4q11 -30 11 -57q0 -12 -2 -24.5t-8 -24.5q-1 -2 2 -5l13 -9q2 -2 4 0q21 15 41 24.5t40 15.5t41.5 9.5t46.5 5.5q-9 -74 -63 -133q-3 -3 0 -5q18 -29 28.5 -73.5t16 -96t7.5 -105.5t2 -103q0 -29 -0.5 -55t-0.5 -48v-48q0 -1 3 -4l17 -6h3
l14 5q2 2 2 4l10 281q0 8 0.5 14.5t0.5 14.5q1 58 7.5 112t35.5 109q2 2 -1 5q-29 30 -41 60t-18 71q43 -2 86 -17t78 -42q3 -2 5 0l13 13q1 1 1 4q-6 24 -6 49q0 29 9 59z" />
    <glyph glyph-name="circumflex" unicode="&#x2c6;" horiz-adv-x="259" 
d="M237 768q-26 21 -53.5 40.5t-56.5 37.5q-28 -24 -55 -50t-50 -55q26 17 53.5 32.5t59.5 15.5q26 0 44 -15t29 -38l15.5 15.5t13.5 16.5z" />
    <glyph glyph-name="perthousand" unicode="&#x2030;" horiz-adv-x="956" 
d="M934 211q0 27 -8.5 52.5t-24 46t-38.5 32.5t-52 12q-31 0 -56.5 -11.5t-43.5 -31t-28 -45.5t-10 -56q0 -28 8.5 -54.5t25 -46.5t40.5 -32.5t54 -12.5t55 12.5t42 32.5t26.5 46.5t9.5 55.5zM634 211q0 27 -8.5 52.5t-24 46t-38.5 32.5t-52 12q-31 0 -56.5 -11.5t-43.5 -31
t-28 -45.5t-10 -56q0 -28 8.5 -54.5t25 -46.5t40.5 -32.5t54 -12.5t55 12.5t42 32.5t26.5 46.5t9.5 55.5zM478 669q-16 -2 -47.5 -4t-70 -4.5t-80 -5.5t-77.5 -6t-62.5 -6.5t-35.5 -7.5q-39 -17 -61 -47t-22 -73q0 -27 11 -55.5t30 -51.5t44.5 -37.5t54.5 -14.5
q30 0 55 15.5t42.5 39.5t27.5 53t10 56q0 31 -13 58t-39 45q48 7 94.5 9.5t94.5 4.5q-63 -146 -128 -289t-131 -288l13 -1q11 -1 22 1t19 11q4 5 22.5 46.5t44 102t54.5 132.5t55.5 136.5t46 114t26.5 66.5zM886 223q0 -38 -15 -77.5t-50 -60.5q-25 4 -44.5 18t-33 34
t-20.5 44t-7 48q0 20 5.5 39t16.5 33.5t27.5 23.5t38.5 9t37.5 -10.5t25.5 -26.5t14.5 -35.5t4.5 -38.5zM586 223q0 -38 -15 -77.5t-50 -60.5q-25 4 -44.5 18t-33 34t-20.5 44t-7 48q0 20 5.5 39t16.5 33.5t27.5 23.5t38.5 9t37.5 -10.5t25.5 -26.5t14.5 -35.5t4.5 -38.5z
M245 516q0 -38 -15 -74.5t-49 -56.5q-27 0 -47.5 12.5t-34 32t-20 44t-6.5 48.5q0 20 5 39.5t16 34.5t27 24.5t39 9.5t39 -10.5t26.5 -27t15 -37t4.5 -39.5z" />
    <glyph glyph-name="Scaron" unicode="&#x160;" 
 />
    <glyph glyph-name="guilsinglleft" unicode="&#x2039;" horiz-adv-x="224" 
d="M202 264l-15 15t-25 25.5t-29.5 30.5t-28 30t-20.5 24t-8 13q0 5 17 26.5t38.5 47t41 50t25.5 36.5q-46 -40 -90 -81.5t-86 -86.5q35 -44 71 -85.5t78 -79.5q7 10 14.5 18.5t16.5 16.5z" />
    <glyph glyph-name="quoteleft" unicode="&#x2018;" horiz-adv-x="125" 
d="M103 740q-14 -13 -28 -31.5t-26 -39t-19.5 -42t-7.5 -40.5q0 -29 19 -39.5t44 -10.5h13q-23 35 -23 76q0 33 10 64t18 63z" />
    <glyph glyph-name="quoteright" unicode="&#x2019;" horiz-adv-x="124" 
d="M102 690q0 24 -15.5 37.5t-38.5 12.5l-21 -1q22 -36 22 -76q0 -32 -9.5 -63.5t-17.5 -62.5q13 13 27 31.5t26 39t19.5 42t7.5 40.5z" />
    <glyph glyph-name="quotedblleft" unicode="&#x201c;" horiz-adv-x="231" 
d="M209 740q-13 -13 -27 -31.5t-26 -39t-19.5 -42t-7.5 -40.5q0 -29 18.5 -39.5t43.5 -10.5h13q-22 36 -22 76q0 33 9.5 64t17.5 63zM102 740q-14 -13 -28 -31.5t-25.5 -39t-19 -42t-7.5 -40.5q0 -29 18.5 -39.5t43.5 -10.5h13q-22 34 -22 76q0 33 9.5 64t17.5 63z" />
    <glyph glyph-name="quotedblright" unicode="&#x201d;" horiz-adv-x="231" 
d="M209 689q0 24 -15 38.5t-39 12.5l-21 -1q23 -35 23 -76q0 -33 -10 -64t-18 -62q13 12 27 30.5t26 39.5t19.5 42.5t7.5 39.5zM102 690q0 24 -15.5 37.5t-38.5 12.5l-21 -1q22 -36 22 -76q0 -32 -9.5 -63.5t-17.5 -62.5q13 13 27 31.5t26 39t19.5 42t7.5 40.5z" />
    <glyph glyph-name="bullet" unicode="&#x2022;" horiz-adv-x="191" 
d="M169 394q0 8 -1 16t-4 15l-5 2q-36 -9 -69.5 -22.5t-64.5 -28.5q-3 -2 -2 -5t4 -3q24 -3 40 -13.5t27 -27t18 -36.5t12 -41q1 -3 3 -3q3 0 5 2q7 14 13.5 32.5t12 38t8.5 39t3 35.5z" />
    <glyph glyph-name="endash" unicode="&#x2013;" horiz-adv-x="454" 
d="M432 381v36h-410v-36h410z" />
    <glyph glyph-name="emdash" unicode="&#x2014;" horiz-adv-x="865" 
d="M843 381v36h-821v-36h821z" />
    <glyph glyph-name="tilde" unicode="&#x2dc;" horiz-adv-x="298" 
d="M276 818q-11 -14 -26.5 -23t-33.5 -9q-17 0 -32.5 6t-31 12.5t-31 12.5t-31.5 6q-15 0 -25.5 -7t-19 -17.5t-14 -23t-9.5 -24.5q11 15 26.5 26.5t35.5 11.5q17 0 33 -6t31.5 -13.5t30.5 -13.5t32 -6q14 0 24.5 6.5t18 16.5t13 22t9.5 23z" />
    <glyph glyph-name="trademark" unicode="&#x2122;" horiz-adv-x="659" 
d="M635 406q-17 10 -27.5 31.5t-17 49t-10 58t-6.5 59.5q-2 26 -4.5 47.5t-6.5 37.5q-1 3 -3 3t-4 -2q-23 -32 -40.5 -65t-31.5 -65q-11 -24 -21.5 -47.5t-19.5 -39.5q-11 19 -18.5 35.5t-16.5 36.5q-17 36 -35.5 72.5t-45.5 72.5q-2 2 -4 2t-3 -3q-3 -12 -6 -31.5t-6 -44.5
q-4 -29 -8.5 -61.5t-11 -61.5t-15.5 -50.5t-22 -29.5q-2 -2 -2 -4t3 -3q23 -3 46 -3.5t47 -0.5q3 0 3.5 2.5t-1.5 4.5q-15 11 -20.5 28.5t-5.5 35.5q0 16 2.5 32.5t5.5 33.5q2 11 3.5 22t2.5 22q11 -18 17 -31.5t15 -33.5q13 -28 28 -57t37 -58q4 -4 6 0q3 5 6 11t6 11
q20 41 40.5 79.5t40.5 79.5l1 -1q2 -45 7 -87.5t10 -87.5q0 -3 3 -3q14 -2 28.5 -2.5t29.5 -0.5h24q2 0 2.5 2.5t-1.5 4.5zM271 680l-4 4q-14 0 -30 -1t-33 -2q-19 -1 -39.5 -2t-40.5 -1q-23 0 -44 2t-38 8q-3 1 -5 -3q-5 -14 -8.5 -28.5t-5.5 -29.5q-1 -3 1.5 -4.5t4.5 0.5
q19 17 44 22t49 7h2v-225q0 -11 -11.5 -13t-20.5 -2q-3 0 -3 -4t3 -4q29 -3 58.5 -4t58.5 -1q3 0 4 3t-2 5q-2 1 -4 1t-5 2q-8 3 -17 7t-9 9v225q6 -1 13 -0.5t12 1.5q5 0 9 0.5t9 0.5q35 0 39 -34q0 -3 3.5 -3.5t4.5 2.5q3 15 4 30t1 32z" />
    <glyph glyph-name="guilsinglright" unicode="&#x203a;" horiz-adv-x="225" 
d="M203 397q-33 45 -71 86t-78 79q-7 -10 -14.5 -18.5t-17.5 -16.5l26.5 -26.5t42.5 -43.5t39.5 -43t17.5 -24q0 -6 -16.5 -27.5t-38 -47.5t-41 -50.5t-25.5 -35.5q49 37 91 80.5t85 87.5z" />
    <glyph glyph-name="exclamdown" unicode="&#xa1;" horiz-adv-x="127" 
d="M105 648q0 17 -11.5 33t-29.5 16q-17 0 -28 -11.5t-11 -28.5q0 -15 10 -31t27 -16q16 0 29.5 10.5t13.5 27.5zM102 120q0 51 -2 107.5t-7 113.5t-12.5 112.5t-19.5 105.5q-9 -63 -13.5 -126.5t-7.5 -127t-7 -127t-11 -126.5q7 2 20.5 9.5t27 18t23 21.5t9.5 19z" />
    <glyph glyph-name="cent" unicode="&#xa2;" horiz-adv-x="410" 
d="M388 493q0 22 -12.5 35.5t-30.5 22t-38.5 12t-36.5 4.5l11 79q0 5 -4 5h-10q-20 0 -24.5 -20t-5.5 -42v-14t-2 -11q-46 2 -85 -12.5t-67.5 -42t-44.5 -65.5t-16 -84q0 -38 11.5 -71t32.5 -59t51 -44.5t67 -26.5q-1 -16 -3 -31t-4 -31q-2 -14 -3.5 -28t-2.5 -28q0 -4 4 -4
l32 4q4 0 4 3q2 28 5.5 55t5.5 54q6 0 11.5 -0.5t13.5 -0.5q21 0 45.5 3t45.5 11t34.5 22.5t13.5 38.5q0 10 -2.5 19.5t-5.5 17.5q-1 3 -4 3t-4 -3q-12 -37 -37.5 -53t-64.5 -15q-9 0 -18 0.5t-18 0.5q3 14 4.5 39t3.5 56q2 37 5 78t8.5 75.5t13.5 57t20 22.5q10 0 21 -8
t21.5 -19t19.5 -24t15 -22h-1q1 -2 2 -3t2 -3q4 -6 8 0q5 11 9 22.5t4 24.5zM224 525q-8 -78 -15.5 -157t-15.5 -157q-46 25 -76 71.5t-30 99.5q0 62 38.5 100t98.5 43z" />
    <glyph glyph-name="sterling" unicode="&#xa3;" horiz-adv-x="493" 
d="M471 647q0 1 -2 3q-17 11 -37 17.5t-41 6.5q-45 0 -87 -27t-75 -67.5t-53 -88.5t-20 -90v-12q0 -5 2 -11q-2 -2 -4.5 -3t-4.5 -2q-6 0 -16 2q-18 4 -34 1t-22 -31q-2 -5 4 -5q18 2 37.5 1t37.5 -3q-4 -15 -6 -32.5t-4 -34.5q-5 -34 -11 -67.5t-22 -60.5
q-11 -20 -31.5 -31.5t-36.5 -19.5q-14 -7 -22 -16q-4 -6 3 -6q38 -2 76.5 -3.5t77.5 -1.5q20 0 45 -0.5t46 -1.5q23 -1 45.5 -2t45.5 -1q46 0 77 22t31 72q0 8 -1 15t-3 15q-2 7 -6 1q-20 -26 -32.5 -40t-25 -20.5t-29.5 -7.5t-45 -1h-51h-70t-70 2q46 45 64 103t21 120
q4 1 9 1h9h10q6 0 12 -1q8 -1 15.5 -1.5t15.5 -0.5q22 0 39.5 6.5t22.5 29.5q2 5 -4 5q-32 -3 -62 -3q-15 0 -30 1t-31 3q-6 18 -6 35q0 26 12 63t32 71.5t47 58.5t57 24q17 0 30 -9t23 -23t16.5 -30t11.5 -30l7 -1q9 14 10.5 32.5t1.5 35.5v23z" />
    <glyph glyph-name="currency" unicode="&#x20ac;" horiz-adv-x="828" 
d="M806 143q0 19 -4 34q-18 -40 -37.5 -69.5t-44 -49t-57.5 -29t-79 -9.5q-58 0 -112.5 20.5t-100.5 55.5t-80 83t-52 102h554v36h-564q-5 21 -6.5 42t-2.5 42h573v36h-572q3 68 28.5 123t68 93.5t100 59t124.5 20.5q45 0 85 -12t71.5 -35.5t52.5 -58.5t29 -81q7 47 12.5 93
t6.5 93q-63 5 -125 16.5t-126 11.5q-167 0 -270.5 -77t-133.5 -246h-122v-36h118q-5 -42 0 -84h-118v-36h123q14 -68 47.5 -121.5t82 -90.5t109.5 -56.5t129 -19.5q66 0 130.5 6.5t129.5 17.5q15 29 24 61.5t9 64.5z" />
    <glyph glyph-name="yen" unicode="&#xa5;" horiz-adv-x="581" 
d="M559 653h-57q-23 0 -45.5 -0.5t-45.5 -2.5q14 -19 14 -41q0 -19 -16 -51t-36.5 -67.5t-41 -69t-29.5 -55.5q-11 25 -32 59t-43 70t-38 69.5t-16 57.5q0 16 9 28q-39 3 -79 3q-20 0 -40.5 -1t-40.5 -3q25 -7 48.5 -26.5t45 -47.5t41 -61t37.5 -66t33.5 -62.5t28.5 -50.5
q-6 -1 -12 -1.5t-12 -0.5q-13 0 -28.5 1.5t-30.5 0.5t-27.5 -7t-19.5 -21h137v-198q0 -12 -7.5 -19.5t-18 -12t-22.5 -6t-21 -0.5l-12 1q19 -6 38.5 -7t39.5 -1q35 0 70 0.5t70 -0.5q-9 4 -22.5 6.5t-27 6t-23 10.5t-9.5 21v199h133l8 29h-137q11 20 26.5 50t34 64.5t39 69
t43 63t46.5 48t48 22.5z" />
    <glyph glyph-name="section" unicode="&#xa7;" horiz-adv-x="403" 
d="M381 353q0 52 -14.5 84t-37 51t-51 28.5t-56.5 16.5q-24 6 -46.5 13.5t-40 20.5t-28.5 33.5t-11 52.5q0 48 24.5 80.5t75.5 32.5q28 0 55.5 -6.5t53.5 -15.5q3 -2 5 2l18 50q1 3 -3 5q-43 17 -89 17q-48 0 -84 -16.5t-60 -45t-36 -67.5t-12 -83q0 -22 2.5 -37.5t8 -28.5
t15 -25t23.5 -27q-35 -35 -53 -82t-18 -98t14 -82t36.5 -49t50.5 -27.5t57 -16.5q24 -6 47 -13t41 -20t28.5 -33.5t10.5 -54.5q0 -109 -105 -109q-26 0 -51 5.5t-50 14.5q-3 1 -5 -3l-18 -49q-1 -3 3 -4q7 -2 15 -3t14 -3q15 -4 30.5 -7t32.5 -3q45 0 80 16t58.5 43.5
t35.5 64.5t12 79q0 35 -11.5 68t-37.5 56q35 35 53 80t18 95zM330 311q-1 0 -1 -2q0 -32 -12.5 -62t-34.5 -53q-16 5 -30 8.5l-30 7.5q-29 7 -55.5 14.5t-46.5 22.5t-32 39.5t-12 64.5q0 32 11 64t32 58q14 -5 26 -8t25 -6q30 -8 58.5 -17t51 -24.5t36.5 -41t14 -65.5z" />
    <glyph glyph-name="dieresis" unicode="&#xa8;" horiz-adv-x="279" 
d="M257 781q0 14 -9 26.5t-24 12.5q-14 0 -25 -10t-11 -25q0 -14 10.5 -27t25.5 -13q14 0 23.5 11t9.5 25zM90 781q0 13 -9 26t-23 13t-25 -10t-11 -24t10.5 -27.5t25.5 -13.5q14 0 23 11t9 25z" />
    <glyph glyph-name="copyright" unicode="&#xa9;" horiz-adv-x="683" 
d="M661 350q0 60 -22 122t-62 113t-94.5 83.5t-119.5 32.5q-61 0 -122 -23t-109.5 -63.5t-79 -95.5t-30.5 -120q0 -58 22.5 -120.5t62 -114.5t94 -86t117.5 -34q62 0 123.5 23t110 64t79 97t30.5 122zM615 413q0 -55 -19 -105.5t-52 -92.5t-77.5 -74t-95.5 -49
q-60 6 -114 32.5t-94.5 67.5t-64.5 95.5t-24 116.5t23.5 109t63 79t92 48.5t110.5 16.5q55 0 101 -17t79.5 -48.5t52.5 -77t19 -101.5zM479 544l-2 3q-20 14 -43 18.5t-46 4.5q-39 0 -81 -12t-77 -35.5t-58 -58t-23 -79.5q0 -43 20 -78.5t52 -61t71.5 -39.5t79.5 -14
q18 0 36 4t32 13t23 23.5t9 35.5v11q0 6 -1 11q-1 3 -4 3t-4 -3q-11 -29 -34.5 -47t-55.5 -18q-31 0 -60 16t-52 41.5t-37 56.5t-14 61t14 54.5t35.5 42t49 27.5t54.5 10q36 0 62.5 -20.5t33.5 -56.5q1 -3 3 -3q3 0 5 2q8 16 9.5 33t1.5 34q0 5 0.5 10.5t0.5 10.5z" />
    <glyph glyph-name="ordfeminine" unicode="&#xaa;" horiz-adv-x="389" 
d="M367 405q-28 11 -53 48.5t-47.5 82.5t-42.5 89.5t-37 70.5q-10 -18 -21 -44t-23 -56t-25.5 -60.5t-28.5 -57t-31.5 -46t-35.5 -26.5q13 -1 25 -1h25h26t26 1q-8 11 -13.5 22.5t-5.5 25.5q0 13 7 22t17 14.5t22 8t23 2.5q16 0 32.5 -4t30.5 -13t23 -22.5t9 -31.5
q0 -11 -3 -21q20 -3 39 -3.5t39 -0.5h23zM222 522h-81q9 24 19 48l20 48q13 -23 23.5 -47t18.5 -49z" />
    <glyph glyph-name="guillemotleft" unicode="&#xab;" horiz-adv-x="384" 
d="M362 264q-32 33 -64.5 65t-64.5 65q7 11 27 35t41 50t37 48.5t16 31.5l-1 3q-45 -42 -89.5 -83t-86.5 -85q35 -44 72 -85.5t78 -79.5q17 18 35 35zM206 268q-34 31 -66.5 63t-62.5 67q33 40 67.5 78.5t57.5 85.5q-47 -41 -92 -82t-88 -86q33 -46 72.5 -86.5t80.5 -78.5z
" />
    <glyph glyph-name="logicalnot" unicode="&#xac;" horiz-adv-x="936" 
d="M904 298q-2 11 -6 26.5t-15 22.5q-11 -12 -31 -28t-37 -16h-6q5 22 12 42.5t7 43.5q0 4 -1 8l-2 8q-14 -2 -27 -7t-24 -14q6 -17 14 -34.5t8 -37.5q0 -5 -2 -11q-9 4 -20 12t-23 15.5t-23.5 13t-20.5 5.5q-2 0 -4 -0.5t-4 -0.5q0 -13 2 -25.5t2 -25.5l16 -1q7 0 16.5 1
t19.5 1t18.5 -1.5t13.5 -7.5q-6 -6 -19 -17t-26 -23t-23 -23.5t-10 -19.5q13 -3 25.5 -5t25.5 -2h4q3 22 12 43.5t26 38.5q4 -6 9 -21t11 -30t13.5 -26.5t15.5 -11.5q5 0 9 4.5t7.5 10.5t6 12.5t3.5 10.5q-3 10 -13 17t-20.5 13.5t-19 14.5t-8.5 19q23 0 44.5 2t43.5 4z
M914 -8q-34 0 -72 20t-77.5 52.5t-79.5 72.5t-76.5 80t-68 75.5t-55.5 58.5q26 23 49.5 48t46.5 51q5 -38 8.5 -77t3.5 -78q0 -19 -4 -35q38 -2 76.5 -3.5t76.5 -1.5q-12 4 -22 5.5t-20 3.5t-18.5 7t-17.5 16q-8 10 -14.5 39.5t-11 63t-8 65t-4.5 46.5q18 19 41 41.5
t49 42.5t53.5 34.5t54.5 17.5q-43 2 -85.5 1.5t-85.5 2.5q7 -12 7 -25q0 -20 -13 -39t-24 -33q-5 51 -12 100.5t-14 99.5q-26 -36 -49.5 -75.5t-45 -81t-41.5 -83.5t-41 -82l-2 148q0 26 18 45t44 21q-52 3 -104 4t-104 1q5 -9 17 -9.5t24 -3t21.5 -13t9.5 -38.5v-193
q-8 15 -24.5 45.5t-36.5 67.5t-42.5 77.5t-43 75t-37.5 60.5t-26 34q-2 -15 -6.5 -54t-11 -89.5t-13.5 -106t-13.5 -103t-12 -80t-8.5 -36.5q-10 -13 -21 -14t-26 -3q38 -2 76 -3t76 -1q-14 6 -24 8t-16.5 6t-9.5 11t-3 24q0 79 12 155t21 154q24 -41 45.5 -84t44 -85
t47 -83.5t53.5 -79.5v-202q0 -22 -1 -37t-7 -24.5t-18.5 -15.5t-36.5 -10q54 -3 107.5 -3.5t107.5 -0.5q-20 10 -35 10.5t-24.5 5t-14 20.5t-4.5 58v241q26 -24 57 -59t66 -74.5t72 -78.5t75.5 -70t76.5 -50.5t75 -19.5q39 0 74 22zM574 493q-39 -40 -79 -77t-75 -83v31
q34 64 68 126.5t72 124.5q3 -31 6.5 -61.5t7.5 -60.5z" />
    <glyph glyph-name="registered" unicode="&#xae;" horiz-adv-x="692" 
d="M670 349q0 57 -23 119.5t-63.5 115t-94.5 86.5t-116 34q-60 0 -122.5 -28t-113.5 -74.5t-83 -105.5t-32 -122q0 -72 32.5 -131t84.5 -101t117.5 -65t131.5 -23q52 0 102.5 27t90.5 70t64.5 95t24.5 103zM404 443q0 -28 -14.5 -51.5t-45.5 -23.5q-20 0 -39 9v154
q12 3 24 3q18 0 32 -8t23.5 -21t14.5 -29.5t5 -32.5zM622 411q0 -55 -19.5 -104t-52.5 -91q-16 23 -36 42.5t-40 37.5q-17 16 -35 32.5t-30 30.5q21 24 36.5 52t15.5 61q0 22 -8.5 38t-22 26t-32 15t-37.5 5h-147q-3 0 -3.5 -2.5t1.5 -4.5t7 -4.5t10 -4.5q8 -2 16 -6.5
t8 -12.5v-285q0 -11 -7 -15t-16 -7q-5 -2 -9 -3t-9 -6q-2 -2 -1.5 -4.5t3.5 -2.5h131q7 0 3 6q-5 6 -11.5 9.5t-12.5 5.5q-11 2 -15 5q-3 26 -4 50.5t-1 49.5v21q5 2 11 4t11 2q26 0 48 -24t43 -53q12 -16 23.5 -31.5t24 -27.5t26.5 -19t30 -7h5q-31 -32 -68 -56.5
t-79 -40.5q-61 6 -114.5 33t-94 68.5t-64 96t-23.5 116.5q0 61 23 108t62 79t90.5 48t109.5 16q55 0 102 -17t80.5 -49t52.5 -77.5t19 -102.5z" />
    <glyph glyph-name="macron" unicode="&#xaf;" horiz-adv-x="257" 
d="M235 803h-206q-7 -16 -7 -29h202q4 7 7.5 14t3.5 15z" />
    <glyph glyph-name="degree" unicode="&#xb0;" horiz-adv-x="314" 
d="M292 598q0 29 -10 55t-28 45.5t-43 31t-55 11.5q-27 0 -51.5 -11t-42.5 -30t-29 -43.5t-11 -51.5q0 -29 11 -53.5t29.5 -43.5t43.5 -29.5t54 -10.5q27 0 51 10t42 28t28.5 41.5t10.5 50.5zM255 605q-1 0 -1 -2q0 -20 -8 -37.5t-21.5 -30.5t-31 -20.5t-37.5 -7.5
q-18 0 -35 7t-30.5 19t-22 28.5t-8.5 34.5q0 44 26.5 74.5t71.5 30.5q19 0 36.5 -7.5t30.5 -21t21 -31t9 -36.5z" />
    <glyph glyph-name="twosuperior" unicode="&#xb2;" 
 />
    <glyph glyph-name="threesuperior" unicode="&#xb3;" 
 />
    <glyph glyph-name="acute" unicode="&#xb4;" horiz-adv-x="212" 
d="M190 785q-1 7 -3 15t-5.5 15.5t-9.5 12.5t-15 5q-12 0 -30 -10.5t-37 -25t-37.5 -28.5t-30.5 -20q35 12 71 25.5t74 11.5z" />
    <glyph glyph-name="paragraph" unicode="&#xb6;" horiz-adv-x="509" 
d="M487 725v26q0 4 -4 4h-194q-55 0 -103.5 -12.5t-85 -39.5t-57.5 -70.5t-21 -105.5q0 -47 17 -87.5t46.5 -70.5t69.5 -48.5t86 -19.5v-445h-65q-4 0 -4 -4v-28q0 -4 4 -4h109v902h91v-222t-0.5 -229t-0.5 -229v-222h107q4 0 4 4v28q0 4 -4 4q-16 0 -31.5 -0.5t-32.5 -0.5
v866h65q4 0 4 4z" />
    <glyph glyph-name="periodcentered" unicode="&#xb7;" horiz-adv-x="129" 
d="M107 381q0 18 -13 34t-32 16q-18 0 -29 -13t-11 -30q0 -16 9.5 -33t27.5 -17q17 0 32.5 12.5t15.5 30.5z" />
    <glyph glyph-name="periodcentered" unicode="&#x2219;" horiz-adv-x="129" 
d="M107 381q0 18 -13 34t-32 16q-18 0 -29 -13t-11 -30q0 -16 9.5 -33t27.5 -17q17 0 32.5 12.5t15.5 30.5z" />
    <glyph glyph-name="cedilla" unicode="&#xb8;" horiz-adv-x="176" 
d="M154 -36q0 25 -17.5 36t-40.5 11q-5 0 -11 -0.5t-11 -1.5l56 56l-9 1q-14 0 -25.5 -8t-22.5 -18.5t-21.5 -21.5t-21.5 -17q27 -1 48.5 -17.5t21.5 -45.5q0 -30 -21.5 -46.5t-49.5 -16.5l-7 1q15 -7 34 -7q18 0 35.5 8t31.5 21t22.5 30.5t8.5 35.5z" />
    <glyph glyph-name="onesuperior" unicode="&#xb9;" 
 />
    <glyph glyph-name="ordmasculine" unicode="&#xba;" horiz-adv-x="362" 
d="M340 538q0 32 -11.5 61t-31.5 51.5t-48 36t-61 13.5t-63.5 -11.5t-53 -31.5t-36 -49t-13.5 -63q0 -28 9 -55.5t26.5 -49.5t42 -36t54.5 -14q15 0 29 4.5t28 8.5q29 8 52.5 17.5t40.5 24t26.5 37t9.5 56.5zM285 548q0 -18 -6 -40.5t-17 -42.5t-28 -33.5t-38 -13.5
q-29 0 -52 13t-39 33.5t-24.5 46.5t-8.5 53q0 49 28 82t79 33q26 0 46 -12t33.5 -30.5t20 -42t6.5 -46.5z" />
    <glyph glyph-name="guillemotright" unicode="&#xbb;" horiz-adv-x="383" 
d="M361 397q-69 88 -153 165q-8 -11 -15.5 -20t-15.5 -19q35 -31 67 -63t63 -66q-10 -12 -29.5 -34.5t-40 -47.5t-36.5 -48t-19 -35q47 41 92 82t87 86zM205 397q-35 44 -71.5 85t-76.5 80q-9 -8 -17.5 -17.5t-17.5 -17.5q32 -33 64 -65t64 -65q-8 -12 -27.5 -35.5t-40 -49
t-36.5 -48t-17 -32.5l2 -3q45 41 89 82t85 86z" />
    <glyph glyph-name="questiondown" unicode="&#xbf;" horiz-adv-x="352" 
d="M235 648q0 17 -11.5 33t-29.5 16q-17 0 -28 -11.5t-11 -28.5q0 -15 10 -31t27 -16q16 0 29.5 10.5t13.5 27.5zM330 147q0 15 -5.5 29t-13.5 27q1 -21 -9 -43.5t-26.5 -41.5t-37.5 -31t-43 -12q-20 0 -38 11.5t-32 29.5t-22.5 39t-8.5 39q0 25 11.5 53.5t28.5 57t37.5 55
t37.5 48.5t28.5 37.5t11.5 22.5q0 10 -6.5 22t-16.5 23.5t-20.5 21t-19.5 12.5q14 -20 14 -43q0 -26 -13 -52.5t-33 -54t-43 -55.5t-43 -56.5t-33 -57t-13 -56.5q0 -27 15 -49.5t38.5 -39.5t50.5 -26.5t51 -9.5q21 0 48 5.5t50 17.5t39 31t16 46z" />
    <glyph glyph-name="Adieresis" unicode="&#xc4;" horiz-adv-x="788" 
d="M513 776q0 17 -11 30t-29 13q-15 0 -25 -12t-10 -26q0 -16 11 -30t28 -14q16 0 26 11.5t10 27.5zM308 776q0 14 -10 28.5t-26 14.5q-15 0 -27 -11t-12 -27t11.5 -30t27.5 -14t26 11.5t10 27.5zM766 9q-28 8 -58.5 24t-44.5 40q-31 56 -65 131.5t-67 158t-64 165.5
t-57 154q-7 20 -14 37.5t-13 34.5q-1 3 -4 3t-4 -3q-26 -69 -51.5 -138.5t-49.5 -139.5q-34 -97 -69 -195.5t-74 -192.5q-14 -34 -41.5 -54t-64.5 -26q-3 -1 -2.5 -4.5t3.5 -3.5q11 1 21.5 1.5t21.5 1.5q17 2 35 3t36 1q17 0 34 -1t34 -3q8 -1 17 -1t17 -1v8q-8 1 -17.5 3
t-17.5 5.5t-13.5 10t-5.5 16.5q0 15 9.5 49t22 71.5t25.5 72.5t20 52h212q24 -64 49 -127.5t49 -127.5l-54 -25q-3 -2 -2 -5.5t4 -2.5q5 1 12 1t12 1q25 2 50 3.5t50 1.5q30 0 59.5 -2t58.5 -5zM460 332h-182q21 59 38.5 116t37.5 117q4 13 8.5 26.5t9.5 27.5z" />
    <glyph glyph-name="Aring" unicode="&#xc5;" horiz-adv-x="207" 
d="M185 800q0 28 -22 41t-46 13q-17 0 -34 -5t-30.5 -15t-22 -25t-8.5 -34q0 -12 6 -20.5t15 -14t20 -8t20 -2.5q12 0 24 6q13 1 27 5.5t25.5 12.5t18.5 19.5t7 26.5zM140 791q0 -11 -11 -25.5t-22 -14.5q-17 0 -32 11.5t-15 29.5q0 15 12 24.5t26 9.5q15 0 28.5 -9
t13.5 -26z" />
    <glyph glyph-name="Ccedilla" unicode="&#xc7;" horiz-adv-x="182" 
d="M160 -32q0 28 -18.5 39.5t-42.5 11.5h-10l36 35q2 2 1 4.5t-3 2.5q-4 1 -8 1q-3 0 -8 1l2 4q2 2 -1 4.5t-5 0.5q-18 -18 -34 -30q-10 -8 -19.5 -16.5t-18.5 -18.5q-2 -2 -1 -4.5t4 -2.5q26 -1 45.5 -15.5t19.5 -41.5q0 -28 -19.5 -43.5t-45.5 -15.5l-7 1q-3 0 -4 -3t2 -5
q15 -7 35 -7q19 0 37 8.5t32 22t22.5 31.5t8.5 36z" />
    <glyph glyph-name="Eacute" unicode="&#xc9;" horiz-adv-x="218" 
d="M196 781q-1 7 -3 16t-6.5 16.5t-11 12.5t-16.5 5q-15 0 -41 -17t-52 -37q-11 -8 -20.5 -15.5t-21.5 -14.5q-3 -2 -1.5 -5.5t4.5 -1.5l24 8q29 10 58.5 20.5t59.5 8.5l23 -1q4 0 4 5z" />
    <glyph glyph-name="Eth" unicode="&#xd0;" 
 />
    <glyph glyph-name="Ntilde" unicode="&#xd1;" horiz-adv-x="304" 
d="M282 812l-7 3q-10 -13 -24.5 -21.5t-31.5 -8.5q-16 0 -31 6t-31 13q-15 7 -30.5 12.5t-32.5 5.5q-16 0 -28 -7t-20 -18t-13.5 -24.5t-9.5 -25.5q-1 -2 2 -3.5t5 0.5q10 15 25 25.5t34 10.5q15 0 30.5 -6t31.5 -14q15 -8 30.5 -13.5t32.5 -5.5q15 0 26 7t19 17.5t13.5 23
t9.5 23.5z" />
    <glyph glyph-name="Odieresis" unicode="&#xd6;" horiz-adv-x="818" 
d="M796 349q0 87 -31.5 162.5t-87 131.5t-130.5 88t-162 32h-9q-4 0 -8 -1q-96 -20 -162 -51.5t-107 -81t-59 -120.5t-18 -169q0 -44 17 -87t46.5 -82t68 -73t81.5 -59t88 -39t87 -14q77 0 147 27t123 75.5t84.5 115t31.5 145.5zM709 351q0 -65 -18.5 -123.5t-55 -103
t-90 -71t-122.5 -26.5q-74 0 -131.5 33.5t-97 86.5t-60 120t-20.5 134q0 66 19 124.5t56 102t91 69t124 25.5q74 0 131 -33t95.5 -86t58.5 -119t20 -133zM526 631q0 15 -10 29t-27 14q-16 0 -27 -11.5t-11 -26.5t11 -29.5t27 -14.5t26.5 11.5t10.5 27.5zM365 631
q0 15 -9.5 29t-26.5 14q-16 0 -28 -11t-12 -27q0 -15 11.5 -29.5t27.5 -14.5t26.5 11.5t10.5 27.5z" />
    <glyph glyph-name="Udieresis" unicode="&#xdc;" horiz-adv-x="779" 
d="M523 772q0 16 -11 31.5t-28 15.5q-14 0 -25 -10.5t-11 -24.5q0 -19 16.5 -32t35.5 -13q10 4 16.5 12.5t6.5 20.5zM362 772q0 16 -11 31.5t-28 15.5q-13 0 -24.5 -10.5t-11.5 -24.5q0 -19 16.5 -32t35.5 -13q9 4 16 12.5t7 20.5zM757 733l-1 8h-12q-23 0 -44 0.5t-43 0.5
h-47h-35q-17 0 -35 2q-3 0 -3.5 -3.5t2.5 -4.5q39 -6 59.5 -25t20.5 -60v-103t1 -102t1 -103v-102q0 -47 -16.5 -85t-45 -65.5t-67.5 -42.5t-85 -15q-45 0 -84 14.5t-67.5 41.5t-44.5 64.5t-16 83.5v104t1 104t1 103v104q0 13 6.5 24.5t17 22t22 18.5t22.5 14q3 2 2 5t-4 3
q-20 -1 -40 -1h-39q-39 0 -78.5 1t-79.5 3q-3 0 -3.5 -3.5t2.5 -4.5q37 -9 58.5 -25.5t21.5 -57.5q0 -11 -0.5 -27.5t-0.5 -36.5q0 -29 -0.5 -66t-0.5 -75q0 -41 0.5 -82t1.5 -75.5t3.5 -59.5t5.5 -35q15 -46 44.5 -84t68.5 -65.5t85 -43t94 -15.5q64 0 116.5 24t89.5 65.5
t57 96.5t20 117v363q0 29 19 52.5t49 28.5z" />
    <glyph glyph-name="Yacute" unicode="&#xdd;" 
 />
    <glyph glyph-name="Thorn" unicode="&#xde;" 
 />
    <glyph glyph-name="germandbls" unicode="&#xdf;" horiz-adv-x="608" 
d="M586 219q0 27 -10 50t-26.5 43.5t-37 39t-41.5 35.5q-19 16 -36.5 31.5t-31.5 31.5t-22.5 33t-8.5 37q0 38 26 62.5t63 24.5q38 0 60 -25t30 -60q1 -3 4 -3t4 3q8 52 12 101q0 2 -3 4q-33 10 -72 10q-28 0 -61 -7.5t-61.5 -23t-47.5 -40t-19 -58.5q0 -23 10 -45
t26.5 -43.5t37 -42t42.5 -40.5q20 -19 39 -38t33.5 -38t23.5 -37.5t9 -37.5q0 -20 -10 -36.5t-25 -28t-34 -17.5t-37 -6q-20 0 -38 5.5t-32.5 17t-23 27.5t-8.5 37v15q0 3 -4 3t-4 -3l-6 -24q-3 -11 -5 -23t-2 -24q0 -19 8.5 -31.5t22 -20.5t30 -11.5t31.5 -3.5
q31 0 65.5 11.5t63.5 32t47.5 49.5t18.5 64zM309 219q0 27 -10 50t-26 43.5t-37 38.5l-42 36q-19 15 -36.5 30.5t-31.5 32t-22.5 33.5t-8.5 37q0 38 26 62.5t63 24.5q38 0 60 -25t30 -60q1 -3 4 -3t4 3q8 52 12 101q0 2 -3 4q-33 10 -72 10q-28 0 -61 -7.5t-61.5 -23
t-47.5 -40t-19 -58.5q0 -23 10 -45t26.5 -43.5t37 -42t42.5 -40.5q20 -19 39 -38t34 -38t24 -37.5t9 -37.5q0 -20 -10 -36.5t-25.5 -28t-34.5 -17.5t-37 -6q-20 0 -38 5.5t-32.5 17t-23 27.5t-8.5 37v15q0 3 -4 3t-4 -3l-6 -24q-3 -11 -5 -23t-2 -24q0 -19 9 -31.5
t22.5 -20.5t29.5 -11.5t31 -3.5q31 0 65.5 11.5t63.5 32t47.5 49.5t18.5 64z" />
    <glyph glyph-name="adieresis" unicode="&#xe4;" horiz-adv-x="593" 
d="M416 667q0 15 -10 29t-27 14t-28 -11t-11 -28q0 -14 11 -28t28 -14q16 0 26.5 11.5t10.5 26.5zM251 667q0 14 -10 28.5t-26 14.5t-28 -11t-12 -27q0 -15 11.5 -29.5t28.5 -14.5q16 0 26 12t10 27zM571 77v8q-24 2 -42.5 12t-30.5 33q-57 108 -101.5 221t-85.5 225
q-5 14 -10.5 27.5t-10.5 27.5q-1 3 -4 3t-4 -3q-19 -50 -36 -99.5t-35 -99.5q-26 -74 -53 -147t-56 -146v1q-22 -51 -77 -58q-3 -1 -2.5 -5t3.5 -3q20 2 40 3.5t40 1.5t40 -1.5t39 -3.5v8q-12 2 -25 6.5t-13 19.5q0 11 7 35.5t16 52t18.5 53t14.5 38.5h155
q17 -48 35.5 -93.5t35.5 -92.5l-39 -19q-3 -2 -2 -5t4 -3l46 4t46 2q9 0 17.5 -0.5t16.5 -1.5q14 -1 26.5 -2t26.5 1zM343 320h-129q19 54 34.5 104.5t32.5 103.5z" />
    <glyph glyph-name="ae" unicode="&#xe6;" horiz-adv-x="670" 
d="M648 156q-8 -35 -32 -55t-59 -20q-26 0 -53 11.5t-41 35.5v187q20 -3 39 -1t39 2q26 0 38.5 -7t18 -16t7.5 -18.5t7 -13.5q0 26 3 50t6 49q-8 -5 -22 -12t-23 -7h-113v248q18 -2 36 0t36 2q33 0 56 -13t22 -51q6 3 9.5 15.5t5 28t2.5 30t1 21.5q-23 -8 -47.5 -8.5
t-47.5 -0.5q-30 0 -60 1t-60 1q-6 0 -13 -7.5t-14 -17.5t-12.5 -20t-8.5 -15q-20 -34 -43.5 -78.5t-50.5 -93t-57 -97.5t-61.5 -92t-65.5 -77t-68 -53h186q-17 5 -32.5 15.5t-15.5 31.5t14.5 47t33 53t36.5 54t26 50h135v-177q0 -12 -1.5 -25t-6 -23t-13.5 -16.5t-24 -6.5
q63 -2 125 -5t125 -3q17 0 24 11t9.5 26.5t2 32t2.5 27.5zM403 342h-120q29 52 58.5 104t61.5 103v-207z" />
    <glyph glyph-name="odieresis" unicode="&#xf6;" horiz-adv-x="616" 
d="M432 677q0 15 -10 29t-27 14q-16 0 -28 -11t-12 -28q0 -15 11.5 -28.5t28.5 -13.5q16 0 26.5 11t10.5 27zM266 677q0 14 -9.5 28.5t-25.5 14.5t-28 -11t-12 -27t11.5 -30t28.5 -14q16 0 25.5 11.5t9.5 27.5zM594 331q0 64 -23.5 122t-64.5 100.5t-96 66t-119 18.5l-13 -1
q-71 -15 -120 -38.5t-79 -60t-43.5 -89t-13.5 -125.5q0 -48 27.5 -95t69.5 -84t92.5 -60t97.5 -23q57 0 108.5 20t90.5 56t62.5 85.5t23.5 107.5zM527 332q0 -48 -13.5 -91t-40 -75.5t-65.5 -52t-90 -19.5q-54 0 -96 24.5t-71.5 64t-44.5 88.5t-15 99q0 48 14.5 90.5
t41.5 75t66.5 51t90.5 18.5q54 0 95.5 -24t70 -63t43 -88t14.5 -98z" />
    <glyph glyph-name="oslash" unicode="&#xf8;" horiz-adv-x="686" 
d="M664 313q0 65 -27.5 123.5t-75.5 102.5l44 43l-16 16l-45 -45q-40 32 -88.5 49.5t-99.5 17.5q-62 0 -122 -19t-107 -55t-76 -89t-29 -120q0 -60 26.5 -114t71.5 -94l-42 -41l16 -16l43 43q42 -33 93 -51t105 -18q59 0 117.5 17t105.5 51t76.5 83.5t29.5 115.5zM513 522
l-358 -358q-32 40 -48.5 88t-16.5 99q0 55 18.5 99.5t51.5 76t78.5 48.5t99.5 17q49 0 94.5 -17.5t80.5 -52.5zM597 315q0 -54 -17.5 -99t-49.5 -77.5t-77 -50t-99 -17.5q-52 0 -100 19.5t-84 57.5l359 358q34 -39 51 -89t17 -102z" />
    <glyph glyph-name="udieresis" unicode="&#xfc;" horiz-adv-x="587" 
d="M426 677q0 15 -9.5 29t-26.5 14q-16 0 -28 -11t-12 -28q0 -15 11.5 -28.5t28.5 -13.5q16 0 26 11t10 27zM261 677q0 14 -9.5 28.5t-25.5 14.5t-28 -11t-12 -27t11.5 -30t28.5 -14q16 0 25.5 11.5t9.5 27.5zM565 610l-1 8q-18 1 -36 0.5t-35 -0.5q-8 0 -16.5 -0.5
t-16.5 -0.5q-27 0 -55 3q-3 0 -3.5 -3.5t2.5 -4.5q28 -5 43 -18.5t15 -42.5l2 -302q0 -35 -11.5 -63t-32.5 -48t-50 -31t-63 -11q-33 0 -61.5 11t-49.5 30.5t-32.5 47t-11.5 61.5l2 306q0 18 16.5 33.5t32.5 23.5q3 2 2 5t-4 3q-16 -1 -31 -1h-31q-56 0 -113 3
q-3 0 -3.5 -3.5t2.5 -4.5q27 -7 42.5 -19t15.5 -41v-101q0 -21 -0.5 -46t-0.5 -51q0 -22 0.5 -44t1 -40.5t2 -33t4.5 -21.5q11 -33 33.5 -61t51.5 -49t62.5 -32.5t68.5 -11.5q48 0 86.5 17.5t65.5 48t42 71.5t15 87v268q0 21 14 37.5t36 20.5z" />
    <glyph glyph-name="nonbreakingspace" unicode="&#xe000;" horiz-adv-x="222" 
 />
    </font>
</defs>
</svg>
