<?xml version="1.0" standalone="no"?>
<!DOCTYPE svg PUBLIC "-//W3C//DTD SVG 1.1//EN" "http://www.w3.org/Graphics/SVG/1.1/DTD/svg11.dtd" >
<svg xmlns="http://www.w3.org/2000/svg" xmlns:xlink="http://www.w3.org/1999/xlink" version="1.1">
<metadata>
Created by FontForge 20170910 at Thu Oct 21 17:12:55 2004
 By Jimmy Wärting
(c) 2001, Peter Ramsey &#38; Apostrophic Lab. All rights reserved. For more works by the designers visit www.apostrophiclab.com
</metadata>
<defs>
<font id="Distro-Bold" horiz-adv-x="552" >
  <font-face 
    font-family="Distro"
    font-weight="700"
    font-stretch="normal"
    units-per-em="1000"
    panose-1="2 0 6 3 2 0 0 2 0 3"
    ascent="800"
    descent="-200"
    x-height="513"
    cap-height="760"
    bbox="-50 -250 1046 1034"
    underline-thickness="24"
    underline-position="-60"
    unicode-range="U+0005-2122"
  />
<missing-glyph horiz-adv-x="500" 
 />
    <glyph glyph-name=".notdef" horiz-adv-x="500" 
 />
    <glyph glyph-name=".null" horiz-adv-x="0" 
 />
    <glyph glyph-name="nonmarkingreturn" horiz-adv-x="500" 
 />
    <glyph glyph-name="space" unicode=" " horiz-adv-x="225" 
 />
    <glyph glyph-name="space" unicode="&#xa0;" horiz-adv-x="225" 
 />
    <glyph glyph-name="breve" horiz-adv-x="405" 
d="M362 691q0 15 -2 25.5t-8.5 16.5t-19.5 8.5t-35 2.5q-26 0 -35.5 -7.5t-16.5 -18.5l-1 -2l-9 -9q-7 -7 -10 -7q-7 0 -14 5t-13 12q-2 2 -3.5 4t-3.5 4l2 -2q-8 10 -17.5 15.5t-40.5 5.5q-38 0 -48.5 -11t-10.5 -42q0 -16 12.5 -34t33 -33.5t47.5 -26t56 -10.5q30 0 55 10
t43 25t28.5 33.5t10.5 35.5z" />
    <glyph glyph-name="dotaccent" horiz-adv-x="370" 
d="M266 642q0 14 -5.5 26.5t-15 22t-22 15t-25.5 5.5q-29 0 -47.5 -21t-18.5 -48q0 -26 20 -46t46 -20q12 0 24.5 5.5t22 14.5t15.5 21t6 25z" />
    <glyph glyph-name="ring" horiz-adv-x="198" 
d="M102 784q-39 0 -62 -22t-23 -59q0 -14 8 -33t20.5 -36t27.5 -28.5t29 -11.5q13 0 29.5 12.5t30.5 30t23.5 36.5t9.5 33q0 34 -27 56t-66 22zM101 694q0 2 0.5 3l0.5 1q5 0 5 -6q0 -2 -5 -2q-1 0 -1 4z" />
    <glyph glyph-name="hungarumlaut" unicode="&#xa;" horiz-adv-x="491" 
d="M473 688q0 25 -19 39.5t-42 14.5q-8 0 -17 -0.5t-18 -1.5q-8 -1 -15.5 -1.5t-10.5 -0.5q-21 0 -33 -9.5t-22 -26.5l1 1q-2 -2 -4 -5t-4 -7q-2 23 -20 37t-41 14q-8 0 -17 -0.5t-18 -1.5q-8 -1 -15.5 -1.5t-10.5 -0.5q-21 0 -33 -9.5t-22 -26.5l4 4q-7 -7 -8 -11
q-6 -9 -14.5 -22.5t-16.5 -27.5t-13.5 -27t-5.5 -21q0 -26 17 -36.5t55 -10.5q50 0 67 27l-1 -1q7 9 18 20l22 22v-1q6 5 12 11l11 11q-8 -14 -12.5 -25.5t-4.5 -16.5q0 -26 17 -36.5t54 -10.5q50 0 68 25h-1q7 9 18 20.5t22 22.5v-1q20 19 36.5 37.5t16.5 33.5z" />
    <glyph glyph-name="caron" horiz-adv-x="425" 
d="M126 768q-16 0 -23 -9t-7 -23q0 -11 12.5 -32t32.5 -42.5t43.5 -37.5t46.5 -16q24 0 46.5 16t40 38t28 43.5t10.5 32.5q0 10 -8.5 20t-18.5 10q-23 0 -38.5 -13t-29.5 -27q-9 -9 -17 -16t-13 -7t-13.5 7t-18.5 16q-16 14 -33.5 27t-39.5 13z" />
    <glyph glyph-name="dotlessi" unicode="&#xd;" horiz-adv-x="241" 
d="M201 412q0 15 -2.5 34.5t-10 37t-20.5 29.5t-34 12t-33.5 -12t-19 -29.5t-9 -37t-2.5 -34.5v-308q0 -13 2.5 -30.5t9 -33t19 -26.5t33.5 -11q20 0 33 10.5t20.5 26.5t10.5 33t3 31v308z" />
    <glyph glyph-name="Zcaron" horiz-adv-x="568" 
d="M572 678q0 30 -9.5 48t-31 27t-56 11.5t-83.5 2.5l-163 -1q-53 0 -89.5 -1.5t-59.5 -8.5t-33 -20t-10 -35q0 -21 12 -33.5t29 -18.5t36 -8t34 -2h93q25 0 46 -1.5t36.5 -6t24 -13t8.5 -22.5t-13.5 -37t-38.5 -55l-220 -278q-31 -40 -51.5 -74.5t-20.5 -63.5
q0 -30 9.5 -47.5t29 -27t50 -12t71.5 -2.5h212q45 0 78.5 2t56 8t33.5 18t11 33t-10.5 34t-28.5 20t-42 9t-52 2h-96q-22 0 -41.5 1t-34 5t-23 11t-8.5 18q0 23 15.5 47t42.5 57l222 281q29 38 47 69.5t18 63.5zM200 928q-16 0 -23 -9t-7 -23q0 -11 12.5 -32t32.5 -42.5
t43.5 -37.5t46.5 -16q24 0 46.5 16t40 38t28 43.5t10.5 32.5q0 10 -8.5 20t-18.5 10q-23 0 -38.5 -13t-29.5 -27q-9 -9 -17 -16t-13 -7t-13.5 7t-18.5 16q-16 14 -33.5 27t-39.5 13z" />
    <glyph glyph-name="zcaron" horiz-adv-x="431" 
d="M332 527l-135 -3q-62 -2 -99 -13t-37 -37q0 -15 6.5 -23.5t17.5 -13.5t25.5 -7.5t31.5 -4.5q14 -2 29 -4t27 -6.5t19.5 -12.5t7.5 -20q0 -14 -8.5 -29.5t-22 -32.5t-31.5 -35.5t-36 -36.5q-21 -21 -40.5 -41t-34.5 -40t-24.5 -40t-9.5 -39q0 -42 27 -63.5t69 -21.5h13
l206 6q7 0 21.5 1.5t28 6.5t24 14t10.5 25q0 15 -7.5 24t-20 14t-29 7t-35.5 3q-17 1 -34 2.5t-31 5.5t-23 12.5t-9 22.5t8 29t21.5 31.5t30.5 34t35 35.5l41.5 41.5t36 41.5t25.5 42.5t10 43.5q0 42 -30.5 61.5t-69.5 19.5h-4zM145 698q-16 0 -23 -9t-7 -23q0 -11 12.5 -32
t32.5 -42.5t43.5 -37.5t46.5 -16q24 0 46.5 16t40 38t28 43.5t10.5 32.5q0 10 -8.5 20t-18.5 10q-23 0 -38.5 -13t-29.5 -27q-9 -9 -17 -16t-13 -7t-13.5 7t-18.5 16q-16 14 -33.5 27t-39.5 13z" />
    <glyph glyph-name="exclam" unicode="!" horiz-adv-x="269" 
d="M215 653q0 16 -2.5 35.5t-10 36.5t-20 28t-32.5 11q-22 0 -35 -11.5t-19.5 -28.5t-8 -36t-1.5 -35v-301q0 -21 2.5 -42t10 -38t19.5 -28t32 -11q19 0 31.5 11.5t20 28.5t10.5 38t3 41v301zM150 0q27 0 47.5 18t20.5 46q0 29 -19.5 48.5t-48.5 19.5q-28 0 -47 -20.5
t-19 -47.5t20 -45.5t46 -18.5z" />
    <glyph glyph-name="quotedbl" unicode="&#x22;" horiz-adv-x="363" 
d="M106 551q17 0 27.5 10.5t16.5 27t8.5 37t2.5 39.5q0 46 -12 74t-41 28q-33 0 -43.5 -28t-10.5 -74q0 -18 2.5 -38.5t8.5 -37t16 -27.5t25 -11zM267 551q17 0 27.5 10.5t16.5 27t8.5 37t2.5 39.5q0 46 -12 74t-41 28q-33 0 -43.5 -28t-10.5 -74q0 -18 2.5 -38.5t8.5 -37
t16 -27.5t25 -11z" />
    <glyph glyph-name="numbersign" unicode="#" horiz-adv-x="632" 
d="M368 526q-20 0 -38 12.5t-32 33t-22.5 45.5t-8.5 49l-40 9q-16 -36 -32 -65.5t-25 -37.5q-7 -7 -22 -18q-17 -14 -29.5 -28t-12.5 -35q0 -14 8.5 -27t19.5 -27l-1 1q11 -13 20.5 -27.5t9.5 -31.5q0 -19 -15 -34t-30 -29v1q-17 -15 -30 -29.5t-13 -34.5q0 -15 9.5 -29
t21.5 -31q14 -20 27.5 -42.5t13.5 -45.5l40 -9q7 15 20 37t31 42.5t40.5 34.5t49.5 14q24 0 43 -15.5t32 -36t19.5 -41t6.5 -30.5l39 -9q21 42 37 63t25 32h-1q2 1 3.5 2t3.5 3q7 5 16.5 12.5t17.5 16t14 18t6 19.5q0 20 -10 34.5t-22 28.5q-10 11 -18 23t-8 28q0 19 16 36
t32 31q17 15 29 28t12 30q0 19 -8.5 32t-20.5 27q-7 8 -14 17t-13 21t-10 27.5t-4 35.5l-38 10q-8 -15 -23 -39t-34.5 -46.5t-42 -39t-45.5 -16.5zM251 376q0 18 14 34t32 28.5t35.5 20t25.5 7.5q15 0 30.5 -8t27.5 -20.5t20 -27.5t8 -28q0 -21 -13.5 -38.5t-31.5 -30
t-36 -19.5t-27 -7t-23.5 6.5t-28 18t-23.5 28t-10 36.5z" />
    <glyph glyph-name="dollar" unicode="$" horiz-adv-x="561" 
d="M393 751q-15 7 -24 15t-16 15q-11 11 -21 19t-27 8q-14 0 -24.5 -8.5t-22.5 -22.5q-8 -10 -19 -20t-25 -18q-36 -17 -65.5 -33.5t-50.5 -39.5t-33 -54.5t-12 -77.5q0 -42 13.5 -71t34.5 -50t45.5 -35t46.5 -25h-1q7 -4 13.5 -7.5t12.5 -6.5l-1 1q12 -7 22 -17t19 -21h-1
q13 -16 26 -27.5t33 -11.5q16 0 23 2t13 4q2 1 5.5 2t14.5 1q34 0 46.5 -22t12.5 -48q0 -25 -19 -38t-39 -13q-14 0 -20 3t-10 6h1q-7 6 -14.5 10t-23.5 4t-24.5 -6t-16.5 -14q-5 -5 -13 -10t-28 -5q-17 0 -27 3t-18 6h1q-8 4 -16 6.5t-19 2.5q-29 0 -49 -15t-20 -44
q0 -20 14.5 -36.5t35.5 -29t43.5 -20.5t38.5 -11q23 -5 32 -11.5t15 -12.5q10 -10 20 -16.5t31 -6.5q15 0 26.5 8t23.5 20q8 8 19 17t27 14q47 17 80.5 39.5t54.5 49t30.5 55.5t9.5 59q0 54 -17.5 90t-42.5 58.5t-52 34.5t-46 19q-5 2 -9.5 3.5t-7.5 3.5l1 -1q-8 5 -15.5 15
t-14.5 21v-1q-14 19 -27 33.5t-37 14.5q-6 0 -11.5 -1.5t-11.5 -3.5q-8 -2 -16.5 -4.5t-12.5 -2.5q-10 0 -20.5 2t-19 9t-14 19.5t-5.5 32.5q0 23 15.5 31t32.5 8q10 0 16.5 -3.5t12.5 -7.5q8 -7 16 -11t22 -4q15 0 25.5 8t21.5 18q8 7 15.5 13.5t14.5 6.5q1 0 5.5 -0.5
t9.5 -1.5q8 -1 14 -2t18 -1q30 0 48.5 13t18.5 49q0 17 -6 27.5t-15.5 17t-23 10.5t-28.5 9h1q-10 3 -20.5 6t-18.5 7z" />
    <glyph glyph-name="percent" unicode="%" horiz-adv-x="916" 
d="M437 559q0 40 -14.5 76.5t-40.5 64t-61 43.5t-76 16q-40 0 -74.5 -16.5t-59.5 -44t-39 -63.5t-14 -76q0 -38 15.5 -71t41.5 -57t59.5 -38t70.5 -14q38 0 73 13.5t61.5 37.5t42 57t15.5 72zM894 180q0 28 -12 62t-35.5 62.5t-58.5 48t-81 19.5q-43 0 -78 -14.5t-60 -40.5
t-39 -61.5t-14 -77.5q0 -36 14.5 -69.5t40 -59.5t60 -41.5t73.5 -15.5t73.5 14t60.5 38.5t41 59t15 76.5zM646 600q16 29 30.5 56t14.5 46q0 14 -17 31q-12 0 -26.5 -12t-28 -28.5t-24.5 -34t-17 -28.5l-265 -470q1 2 -2 -2.5t-5 -8.5q-6 -10 -13 -22.5t-13.5 -25t-11 -25
t-4.5 -22.5q0 -14 17 -31q15 0 30.5 12t28.5 27.5t22 30t12 20.5zM617 172q0 42 22.5 70t63.5 28q39 0 64.5 -25t25.5 -64q0 -37 -22.5 -62.5t-67.5 -25.5q-20 0 -35.5 7t-27 18.5t-17.5 25.5t-6 28zM159 559q0 19 6.5 37t18 31.5t27 21.5t34.5 8q18 0 34.5 -8t28.5 -21.5
t19.5 -31t7.5 -37.5q0 -16 -7 -30.5t-19.5 -25t-29 -17t-34.5 -6.5q-17 0 -32.5 6.5t-27.5 17t-19 25t-7 30.5z" />
    <glyph glyph-name="ampersand" unicode="&#x26;" horiz-adv-x="616" 
d="M498 595q0 46 -17 79t-45 54.5t-65.5 31.5t-77.5 10q-41 0 -80 -10.5t-69 -33t-48 -57t-18 -81.5q0 -39 7.5 -59.5t15.5 -36.5q7 -13 12 -27t5 -37q0 -22 -11.5 -37t-27.5 -30q-14 -13 -27.5 -28t-25 -35.5t-18.5 -47t-7 -63.5q0 -41 18 -79t51 -66.5t78.5 -45.5
t101.5 -17q32 0 56.5 4t43.5 10.5t34 14t28 15.5q15 8 28.5 14.5t29.5 6.5q19 0 30 -5.5t22 -11.5v1q14 -8 28 -14.5t37 -6.5q25 0 39.5 11.5t14.5 31.5t-7.5 32t-17.5 26v-1q-10 14 -19 30.5t-9 40.5q0 32 12.5 54t23.5 39l-1 -1q10 13 16 24.5t6 22.5q0 10 -3 20.5
t-9 19.5t-15 14.5t-21 5.5q-26 0 -42 -11.5t-31 -25.5q-12 -11 -26 -21t-32 -10q-17 0 -30 7.5t-22 18.5t-13.5 25t-4.5 28q0 23 12 39.5t28 33.5q11 12 22 25t20 29t14.5 35.5t5.5 44.5zM151 202q0 27 8 46t19 31.5t24 18t24 5.5q21 0 44 -12.5t42.5 -31.5t32.5 -42t13 -43
q0 -29 -25.5 -52.5t-70.5 -23.5q-29 0 -50 10t-34.5 25t-20 33.5t-6.5 35.5zM219 574q0 35 22 53t48 18q39 0 53 -21t14 -46q0 -37 -20.5 -56.5t-46.5 -19.5q-32 0 -51 22.5t-19 49.5z" />
    <glyph glyph-name="quotesingle" unicode="'" horiz-adv-x="233" 
d="M184 613v85q0 34 -16 51.5t-34 17.5q-23 0 -37.5 -18.5t-14.5 -50.5v-85q0 -26 14.5 -46t35.5 -20q26 0 39 21t13 45z" />
    <glyph glyph-name="parenleft" unicode="(" horiz-adv-x="333" 
d="M283 713q0 49 -43 49q-15 0 -32 -19t-35 -50.5t-34.5 -72.5t-29.5 -86.5t-21 -91.5t-8 -87q0 -82 17 -161t42 -141.5t53 -101t50 -38.5t30.5 14t8.5 35q0 12 -6 28t-15 37q-10 23 -23 54t-24 72t-19 92.5t-8 116.5q0 42 8 84.5t20 81t25.5 71.5t23.5 57q9 20 14.5 34.5
t5.5 22.5z" />
    <glyph glyph-name="parenright" unicode=")" horiz-adv-x="358" 
d="M80 -29q0 -23 12.5 -36.5t31.5 -13.5q14 0 31.5 19t35.5 50.5t34.5 72.5t29.5 86.5t21 91.5t8 87q0 82 -17 161.5t-42 142t-53 101t-50 38.5q-39 0 -39 -51q0 -13 6 -28t15 -36q10 -22 23 -53t24 -72t19 -93t8 -117q0 -43 -8.5 -85.5t-21 -81.5t-26 -71.5t-23.5 -56.5
q-8 -20 -13.5 -33.5t-5.5 -21.5z" />
    <glyph glyph-name="asterisk" unicode="*" horiz-adv-x="436" 
d="M225 703q-17 0 -30.5 -13t-24.5 -27v1q-12 -14 -19 -20q-5 -4 -19 -7q-20 -7 -38 -16t-18 -29q0 -23 6 -34.5t15 -20.5q5 -5 9.5 -11.5t6.5 -17.5l-1 2q1 -5 1.5 -10.5t0.5 -10.5q0 -13 1 -25.5t5 -23t12.5 -17t23.5 -6.5q8 0 13 1.5t12 3.5t16.5 4t24.5 2q13 0 24 -3
t20 -6h-1q15 -6 28 -6t21.5 6t13 16t6 22.5t1.5 25.5q1 8 1 16t2 12l-1 -2q2 6 6.5 12.5t9.5 13.5q8 11 14.5 23t6.5 30q0 20 -15.5 28.5t-35.5 16.5q-9 4 -17.5 7.5t-10.5 5.5q-5 5 -8.5 9.5t-8.5 9.5q-13 14 -24.5 26t-28.5 12z" />
    <glyph glyph-name="plus" unicode="+" horiz-adv-x="600" 
d="M399 408q-20 20 -25.5 48.5t-8.5 53.5q-2 18 -4 33t-7.5 26t-15.5 17.5t-27 6.5q-14 0 -22.5 -6t-13.5 -16t-7.5 -24.5t-3.5 -30.5q-2 -26 -8.5 -56t-27.5 -51q-15 -15 -39.5 -18.5t-46.5 -4.5q-17 -1 -31.5 -2t-25 -6t-17 -14.5t-6.5 -26.5t6 -26.5t16.5 -15t24.5 -7.5
t31 -3q23 -2 50 -6.5t47 -24.5q14 -14 19 -39.5t7 -50.5q1 -18 3.5 -33.5t8 -27t15 -18t25.5 -6.5t25.5 6.5t14.5 18t6.5 27t3.5 33.5q2 25 6.5 49.5t18.5 38.5q20 20 48 25t52 7q33 3 55.5 11t22.5 38q0 19 -7 29t-19.5 15.5t-29 7t-34.5 3.5q-23 2 -45.5 5.5t-33.5 14.5z
" />
    <glyph glyph-name="comma" unicode="," horiz-adv-x="221" 
d="M98 -88q22 0 39.5 23.5t30.5 53.5t20 58.5t7 38.5q0 64 -53 64q-24 0 -41.5 -23t-29 -53.5t-17 -61t-5.5 -46.5q0 -23 12.5 -38.5t36.5 -15.5z" />
    <glyph glyph-name="hyphen" unicode="-" horiz-adv-x="590" 
d="M157 393q-36 0 -64 -15t-28 -44q0 -14 8 -24.5t20.5 -17t29 -9.5t34.5 -3h318q17 0 34 4t30.5 11t21.5 17t8 22q0 15 -8 26t-21.5 18.5t-30.5 11t-34 3.5h-318z" />
    <glyph glyph-name="period" unicode="." horiz-adv-x="219" 
d="M186 64q0 14 -5.5 26.5t-15 22t-22 15t-25.5 5.5q-29 0 -47.5 -21t-18.5 -48q0 -26 20 -46t46 -20q12 0 24.5 5.5t22 14.5t15.5 21t6 25z" />
    <glyph glyph-name="slash" unicode="/" horiz-adv-x="317" 
d="M324 639q14 37 14 60q0 24 -20 44q-17 0 -37.5 -17t-35.5 -55l-230 -570q-3 -5 -5.5 -15t-2.5 -21t5 -23.5t16 -23.5q17 0 37 18t30 41z" />
    <glyph glyph-name="zero" unicode="0" horiz-adv-x="623" 
d="M609 372q0 83 -15 156.5t-48.5 128.5t-88.5 87t-135 32q-76 0 -129.5 -31t-87 -85t-49 -128t-15.5 -160q0 -101 20.5 -173t57.5 -118.5t89 -68.5t114 -22q61 0 113.5 21t91 67t60.5 118.5t22 175.5zM172 372q0 47 6.5 96t23 88.5t46 65t74.5 25.5q44 0 74 -25.5t48.5 -65
t26.5 -88.5t8 -96t-8 -92.5t-26.5 -81.5t-48.5 -58t-74 -22q-41 0 -69.5 20.5t-46.5 55t-26 81t-8 97.5z" />
    <glyph glyph-name="one" unicode="1" horiz-adv-x="411" 
d="M339 651q0 23 -5.5 44t-16 37t-26 25.5t-36.5 9.5q-20 0 -45.5 -11.5t-52.5 -30t-53 -40.5t-46 -43t-32.5 -38.5t-12.5 -26.5q0 -24 14.5 -33.5t37.5 -9.5q13 0 25 4t26 9q13 5 26 9t23 4q24 0 31.5 -27t7.5 -84v-326q0 -21 2.5 -43t9.5 -40t20.5 -29t35.5 -11
q20 0 33 12t20.5 30t10.5 39.5t3 41.5v528z" />
    <glyph glyph-name="two" unicode="2" horiz-adv-x="533" 
d="M535 556q0 53 -17.5 94t-49 69t-77 42.5t-100.5 14.5q-58 0 -99.5 -17t-68.5 -40t-40 -48t-13 -41q0 -32 13 -46.5t47 -14.5q24 0 41.5 11t34.5 25t37 26.5t51 12.5q25 0 43.5 -8.5t31 -21.5t18.5 -28.5t6 -29.5q0 -30 -20 -64.5t-48.5 -67.5t-60 -62t-53.5 -48v1
q-6 -5 -13 -11.5t-15 -14.5t-16 -15t-17 -15q-20 -18 -40.5 -38.5t-37 -42t-27 -44t-10.5 -45.5q0 -24 8.5 -41t22.5 -27.5t31.5 -15.5t34.5 -5h261q24 0 45 2.5t37 9t25.5 18t9.5 29.5q0 17 -9 28t-24.5 17.5t-36 9t-42.5 2.5h-36q-20 0 -39 1t-33.5 4t-23.5 9t-9 17
q0 15 8.5 30.5t22.5 32t32.5 34t39.5 35.5q30 27 61.5 57t56.5 64t41 72.5t16 83.5z" />
    <glyph glyph-name="three" unicode="3" horiz-adv-x="511" 
d="M485 585q0 36 -16.5 70t-46.5 60.5t-73 42.5t-96 16q-47 0 -85 -10t-65 -26.5t-41.5 -37t-14.5 -41.5q0 -23 12.5 -40.5t47.5 -17.5q27 0 44 8t33 19q13 9 28.5 16.5t42.5 7.5q38 0 66 -24.5t29 -66.5q0 -25 -7 -41t-18.5 -26.5t-25 -16.5t-26.5 -10h1q-14 -5 -27 -10
t-22.5 -12.5t-15 -19t-5.5 -28.5q0 -32 21 -44t50 -22q15 -6 31.5 -13t30 -19t22.5 -30.5t9 -46.5q0 -17 -7 -36t-20.5 -35t-34.5 -26t-49 -10q-37 0 -57 11t-35 23q-17 13 -33 22t-41 9q-26 0 -43.5 -13t-17.5 -49q0 -21 17 -43.5t47 -41t71 -30.5t89 -12t93 15.5
t79.5 43.5t55.5 68t21 88q0 30 -5 52.5t-12.5 39t-16.5 28.5t-18 23q-11 13 -18.5 25t-7.5 28q0 21 7 36t16 29q13 21 25 47.5t12 70.5z" />
    <glyph glyph-name="four" unicode="4" horiz-adv-x="563" 
d="M471 629q0 34 -3 58.5t-12 41t-25.5 24.5t-43.5 8q-44 0 -68.5 -19t-46.5 -55l-198 -320q-2 -4 -4 -6.5t-5 -7.5v1q-14 -18 -28 -44.5t-14 -66.5q0 -27 10.5 -42.5t29.5 -23t45 -9t57 -1.5h59q34 0 55 -7t38 -24q9 -9 13.5 -24.5t9.5 -31.5v1q3 -15 7.5 -28.5t11.5 -24
t18 -16.5t28 -6q18 0 29.5 6.5t18.5 18t11 25.5t7 29q3 13 6.5 25t10.5 19l12 12t10 8q20 17 38 34.5t18 43.5q0 27 -13 40t-30 24q-9 6 -18 13t-16.5 20t-12.5 33t-5 51v221zM203 331q0 20 11.5 48t27.5 53t33 42.5t29 17.5q20 0 27 -26t7 -71q0 -20 -3 -38.5t-11.5 -32.5
t-22.5 -22.5t-35 -8.5q-33 0 -48 12t-15 26z" />
    <glyph glyph-name="five" unicode="5" horiz-adv-x="517" 
d="M464 703q0 16 -12 27.5t-31.5 18.5t-45 10t-52.5 3h-81q-64 0 -100 -5t-58 -26q-17 -19 -22.5 -47.5t-5.5 -76.5v-124q0 -33 6.5 -53.5t18.5 -32t29 -15t38 -3.5h55q91 0 134 -39t43 -110q0 -21 -9 -41.5t-25.5 -36.5t-40.5 -26t-53 -10q-28 0 -47 9.5t-36 20.5v-1
q-17 11 -32.5 19t-35.5 8q-31 0 -47 -12.5t-16 -48.5q0 -14 13 -35t38.5 -41t64 -34t89.5 -14q67 0 118.5 21t85.5 58t51.5 86.5t17.5 105.5q0 38 -14 81t-44.5 79t-77.5 59.5t-113 23.5q-10 0 -22.5 3.5t-23.5 12.5t-18.5 24t-7.5 38q0 8 3.5 19.5t15.5 22.5t36 18.5
t66 7.5h19q71 0 100 11.5t29 44.5z" />
    <glyph glyph-name="six" unicode="6" horiz-adv-x="557" 
d="M399 701q0 25 -10.5 39.5t-40.5 14.5q-33 0 -63.5 -27t-55.5 -67h1l-77 -123v1q-3 -5 -5.5 -9.5t-5.5 -9.5q-20 -32 -39 -63.5t-34 -64.5t-24 -69.5t-9 -76.5q0 -58 18.5 -105t53 -80.5t83.5 -51.5t111 -18q59 0 108 19.5t83.5 53.5t53.5 80t19 100q0 37 -7 66t-17.5 51
t-23 38t-24.5 28q-28 28 -57.5 40t-55.5 20q-23 7 -39 16t-16 32t12 45t26 42t24.5 39t10.5 40zM175 254q0 21 9.5 43.5t27 41.5t42 31t53.5 12q15 0 36.5 -7t41 -22.5t33.5 -41.5t14 -64q0 -26 -10 -49t-27.5 -40.5t-40.5 -28t-50 -10.5t-50.5 11t-41 29.5t-27.5 43
t-10 51.5z" />
    <glyph glyph-name="seven" unicode="7" horiz-adv-x="490" 
d="M389 767h-246q-14 0 -35.5 -2t-41.5 -8.5t-34 -19.5t-14 -35q0 -21 10 -33.5t26 -19t34.5 -8t36.5 -1.5h120q34 0 57.5 -12.5t23.5 -44.5q0 -15 -11 -40.5t-22 -47.5l-179 -368l1 2q-1 -2 -2 -3.5t-1 -3.5q-5 -11 -11.5 -24.5t-6.5 -30.5q0 -28 9.5 -47.5t44.5 -19.5
q33 0 54.5 17.5t42.5 62.5l204 430q22 46 39 87.5t17 82.5q0 24 -9.5 41t-26 27t-37.5 14.5t-43 4.5z" />
    <glyph glyph-name="eight" unicode="8" horiz-adv-x="538" 
d="M504 585v2q0 55 -23.5 91t-58 57.5t-73.5 30t-71 8.5q-37 0 -77.5 -10t-74 -33.5t-55.5 -62.5t-22 -99q0 -35 9.5 -55t20.5 -37q9 -14 16.5 -31t7.5 -49q0 -13 -7.5 -26t-18.5 -27q-17 -24 -33 -54.5t-16 -80.5q0 -44 16.5 -84t48 -70t78.5 -47.5t108 -17.5
q65 0 112.5 20.5t78 52t45.5 70.5t15 76q0 55 -18 87.5t-37 56.5q-10 14 -17.5 25t-7.5 23q0 20 6 35t14 29q12 21 23 47.5t11 72.5zM162 235q0 27 9.5 48t25 35.5t37 22t45.5 7.5q56 0 86 -33t30 -79q0 -18 -6.5 -38.5t-20.5 -37.5t-35 -28.5t-49 -11.5q-31 0 -54 9.5
t-38 25.5t-22.5 36.5t-7.5 43.5zM183 563q0 17 7 34.5t19 31.5t29 23t37 9q22 0 39.5 -8.5t30 -22.5t19 -32t6.5 -38q0 -24 -9.5 -41t-23 -28.5t-30 -17t-29.5 -5.5q-15 0 -32 6t-31 18t-23 29.5t-9 41.5z" />
    <glyph glyph-name="nine" unicode="9" horiz-adv-x="540" 
d="M555 515q0 55 -18.5 103t-52.5 83t-83 55t-110 20q-42 0 -89.5 -13t-87.5 -43t-66 -79t-26 -122q0 -55 18.5 -99.5t43.5 -69.5q18 -18 33.5 -29t29 -17.5t25.5 -10t23 -6.5q16 -4 30 -9.5t31 -22.5q9 -9 9 -21q0 -17 -12.5 -39.5t-26.5 -45.5t-25 -44t-11 -41
q0 -26 14.5 -39.5t38.5 -13.5q23 0 45 16.5t42.5 40.5t37.5 51.5t29 48.5l6 10t5 9q6 10 12.5 20t14.5 21q19 28 40 60.5t39 69t29.5 76t11.5 81.5zM155 520q0 23 10 46t27 41t40.5 29.5t49.5 11.5q28 0 51.5 -11.5t41 -29.5t27 -41t9.5 -46t-9 -46.5t-26 -43.5t-42 -32.5
t-56 -12.5q-24 0 -46 10.5t-39 28.5t-27.5 42.5t-10.5 53.5z" />
    <glyph glyph-name="colon" unicode=":" horiz-adv-x="287" 
d="M225 97q0 10 -3.5 22.5t-11.5 23t-20.5 17.5t-30.5 7q-32 0 -49.5 -21.5t-17.5 -48.5q0 -23 19 -42.5t48 -19.5q15 0 27.5 6.5t21 16t13 20.5t4.5 19zM225 439q0 10 -3.5 22.5t-11.5 23t-20.5 17.5t-30.5 7q-32 0 -49.5 -21.5t-17.5 -48.5q0 -23 19 -42.5t48 -19.5
q15 0 27.5 6.5t21 16t13 20.5t4.5 19z" />
    <glyph glyph-name="semicolon" unicode=";" horiz-adv-x="296" 
d="M107 -102q21 0 39 22.5t30.5 52t20 57t7.5 37.5q0 40 -12.5 52t-36.5 12t-41.5 -22t-29 -51.5t-17 -59.5t-5.5 -45q0 -27 9.5 -41t35.5 -14zM216 435q0 25 -16 47.5t-51 22.5q-32 0 -49 -21.5t-17 -48.5q0 -22 19 -42t47 -20q31 0 49 19t18 43z" />
    <glyph glyph-name="less" unicode="&#x3c;" horiz-adv-x="559" 
d="M472 449q32 17 47.5 31t15.5 43q0 35 -40 35q-13 0 -23 -0.5t-22 -3.5t-28 -9.5t-40.5 -18t-61 -30t-89.5 -44.5h1q-11 -5 -21 -8t-21 -7q-27 -10 -52.5 -20t-45 -23.5t-31 -31.5t-11.5 -43q0 -21 15.5 -38.5t39.5 -31.5t52 -25t52 -20q11 -4 20 -7t17 -6h-1
q52 -25 88 -42t60.5 -28t39 -17.5t24.5 -9t17 -3t16 -0.5q20 0 33 10t13 30q0 14 -13 32t-46 37h1q-9 5 -26 12.5t-37 15.5q-23 9 -47.5 19.5t-44.5 22.5t-33.5 25t-13.5 28t9.5 27.5t26 23.5t38.5 20.5t46 20.5q18 8 37.5 16t39.5 19z" />
    <glyph glyph-name="equal" unicode="=" horiz-adv-x="555" 
d="M145 479q-36 0 -64 -15.5t-28 -44.5q0 -14 8 -24.5t20.5 -17t29 -9.5t34.5 -3h306q17 0 34 4t30.5 11t21.5 17t8 22q0 15 -8.5 26t-22 18.5t-30 11.5t-33.5 4h-306zM145 264q-36 0 -64 -15.5t-28 -44.5q0 -14 8 -24t20.5 -17t29 -10t34.5 -3h306q17 0 34 4t30.5 11.5
t21.5 17t8 21.5q0 15 -8.5 26t-22 18.5t-30 11.5t-33.5 4h-306z" />
    <glyph glyph-name="greater" unicode="&#x3e;" horiz-adv-x="558" 
d="M114 452q20 -11 39 -19l38 -16q24 -11 46 -20.5t38.5 -20.5t26 -23.5t9.5 -27.5t-13.5 -28.5t-34.5 -25.5t-46 -22.5t-48 -19.5h1q-20 -8 -36.5 -14.5t-24.5 -11.5q-32 -20 -45 -38t-13 -32q0 -20 14 -30t32 -10q14 0 24.5 1.5t34 11t66.5 30t121 58.5h-1q7 3 15 6t18 7
v-1q24 9 52.5 20t53 25t40.5 31.5t16 38.5q0 25 -12 43t-31.5 31.5t-44.5 23.5t-52 20q-11 4 -21 7t-21 8h1q-79 40 -123 61.5t-68.5 31.5t-38.5 11.5t-34 1.5q-18 0 -28.5 -7.5t-10.5 -27.5q0 -28 15 -42.5t47 -31.5z" />
    <glyph glyph-name="question" unicode="?" horiz-adv-x="510" 
d="M472 576q0 44 -18 80t-48.5 61.5t-72 39.5t-89.5 14q-53 0 -93 -17.5t-67 -41.5t-41 -49t-14 -39q0 -35 16.5 -48.5t39.5 -13.5q26 0 44 12t35 27q14 13 32 25t44 12q25 0 41.5 -9t26.5 -21.5t14.5 -27.5t4.5 -27q0 -37 -22.5 -68t-48.5 -60q-26 -30 -47.5 -59t-21.5 -64
q0 -27 12 -49t43 -22q30 0 45.5 20t29.5 49q8 16 17 32.5t23 29.5l8 8v-1q13 12 31 31t35 44.5t29 58.5t12 73zM236 3q32 0 50.5 20t18.5 45t-17 46t-52 21q-32 0 -48 -21t-16 -46t14.5 -45t49.5 -20z" />
    <glyph glyph-name="at" unicode="@" horiz-adv-x="938" 
d="M584 574q-11 0 -22.5 2t-22.5 4q-13 2 -27 4t-37 2q-53 0 -93.5 -21.5t-68.5 -58t-42 -86t-14 -105.5q0 -24 6 -56t22.5 -60.5t47 -48.5t78.5 -20q35 0 52.5 6t31.5 13q8 4 16 7t17 3h1q17 0 32 -4t30 -10q18 -6 39 -12t50 -6q19 0 37 10.5t32 24.5t22.5 29.5t8.5 26.5
q-31 0 -51 7.5t-32 21.5t-16.5 33t-4.5 43q0 28 4 48.5t9 39.5q6 21 10 42t4 47q0 46 -23 60t-65 14h-31zM671 735q-6 7 -15 14.5t-26.5 14t-46 10.5t-74.5 4q-88 0 -152.5 -22t-110.5 -57.5t-75.5 -80t-46 -90t-23 -87t-6.5 -71.5q0 -40 7 -85.5t24.5 -91.5t47 -88.5
t75.5 -75t109.5 -52t148.5 -19.5h23q26 0 46 11t20 30q-8 9 -13 13.5t-14.5 7t-26 3t-46.5 1.5q-74 0 -133 26.5t-100 72.5t-63 109t-22 135q0 45 8.5 91t27 87.5t47.5 76.5t71 58q32 18 77 22.5t96 4.5q25 0 57.5 -6t67 -19t67 -34.5t58.5 -51.5t42 -70.5t16 -91.5
q0 -41 -4.5 -69.5t-9.5 -45.5v1q-6 -21 -6 -33q0 -17 7.5 -25t26.5 -8q10 0 21 14t20 38.5t15.5 57.5t6.5 72v2q0 79 -25 133t-59.5 87.5t-70 49t-56.5 17.5q-5 3 -8 10zM373 351q0 37 10.5 65t27 47t37 28t41.5 9t38.5 -13t30.5 -34t20 -46t7 -49q0 -19 -9 -43.5t-22 -46
t-27 -36t-23 -14.5q-38 0 -63.5 12t-40.5 31t-21 43t-6 47z" />
    <glyph glyph-name="A" unicode="A" horiz-adv-x="663" 
d="M486 555q-5 12 -9.5 24t-9.5 23q-13 32 -24.5 58t-25.5 45t-32.5 29t-43.5 10q-23 0 -40 -10t-30.5 -28t-25 -43t-23.5 -54q-4 -9 -7.5 -19t-8.5 -20l-121 -277v1q-2 -5 -4.5 -10l-5.5 -11q-10 -21 -23.5 -50.5t-25.5 -59.5t-20 -57t-8 -44q0 -35 15.5 -48t48.5 -13
q15 0 27.5 8t23 20.5t20 28t17.5 31.5q14 29 25 41q12 12 24 19t27.5 10t35 4t46.5 1h68q24 0 42 -1t32.5 -4t26.5 -9.5t23 -17.5q10 -10 18 -24l16 -28q8 -15 16.5 -29.5t19.5 -26t25.5 -18t34.5 -6.5q19 0 30.5 7t17.5 16t8 18.5t2 15.5v1q0 14 -7 37.5t-17.5 51t-23 55.5
t-22.5 52q-4 8 -7 15.5t-6 13.5v-1zM254 340q0 6 3 21.5t8 35t12.5 40t17 38t20 28.5t22.5 11q19 0 34.5 -23t27 -52.5t17.5 -57t6 -36.5q0 -30 -18 -48t-65 -18q-41 0 -63 14.5t-22 46.5z" />
    <glyph glyph-name="B" unicode="B" horiz-adv-x="595" 
d="M570 578q0 58 -22 94.5t-58.5 57.5t-85.5 28.5t-103 7.5h-137q-65 0 -92 -29t-27 -89v-494q0 -53 7.5 -83.5t22.5 -46t37 -19.5t51 -4h102q41 0 82 3.5t77.5 12t66 21.5t47.5 31l3 3q8 7 18.5 18.5t20 28t16 40t6.5 56.5q0 29 -6 51.5t-15 39.5t-20.5 30.5t-22.5 25.5
q-12 13 -20.5 23t-8.5 21q0 26 7.5 39.5t16.5 24.5q7 9 13.5 18t11.5 21.5t8.5 29t3.5 39.5zM187 233q0 61 28 82.5t86 21.5q50 0 81 -11t48.5 -26.5t23.5 -34t6 -33.5q0 -33 -15.5 -55t-40 -35t-54.5 -18.5t-59 -5.5q-59 0 -81.5 28t-22.5 87zM187 555q0 27 8 44.5t21 28
t30 15t36 4.5q43 0 71 -9.5t44.5 -24t22.5 -31t6 -31.5q0 -40 -33.5 -68t-111.5 -28q-42 0 -68 21t-26 76v3z" />
    <glyph glyph-name="C" unicode="C" horiz-adv-x="643" 
d="M639 678q0 17 -16 35.5t-45 33.5t-69 24.5t-89 9.5q-84 0 -156.5 -27t-125 -79t-82.5 -128t-30 -174q0 -61 21 -129t68 -125.5t122.5 -95t183.5 -37.5q62 0 107 12.5t74.5 30.5t43.5 37.5t14 32.5q0 28 -12.5 47t-49.5 19q-21 0 -38 -7t-35 -17q-19 -11 -43.5 -20
t-63.5 -9q-57 0 -102.5 24t-78 62.5t-49.5 87.5t-17 99q0 62 21 112t56 85.5t80 54.5t93 19q33 0 55.5 -7t39.5 -15q15 -7 29 -12t31 -5q33 0 48 14.5t15 46.5z" />
    <glyph glyph-name="D" unicode="D" horiz-adv-x="705" 
d="M618 653q-35 35 -74.5 57t-81.5 35t-85.5 17.5t-87.5 4.5h-132q-39 0 -63 -9.5t-36.5 -26.5t-16.5 -39.5t-4 -47.5v-505q0 -32 4 -57.5t16 -43.5t34 -28t58 -10h121q49 0 95 5t89 18.5t84.5 38.5t81.5 65q18 18 35 42t31 56t22.5 72t8.5 90q0 89 -24 152t-75 114z
M175 508q0 31 3.5 55.5t14.5 41.5t31 25.5t52 8.5h3q63 0 116.5 -14t93.5 -44.5t62.5 -79t22.5 -116.5q0 -65 -24 -113.5t-65 -80.5t-94.5 -48t-111.5 -16q-32 0 -52 7.5t-31.5 22t-16 36.5t-4.5 51v264z" />
    <glyph glyph-name="E" unicode="E" horiz-adv-x="526" 
d="M524 689q0 35 -28 49t-88 14h-232q-38 0 -63 -5t-42 -21q-20 -20 -25 -53t-5 -80v-451q0 -43 6 -69t23 -43q19 -19 48 -23.5t77 -4.5h202q70 0 107.5 11t37.5 47q0 21 -10 34t-28 20.5t-43.5 10t-56.5 2.5h-113q-22 0 -41.5 3.5t-34.5 13.5t-23.5 28.5t-8.5 47.5
q0 37 7.5 58.5t21.5 32.5t33.5 13.5t44.5 2.5h83q26 0 49.5 1.5t41.5 7.5t28.5 18t10.5 33q0 42 -35 53t-95 11h-75q-21 0 -41.5 2t-36.5 10.5t-25.5 24.5t-9.5 44q0 33 8.5 51.5t24 28t37 12t47.5 2.5h65q33 0 62 2t50 8.5t33 19t12 33.5z" />
    <glyph glyph-name="F" unicode="F" horiz-adv-x="497" 
d="M522 689q0 20 -8.5 32.5t-25 19t-40 9t-54.5 2.5h-214q-31 0 -54.5 -4.5t-39 -18t-23 -37t-7.5 -61.5v-518q0 -60 19.5 -86t48.5 -26q38 0 54.5 27.5t16.5 85.5v60q0 46 6.5 71.5t20.5 39.5t48.5 17t88.5 3h26q19 0 39.5 2t37.5 9t28 19.5t11 32.5q0 19 -10 31
t-26.5 18.5t-38 9t-43.5 2.5h-61q-44 0 -68 7t-38 21t-17 36t-3 42q0 32 10.5 50.5t27 27.5t37 11.5t40.5 2.5h87q22 0 44.5 2t40 8.5t28.5 19t11 32.5z" />
    <glyph glyph-name="G" unicode="G" horiz-adv-x="724" 
d="M658 674q0 31 -24 52t-60 34t-78.5 18.5t-79.5 5.5q-88 0 -162 -29.5t-128 -82.5t-84 -126.5t-30 -161.5q0 -81 19.5 -142t52 -105.5t74 -74.5t86 -48t88.5 -25.5t81 -7.5q36 0 77 4t79 13t70 22t50 31v-1q20 19 29.5 50t9.5 73v139q0 46 -11 73t-28 40.5t-39.5 17.5
t-44.5 4q-26 0 -52.5 -2.5t-48.5 -9t-35.5 -18t-13.5 -29.5q0 -17 5 -27.5t13 -17.5t19.5 -11.5t23.5 -8.5q11 -4 23 -9.5t22 -16t16.5 -28t6.5 -45.5v-3q0 -17 -6 -37t-23.5 -37t-50 -28.5t-84.5 -11.5q-57 0 -105 21.5t-83.5 58.5t-55 87t-19.5 108q0 64 21.5 115
t56.5 85.5t81 53t94 18.5q47 0 71 -7t41 -14q14 -6 28.5 -10.5t36.5 -4.5h2q28 0 48.5 12t20.5 44z" />
    <glyph glyph-name="H" unicode="H" horiz-adv-x="682" 
d="M183 608q0 23 -2 49t-9.5 48.5t-21 37t-37.5 14.5q-21 0 -34.5 -10t-21 -27.5t-10.5 -42.5t-3 -55v-489q0 -26 3 -49.5t10.5 -41.5t21 -28.5t34.5 -10.5q20 0 33.5 10.5t21.5 29.5t11.5 44.5t3.5 55.5v49q0 31 3.5 56.5t14.5 44t31.5 28.5t53.5 10h149q31 0 50 -8.5
t29.5 -24t14 -38.5t3.5 -52v-65q0 -42 4 -69t12.5 -43t22 -22.5t31.5 -6.5q39 0 54 33.5t15 105.5v499q0 24 -3 45.5t-10.5 38t-21 26t-35.5 9.5q-24 0 -38 -12.5t-21 -33t-8.5 -47t-1.5 -54.5q0 -29 -2 -57t-11 -49.5t-26.5 -34.5t-47.5 -13h-164q-32 0 -51.5 12.5
t-30 33.5t-13.5 48t-3 56z" />
    <glyph glyph-name="I" unicode="I" horiz-adv-x="264" 
d="M212 651q0 17 -2 36.5t-8.5 35.5t-20.5 26.5t-38 10.5t-38 -11t-21 -27.5t-8.5 -35.5t-1.5 -35v-528q0 -27 2.5 -50t10 -39t21 -25t36.5 -9q24 0 37.5 9.5t20 26.5t8.5 39t2 48v528z" />
    <glyph glyph-name="J" unicode="J" horiz-adv-x="452" 
d="M435 645q0 14 -3 32t-11 34.5t-21 28t-32 11.5q-25 0 -39 -12t-21 -28.5t-8.5 -35t-1.5 -30.5v-366q0 -12 -2 -38t-11 -52.5t-27.5 -46.5t-51.5 -20q-28 0 -41 6t-24 13q-12 8 -25.5 15t-39.5 7h-3q-20 0 -36 -15.5t-16 -44.5q0 -25 17.5 -46.5t44 -37t58 -24t60.5 -8.5
q53 0 96.5 16.5t74 47.5t47 74.5t16.5 97.5v422z" />
    <glyph glyph-name="K" unicode="K" horiz-adv-x="601" 
d="M186 599q0 28 -2.5 52t-10 42t-22.5 28t-39 10q-20 0 -32 -11t-19 -27.5t-9.5 -35t-2.5 -32.5v-522q0 -47 17 -75t51 -28q20 0 33 9.5t20.5 23.5t10.5 31.5t3 34.5q0 56 1.5 93t5 59.5t9.5 32t16 9.5q29 0 52 -24t48 -55q8 -11 17 -21.5t26 -27.5q15 -15 42 -48
q19 -22 39 -44.5t40.5 -40.5t41.5 -29t42 -11q25 0 44.5 9.5t19.5 37.5q0 25 -16.5 48t-33.5 42h1q-23 28 -48 54.5t-48 50.5q-24 25 -45.5 48t-37.5 42.5t-25.5 35.5t-9.5 28q0 27 17 50.5t37 44.5l-3 -2l17 17v-1q18 17 45.5 43.5t53.5 54t44.5 51.5t18.5 37q0 18 -5 28.5
t-12.5 16t-16.5 7t-16 1.5q-22 0 -43.5 -10.5t-42.5 -27.5t-42 -38t-41 -43l-22 -24t-22 -23l-30 -30t-29 -27.5t-27.5 -20t-23.5 -7.5q-13 0 -20 10.5t-10.5 27t-4.5 36.5t-1 40z" />
    <glyph glyph-name="L" unicode="L" horiz-adv-x="460" 
d="M199 647q0 28 -5.5 47t-15 31t-22 17t-25.5 5q-31 0 -50 -24.5t-19 -79.5v-517q0 -24 4.5 -46.5t17.5 -40.5t34.5 -28.5t56.5 -10.5h205q53 0 83 14t30 50q0 35 -30 50t-83 15h-63q-22 0 -43 3.5t-37.5 15.5t-27 34t-10.5 60v405z" />
    <glyph glyph-name="M" unicode="M" horiz-adv-x="870" 
d="M368 423l-62 174q-16 43 -28.5 71t-32.5 48q-18 18 -41 26t-58 8q-37 0 -58 -14t-31.5 -33.5t-13.5 -40t-3 -33.5v-506q0 -19 2.5 -39.5t10 -38t20.5 -28.5t34 -11q14 0 26 8t20.5 20.5t13.5 28t5 31.5v233q0 74 5 115t17 41q10 0 20.5 -13t20.5 -33t19.5 -46t18.5 -51
l48 -133v1q4 -11 7.5 -23t7.5 -23q10 -30 20.5 -58.5t23.5 -50.5t30 -35.5t40 -13.5q21 0 37 12.5t28 33.5t22.5 49t21.5 60q4 11 8 22.5t8 22.5v-1l46 128l22.5 60t20.5 48.5t18.5 32.5t16.5 12q14 0 19.5 -35t5.5 -116v-227q0 -10 2.5 -26.5t9.5 -33t20 -28.5t35 -12
t34.5 11.5t19 26.5t8.5 29.5t2 21.5v510q0 45 -6 73.5t-19 44.5t-33.5 21.5t-48.5 5.5q-36 0 -59 -9t-39.5 -27t-29 -46t-26.5 -66l-67 -181q-9 -26 -18.5 -49t-19 -40.5t-19.5 -28t-20 -10.5q-12 0 -23.5 12t-22 31t-19.5 42t-17 45z" />
    <glyph glyph-name="N" unicode="N" horiz-adv-x="742" 
d="M479 347l-176 274q-30 47 -49.5 72.5t-36.5 37.5q-21 16 -39.5 18.5t-44.5 2.5q-36 0 -55.5 -14t-28.5 -36.5t-10.5 -50.5t-1.5 -55v-485q0 -47 17 -77t51 -30q22 0 35.5 12t21 29t10.5 37t3 36v262q0 59 7 83t19 24q15 0 34 -19.5t40 -51.5l206 -323q19 -30 35 -49.5
t32.5 -31t34.5 -16.5t41 -5q29 0 48 9.5t30 25.5t15.5 36.5t4.5 43.5v489q0 31 -3.5 57t-11.5 45t-21.5 30t-33.5 11t-33 -9.5t-21 -25t-11.5 -35.5t-3.5 -41l1 -170q0 -98 -4.5 -140t-22.5 -42t-36.5 19t-41.5 54v-1z" />
    <glyph glyph-name="O" unicode="O" horiz-adv-x="797" 
d="M815 369q0 109 -33 186.5t-89 127.5t-129.5 73.5t-154.5 23.5q-95 0 -168 -31.5t-123 -87t-76 -130.5t-26 -162q0 -78 27.5 -148t79 -123t124 -84.5t162.5 -31.5q87 0 161 27.5t128.5 78t85.5 122t31 159.5zM162 369q0 69 21 122t55.5 89.5t79 55t91.5 18.5
q55 0 102.5 -19t83 -56t55.5 -90t20 -120q0 -53 -19 -100.5t-53.5 -83t-82.5 -56.5t-106 -21q-59 0 -105 24t-77.5 62t-48 84t-16.5 91z" />
    <glyph glyph-name="P" unicode="P" 
d="M573 532v2q0 73 -29.5 116.5t-76 66.5t-104 30t-114.5 7h-33q-56 0 -90 -4t-53 -19t-25 -44.5t-6 -81.5v-453q0 -78 13 -112t54 -34q24 0 38 11t20.5 29t8.5 40t2 43v65q0 28 6 49.5t21 36.5t40 22.5t63 7.5q55 0 103 12t84 38t57 68.5t21 103.5zM180 537q0 32 9.5 51
t23.5 29.5t31 14t32 3.5q17 0 42 -4t48 -15t39.5 -31t16.5 -52q0 -31 -13.5 -52t-35 -33.5t-47.5 -18t-51 -5.5q-44 0 -69.5 25.5t-25.5 87.5z" />
    <glyph glyph-name="Q" unicode="Q" horiz-adv-x="786" 
d="M803 383q0 85 -30.5 156t-84 123t-127 81t-159.5 29q-89 0 -161.5 -32t-123.5 -86t-79 -125t-28 -149q0 -75 27 -145t79 -123t129 -85t177 -32q17 0 30 1t25 3q21 3 38 3q22 0 43 -10q10 -5 16.5 -9.5t11.5 -9.5q14 -12 29 -21t41 -9q32 0 41.5 16.5t9.5 43.5
q0 11 -1.5 31.5t-2.5 34.5q0 8 -1 12q1 17 9 33.5t21 35.5q12 19 24.5 41.5t23 50.5t17 62.5t6.5 78.5zM157 379q0 64 19.5 113.5t53.5 83.5t79 52t95 18q58 0 105 -20.5t80 -55.5t50.5 -80.5t17.5 -95.5q0 -29 -3.5 -57.5t-12 -51t-22 -37t-32.5 -14.5q-21 0 -30.5 5
t-15.5 11q-11 10 -24 18t-40 8q-30 0 -39.5 -16.5t-9.5 -37.5q0 -6 1.5 -18t2.5 -21q0 -5 1 -5q0 -22 -9.5 -39t-44.5 -17q-29 0 -67 15t-72.5 46.5t-58.5 80t-24 115.5z" />
    <glyph glyph-name="R" unicode="R" horiz-adv-x="587" 
d="M592 536q0 51 -15.5 86.5t-42 59.5t-60 38t-71 21t-75 9t-70.5 2h-87q-32 0 -55.5 -3.5t-39 -18.5t-23 -45.5t-7.5 -83.5v-485q0 -57 20.5 -84.5t50.5 -27.5q16 0 28.5 6t21 20.5t13 39t4.5 61.5v48q0 19 2 40.5t9 40t21 30.5t37 12h1q20 0 36.5 -10t31 -26t26 -35.5
t21.5 -37.5l52 -100v1q23 -46 50 -71.5t60 -25.5t45 15t12 38q0 20 -8.5 41.5t-17.5 33.5v-1l-47 74q-17 25 -28 52t-11 50q0 19 11.5 35t28.5 33q13 14 26.5 29.5t24.5 35t18 45t7 58.5zM186 523q0 63 26 87t86 24q4 0 27 -2t49 -11.5t47 -30.5t21 -59q0 -36 -21 -56.5
t-47.5 -31t-52 -13t-34.5 -2.5q-51 0 -76 26t-25 69z" />
    <glyph glyph-name="S" unicode="S" horiz-adv-x="520" 
d="M464 694q0 22 -13 38t-36 27t-54 16.5t-67 5.5q-33 0 -79.5 -10t-89 -36t-72.5 -70.5t-30 -113.5q0 -54 17.5 -90t46 -60t64.5 -39.5t72 -29.5q27 -10 52 -20.5t44.5 -25t31 -33.5t11.5 -46q0 -41 -33 -67.5t-85 -26.5h-5q-26 0 -43 5.5t-31 12.5q-15 6 -28 11t-33 5
q-8 0 -18.5 -3t-20.5 -9.5t-16.5 -18t-6.5 -29.5q0 -25 19 -44t48 -32t64 -19.5t67 -6.5q58 0 108 16t87.5 46t59 74t21.5 100t-19 93.5t-49 63t-67 42.5t-74 31q-26 10 -49.5 19.5t-41.5 22.5t-29 29.5t-11 40.5q0 45 31.5 67.5t76.5 22.5q16 0 27 -0.5t18 -2t11 -3t8 -2.5
q9 -4 20.5 -7t34.5 -3q26 0 43.5 18t17.5 41z" />
    <glyph glyph-name="T" unicode="T" horiz-adv-x="532" 
d="M554 699q0 35 -36 47t-112 12h-259q-44 0 -72 -3t-44 -10t-21.5 -18.5t-5.5 -27.5q0 -31 28.5 -47.5t78.5 -16.5q13 0 29.5 -2.5t31.5 -11t25 -25.5t10 -45v-435q0 -17 3.5 -36.5t11.5 -36.5t22.5 -28.5t35.5 -11.5t34.5 10t22 26t11.5 36.5t3 40.5v435q0 28 7.5 44.5
t21 25t30.5 11t37 2.5q15 0 34 2t35 9t27 20t11 34z" />
    <glyph glyph-name="U" unicode="U" horiz-adv-x="660" 
d="M177 352v251q0 24 -3 51t-10.5 49.5t-21 37t-33.5 14.5q-23 0 -37.5 -13t-22 -34t-10 -48.5t-2.5 -56.5v-279q0 -101 28 -165.5t72.5 -102.5t98.5 -52.5t105 -14.5q49 0 104 14t100.5 52t75.5 105.5t30 175.5v267q0 27 -2.5 54t-10 48.5t-21.5 35t-37 13.5
q-21 0 -34.5 -14.5t-21 -36.5t-10.5 -49t-3 -51v-282q0 -50 -12.5 -87t-34.5 -61t-53 -36t-68 -12h-2q-47 0 -78.5 17t-50.5 47t-27 71.5t-8 91.5z" />
    <glyph glyph-name="V" unicode="V" horiz-adv-x="605" 
d="M165 622q-16 45 -31.5 70.5t-29.5 39t-26 17t-21 3.5q-31 0 -47.5 -13.5t-16.5 -46.5q0 -13 3.5 -30t13.5 -41l194 -510l-1 2q1 -3 2 -5t2 -5q7 -18 15 -36.5t20 -33.5t29.5 -24.5t43.5 -9.5q21 0 36 8.5t27 23t21 33.5t18 41l192 493q10 26 16.5 49t6.5 42
q0 28 -12.5 44.5t-41.5 16.5q-18 0 -33 -11t-27 -28t-22 -39.5t-18 -44.5l-103 -283q-3 -10 -9.5 -23.5t-14 -26t-15.5 -21.5t-16 -9q-11 0 -20 10t-17 24.5t-14.5 30.5t-10.5 28z" />
    <glyph glyph-name="W" unicode="W" horiz-adv-x="945" 
d="M662 391l-52 180q-11 36 -21.5 69t-24 57.5t-32.5 39.5t-46 15q-29 0 -48 -14t-32.5 -38t-23 -55.5t-19.5 -66.5l-52 -184q-12 -42 -26.5 -67.5t-31.5 -25.5t-28 22t-22 65l-56 214q-11 43 -21.5 71t-22 44t-25.5 22t-32 6q-31 0 -45 -13.5t-14 -48.5q0 -11 4.5 -37.5
t15.5 -61.5l100 -337v1q2 -8 5 -17t5 -18q7 -25 15 -51t17 -50.5t19 -45t22 -35.5q12 -14 26 -22.5t31 -8.5q43 0 64 35t41 102l84 271q12 40 22.5 57t25.5 17q17 0 29.5 -18t21.5 -50l77 -280q10 -35 19.5 -60.5t20.5 -40.5v1q25 -35 67 -35q25 0 41 9.5t30 27.5
q14 20 23.5 52t21.5 76q5 17 10 35t11 38l102 351v-1q10 32 14 56t4 35q0 32 -14 47.5t-46 15.5q-28 0 -46.5 -23t-35.5 -84q-16 -60 -25 -93.5t-15 -55.5t-11 -40.5t-13 -47.5q-12 -48 -24 -73.5t-28 -25.5t-30 25.5t-26 67.5z" />
    <glyph glyph-name="X" unicode="X" horiz-adv-x="604" 
d="M311 532q-18 0 -35 20.5t-34 49.5l-24 40q-14 22 -28 43t-30 37.5t-35 26t-42 9.5q-26 0 -40 -17.5t-14 -32.5q0 -23 14.5 -50t36.5 -58l77 -110q17 -24 27 -47.5t10 -43.5q0 -18 -10.5 -43.5t-29.5 -52.5l-89 -132q-23 -34 -38.5 -62.5t-15.5 -48.5q0 -26 9.5 -40
t44.5 -14q32 0 59.5 22.5t49.5 59.5l44 75q12 19 23 37t22 31.5t21.5 22t21.5 8.5q26 0 49.5 -28t44.5 -65l49 -83q21 -37 49.5 -61t63.5 -24q33 0 45 15.5t12 41.5q0 20 -13 46t-34 57l-88 125q-23 32 -37 61.5t-14 51.5q0 19 9.5 43t26.5 48l71 103q21 31 36 57t15 46
q0 28 -10.5 44.5t-42.5 16.5q-22 0 -39 -9.5t-32 -25.5t-27.5 -36t-25.5 -42v1l-28 -49q-15 -27 -33.5 -45.5t-41.5 -18.5z" />
    <glyph glyph-name="Y" unicode="Y" horiz-adv-x="551" 
d="M293 510q-26 0 -47.5 27.5t-41.5 63.5l-25 44v-1q-12 22 -25 41.5t-28.5 34.5t-33.5 23.5t-40 8.5q-17 0 -28 -6t-17 -15t-8.5 -20.5t-2.5 -21.5q0 -21 15.5 -50t39.5 -64l83 -120q35 -50 59 -101.5t24 -96.5v-160q0 -41 19 -67.5t50 -26.5q17 0 30 8.5t22 22t13.5 31
t4.5 35.5v165q0 20 7 43t18.5 48t27 51t33.5 52l86 126q23 33 37 60.5t14 46.5q0 18 -5.5 29t-13.5 17t-17.5 8t-17.5 2q-38 0 -67 -29.5t-53 -70.5l-27 -46q-22 -36 -43 -64t-42 -28z" />
    <glyph glyph-name="Z" unicode="Z" horiz-adv-x="568" 
d="M572 678q0 30 -9.5 48t-31 27t-56 11.5t-83.5 2.5l-163 -1q-53 0 -89.5 -1.5t-59.5 -8.5t-33 -20t-10 -35q0 -21 12 -33.5t29 -18.5t36 -8t34 -2h93q25 0 46 -1.5t36.5 -6t24 -13t8.5 -22.5t-13.5 -37t-38.5 -55l-220 -278q-31 -40 -51.5 -74.5t-20.5 -63.5
q0 -30 9.5 -47.5t29 -27t50 -12t71.5 -2.5h212q45 0 78.5 2t56 8t33.5 18t11 33t-10.5 34t-28.5 20t-42 9t-52 2h-96q-22 0 -41.5 1t-34 5t-23 11t-8.5 18q0 23 15.5 47t42.5 57l222 281q29 38 47 69.5t18 63.5z" />
    <glyph glyph-name="bracketleft" unicode="[" horiz-adv-x="350" 
d="M261 737q0 19 -13 35t-54 16q-30 0 -46.5 -11.5t-25 -30.5t-10 -44t-1.5 -53v-651q0 -39 2.5 -68t11.5 -47.5t26 -27.5t46 -9q36 0 52.5 12.5t16.5 38.5q0 13 -5.5 22t-13.5 19q-10 13 -21.5 33.5t-11.5 58.5v565q0 41 11 64.5t20 37.5q7 11 11.5 20t4.5 20z" />
    <glyph glyph-name="backslash" unicode="\" horiz-adv-x="374" 
d="M49 639l228 -562q10 -23 30 -41t40 -18q10 12 14 24t4 22q0 11 -2.5 21.5t-5.5 15.5l-229 570q-16 38 -37 55t-39 17q-7 -9 -12.5 -21t-5.5 -23q0 -24 15 -60z" />
    <glyph glyph-name="bracketright" unicode="]" horiz-adv-x="339" 
d="M100 739q0 -11 4.5 -20t11.5 -19l-1 1q9 -14 19.5 -38t10.5 -66v-565q0 -39 -10.5 -59.5t-20.5 -32.5q-8 -10 -13.5 -19t-5.5 -22q0 -26 16.5 -38.5t52.5 -12.5q28 0 45 9t26 27.5t12 47.5t3 68v652q0 28 -1.5 53t-10 44t-25 30t-46.5 11q-41 0 -54 -16t-13 -35z" />
    <glyph glyph-name="asciicircum" unicode="^" horiz-adv-x="567" 
d="M488 528l-62 110q-3 5 -6 11t-6 11q-10 19 -20.5 36.5t-23.5 31.5t-29.5 22.5t-38.5 8.5q-21 0 -37.5 -9.5t-29.5 -24t-24 -32.5t-20 -36q-4 -8 -7.5 -14t-7.5 -13v1l-62 -102q-14 -23 -23 -44.5t-9 -36.5q0 -17 8.5 -26.5t28.5 -9.5q28 0 43 16t29 36q3 6 4 7l39 59
q14 20 29.5 37t38.5 17t37 -16t28 -37v1l39 -62q8 -12 15.5 -22.5t17.5 -18.5t22 -13t29 -5q33 0 33 34q0 16 -10.5 38t-24.5 46v-1z" />
    <glyph glyph-name="underscore" unicode="_" horiz-adv-x="483" 
d="M18 6q-8 0 -19.5 -2.5t-22.5 -9.5t-18.5 -19.5t-7.5 -32.5q0 -18 7 -30t17.5 -19t22.5 -10t21 -3h473q10 0 21.5 3t21.5 10t16.5 19t6.5 30q0 20 -6 32.5t-16 19.5t-21.5 9.5t-22.5 2.5h-473z" />
    <glyph glyph-name="grave" unicode="`" horiz-adv-x="275" 
d="M88 706q0 -15 10 -44t24 -58t30.5 -50.5t28.5 -21.5q31 0 41.5 14.5t10.5 54.5q0 14 -6 41t-17 54t-28 47.5t-39 20.5q-30 0 -42.5 -13.5t-12.5 -44.5z" />
    <glyph glyph-name="a" unicode="a" horiz-adv-x="489" 
d="M486 306q0 110 -52 166t-148 56q-48 0 -87 -10t-66.5 -23.5t-42.5 -26t-15 -17.5q0 -14 12.5 -21.5t21.5 -7.5q14 0 21.5 2t18.5 4q18 5 42 9.5t53 4.5q12 0 28.5 -4.5t31.5 -13t25.5 -21.5t10.5 -30q0 -16 -9 -28t-23 -20t-30.5 -12t-31.5 -4q-38 0 -78 -6.5t-74 -24
t-55.5 -48t-21.5 -79.5t20 -79t47 -46.5t53.5 -22t38.5 -5.5q18 0 51 12t71 38q31 -20 63 -26t45 -6h1q43 0 61 27.5t18 61.5v201zM270 81q-18 0 -37.5 4.5t-35 14t-25.5 23.5t-10 33q0 24 13 40.5t30.5 27.5t35 16t25.5 5q10 0 23.5 -4.5t25.5 -12.5t20.5 -20.5t8.5 -27.5
q0 -27 -15.5 -52.5t-30.5 -42.5q-17 -3 -21.5 -3.5t-6.5 -0.5z" />
    <glyph glyph-name="b" unicode="b" horiz-adv-x="596" 
d="M234 492q-32 0 -43 30t-11 78v98q0 24 -6.5 42t-16 29t-21.5 16.5t-23 5.5q-26 0 -44 -26.5t-18 -71.5v-597q0 -11 2 -27.5t10 -31.5t22.5 -25.5t40.5 -10.5q23 0 31.5 2.5t16.5 5.5q3 2 9 3t24 1q20 0 32 -4t23 -9q17 -8 41 -15.5t75 -7.5q27 0 66 15t75 47t61.5 82
t25.5 119q0 67 -19.5 119t-53 87.5t-78 54t-93.5 18.5q-29 0 -51 -5.5t-39 -11.5q-11 -4 -20.5 -7t-17.5 -3zM318 98q-29 0 -53.5 12.5t-42.5 33.5t-28 47t-10 53q0 34 11.5 63t30.5 50t43 32.5t50 11.5q30 0 57.5 -11t48 -31t32.5 -47.5t12 -60.5v-2q0 -30 -11 -57.5
t-31 -48.5t-48 -33t-61 -12z" />
    <glyph glyph-name="c" unicode="c" horiz-adv-x="447" 
d="M439 456q0 21 -16.5 35.5t-39 23.5t-45.5 13t-36 4h-2q-50 0 -99.5 -17t-89 -51.5t-64 -85.5t-24.5 -119q0 -45 11 -79.5t25 -59t28.5 -39.5t20.5 -21q8 -9 25 -21t41 -23t54.5 -19t66.5 -8q18 0 41.5 3.5t45 12.5t36.5 23.5t15 37.5q0 30 -19 40.5t-45 10.5
q-13 0 -24 -1t-21 -3h1q-7 -1 -16 -2l-9 -1q-27 0 -53 11.5t-45.5 31t-31.5 46t-12 57.5q0 34 11 62t30.5 48.5t44.5 31.5t54 11q9 0 20.5 -1.5t22.5 -3.5q16 -3 35 -3q35 0 49 14.5t14 40.5z" />
    <glyph glyph-name="d" unicode="d" horiz-adv-x="595" 
d="M581 117v556q0 39 -6.5 62.5t-16.5 35.5t-22.5 15.5t-24.5 3.5q-29 0 -46 -25t-17 -78v-68q0 -25 -1.5 -47.5t-7 -39.5t-15.5 -27t-27 -10q-16 0 -27.5 2.5t-22.5 7.5q-14 5 -31.5 9.5t-49.5 4.5q-37 0 -79.5 -15t-79 -47t-60.5 -84t-24 -125q0 -60 18 -109.5t50.5 -85
t77.5 -55.5t100 -20q37 0 59 6.5t39 14.5q11 5 23 9.5t31 4.5q21 0 28 -1.5t12 -3.5q7 -3 16 -5.5t26 -2.5q41 0 59.5 30t18.5 87zM158 244q0 36 12.5 65t33.5 49t48 31.5t55 11.5q35 0 61 -16t43.5 -39t26 -50t8.5 -48q0 -29 -10.5 -56t-28.5 -47.5t-43 -33t-54 -12.5
q-30 0 -57.5 11t-48.5 30.5t-33.5 46t-12.5 57.5z" />
    <glyph glyph-name="e" unicode="e" horiz-adv-x="511" 
d="M535 307q0 49 -18.5 89.5t-49.5 70t-71.5 45.5t-85.5 16q-65 0 -118 -18t-91.5 -52.5t-59.5 -86t-21 -117.5v-2q0 -52 23 -98t60.5 -80.5t86.5 -54.5t101 -20h2q45 0 77 9t52 22t29 26.5t9 22.5q0 25 -10.5 38t-36.5 13q-16 0 -31 -5t-30 -11q-14 -5 -29 -10t-35 -5
q-17 0 -35 5t-34 14.5t-26 23.5t-10 32q0 17 9.5 28t24 17.5t31.5 9t32 2.5q32 0 56.5 -3t43.5 -5q13 -2 24 -3t25 -1q51 0 78.5 24t27.5 64zM181 365q0 15 7.5 29.5t20 25.5t29.5 17.5t35 6.5q19 0 38.5 -5.5t35.5 -16t25.5 -25.5t9.5 -34q0 -30 -28.5 -43t-68.5 -13
q-15 0 -33.5 2.5t-34 9t-26 17.5t-10.5 29z" />
    <glyph glyph-name="f" unicode="f" horiz-adv-x="391" 
d="M386 743q0 31 -18.5 43t-60.5 12q-46 0 -80 -17.5t-56 -46t-32.5 -65t-10.5 -75.5q0 -24 -3.5 -39.5t-9.5 -25.5t-13.5 -16.5t-14.5 -11.5q-16 -12 -27 -25t-11 -40q0 -19 9.5 -31t23.5 -24q8 -7 16.5 -15.5t15.5 -21.5t11.5 -31t4.5 -44v-175q0 -41 18 -67t48 -26
q16 0 28 8.5t20.5 22t12.5 31t4 36.5v189q0 25 6 42t15.5 28t21 17.5t21.5 11.5q18 10 31 19t13 30q0 29 -15 40.5t-37 20.5q-9 4 -18.5 9t-17 13.5t-12 22t-4.5 34.5q0 27 7 45.5t17.5 30.5t23 19.5t23.5 13.5q21 11 35.5 22.5t14.5 35.5z" />
    <glyph glyph-name="g" unicode="g" horiz-adv-x="581" 
d="M410 503q-17 0 -28.5 4t-22.5 9q-17 8 -38 15t-57 7q-69 0 -116 -27t-76.5 -67.5t-42.5 -87t-13 -84.5q0 -39 8.5 -71.5t20 -58t24 -42.5t21.5 -26q10 -10 25 -22.5t36 -24t48 -19t61 -7.5q38 0 58.5 4.5t34.5 9.5h-1q8 2 15 4t15 2q20 0 31.5 -13t11.5 -30
q0 -26 -12 -46t-32 -33.5t-45.5 -21t-52.5 -7.5q-38 0 -60 6t-38 12q-14 5 -26.5 9t-26.5 4q-34 0 -49 -10t-15 -45q0 -24 19 -42t49.5 -30t69 -18t77.5 -6q75 0 130 23t91 65t53.5 101t17.5 131v335q0 14 -2.5 33t-10.5 36t-24 29t-44 12q-21 0 -30 -2.5t-16 -4.5h1
q-6 -2 -13 -3.5t-26 -1.5zM153 271q0 36 13 64t35.5 47t52 29t62.5 10q29 0 52.5 -14t40 -36t25.5 -49t9 -52q0 -26 -10.5 -53.5t-28.5 -49.5t-42.5 -36t-53.5 -14q-34 0 -62.5 12.5t-49 34t-32 49.5t-11.5 58z" />
    <glyph glyph-name="h" unicode="h" horiz-adv-x="594" 
d="M192 673q0 62 -18 87.5t-50 25.5q-18 0 -30 -9.5t-19.5 -25.5t-11 -35.5t-3.5 -38.5v-574q0 -48 17.5 -75.5t48.5 -27.5q20 0 33 9.5t20.5 24.5t10 34.5t2.5 40.5v143q0 26 10.5 57.5t33.5 55.5l4 4q8 9 22 18t43 9q39 0 65.5 -12.5t43 -35t24 -53.5t7.5 -68v-121
q0 -58 18 -82t50 -24q33 0 48.5 29.5t15.5 79.5v179q0 33 -7 73t-28 74.5t-60.5 58t-104.5 23.5q-35 0 -55 -6t-37 -12q-9 -4 -18 -6.5t-22 -2.5q-22 0 -37.5 18.5t-15.5 50.5v114z" />
    <glyph glyph-name="i" unicode="i" horiz-adv-x="241" 
d="M201 412q0 15 -2.5 34.5t-10 37t-20.5 29.5t-34 12t-33.5 -12t-19 -29.5t-9 -37t-2.5 -34.5v-308q0 -13 2.5 -30.5t9 -33t19 -26.5t33.5 -11q20 0 33 10.5t20.5 26.5t10.5 33t3 31v308zM134 625q26 0 44 18t18 41q0 22 -16 41t-46 19t-45.5 -18.5t-15.5 -41.5t14.5 -41
t46.5 -18z" />
    <glyph glyph-name="j" unicode="j" horiz-adv-x="258" 
d="M218 -28v450q0 54 -16.5 78t-48.5 24q-38 0 -52 -28.5t-14 -75.5v-386q0 -16 -0.5 -33t-3.5 -34t-9.5 -32t-17.5 -26q-9 -9 -19.5 -15.5t-19.5 -12.5q-19 -11 -32 -22t-13 -38q0 -20 7 -31.5t18.5 -17.5t26.5 -8t32 -2q34 0 63.5 13.5t51.5 40.5t34.5 66t12.5 90z
M152 639q31 0 46.5 18t15.5 41t-14 42.5t-48 19.5q-29 0 -44 -20t-15 -42q0 -23 15 -41t44 -18z" />
    <glyph glyph-name="k" unicode="k" horiz-adv-x="469" 
d="M131 722q-21 0 -33.5 -8.5t-19 -23t-8 -33t-1.5 -38.5v-523q0 -42 15.5 -70t48.5 -28q19 0 31.5 11.5t19.5 27t9.5 31t2.5 23.5q0 37 9 54.5t23 17.5q19 0 37 -16t35 -39l29 -38q25 -32 52.5 -56t63.5 -24q49 0 49 47q0 23 -16 46t-38 49h1l-33 40q-17 21 -29.5 43
t-12.5 43q0 17 12 36.5t28 36.5l28 32q15 17 25 33t10 31q0 20 -9.5 32.5t-41.5 12.5q-20 0 -39.5 -12.5t-39.5 -32.5v1l-31 -31q-20 -20 -39.5 -36.5t-36.5 -16.5q-20 0 -29 26.5t-9 74.5v171q0 51 -12.5 78.5t-50.5 27.5z" />
    <glyph glyph-name="l" unicode="l" horiz-adv-x="242" 
d="M204 643q0 61 -15.5 93t-49.5 32q-39 0 -53 -31t-14 -94v-527q0 -54 14 -85t53 -31q36 0 50.5 32.5t14.5 83.5v527z" />
    <glyph glyph-name="m" unicode="m" horiz-adv-x="837" 
d="M654 526q-43 0 -66.5 -10.5t-41.5 -22.5h1q-11 -7 -22 -12t-27 -5q-17 0 -33.5 6.5t-33.5 14.5q-23 11 -47.5 20t-56.5 9q-35 0 -57 -7.5t-39 -15.5q-10 -5 -19 -8t-17 -3q-14 0 -22.5 2t-16.5 4q-10 2 -20 4.5t-24 2.5q-45 0 -61 -28t-16 -78v-306q0 -46 17.5 -69.5
t47.5 -23.5q32 0 48.5 28.5t16.5 66.5v139q0 34 6 65.5t18.5 55.5t31 38t43.5 14q20 0 39 -7t33.5 -25t23.5 -49t9 -78v-150q0 -43 16.5 -70.5t48.5 -27.5q37 0 52 28t15 70v148q0 27 4.5 55t15 51.5t28 38.5t43.5 15q33 0 54.5 -13.5t35 -36.5t19 -53.5t5.5 -64.5l1 -148
q0 -17 3.5 -33t11 -28.5t19 -20.5t27.5 -8q18 0 31 8.5t21 22.5t12 31t4 35v204q0 44 -10.5 84.5t-33 72t-57 50t-81.5 18.5z" />
    <glyph glyph-name="n" unicode="n" horiz-adv-x="572" 
d="M558 302q0 67 -16.5 112t-44 71t-63.5 37t-75 11q-47 0 -70.5 -7.5t-39.5 -15.5q-11 -5 -22.5 -9.5t-30.5 -4.5q-18 0 -26 4h1q-10 4 -22.5 6.5t-39.5 2.5q-35 0 -52 -34.5t-17 -83.5v-296q0 -42 19 -67.5t44 -25.5q38 0 54 29.5t16 79.5v155q0 31 7.5 58t21 47
t33.5 31.5t45 11.5q28 0 54.5 -6.5t47.5 -26.5t33.5 -58t12.5 -102v-123q0 -47 16.5 -71.5t47.5 -24.5q20 0 33 11t20.5 28t10 39t2.5 43v179z" />
    <glyph glyph-name="o" unicode="o" 
d="M566 261q0 66 -23.5 116.5t-62.5 85.5t-89.5 53t-104.5 18q-53 0 -103 -18.5t-89 -54t-62.5 -86t-23.5 -114.5q0 -63 22.5 -113t60.5 -85t88.5 -53.5t106.5 -18.5q64 0 116 22.5t88.5 60t56 86t19.5 101.5zM144 261q0 31 11 58.5t30 48.5t45 33t56 12q29 0 55 -11
t45.5 -31t31 -48t11.5 -62q0 -32 -12 -59t-32 -46.5t-46 -30.5t-53 -11q-33 0 -59 13t-44.5 33.5t-28.5 47t-10 53.5z" />
    <glyph glyph-name="p" unicode="p" horiz-adv-x="597" 
d="M363 543q-40 0 -65.5 -8.5t-45.5 -16.5q-12 -5 -22.5 -8.5t-22.5 -3.5t-19 1.5t-12 3.5q-10 4 -21 7t-30 3q-32 0 -55 -23t-23 -70v-542q0 -17 2 -35t8.5 -33t20 -25t36.5 -10q21 0 34 11t20 28.5t9.5 39t2.5 42.5v41q0 32 11.5 57t37.5 25q14 0 26 -3.5t25 -7.5h-1
q16 -6 34 -10t45 -4q51 0 96 19.5t78.5 55t53 85.5t19.5 111q0 70 -23 121t-58.5 84t-78 49t-82.5 16zM314 425q29 0 57 -10.5t49.5 -30t34.5 -48t13 -65.5q0 -31 -11.5 -58t-32 -47.5t-48.5 -32t-62 -11.5q-28 0 -52 13t-42 34.5t-28 48.5t-10 56q0 28 10.5 55t28.5 48.5
t42 34.5t51 13z" />
    <glyph glyph-name="q" unicode="q" horiz-adv-x="583" 
d="M264 546q-52 0 -97 -20.5t-78 -56t-52 -84t-19 -104.5q0 -73 23 -125.5t58.5 -86t77.5 -49.5t81 -16q37 0 57 5t36 11v-1q9 3 18.5 6t20.5 3q17 0 27.5 -8.5t16 -21.5t7.5 -29t2 -31v-45q0 -49 14.5 -79t52.5 -30q20 0 33.5 10t21 26t10.5 35.5t3 37.5v508
q0 51 -18.5 86.5t-59.5 35.5q-15 0 -27 -3t-24 -5q-17 -5 -31 -5q-17 0 -29 4.5t-24 9.5q-20 8 -42 15t-59 7zM306 426q36 0 61.5 -15.5t42 -38t24 -48t7.5 -45.5q0 -27 -8.5 -54t-25.5 -49t-42 -36t-57 -14q-44 0 -73.5 16t-47 40t-25 51.5t-7.5 50.5q0 26 11 51.5t31 45.5
t48 32.5t61 12.5z" />
    <glyph glyph-name="r" unicode="r" horiz-adv-x="370" 
d="M324 523q-19 0 -32 -4t-24 -9q-10 -5 -20.5 -8.5t-27.5 -3.5q-11 0 -18 1.5t-15 3.5q-11 2 -21.5 4.5t-23.5 2.5q-29 0 -45.5 -11t-25 -27.5t-10.5 -36t-2 -35.5v-299q0 -17 4 -34t12.5 -31.5t21 -23.5t30.5 -9q17 0 29.5 9t20.5 24t12 34.5t4 40.5v123q0 29 3.5 50.5
t9 36.5t12.5 25t14 17q18 18 34.5 26.5t45.5 14.5q16 3 30.5 7t25.5 10.5t17.5 18t6.5 31.5q0 22 -17 37t-51 15z" />
    <glyph glyph-name="s" unicode="s" horiz-adv-x="405" 
d="M225 536q-34 0 -70 -9t-66 -28.5t-49.5 -50t-19.5 -73.5q0 -40 13 -66t34 -43.5t48 -28t54 -19.5q19 -6 36.5 -13t31 -16t21.5 -21t8 -30q0 -8 -3.5 -17.5t-11.5 -17.5t-20.5 -13.5t-30.5 -5.5q-14 0 -27.5 3t-24.5 8q-11 3 -20.5 6t-20.5 3q-20 0 -36 -8.5t-16 -36.5
q0 -19 15 -32.5t36.5 -21.5t45.5 -12t43 -4q55 0 96.5 12.5t69.5 33t41.5 47.5t13.5 56q0 45 -13.5 74.5t-35.5 48.5t-49.5 30.5t-54.5 20.5h1q-17 6 -33 12t-28.5 14.5t-20 20t-7.5 28.5q0 12 6.5 19.5t14.5 12t16.5 6.5t12.5 2q8 0 15.5 -1t15.5 -3v1q16 -4 34 -4
q24 0 42 9.5t18 36.5q0 17 -14.5 30t-34.5 22t-41 13.5t-35 4.5z" />
    <glyph glyph-name="t" unicode="t" horiz-adv-x="338" 
d="M250 555q-9 9 -14 20.5t-10 22.5q-5 12 -10 23t-12.5 19.5t-18 13.5t-26.5 5q-32 0 -44.5 -19t-21.5 -44q-5 -12 -9.5 -23t-11.5 -18q-3 -3 -6.5 -6t-7.5 -7l1 1q-17 -14 -31.5 -31t-14.5 -40q0 -21 10.5 -33t24.5 -26l14.5 -14.5t14 -17.5t10.5 -22.5t4 -28.5v-129
q0 -41 6.5 -78.5t24.5 -67t49 -47t81 -17.5q15 0 29.5 3t26 9.5t18.5 17t7 25.5q0 24 -13 35t-32 22q-16 8 -26 18q-20 20 -27.5 38.5t-7.5 41.5v130q0 19 5.5 32.5t14.5 23.5t20 16.5t21 12.5q20 11 33.5 22.5t13.5 32.5q0 24 -9 32.5t-28 18.5l1 -1q-9 5 -22 12t-27 22z
" />
    <glyph glyph-name="u" unicode="u" horiz-adv-x="533" 
d="M105 521q-26 0 -45 -21.5t-19 -69.5v-227q0 -112 50 -166t135 -54q38 0 58.5 7t37.5 15q11 5 20.5 9t23.5 4t22 -1.5t16 -3.5q10 -3 21.5 -5t29.5 -2q42 0 56.5 33.5t14.5 96.5v259q0 26 -2 49t-8.5 40t-20 27t-36.5 10q-21 0 -34.5 -11t-21 -27.5t-10 -36t-2.5 -36.5
v-148q0 -27 -5.5 -55t-17.5 -51.5t-30 -38t-43 -14.5q-38 0 -62 13.5t-38 41.5t-19.5 69.5t-5.5 97.5v97q0 48 -16.5 73.5t-48.5 25.5z" />
    <glyph glyph-name="v" unicode="v" horiz-adv-x="450" 
d="M51 516q-27 0 -41 -12t-14 -47q0 -14 7.5 -39.5t19.5 -55.5v1l84 -216l6 -15v1q10 -27 20.5 -51t24 -42t32 -28t45.5 -10q29 0 48 9.5t33 28t25 46l25 62.5l81 214h-1q12 31 18.5 53.5t6.5 37.5q0 28 -10.5 42.5t-39.5 14.5q-20 0 -34.5 -10t-25.5 -26.5t-19.5 -36.5
t-15.5 -40h1l-31 -77q-13 -34 -26.5 -61.5t-30.5 -27.5q-10 0 -18 8t-15.5 20.5t-14.5 29.5t-13 35l-28 78q-8 22 -16.5 42.5t-19.5 36.5t-26.5 25.5t-36.5 9.5z" />
    <glyph glyph-name="w" unicode="w" horiz-adv-x="746" 
d="M392 524q-32 0 -51.5 -12.5t-32 -32.5t-20 -46.5t-13.5 -53.5l-6 -27v1q-3 -14 -8 -32t-12 -34t-16 -27t-21 -11q-9 1 -16.5 10t-14.5 24t-14 34t-13 39q-2 4 -4 14h-1v1q-2 6 -4 13t-4 15q-7 21 -14 41.5t-17.5 36.5t-25 26t-36.5 10q-30 0 -42.5 -14t-12.5 -41
q0 -22 9 -53t23 -71q2 -4 3 -7.5t3 -8.5l46 -140q2 -5 2.5 -9.5t2.5 -8.5v1q11 -35 21.5 -64.5t24 -51t32 -33.5t44.5 -12q30 0 49 12t31 32t19.5 45t13.5 52v-1q2 5 2.5 10.5t2.5 10.5q13 50 26 81t37 31q12 0 21.5 -11t18 -26.5t14.5 -33.5t10 -33q2 -6 3.5 -12t3.5 -12
q7 -25 15.5 -50.5t21.5 -46t32 -33.5t48 -13q25 0 41.5 10t28.5 29t21.5 45t19.5 58v-1q3 8 5.5 17.5t5.5 18.5l45 137q2 5 3.5 10.5t3.5 10.5v-1q12 35 20.5 66t8.5 52q0 24 -10 38t-36 14q-24 0 -39 -11t-25 -28.5t-16 -38t-10 -39.5q-4 -16 -9 -31l1 3q-2 -6 -4.5 -12.5
t-4.5 -14.5q-4 -13 -9 -28t-11.5 -28t-14.5 -21.5t-18 -8.5q-11 0 -19.5 12t-16 29.5t-13 35.5t-8.5 30l-4 14l-4 14v-1q-7 25 -15 50.5t-20.5 45.5t-31 33t-46.5 13z" />
    <glyph glyph-name="x" unicode="x" horiz-adv-x="465" 
d="M101 513q-24 0 -38 -8.5t-14 -34.5q0 -23 12 -42.5t27 -42.5q17 -24 32 -51.5t15 -57.5q0 -12 -6 -26.5t-15.5 -31t-21.5 -33t-23 -32.5q-19 -26 -33 -47.5t-14 -39.5q0 -32 9 -44t42 -12q29 0 51 20.5t43 46.5q17 22 35.5 40t39.5 18t41 -19.5t38 -41.5v1
q20 -26 41 -45.5t48 -19.5q26 0 41.5 8t15.5 39q0 23 -15.5 48t-35.5 54q-22 31 -41.5 62t-19.5 57q0 32 14.5 59t29.5 50q14 22 24.5 40t10.5 38q0 45 -47 45q-27 0 -45 -15.5t-35 -35.5q-14 -16 -28.5 -30t-33.5 -14t-33 14t-28 30q-18 20 -36.5 37t-46.5 17z" />
    <glyph glyph-name="y" unicode="y" horiz-adv-x="482" 
d="M65 520q-29 0 -40.5 -19.5t-11.5 -42.5q0 -20 9.5 -44t21.5 -53l-1 1q2 -6 5 -12.5t5 -12.5l103 -245q12 -27 16.5 -49.5t4.5 -43.5q0 -17 -5 -31.5t-12 -26.5t-14.5 -20.5t-12.5 -14.5h1q-11 -11 -27 -19t-31 -14q-25 -11 -42.5 -22.5t-17.5 -37.5q0 -21 20 -39.5
t58 -18.5q43 0 74.5 13t56 39.5t45 67t41.5 96.5l151 394q27 70 27 95q0 19 -12 36t-39 17q-21 0 -36.5 -10t-26 -26t-17.5 -34.5t-13 -35.5v1l-30 -85q-11 -32 -24 -54t-32 -22q-17 0 -31.5 22.5t-25.5 50.5l-35 88v-1q-8 21 -17.5 41.5t-21.5 36t-27 25.5t-36 10z" />
    <glyph glyph-name="z" unicode="z" horiz-adv-x="431" 
d="M332 527l-135 -3q-62 -2 -99 -13t-37 -37q0 -15 6.5 -23.5t17.5 -13.5t25.5 -7.5t31.5 -4.5q14 -2 29 -4t27 -6.5t19.5 -12.5t7.5 -20q0 -14 -8.5 -29.5t-22 -32.5t-31.5 -35.5t-36 -36.5q-21 -21 -40.5 -41t-34.5 -40t-24.5 -40t-9.5 -39q0 -42 27 -63.5t69 -21.5h13
l206 6q7 0 21.5 1.5t28 6.5t24 14t10.5 25q0 15 -7.5 24t-20 14t-29 7t-35.5 3q-17 1 -34 2.5t-31 5.5t-23 12.5t-9 22.5t8 29t21.5 31.5t30.5 34t35 35.5l41.5 41.5t36 41.5t25.5 42.5t10 43.5q0 42 -30.5 61.5t-69.5 19.5h-4z" />
    <glyph glyph-name="braceleft" unicode="{" horiz-adv-x="403" 
d="M290 684q5 6 9.5 10t9.5 9v-1q14 13 22 23t8 25q0 23 -12.5 32t-32.5 9t-48 -12.5t-47 -31.5q-24 -25 -31.5 -65t-7.5 -80v-74q0 -35 -4 -58t-11 -38t-15 -23.5t-15 -15.5q-14 -13 -23.5 -26.5t-9.5 -39.5q0 -22 9 -35t23 -27h-1q8 -8 16.5 -18.5t16 -26.5t12 -39.5
t4.5 -56.5v-78q0 -42 10 -79t46 -73q14 -14 36.5 -21.5t41.5 -7.5q20 0 33 9t13 24q0 26 -13 39t-27 24l1 -1q-3 2 -9.5 8.5t-12.5 11.5q-7 13 -10 30.5t-3 35.5v76q0 39 -3 65.5t-7.5 44.5t-9.5 30t-10 22l1 -1q-5 10 -8 18.5t-3 22.5q0 18 3.5 29t8.5 22q4 10 9 21.5
t9 28.5t6.5 42t2.5 61v63q0 26 5 53t17 39z" />
    <glyph glyph-name="bar" unicode="|" horiz-adv-x="298" 
d="M158 766q-31 0 -42 -42t-11 -112v-475q0 -64 12 -101t41 -37q19 0 30 9.5t17 27.5t7.5 43.5t1.5 57.5v475q0 35 -2 63.5t-8 48.5t-17 31t-29 11z" />
    <glyph glyph-name="braceright" unicode="}" horiz-adv-x="401" 
d="M130 -23l-16 -16v1q-17 -15 -25.5 -26t-8.5 -27q0 -20 12 -30.5t32 -10.5q21 0 48.5 13t46.5 32q14 14 22 33.5t11.5 41.5t4.5 45t1 44v56q0 36 4 59t11 38t14.5 23.5t15.5 14.5q14 13 24 26t10 39q0 22 -9.5 34.5t-23.5 26.5q-8 8 -16.5 18t-15.5 25t-11.5 37t-4.5 55
v62q0 24 -1 47t-6 44.5t-16 42t-32 41.5q-14 14 -37.5 21.5t-42.5 7.5t-32 -9t-13 -24q0 -24 12 -38t27 -25q4 -3 7 -5t7 -7q14 -15 17.5 -43t3.5 -68v-47q0 -36 2.5 -61.5t7 -42.5t9.5 -28.5t10 -20.5q5 -8 8 -16.5t3 -23.5q0 -18 -4 -29t-9 -22q-5 -9 -9.5 -20.5t-8.5 -28
t-6.5 -39.5t-2.5 -57v-52q0 -44 -4.5 -71.5t-16.5 -39.5h1z" />
    <glyph glyph-name="asciitilde" unicode="~" horiz-adv-x="408" 
d="M392 640q0 30 -19.5 40.5t-41.5 10.5q-19 0 -31 -5.5t-23 -10.5q-6 -3 -11.5 -5.5t-8.5 -2.5q-4 0 -7.5 2t-8.5 4q-12 6 -29.5 13t-43.5 7q-37 0 -61.5 -16t-39 -36.5t-20.5 -38.5t-6 -21q0 -30 18 -40.5t44 -10.5q23 0 34.5 5.5t20.5 13.5q3 2 7 4.5t11 2.5q1 0 6 -2.5
t12 -6.5q14 -7 30.5 -13.5t39.5 -6.5q28 0 52 12t40.5 29t26 37t9.5 35z" />
    <glyph glyph-name="quotesinglbase" unicode="&#x201a;" horiz-adv-x="260" 
d="M234 89q0 31 -12.5 44.5t-42.5 13.5q-22 0 -39 -20.5t-28 -47.5t-17 -54t-6 -41q0 -40 10.5 -54.5t41.5 -14.5q12 0 28.5 21.5t30.5 50.5t24 58t10 44z" />
    <glyph glyph-name="florin" unicode="&#x192;" horiz-adv-x="524" 
d="M376 480q-4 -18 2 -27.5t16.5 -15.5t24 -10.5t25.5 -12t20 -20.5t8 -35q0 -20 -10 -31t-25 -17.5t-33 -11t-34 -11t-28.5 -17t-15.5 -28.5l-31 -159q-2 -12 -9 -34.5t-15.5 -45.5t-17 -43.5t-14.5 -29.5q-20 -34 -49.5 -53.5t-68.5 -19.5q-18 0 -36 4t-32 10.5t-22.5 16
t-8.5 20.5q0 12 6.5 24.5t20.5 23.5q6 6 16.5 9l21 6t20.5 6.5t16 9.5q9 9 23 31.5t21 52.5l31 152q6 29 -3 41.5t-21.5 22t-24.5 24t-12 47.5q0 24 15.5 35t35.5 20.5t38 23t24 42.5q2 12 8 36.5t13 50.5t14 49t13 32q21 34 56 53t75 19q36 0 62 -16.5t26 -38.5
q0 -25 -27 -49q-7 -5 -16.5 -7.5t-19 -4.5t-18.5 -4.5t-15 -8.5q-8 -7 -16.5 -18t-14.5 -27q-5 -15 -7.5 -33t-6.5 -33z" />
    <glyph glyph-name="quotedblbase" unicode="&#x201e;" horiz-adv-x="456" 
d="M212 88q0 58 -55 58q-23 0 -39.5 -20.5t-28 -47.5t-17 -54.5t-5.5 -41.5q0 -34 11.5 -51.5t40.5 -17.5q12 0 28.5 21.5t30.5 51t24 58.5t10 44zM416 87q0 36 -13 47.5t-42 11.5q-22 0 -38.5 -20.5t-28 -47.5t-17 -54.5t-5.5 -41.5q0 -34 12 -51.5t39 -17.5q13 0 29 21.5
t30.5 50.5t24 58t9.5 44z" />
    <glyph glyph-name="ellipsis" unicode="&#x2026;" horiz-adv-x="490" 
d="M186 63q0 14 -5.5 26.5t-15 22t-22 15t-25.5 5.5q-29 0 -47.5 -21t-18.5 -48q0 -26 20 -46t46 -20q12 0 24.5 5.5t22 14.5t15.5 21t6 25zM325 63q0 14 -5.5 26.5t-15 22t-22 15t-25.5 5.5q-29 0 -47.5 -21t-18.5 -48q0 -26 20 -46t46 -20q12 0 24.5 5.5t22 14.5t15.5 21
t6 25zM465 63q0 14 -5.5 26.5t-15 22t-22 15t-25.5 5.5q-29 0 -47.5 -21t-18.5 -48q0 -26 20 -46t46 -20q12 0 24.5 5.5t22 14.5t15.5 21t6 25z" />
    <glyph glyph-name="dagger" unicode="&#x2020;" horiz-adv-x="600" 
d="M392 602q-20 20 -25.5 48.5t-8.5 53.5q-2 18 -4 33t-7.5 26t-15.5 17.5t-27 6.5q-14 0 -22.5 -6t-13.5 -16t-7.5 -24.5t-3.5 -30.5q-2 -26 -8.5 -56t-27.5 -51q-15 -15 -39.5 -18.5t-46.5 -4.5q-17 -1 -31.5 -2t-25 -6t-17 -14.5t-6.5 -26.5t6 -26.5t16.5 -15t24.5 -7.5
t31 -3q23 -2 50 -6.5t47 -24.5q7 -7 12 -36.5t8.5 -72.5t5.5 -95.5t4 -105.5q2 -57 4.5 -110t8 -94t16 -65.5t27.5 -24.5q16 0 25.5 24t14 64t5.5 92.5t1 108.5q0 53 1 106t3 96.5t6 73t11 36.5q20 20 48 25.5t52 7.5q33 3 55.5 11t22.5 38q0 19 -7 29t-19.5 15.5t-29 7
t-34.5 3.5q-23 2 -45.5 5.5t-33.5 14.5z" />
    <glyph glyph-name="daggerdbl" unicode="&#x2021;" horiz-adv-x="600" 
d="M395 272q-18 17 -24.5 39t-8.5 44v3q0 2 0.5 3t0.5 3q2 24 6.5 48t18.5 38q20 20 48 25t52 7q33 3 55.5 11t22.5 38q0 19 -7 29t-19.5 15.5t-29 7t-34.5 3.5q-23 2 -45.5 5.5t-33.5 14.5q-20 20 -25.5 48.5t-8.5 53.5q-2 18 -4 33t-7.5 26t-15.5 17.5t-27 6.5
q-14 0 -22.5 -6t-13.5 -16t-7.5 -24.5t-3.5 -30.5q-2 -26 -8.5 -56t-27.5 -51q-15 -15 -39.5 -18.5t-46.5 -4.5q-17 -1 -31.5 -2t-25 -6t-17 -14.5t-6.5 -26.5t6 -26.5t16.5 -15t24.5 -7.5t31 -3q23 -2 50 -6.5t47 -24.5q13 -14 18 -34.5t7 -40.5q-2 -26 -9 -55.5t-27 -49.5
q-15 -15 -39.5 -18.5t-46.5 -4.5q-17 -1 -31.5 -2t-25 -6t-17 -14.5t-6.5 -26.5t6 -26.5t16.5 -15t24.5 -7.5t31 -3q23 -2 50 -6.5t47 -24.5q7 -8 12 -22.5t7.5 -33t4 -39.5t3.5 -42q2 -26 4 -49.5t7 -41.5t15 -28.5t27 -10.5q16 0 25.5 10.5t14.5 28t6.5 41t2.5 49.5
q1 21 2.5 42t3.5 39.5t6.5 32.5t11.5 21q20 20 48 25.5t52 7.5q33 3 55.5 11t22.5 38q0 19 -7 29t-19.5 15.5t-29 7t-34.5 3.5q-23 2 -45.5 5.5t-33.5 14.5v1z" />
    <glyph glyph-name="circumflex" unicode="&#x2c6;" horiz-adv-x="425" 
d="M326 608q16 0 23 9t7 23q0 10 -12.5 31.5t-32.5 43t-44 37.5t-46 16q-24 0 -46.5 -16t-40 -38t-28 -43.5t-10.5 -32.5q0 -10 8 -20t19 -10q23 0 38.5 13t29.5 27q8 8 16.5 15.5t13.5 7.5t13 -7t18 -16q16 -14 33.5 -27t40.5 -13z" />
    <glyph glyph-name="perthousand" unicode="&#x2030;" horiz-adv-x="944" 
d="M403 522q0 40 -14.5 76.5t-40.5 64t-61 43.5t-76 16q-40 0 -74.5 -16.5t-59.5 -44t-39 -63.5t-14 -76q0 -38 15.5 -71t41.5 -57t59.5 -38t70.5 -14q38 0 73 13.5t61.5 37.5t42 57t15.5 72zM945 501q0 28 -12 62t-35.5 62.5t-58.5 48t-81 19.5q-43 0 -78 -14.5t-60 -40.5
t-39 -61.5t-14 -77.5q0 -36 14.5 -69.5t40 -59.5t60 -41.5t73.5 -15.5t73.5 14t60.5 38.5t41 59t15 76.5zM728 122q0 28 -12 62t-35.5 62.5t-58.5 48t-81 19.5q-43 0 -78 -14.5t-60 -40.5t-39 -61.5t-14 -77.5q0 -36 14.5 -69.5t40 -59.5t60 -41.5t73.5 -15.5t73.5 14
t60.5 38.5t41 59t15 76.5zM576 600q16 29 30.5 56t14.5 46q0 14 -17 31q-12 0 -26.5 -12t-28 -28.5t-24.5 -34t-17 -28.5l-265 -470q1 2 -1.5 -1.5t-4.5 -7.5q-6 -9 -13 -21.5t-14 -26t-11.5 -26.5t-4.5 -23q0 -14 17 -31q15 0 30.5 12t28.5 27.5t22 30t12 20.5zM668 493
q0 42 22.5 70t63.5 28q39 0 64.5 -25t25.5 -64q0 -37 -22.5 -62.5t-67.5 -25.5q-20 0 -35.5 7t-27 18.5t-17.5 25.5t-6 28zM451 114q0 42 22.5 70t63.5 28q39 0 64.5 -25t25.5 -64q0 -37 -22.5 -62.5t-67.5 -25.5q-20 0 -35.5 7t-27 18.5t-17.5 25.5t-6 28zM125 522
q0 19 6.5 37t18 31.5t27 21.5t34.5 8q18 0 34.5 -8t28.5 -21.5t19.5 -31t7.5 -37.5q0 -16 -7 -30.5t-19.5 -25t-29 -17t-34.5 -6.5q-17 0 -32.5 6.5t-27.5 17t-19 25t-7 30.5z" />
    <glyph glyph-name="Scaron" unicode="&#x160;" horiz-adv-x="520" 
d="M159 918q-16 0 -23 -9t-7 -23q0 -8 7.5 -23t20 -31.5t29 -32.5t34.5 -27q-34 -8 -68.5 -23.5t-63 -41.5t-47 -64.5t-18.5 -91.5q0 -54 17.5 -90t46 -60t64.5 -39.5t72 -29.5q27 -10 52 -20.5t44.5 -25t31 -33.5t11.5 -46q0 -41 -33 -67.5t-85 -26.5h-5q-26 0 -43 5.5
t-31 12.5q-15 6 -28 11t-33 5q-8 0 -18.5 -3t-20.5 -9.5t-16.5 -18t-6.5 -29.5q0 -25 19 -44t48 -32t64 -19.5t67 -6.5q58 0 108 16t87.5 46t59 74t21.5 100t-19 93.5t-49 63t-67 42.5t-74 31q-26 10 -49.5 19.5t-41.5 22.5t-29 29.5t-11 40.5q0 45 31.5 67.5t76.5 22.5
q16 0 27 -0.5t18 -2t11 -3t8 -2.5q9 -4 20.5 -7t34.5 -3q26 0 43.5 18t17.5 41q0 40 -41.5 61t-104.5 25q15 12 28 27t22.5 30.5t15 29t5.5 21.5q0 10 -8.5 20t-18.5 10q-23 0 -38.5 -13t-29.5 -27q-9 -9 -17 -16t-13 -7t-13.5 7t-18.5 16q-16 14 -33.5 27t-39.5 13z" />
    <glyph glyph-name="guilsinglleft" unicode="&#x2039;" horiz-adv-x="304" 
d="M203 445l-83 -46q-4 -2 -8 -4.5t-8 -4.5h1q-15 -8 -28.5 -16t-24 -18t-17 -23t-6.5 -31q0 -17 7 -29.5t18.5 -23t25 -19t26.5 -15.5q5 -2 9.5 -5t9.5 -6l77 -46q17 -11 34 -17.5t29 -6.5q32 0 32 33q0 23 -12 34t-27 22q-2 2 -4 3t-4 3l-42 28q-14 10 -26 20t-12 25
q0 16 11 25t25 18l45 29q19 13 33 26t14 41q0 31 -31 31q-13 0 -30 -8t-35 -19h1z" />
    <glyph glyph-name="OE" unicode="&#x152;" horiz-adv-x="1000" 
d="M988 690q0 35 -28 49t-88 14h-232q-20 0 -34.5 -1t-25.5 -3q-82 31 -171 31q-95 0 -168 -31.5t-123 -87t-76 -130.5t-26 -162q0 -78 27.5 -148t79 -123t124 -84.5t162.5 -31.5q86 0 162 28q15 -5 36.5 -6t51.5 -1h202q70 0 107.5 11t37.5 47q0 21 -10 34t-28 20.5
t-43.5 10t-56.5 2.5h-113q-22 0 -41.5 3.5t-34.5 13.5t-23.5 28.5t-8.5 47.5q0 37 7.5 58.5t21.5 32.5t33.5 13.5t44.5 2.5h83q26 0 49.5 1.5t41.5 7.5t28.5 18t10.5 33q0 42 -35 53t-95 11h-75q-21 0 -41.5 2t-36.5 10.5t-25.5 24.5t-9.5 44q0 33 8.5 51.5t24 28t37 12
t47.5 2.5h65q33 0 62 2t50 8.5t33 19t12 33.5zM162 369q0 69 21 122t55.5 89.5t79 55t91.5 18.5q50 0 98 -17q0 -111 -0.5 -191.5t-1 -137t-0.5 -92.5v-57v-35q-42 -16 -96 -16q-59 0 -105 24t-77.5 62t-48 84t-16.5 91z" />
    <glyph glyph-name="quoteleft" unicode="&#x2018;" horiz-adv-x="267" 
d="M79 593q0 -36 13 -47.5t42 -11.5q22 0 39 20.5t28.5 47.5t17 54.5t5.5 41.5q0 34 -11.5 51.5t-40.5 17.5q-12 0 -28.5 -21.5t-30.5 -50.5t-24 -58t-10 -44z" />
    <glyph glyph-name="quoteright" unicode="&#x2019;" horiz-adv-x="260" 
d="M234 706q0 31 -12.5 44.5t-42.5 13.5q-22 0 -39 -20.5t-28 -47.5t-17 -54t-6 -41q0 -40 10.5 -54.5t41.5 -14.5q12 0 28.5 21.5t30.5 50.5t24 58t10 44z" />
    <glyph glyph-name="quotedblleft" unicode="&#x201c;" horiz-adv-x="443" 
d="M263 593q0 -36 13 -47.5t42 -11.5q22 0 39 20.5t28 47.5t17 54.5t6 41.5q0 34 -11.5 51.5t-40.5 17.5q-12 0 -28.5 -21.5t-30.5 -50.5t-24 -58t-10 -44zM59 593q0 -36 13 -47.5t42 -11.5q22 0 38.5 20.5t28 47.5t17 54.5t5.5 41.5q0 35 -11 52t-40 17q-13 0 -29 -21.5
t-30.5 -50.5t-24 -58t-9.5 -44z" />
    <glyph glyph-name="quotedblright" unicode="&#x201d;" horiz-adv-x="456" 
d="M212 709q0 58 -55 58q-23 0 -39.5 -20.5t-28 -47.5t-17 -54.5t-5.5 -41.5q0 -34 11.5 -51.5t40.5 -17.5q12 0 28.5 21.5t30.5 51t24 58.5t10 44zM416 708q0 36 -13 47.5t-42 11.5q-22 0 -38.5 -20.5t-28 -47.5t-17 -54.5t-5.5 -41.5q0 -34 12 -51.5t39 -17.5
q13 0 29 21.5t30.5 50.5t24 58t9.5 44z" />
    <glyph glyph-name="bullet" unicode="&#x2022;" horiz-adv-x="301" 
d="M298 356q0 27 -9.5 51t-27 42t-42 28.5t-54.5 10.5t-54.5 -10t-42 -28t-27 -42t-9.5 -52t10 -52.5t28 -42.5t42 -28t53 -10q28 0 52.5 10t42.5 28t28 42t10 53zM160 356q0 3 4 3t4 -3q0 -4 -4 -4t-4 4z" />
    <glyph glyph-name="endash" unicode="&#x2013;" horiz-adv-x="640" 
d="M157 364q-18 0 -34.5 -2.5t-29.5 -8.5t-20.5 -16t-7.5 -25q0 -16 8 -25.5t20.5 -14t29 -6t34.5 -1.5h350q17 0 34 2t30.5 7.5t21.5 14.5t8 23q0 16 -8.5 26t-22 16t-30 8t-33.5 2h-350z" />
    <glyph glyph-name="emdash" unicode="&#x2014;" horiz-adv-x="704" 
d="M118 364q-18 0 -34.5 -2.5t-29.5 -8.5t-20.5 -16t-7.5 -25q0 -16 8 -25.5t20.5 -14t29 -6t34.5 -1.5h496q17 0 34 2t30.5 7.5t21.5 14.5t8 23q0 16 -8 26t-21.5 16t-30.5 8t-34 2h-496z" />
    <glyph glyph-name="tilde" unicode="&#x2dc;" horiz-adv-x="362" 
d="M263 660h-6q-13 0 -25.5 5t-25.5 10q-17 8 -35 14t-42 6h-11q-5 0 -10 -1h1q-38 -5 -52 -25t-14 -40q0 -2 0.5 -4.5t0.5 -4.5q4 -21 13.5 -29t26.5 -8q2 0 5.5 0.5t5.5 0.5q5 1 9 2t11 3q4 2 8 2.5t8 1.5q5 1 10 1.5t7 0.5q15 0 26.5 -5t22.5 -10q15 -8 31 -14t38 -6h10
q6 0 11 1h-1q23 3 42.5 21.5t19.5 44.5v8q-5 21 -14.5 29t-24.5 8h-5q-5 -2 -11 -3.5t-11 -3.5q-3 -2 -7 -2.5t-9 -1.5z" />
    <glyph glyph-name="trademark" unicode="&#x2122;" horiz-adv-x="1030" 
d="M530 767q-16 0 -31 -8.5t-26 -22t-18 -30.5t-7 -34q0 -11 0.5 -36t2.5 -54q1 -23 2 -46.5t2 -44.5t1.5 -37t0.5 -25q0 -38 15 -52.5t38 -14.5q15 0 24.5 6.5t15.5 17t9 24t6 27.5h-1q4 18 9 34.5t14 16.5q13 0 21 -15t16 -34q6 -15 13 -29.5t16 -26.5t22.5 -19t33.5 -7
q17 0 29.5 7t21.5 18t16 25.5t13 29.5q8 19 16 35t19 16t16.5 -16t9.5 -34h-1q3 -14 6.5 -27.5t10 -24t16.5 -16.5t25 -6t25 8.5t16 21t8.5 26.5t2.5 25v26q0 17 1 39q1 32 2 68.5t1 66.5v9q0 15 -1.5 34t-10 36.5t-25.5 29t-47 11.5h-2q-30 0 -49 -11t-31.5 -29t-20 -40.5
t-13.5 -45.5q-5 -15 -9.5 -29.5t-10.5 -25.5t-14.5 -18t-20.5 -7q-14 0 -23.5 7t-16.5 18.5t-11.5 26.5t-8.5 30q-6 23 -13.5 45.5t-20 40.5t-33 29t-51.5 11zM239 771h-4q-27 0 -51.5 -2t-43.5 -7.5t-30 -16t-11 -28.5q0 -17 8.5 -25t21.5 -17q9 -6 19 -14.5t18.5 -20.5
t14.5 -28.5t6 -39.5v-125q0 -12 3 -27t9 -27.5t16.5 -21t25.5 -8.5q14 0 24 8t16 20.5t8.5 27t2.5 26.5v128q0 43 18 65t34 34q14 11 23 20.5t9 25.5q0 18 -12.5 28.5t-32.5 16t-44.5 7t-47.5 1.5z" />
    <glyph glyph-name="scaron" unicode="&#x161;" horiz-adv-x="405" 
d="M103 692q-16 0 -23 -9t-7 -23q0 -10 10.5 -29t28 -38.5t38.5 -36.5t42 -22q-31 -4 -62 -15t-55.5 -30.5t-39.5 -47.5t-15 -66q0 -40 13 -66t34 -43.5t48 -28t54 -19.5q19 -6 36.5 -13t31 -16t21.5 -21t8 -30q0 -8 -3.5 -17.5t-11.5 -17.5t-20.5 -13.5t-30.5 -5.5
q-14 0 -27.5 3t-24.5 8q-11 3 -20.5 6t-20.5 3q-20 0 -36 -8.5t-16 -36.5q0 -19 15 -32.5t36.5 -21.5t45.5 -12t43 -4q55 0 96.5 12.5t69.5 33t41.5 47.5t13.5 56q0 45 -13.5 74.5t-35.5 48.5t-49.5 30.5t-54.5 20.5h1q-17 6 -33 12t-28.5 14.5t-20 20t-7.5 28.5
q0 12 6.5 19.5t14.5 12t16.5 6.5t12.5 2q8 0 15.5 -1t15.5 -3v1q16 -4 34 -4q24 0 42 9.5t18 36.5q0 16 -13 29t-32 22t-39.5 13.5t-35.5 5.5q21 7 39.5 24t32.5 36.5t22.5 37.5t8.5 28t-8.5 20t-18.5 10q-23 0 -38.5 -13t-29.5 -27q-9 -9 -17 -16t-13 -7t-13.5 7t-18.5 16
q-16 14 -33.5 27t-39.5 13z" />
    <glyph glyph-name="guilsinglright" unicode="&#x203a;" horiz-adv-x="304" 
d="M123 445h1q-18 11 -35.5 19t-29.5 8q-31 0 -31 -31q0 -29 14 -42t32 -25l46 -29q14 -9 25 -18t11 -25q0 -15 -12 -25t-26 -20l-42 -28q-2 -2 -4 -3t-4 -3q-15 -11 -27 -22t-12 -34q0 -33 32 -33q12 0 29 6.5t34 17.5l76 46q5 3 9.5 6t9.5 5q13 7 27 15.5t25.5 19t18.5 23
t7 29.5q0 18 -6.5 31t-17 23t-24 18t-28.5 16h1q-4 2 -8.5 4.5t-8.5 4.5z" />
    <glyph glyph-name="oe" unicode="&#x153;" horiz-adv-x="908" 
d="M911 316q0 49 -18.5 89.5t-49.5 70t-71.5 45.5t-85.5 16q-140 0 -201 -79q-39 37 -91 56.5t-108 19.5q-53 0 -103 -18.5t-89 -54t-62.5 -86t-23.5 -114.5q0 -63 22.5 -113t60.5 -85t88.5 -53.5t106.5 -18.5q69 0 123 25t91 67q29 -35 71 -55t95 -20h3q45 0 77 9t52 22
t29 26.5t9 22.5q0 25 -10.5 38t-36.5 13q-16 0 -31 -5t-30 -11q-14 -5 -29 -10t-35 -5q-17 0 -35 5t-34 14.5t-26 23.5t-10 32q0 17 9.5 28t24 17.5t31.5 9t32 2.5q32 0 56.5 -3t43.5 -5q13 -2 24 -3t25 -1q51 0 78.5 24t27.5 64zM144 261q0 31 11 58.5t30 48.5t45 33t56 12
q29 0 55 -11t45.5 -31t31 -48t11.5 -62q0 -32 -12 -59t-32 -46.5t-46 -30.5t-53 -11q-33 0 -59 13t-44.5 33.5t-28.5 47t-10 53.5zM557 374q0 15 7.5 29.5t20 25.5t29.5 17.5t35 6.5q19 0 38.5 -5.5t35.5 -16t25.5 -25.5t9.5 -34q0 -30 -28.5 -43t-68.5 -13q-15 0 -33.5 2.5
t-34 9t-26 17.5t-10.5 29z" />
    <glyph glyph-name="Ydieresis" unicode="&#x178;" horiz-adv-x="551" 
d="M293 510q-26 0 -47.5 27.5t-41.5 63.5l-25 44v-1q-12 22 -25 41.5t-28.5 34.5t-33.5 23.5t-40 8.5q-17 0 -28 -6t-17 -15t-8.5 -20.5t-2.5 -21.5q0 -21 15.5 -50t39.5 -64l83 -120q35 -50 59 -101.5t24 -96.5v-160q0 -41 19 -67.5t50 -26.5q17 0 30 8.5t22 22t13.5 31
t4.5 35.5v165q0 20 7 43t18.5 48t27 51t33.5 52l86 126q23 33 37 60.5t14 46.5q0 18 -5.5 29t-13.5 17t-17.5 8t-17.5 2q-38 0 -67 -29.5t-53 -70.5l-27 -46q-22 -36 -43 -64t-42 -28zM408 920q-32 0 -47 -18.5t-15 -40.5q0 -24 16 -43.5t46 -19.5q31 0 48.5 19.5t17.5 43.5
q0 22 -15.5 40.5t-50.5 18.5zM189 920q-32 0 -47 -18.5t-15 -40.5q0 -24 16 -43.5t46 -19.5q32 0 48.5 19.5t16.5 43.5q0 22 -15.5 40.5t-49.5 18.5z" />
    <glyph glyph-name="exclamdown" unicode="&#xa1;" horiz-adv-x="269" 
d="M87 -16q0 -17 2.5 -36t10 -36t20 -28t32.5 -11q22 0 35 11.5t19.5 28.5t8 36t1.5 35v301q0 21 -2.5 42t-10 38t-20 28t-31.5 11t-31.5 -11.5t-20 -28.5t-10.5 -38.5t-3 -40.5v-301zM152 637q-27 0 -47.5 -18t-20.5 -46q0 -29 19.5 -48.5t48.5 -19.5q28 0 47 20.5t19 47.5
t-20 45.5t-46 18.5z" />
    <glyph glyph-name="cent" unicode="&#xa2;" horiz-adv-x="438" 
d="M285 646q-21 0 -38 -13t-33 -27q-8 -7 -14 -12t-11 -7q-18 -7 -46 -22.5t-55 -44.5t-46.5 -75.5t-19.5 -114.5q0 -67 20 -112t46.5 -73.5t52.5 -43t37 -19.5h-1q1 -1 2.5 -1.5t-0.5 1.5q21 -14 32 -23.5t19 -16.5h-1q16 -14 27.5 -21t36.5 -7q28 0 39 9.5t21 23.5
q5 6 10 12.5t15 11.5l-1 -1l21 10.5t20 13.5t14.5 19.5t5.5 27.5q0 28 -15 36.5t-36 13.5h2l-14 4t-11 5q-8 5 -11.5 10.5t-5.5 9.5q-4 7 -7.5 13t-8.5 10t-13.5 6.5t-22.5 2.5q-20 0 -29.5 -6.5t-17.5 -17.5q-3 -5 -9.5 -9t-28.5 -4q-6 0 -16.5 5.5t-21 18t-19 34.5
t-8.5 55q0 22 4.5 44.5t13 39.5t19.5 28t23 11q16 0 21 -4t9 -9v1q8 -13 20 -23t43 -10q22 0 30.5 12t16.5 28q4 8 7.5 14.5t7.5 7.5q2 1 6.5 1.5t9.5 1.5q12 3 23 5.5t20 8.5t14 16t5 27q0 15 -6 26.5t-15 19t-19 12.5t-17 8l-1 0.5t-3 2.5q-6 3 -16 12q-14 13 -33.5 25
t-42.5 12z" />
    <glyph glyph-name="sterling" unicode="&#xa3;" horiz-adv-x="594" 
d="M584 693q0 18 -17 32.5t-41.5 25t-52 16t-49.5 5.5q-40 0 -69.5 -7.5t-51 -18.5t-36 -23t-23.5 -21q-13 -13 -25.5 -30.5t-22 -38.5t-15 -44.5t-5.5 -47.5q0 -43 -12.5 -65t-25.5 -36q-12 -14 -21 -27.5t-9 -33.5q0 -18 7 -28t18 -21q6 -6 12.5 -13t12 -19.5t9.5 -31
t4 -46.5q0 -30 -4 -49.5t-10 -31.5t-13 -19t-13 -12q-13 -10 -21.5 -20t-8.5 -32q0 -20 11.5 -32t28.5 -18.5t37 -9t37 -2.5h45q18 0 39.5 1t54 2.5t90.5 4.5q16 0 35.5 1.5t36.5 6.5t29 14.5t12 27.5q0 13 -10.5 21.5t-26.5 14t-34.5 7.5t-34.5 2q-32 0 -59 5.5t-46.5 20
t-30 38.5t-10.5 62v3q0 36 11.5 58.5t28.5 35.5t35.5 19t33.5 9q19 4 32.5 8.5t13.5 25.5q0 10 -3.5 15.5t-9.5 8.5t-14 5t-18 4q-14 3 -33 9t-36 16.5t-28.5 28.5t-11.5 45q0 18 7 41.5t22 44.5t39 36t59 15q5 0 14.5 -1.5t21.5 -3.5q14 -2 26 -4.5t27 -2.5q26 0 44 10.5
t18 43.5z" />
    <glyph glyph-name="currency" unicode="&#xa4;" horiz-adv-x="697" 
d="M23 474q0 -23 16.5 -34.5t41.5 -16.5q-1 -12 -1 -25v-25q0 -27 3 -54q-35 -1 -62 -16t-27 -44q0 -14 8 -24t20.5 -17t29 -10t34.5 -3h30q19 -44 50.5 -83.5t75.5 -69.5t102 -48t131 -18q62 0 107 12.5t74.5 30.5t43.5 37.5t14 32.5q0 28 -12.5 47t-49.5 19q-21 0 -38 -7
t-35 -17q-19 -11 -43.5 -20t-63.5 -9q-60 0 -107.5 25.5t-79.5 67.5h107q17 0 34 4t30.5 11.5t21.5 17t8 21.5q0 15 -8.5 26t-22 18.5t-30 11.5t-33.5 4h-160q-7 31 -7 66v17t2 18h194q17 0 34 4t30.5 11t21.5 17t8 22q0 15 -8.5 26t-22 18.5t-30 11.5t-33.5 4h-157
q35 57 91.5 89.5t119.5 32.5q33 0 55.5 -7t39.5 -15q15 -7 29 -12t31 -5q33 0 48 14.5t15 46.5q0 17 -16 35.5t-45 33.5t-69 24.5t-89 9.5q-132 0 -229.5 -63.5t-139.5 -183.5q-33 -2 -57.5 -17.5t-24.5 -42.5z" />
    <glyph glyph-name="currency" unicode="&#x20ac;" horiz-adv-x="697" 
d="M23 474q0 -23 16.5 -34.5t41.5 -16.5q-1 -12 -1 -25v-25q0 -27 3 -54q-35 -1 -62 -16t-27 -44q0 -14 8 -24t20.5 -17t29 -10t34.5 -3h30q19 -44 50.5 -83.5t75.5 -69.5t102 -48t131 -18q62 0 107 12.5t74.5 30.5t43.5 37.5t14 32.5q0 28 -12.5 47t-49.5 19q-21 0 -38 -7
t-35 -17q-19 -11 -43.5 -20t-63.5 -9q-60 0 -107.5 25.5t-79.5 67.5h107q17 0 34 4t30.5 11.5t21.5 17t8 21.5q0 15 -8.5 26t-22 18.5t-30 11.5t-33.5 4h-160q-7 31 -7 66v17t2 18h194q17 0 34 4t30.5 11t21.5 17t8 22q0 15 -8.5 26t-22 18.5t-30 11.5t-33.5 4h-157
q35 57 91.5 89.5t119.5 32.5q33 0 55.5 -7t39.5 -15q15 -7 29 -12t31 -5q33 0 48 14.5t15 46.5q0 17 -16 35.5t-45 33.5t-69 24.5t-89 9.5q-132 0 -229.5 -63.5t-139.5 -183.5q-33 -2 -57.5 -17.5t-24.5 -42.5z" />
    <glyph glyph-name="yen" unicode="&#xa5;" horiz-adv-x="551" 
d="M134 404q-36 0 -64 -15.5t-28 -44.5q0 -14 8 -24.5t20.5 -17t29 -9.5t34.5 -3h79q2 -7 2.5 -13.5t1.5 -12.5h-85q-36 0 -64 -15.5t-28 -44.5q0 -14 8 -24t20.5 -17t29 -10t34.5 -3h85v-53q0 -41 19 -67.5t50 -26.5q17 0 30 8.5t22 22t13.5 31t4.5 35.5v50h82q17 0 34 4
t30.5 11.5t21.5 17t8 21.5q0 15 -8.5 26t-22 18.5t-30 11.5t-33.5 4h-82v1v12t2 13h82q17 0 34 4t30.5 11t21.5 17t8 22q0 15 -8.5 26t-22 18.5t-30 11.5t-33.5 4h-34q8 14 17 27.5t19 27.5l86 126q23 33 37 60.5t14 46.5q0 18 -5.5 29t-13.5 17t-17.5 8t-17.5 2
q-38 0 -67 -29.5t-53 -70.5l-27 -46q-22 -36 -43 -64t-42 -28q-26 0 -47.5 27.5t-41.5 63.5l-25 44v-1q-12 22 -25 41.5t-28.5 34.5t-33.5 23.5t-40 8.5q-17 0 -28 -6t-17 -15t-8.5 -20.5t-2.5 -21.5q0 -21 15.5 -50t39.5 -64l83 -120q9 -13 17 -26t15 -25h-32z" />
    <glyph glyph-name="brokenbar" unicode="&#xa6;" horiz-adv-x="239" 
d="M227 138q0 35 -4 67.5t-14.5 57.5t-29.5 40t-50 15q-29 0 -47.5 -15t-29.5 -40t-15.5 -57.5t-4.5 -67.5t6.5 -67.5t18.5 -57.5t30 -39.5t42 -14.5q30 0 49 14.5t30 39.5t15 57.5t4 67.5zM227 587q0 35 -4 67.5t-14.5 57.5t-29.5 40t-50 15q-29 0 -47.5 -15t-29.5 -40
t-15.5 -57.5t-4.5 -67.5t6.5 -67.5t18.5 -57t30 -39.5t42 -15q30 0 49 15t30 39.5t15 57t4 67.5z" />
    <glyph glyph-name="section" unicode="&#xa7;" horiz-adv-x="470" 
d="M284 753q-34 0 -70 -9t-66 -28.5t-49.5 -50t-19.5 -73.5q0 -28 6.5 -48t18.5 -36q-36 -19 -60 -51t-24 -82q0 -40 13 -66t34 -43.5t48 -28t54 -19.5q19 -6 36.5 -13t31 -16t21.5 -21t8 -30q0 -8 -3.5 -17.5t-11.5 -17.5t-20.5 -13.5t-30.5 -5.5q-14 0 -27.5 3t-24.5 8
q-11 3 -20.5 6t-20.5 3q-20 0 -36 -8.5t-16 -36.5q0 -19 15 -32.5t36.5 -21.5t45.5 -12t43 -4q55 0 96.5 12.5t69.5 33t41.5 47.5t13.5 56q0 30 -7 53.5t-19 40.5q43 21 64 53.5t21 69.5q0 45 -13.5 74.5t-35.5 48.5t-49.5 30.5t-54.5 20.5h1q-17 6 -33 12t-28.5 14.5
t-20 20t-7.5 28.5q0 12 6.5 19.5t14.5 12t16.5 6.5t12.5 2q8 0 15.5 -1t15.5 -3v1q16 -4 34 -4q24 0 42 9.5t18 36.5q0 17 -14.5 30t-34.5 22t-41 13.5t-35 4.5zM175 387q0 12 6.5 19.5t14.5 12t16.5 6.5t12.5 2q8 0 14.5 -1t11.5 -2q3 -1 6 -1q4 0 7 -1l-2 1
q26 -11 44.5 -25.5t18.5 -42.5q0 -13 -9.5 -29t-30.5 -23q-6 2 -11.5 4.5t-10.5 4.5h1q-17 6 -33 12t-28.5 14.5t-20 20t-7.5 28.5z" />
    <glyph glyph-name="dieresis" unicode="&#xa8;" horiz-adv-x="529" 
d="M403 764q-32 0 -47 -18.5t-15 -40.5q0 -24 16 -43.5t46 -19.5q31 0 48.5 19.5t17.5 43.5q0 22 -15.5 40.5t-50.5 18.5zM184 764q-32 0 -47 -18.5t-15 -40.5q0 -24 16 -43.5t46 -19.5q32 0 48.5 19.5t16.5 43.5q0 22 -15.5 40.5t-49.5 18.5z" />
    <glyph glyph-name="copyright" unicode="&#xa9;" horiz-adv-x="898" 
d="M836 392q0 62 -17.5 114t-47 93.5t-68.5 73t-82.5 52.5t-89 31.5t-86.5 10.5q-38 0 -81.5 -10.5t-86 -32t-81.5 -53t-69 -74t-47.5 -96t-17.5 -117.5q0 -74 28.5 -144t79.5 -124t122 -86.5t156 -32.5q78 0 148 28t123.5 80t85 125t31.5 162zM447 700q73 0 129.5 -30
t95 -76.5t58.5 -104t20 -112.5q0 -57 -23 -113.5t-63.5 -101t-96 -72.5t-119.5 -28q-60 0 -113.5 27t-93.5 71t-63.5 100t-23.5 114q0 66 21.5 125t60 103.5t92 71t117.5 26.5h2zM450 597q-60 0 -97 -21t-58 -52t-28.5 -67t-7.5 -65q0 -44 11.5 -84.5t35.5 -71t61 -48.5
t88 -18q25 0 49.5 7t43.5 17.5t30.5 22t11.5 21.5q0 11 -8.5 23.5t-25.5 12.5q-9 0 -15.5 -4t-15.5 -9t-22.5 -11.5t-36.5 -6.5q-25 0 -45.5 11.5t-35.5 31t-23.5 44.5t-8.5 51q0 28 7.5 54t21 46t32 31.5t41.5 11.5q22 0 40 -6.5t31 -12.5q10 -5 17.5 -8t17.5 -3
q13 0 24.5 7.5t11.5 29.5q0 10 -10.5 22t-30 21.5t-46.5 16t-60 6.5z" />
    <glyph glyph-name="ordfeminine" unicode="&#xaa;" horiz-adv-x="396" 
d="M381 598q0 82 -39 124t-111 42q-36 0 -65.5 -8t-50 -18.5t-31.5 -21t-11 -14.5q0 -15 11 -21t20 -6t15.5 1t14.5 3q14 3 31 6.5t36 3.5q7 0 18 -2.5t21 -8t17 -13.5t7 -19q0 -10 -6 -17.5t-15 -12.5t-20 -7.5t-21 -2.5q-28 0 -58.5 -5t-55.5 -18t-41 -36.5t-16 -60.5
q0 -38 15.5 -60.5t35.5 -35t40.5 -16.5t29.5 -4q13 0 37 8.5t52 26.5q23 -14 45 -18t31 -4h1q35 0 49 21.5t14 48.5v145zM148 490q0 15 8.5 26t20 18t23 10t17.5 3q7 0 15.5 -2.5t16 -8t12.5 -13t5 -16.5q0 -18 -11 -35.5t-22 -29.5h-14q-12 0 -24.5 3t-23 9t-17 15t-6.5 21
z" />
    <glyph glyph-name="guillemotleft" unicode="&#xab;" horiz-adv-x="486" 
d="M393 445l-83 -46q-4 -2 -8 -4.5t-8 -4.5h1q-15 -8 -28.5 -16t-24 -18t-17 -23t-6.5 -31q0 -17 7 -29.5t18.5 -23t25 -19t26.5 -15.5q5 -2 9.5 -5t9.5 -6l77 -46q17 -11 34 -17.5t29 -6.5q32 0 32 33q0 23 -12 34t-27 22q-2 2 -4 3t-4 3l-42 28q-14 10 -26 20t-12 25
q0 16 11 25t25 18l45 29q19 13 33 26t14 41q0 31 -31 31q-13 0 -30 -8t-35 -19h1zM201 446l-83 -46q-4 -2 -8 -4.5t-8 -4.5h1q-15 -8 -28.5 -16t-24 -18t-17 -23t-6.5 -31q0 -17 7 -29.5t18.5 -23t25 -19t26.5 -15.5q5 -2 9.5 -5t9.5 -6l77 -46q17 -11 34 -17.5t29 -6.5
q32 0 32 33q0 23 -12 34t-27 22q-2 2 -4 3t-4 3l-42 28q-14 10 -26 20t-12 25q0 16 11 25t25 18l45 29q19 13 33 26t14 41q0 31 -31 31q-13 0 -30 -8t-35 -19h1z" />
    <glyph glyph-name="logicalnot" unicode="&#xac;" horiz-adv-x="1024" 
d="M41 -4h824q33 0 59 8.5t44 23.5t27.5 34.5t9.5 41.5q0 43 -22.5 68t-59.5 37q25 12 40.5 34.5t15.5 53.5q0 17 -4 31.5t-15 27.5h3v140h-47l-4 -93h-292v188h-231v125h53v48h-415l-9 -106h49l4 58h109v-313h-139v-407zM230 356v360h108v-173h232v-139h-53v-48h2l75 -186
h-192l-20 -47h230l32 -79h-554v312h140zM699 44h-3l-128 312h266q30 0 48 -6.5t28.5 -16t14 -20t3.5 -18.5q0 -28 -25 -46.5t-60 -18.5h-114v-48h103q8 0 28 -1.5t40.5 -8t36.5 -21t16 -40.5t-12.5 -39.5t-32 -20t-42 -7.5t-43.5 -1h-124v1zM914 623h46l-3 140h-294v-221
h153v-51h47v151h-47v-52h-103v125h193zM338 405l13 -178h48l12 178h-73z" />
    <glyph glyph-name="registered" unicode="&#xae;" horiz-adv-x="502" 
d="M500 532q0 66 -20 113t-54 77t-78.5 44t-93.5 14q-57 0 -101.5 -19t-74.5 -52.5t-46 -79t-16 -97.5q0 -47 17 -90t48 -75t75 -51t98 -19q52 0 97 16.5t78 47.5t52 74t19 97zM396 532q0 -29 -10.5 -54.5t-29.5 -45t-45 -31t-57 -11.5h-7q15 21 15 56v71q0 32 6 46.5
t13 20.5q11 11 19.5 15.5t22.5 7.5v-1q14 3 26.5 6.5t20.5 14.5q12 -19 19 -42.5t7 -52.5zM120 532q0 42 14 73t37 51q-5 -11 -5.5 -22t-0.5 -21v-173q0 -10 1 -15q-23 21 -34.5 49.5t-11.5 57.5zM254 688q9 0 18 -1t17 -3q-8 -4 -21 -4q-11 0 -18 3q-4 1 -7.5 2t-7.5 1
q5 1 9.5 1.5t9.5 0.5z" />
    <glyph glyph-name="plusminus" unicode="&#xb1;" horiz-adv-x="547" 
d="M129 190q-36 0 -64 -15t-28 -44q0 -14 8 -24.5t20.5 -17t29 -9.5t34.5 -3h318q17 0 34 4t30.5 11t21.5 17t8 22q0 15 -8 26t-21.5 18.5t-30.5 11t-34 3.5h-128q11 11 14 30.5t5 42.5q2 25 6.5 49.5t18.5 38.5q20 20 48 25t52 7q33 3 55.5 11t22.5 38q0 19 -7 29
t-19.5 15.5t-29 7t-34.5 3.5q-23 2 -45.5 5.5t-33.5 14.5q-20 20 -25.5 48.5t-8.5 53.5q-2 18 -4 33t-7.5 26t-15.5 17.5t-27 6.5q-14 0 -22.5 -6t-13.5 -16t-7.5 -24.5t-3.5 -30.5q-2 -26 -8.5 -56t-27.5 -51q-15 -15 -39.5 -18.5t-46.5 -4.5q-17 -1 -31.5 -2t-25 -6
t-17 -14.5t-6.5 -26.5t6 -26.5t16.5 -15t24.5 -7.5t31 -3q23 -2 50 -6.5t47 -24.5q14 -14 19 -39.5t7 -50.5q2 -23 5 -42.5t14 -30.5h-126z" />
    <glyph glyph-name="acute" unicode="&#xb4;" horiz-adv-x="260" 
d="M234 706q0 31 -12.5 44.5t-42.5 13.5q-22 0 -39 -20.5t-28 -47.5t-17 -54t-6 -41q0 -40 10.5 -54.5t41.5 -14.5q12 0 28.5 21.5t30.5 50.5t24 58t10 44z" />
    <glyph glyph-name="paragraph" unicode="&#xb6;" horiz-adv-x="600" 
d="M530 -75v621q0 39 -23.5 57t-58.5 18h-167q-67 0 -111 -10t-69.5 -33t-36 -59.5t-10.5 -90.5q0 -51 17 -85t43 -54t58 -28t62 -8q1 0 1 -7v-15v-306q0 -14 4 -28.5t12.5 -26.5t20.5 -19.5t28 -7.5q17 0 28.5 7.5t18.5 19.5t10 26.5t3 28.5v502q0 20 7.5 36.5t18.5 16.5
q8 0 14 -15.5t6 -37.5v-502q0 -15 4.5 -29.5t12.5 -26t20 -19t26 -7.5q18 0 30 7t18.5 19t9.5 26.5t3 29.5zM236 430q0 -13 -7 -25.5t-19 -12.5q-13 0 -20 12.5t-7 25.5q0 14 7.5 30t20.5 16t19 -16.5t6 -29.5z" />
    <glyph glyph-name="periodcentered" unicode="&#xb7;" horiz-adv-x="219" 
d="M192 346q0 14 -5.5 26.5t-15 22t-22 15t-25.5 5.5q-29 0 -47.5 -21t-18.5 -48q0 -26 20 -46t46 -20q12 0 24.5 5.5t22 14.5t15.5 21t6 25z" />
    <glyph glyph-name="periodcentered" unicode="&#x2219;" horiz-adv-x="219" 
d="M192 346q0 14 -5.5 26.5t-15 22t-22 15t-25.5 5.5q-29 0 -47.5 -21t-18.5 -48q0 -26 20 -46t46 -20q12 0 24.5 5.5t22 14.5t15.5 21t6 25z" />
    <glyph glyph-name="ordmasculine" unicode="&#xba;" horiz-adv-x="376" 
d="M369 563q0 45 -13.5 77t-37 52.5t-54 30t-63.5 9.5q-39 0 -69 -13t-51 -36t-31.5 -53.5t-10.5 -66.5q0 -32 11.5 -61t32.5 -51t51 -35t67 -13q36 0 66.5 11.5t53 32.5t35.5 50.5t13 65.5zM135 334q-36 0 -64 -15t-28 -44q0 -14 8 -24.5t20.5 -17t29 -9.5t34.5 -3h138
q17 0 34 4t30.5 11t21.5 17t8 22q0 15 -8 26t-21.5 18.5t-30.5 11t-34 3.5h-138zM154 566q0 29 15 45t35 16q23 0 39 -16t16 -45q0 -22 -15.5 -38t-39.5 -16t-37 17.5t-13 36.5z" />
    <glyph glyph-name="guillemotright" unicode="&#xbb;" horiz-adv-x="486" 
d="M123 445h1q-18 11 -35.5 19t-29.5 8q-31 0 -31 -31q0 -29 14 -42t32 -25l46 -29q14 -9 25 -18t11 -25q0 -15 -12 -25t-26 -20l-42 -28q-2 -2 -4 -3t-4 -3q-15 -11 -27 -22t-12 -34q0 -33 32 -33q12 0 29 6.5t34 17.5l76 46q5 3 9.5 6t9.5 5q13 7 27 15.5t25.5 19t18.5 23
t7 29.5q0 18 -6.5 31t-17 23t-24 18t-28.5 16h1q-4 2 -8.5 4.5t-8.5 4.5zM315 446h1q-18 11 -35.5 19t-29.5 8q-31 0 -31 -31q0 -29 14 -42t32 -25l46 -29q14 -9 25 -18t11 -25q0 -15 -12 -25t-26 -20l-42 -28q-2 -2 -4 -3t-4 -3q-15 -11 -27 -22t-12 -34q0 -33 32 -33
q12 0 29 6.5t34 17.5l76 46q5 3 9.5 6t9.5 5q13 7 27 15.5t25.5 19t18.5 23t7 29.5q0 18 -6.5 31t-17 23t-24 18t-28.5 16h1q-4 2 -8.5 4.5t-8.5 4.5z" />
    <glyph glyph-name="questiondown" unicode="&#xbf;" horiz-adv-x="475" 
d="M28 93q0 -44 18 -80t48.5 -61.5t72 -39.5t89.5 -14q53 0 93 17.5t67 41.5t41 49t14 39q0 35 -16.5 48.5t-39.5 13.5q-26 0 -44 -12t-35 -27q-14 -13 -32 -25t-44 -12q-25 0 -41.5 9t-26.5 21.5t-14.5 27.5t-4.5 27q0 37 22.5 68t48.5 60q26 30 47.5 59t21.5 64
q0 26 -12 48.5t-43 22.5q-30 0 -45.5 -20t-29.5 -49q-8 -17 -17.5 -34t-22.5 -29q-2 -2 -4 -3.5t-4 -3.5v1q-13 -12 -31 -31t-35 -44.5t-29 -58.5t-12 -73zM264 666q-32 0 -50.5 -20.5t-18.5 -44.5q0 -26 17 -46.5t52 -20.5q32 0 48 20.5t16 46.5q0 24 -14.5 44.5
t-49.5 20.5z" />
    <glyph glyph-name="Agrave" unicode="&#xc0;" horiz-adv-x="663" 
d="M267 916q0 -14 9 -41.5t22 -55t28.5 -50t27.5 -26.5q-3 0 -6.5 0.5t-6.5 0.5q-23 0 -40 -10t-30.5 -28t-25 -43t-23.5 -54q-4 -9 -7.5 -19t-8.5 -20l-121 -277v1q-2 -5 -4.5 -10l-5.5 -11q-10 -21 -23.5 -50.5t-25.5 -59.5t-20 -57t-8 -44q0 -35 15.5 -48t48.5 -13
q15 0 27.5 8t23 20.5t20 28t17.5 31.5q14 29 25 41q12 12 24 19t27.5 10t35 4t46.5 1h68q24 0 42 -1t32.5 -4t26.5 -9.5t23 -17.5q10 -10 18 -24l16 -28q8 -15 16.5 -29.5t19.5 -26t25.5 -18t34.5 -6.5q19 0 30.5 7t17.5 16t8 18.5t2 15.5v1q0 14 -7 37.5t-17.5 51t-23 55.5
t-22.5 52q-4 8 -7 15.5t-6 13.5v-1l-119 273q-5 12 -9.5 24t-9.5 23q-11 28 -21.5 52t-22.5 42t-27 30t-34 16q29 0 39.5 15t10.5 54q0 14 -6 41t-17 54t-28 47.5t-39 20.5q-30 0 -42.5 -13.5t-12.5 -44.5zM254 340q0 6 3 21.5t8 35t12.5 40t17 38t20 28.5t22.5 11
q19 0 34.5 -23t27 -52.5t17.5 -57t6 -36.5q0 -30 -18 -48t-65 -18q-41 0 -63 14.5t-22 46.5z" />
    <glyph glyph-name="Aacute" unicode="&#xc1;" horiz-adv-x="663" 
d="M486 555q-5 12 -9.5 24t-9.5 23q-13 32 -24.5 58t-25.5 45t-32.5 29t-43.5 10q-23 0 -40 -10t-30.5 -28t-25 -43t-23.5 -54q-4 -9 -7.5 -19t-8.5 -20l-121 -277v1q-2 -5 -4.5 -10l-5.5 -11q-10 -21 -23.5 -50.5t-25.5 -59.5t-20 -57t-8 -44q0 -35 15.5 -48t48.5 -13
q15 0 27.5 8t23 20.5t20 28t17.5 31.5q14 29 25 41q12 12 24 19t27.5 10t35 4t46.5 1h68q24 0 42 -1t32.5 -4t26.5 -9.5t23 -17.5q10 -10 18 -24l16 -28q8 -15 16.5 -29.5t19.5 -26t25.5 -18t34.5 -6.5q19 0 30.5 7t17.5 16t8 18.5t2 15.5v1q0 14 -7 37.5t-17.5 51t-23 55.5
t-22.5 52q-4 8 -7 15.5t-6 13.5v-1zM254 340q0 6 3 21.5t8 35t12.5 40t17 38t20 28.5t22.5 11q19 0 34.5 -23t27 -52.5t17.5 -57t6 -36.5q0 -30 -18 -48t-65 -18q-41 0 -63 14.5t-22 46.5zM412 918q0 31 -12.5 44.5t-42.5 13.5q-22 0 -39 -20.5t-28 -47.5t-17 -54t-6 -41
q0 -40 10.5 -54.5t41.5 -14.5q12 0 28.5 21.5t30.5 50.5t24 58t10 44z" />
    <glyph glyph-name="Acircumflex" unicode="&#xc2;" horiz-adv-x="663" 
d="M486 555q-5 12 -9.5 24t-9.5 23q-13 32 -24.5 58t-25.5 45t-32.5 29t-43.5 10q-23 0 -40 -10t-30.5 -28t-25 -43t-23.5 -54q-4 -9 -7.5 -19t-8.5 -20l-121 -277v1q-2 -5 -4.5 -10l-5.5 -11q-10 -21 -23.5 -50.5t-25.5 -59.5t-20 -57t-8 -44q0 -35 15.5 -48t48.5 -13
q15 0 27.5 8t23 20.5t20 28t17.5 31.5q14 29 25 41q12 12 24 19t27.5 10t35 4t46.5 1h68q24 0 42 -1t32.5 -4t26.5 -9.5t23 -17.5q10 -10 18 -24l16 -28q8 -15 16.5 -29.5t19.5 -26t25.5 -18t34.5 -6.5q19 0 30.5 7t17.5 16t8 18.5t2 15.5v1q0 14 -7 37.5t-17.5 51t-23 55.5
t-22.5 52q-4 8 -7 15.5t-6 13.5v-1zM254 340q0 6 3 21.5t8 35t12.5 40t17 38t20 28.5t22.5 11q19 0 34.5 -23t27 -52.5t17.5 -57t6 -36.5q0 -30 -18 -48t-65 -18q-41 0 -63 14.5t-22 46.5zM441 740q16 0 23 9t7 23q0 10 -12.5 31.5t-32.5 43t-44 37.5t-46 16
q-24 0 -46.5 -16t-40 -38t-28 -43.5t-10.5 -32.5q0 -10 8 -20t19 -10q23 0 38.5 13t29.5 27q8 8 16.5 15.5t13.5 7.5t13 -7t18 -16q16 -14 33.5 -27t40.5 -13z" />
    <glyph glyph-name="Atilde" unicode="&#xc3;" horiz-adv-x="663" 
d="M486 555q-5 12 -9.5 24t-9.5 23q-13 32 -24.5 58t-25.5 45t-32.5 29t-43.5 10q-23 0 -40 -10t-30.5 -28t-25 -43t-23.5 -54q-4 -9 -7.5 -19t-8.5 -20l-121 -277v1q-2 -5 -4.5 -10l-5.5 -11q-10 -21 -23.5 -50.5t-25.5 -59.5t-20 -57t-8 -44q0 -35 15.5 -48t48.5 -13
q15 0 27.5 8t23 20.5t20 28t17.5 31.5q14 29 25 41q12 12 24 19t27.5 10t35 4t46.5 1h68q24 0 42 -1t32.5 -4t26.5 -9.5t23 -17.5q10 -10 18 -24l16 -28q8 -15 16.5 -29.5t19.5 -26t25.5 -18t34.5 -6.5q19 0 30.5 7t17.5 16t8 18.5t2 15.5v1q0 14 -7 37.5t-17.5 51t-23 55.5
t-22.5 52q-4 8 -7 15.5t-6 13.5v-1zM254 340q0 6 3 21.5t8 35t12.5 40t17 38t20 28.5t22.5 11q19 0 34.5 -23t27 -52.5t17.5 -57t6 -36.5q0 -30 -18 -48t-65 -18q-41 0 -63 14.5t-22 46.5zM404 843h-6q-13 0 -25.5 5t-25.5 10q-17 8 -35 14t-42 6h-11q-5 0 -10 -1h1
q-38 -5 -52 -25t-14 -40q0 -2 0.5 -4.5t0.5 -4.5q4 -21 13.5 -29t26.5 -8q2 0 5.5 0.5t5.5 0.5q5 1 9 2t11 3q4 2 8 2.5t8 1.5q5 1 10 1.5t7 0.5q15 0 26.5 -5t22.5 -10q15 -8 31 -14t38 -6h10q6 0 11 1h-1q23 3 42.5 21.5t19.5 44.5v8q-5 21 -14.5 29t-24.5 8h-5
q-5 -2 -11 -3.5t-11 -3.5q-3 -2 -7 -2.5t-9 -1.5z" />
    <glyph glyph-name="Adieresis" unicode="&#xc4;" horiz-adv-x="663" 
d="M486 555q-5 12 -9.5 24t-9.5 23q-13 32 -24.5 58t-25.5 45t-32.5 29t-43.5 10q-23 0 -40 -10t-30.5 -28t-25 -43t-23.5 -54q-4 -9 -7.5 -19t-8.5 -20l-121 -277v1q-2 -5 -4.5 -10l-5.5 -11q-10 -21 -23.5 -50.5t-25.5 -59.5t-20 -57t-8 -44q0 -35 15.5 -48t48.5 -13
q15 0 27.5 8t23 20.5t20 28t17.5 31.5q14 29 25 41q12 12 24 19t27.5 10t35 4t46.5 1h68q24 0 42 -1t32.5 -4t26.5 -9.5t23 -17.5q10 -10 18 -24l16 -28q8 -15 16.5 -29.5t19.5 -26t25.5 -18t34.5 -6.5q19 0 30.5 7t17.5 16t8 18.5t2 15.5v1q0 14 -7 37.5t-17.5 51t-23 55.5
t-22.5 52q-4 8 -7 15.5t-6 13.5v-1zM254 340q0 6 3 21.5t8 35t12.5 40t17 38t20 28.5t22.5 11q19 0 34.5 -23t27 -52.5t17.5 -57t6 -36.5q0 -30 -18 -48t-65 -18q-41 0 -63 14.5t-22 46.5zM447 869q-32 0 -47 -18.5t-15 -40.5q0 -24 16 -43.5t46 -19.5q31 0 48.5 19.5
t17.5 43.5q0 22 -15.5 40.5t-50.5 18.5zM228 869q-32 0 -47 -18.5t-15 -40.5q0 -24 16 -43.5t46 -19.5q32 0 48.5 19.5t16.5 43.5q0 22 -15.5 40.5t-49.5 18.5z" />
    <glyph glyph-name="Aring" unicode="&#xc5;" horiz-adv-x="663" 
d="M334 915q-39 0 -62 -22t-23 -59q0 -11 4.5 -24.5t12 -27.5t18 -26t21.5 -20q-28 -14 -46 -48t-37 -79q-4 -9 -7.5 -19t-8.5 -20l-121 -277v1q-2 -5 -4.5 -10l-5.5 -11q-10 -21 -23.5 -50.5t-25.5 -59.5t-20 -57t-8 -44q0 -35 15.5 -48t48.5 -13q15 0 27.5 8t23 20.5
t20 28t17.5 31.5q14 29 25 41q12 12 24 19t27.5 10t35 4t46.5 1h68q24 0 42 -1t32.5 -4t26.5 -9.5t23 -17.5q10 -10 18 -24l16 -28q8 -15 16.5 -29.5t19.5 -26t25.5 -18t34.5 -6.5q19 0 30.5 7t17.5 16t8 18.5t2 15.5v1q0 14 -7 37.5t-17.5 51t-23 55.5t-22.5 52
q-4 8 -7 15.5t-6 13.5v-1l-119 273q-5 12 -9.5 24t-9.5 23q-11 27 -21 50t-21.5 41t-25 30t-31.5 17q11 9 21.5 21.5t19 26t13.5 26.5t5 23q0 34 -27 56t-66 22zM254 340q0 6 3 21.5t8 35t12.5 40t17 38t20 28.5t22.5 11q19 0 34.5 -23t27 -52.5t17.5 -57t6 -36.5
q0 -30 -18 -48t-65 -18q-41 0 -63 14.5t-22 46.5zM333 825q0 2 0.5 3l0.5 1q5 0 5 -6q0 -2 -5 -2q-1 0 -1 4z" />
    <glyph glyph-name="AE" unicode="&#xc6;" horiz-adv-x="1089" 
d="M656 765q-43 0 -71.5 -12.5t-53.5 -46.5h1l-360 -476v1q-4 -5 -7.5 -11t-8.5 -11q-14 -18 -29.5 -38.5t-28 -39.5t-20.5 -35.5t-8 -28.5q0 -20 11 -34t38 -14h2q17 0 32.5 8.5t29.5 20.5t26.5 26.5t22.5 27.5q6 8 11 14t7 8q19 19 37 30t35.5 17t35.5 7.5t37 1.5h52
q40 0 63.5 -8t36.5 -20.5t18.5 -28.5t9.5 -31q4 -18 9 -34.5t15.5 -29t28.5 -20t47 -7.5h240q25 0 48.5 1t41.5 7t29 18.5t12 35.5q0 22 -13.5 35t-34.5 19.5t-46.5 8t-49.5 1.5h-73q-22 0 -43 2.5t-37.5 13.5t-26.5 32.5t-10 59.5q0 33 12 52t28.5 29t35 13t32.5 3h40
q33 0 60.5 1.5t47 7.5t30 18t10.5 33q0 22 -13.5 34.5t-35.5 19t-50.5 8.5t-58.5 2h-52q-37 0 -60.5 23t-23.5 65q0 51 24.5 73.5t75.5 22.5h64q29 0 56 2t48 8.5t33.5 18t12.5 31.5q0 23 -10 36t-26 19.5t-37 8t-42 1.5h-257zM542 480q11 0 17 -9t9 -22.5t4 -30t1 -31.5v-2
q0 -26 -8 -43t-20 -27.5t-27 -15t-28 -4.5q-5 0 -15 0.5t-21 4.5t-19.5 12.5t-8.5 24.5q0 13 12 37t29.5 47.5t37.5 41t37 17.5z" />
    <glyph glyph-name="Ccedilla" unicode="&#xc7;" horiz-adv-x="643" 
d="M314 -147q16 0 32.5 11.5t30 30t22.5 42.5t10 49h12q62 0 107 12.5t74.5 30.5t43.5 37.5t14 32.5q0 28 -12.5 47t-49.5 19q-21 0 -38 -7t-35 -17q-19 -11 -43.5 -20t-63.5 -9q-57 0 -102.5 24t-78 62.5t-49.5 87.5t-17 99q0 62 21 112t56 85.5t80 54.5t93 19
q33 0 55.5 -7t39.5 -15q15 -7 29 -12t31 -5q33 0 48 14.5t15 46.5q0 17 -16 35.5t-45 33.5t-69 24.5t-89 9.5q-84 0 -156.5 -27t-125 -79t-82.5 -128t-30 -174q0 -51 14.5 -107.5t47 -108t83.5 -92.5t123 -62q1 -4 1 -8v-8q0 -15 -5.5 -26t-10.5 -19v1q-6 -10 -10 -18
t-4 -18q0 -23 12.5 -38.5t36.5 -15.5z" />
    <glyph glyph-name="Egrave" unicode="&#xc8;" horiz-adv-x="526" 
d="M524 689q0 35 -28 49t-88 14h-232q-38 0 -63 -5t-42 -21q-20 -20 -25 -53t-5 -80v-451q0 -43 6 -69t23 -43q19 -19 48 -23.5t77 -4.5h202q70 0 107.5 11t37.5 47q0 21 -10 34t-28 20.5t-43.5 10t-56.5 2.5h-113q-22 0 -41.5 3.5t-34.5 13.5t-23.5 28.5t-8.5 47.5
q0 37 7.5 58.5t21.5 32.5t33.5 13.5t44.5 2.5h83q26 0 49.5 1.5t41.5 7.5t28.5 18t10.5 33q0 42 -35 53t-95 11h-75q-21 0 -41.5 2t-36.5 10.5t-25.5 24.5t-9.5 44q0 33 8.5 51.5t24 28t37 12t47.5 2.5h65q33 0 62 2t50 8.5t33 19t12 33.5zM215 943q0 -15 10 -44t24 -58
t30.5 -50.5t28.5 -21.5q31 0 41.5 14.5t10.5 54.5q0 14 -6 41t-17 54t-28 47.5t-39 20.5q-30 0 -42.5 -13.5t-12.5 -44.5z" />
    <glyph glyph-name="Eacute" unicode="&#xc9;" horiz-adv-x="526" 
d="M524 689q0 35 -28 49t-88 14h-232q-38 0 -63 -5t-42 -21q-20 -20 -25 -53t-5 -80v-451q0 -43 6 -69t23 -43q19 -19 48 -23.5t77 -4.5h202q70 0 107.5 11t37.5 47q0 21 -10 34t-28 20.5t-43.5 10t-56.5 2.5h-113q-22 0 -41.5 3.5t-34.5 13.5t-23.5 28.5t-8.5 47.5
q0 37 7.5 58.5t21.5 32.5t33.5 13.5t44.5 2.5h83q26 0 49.5 1.5t41.5 7.5t28.5 18t10.5 33q0 42 -35 53t-95 11h-75q-21 0 -41.5 2t-36.5 10.5t-25.5 24.5t-9.5 44q0 33 8.5 51.5t24 28t37 12t47.5 2.5h65q33 0 62 2t50 8.5t33 19t12 33.5zM369 941q0 31 -12.5 44.5
t-42.5 13.5q-22 0 -39 -20.5t-28 -47.5t-17 -54t-6 -41q0 -40 10.5 -54.5t41.5 -14.5q12 0 28.5 21.5t30.5 50.5t24 58t10 44z" />
    <glyph glyph-name="Ecircumflex" unicode="&#xca;" horiz-adv-x="526" 
d="M524 689q0 35 -28 49t-88 14h-232q-38 0 -63 -5t-42 -21q-20 -20 -25 -53t-5 -80v-451q0 -43 6 -69t23 -43q19 -19 48 -23.5t77 -4.5h202q70 0 107.5 11t37.5 47q0 21 -10 34t-28 20.5t-43.5 10t-56.5 2.5h-113q-22 0 -41.5 3.5t-34.5 13.5t-23.5 28.5t-8.5 47.5
q0 37 7.5 58.5t21.5 32.5t33.5 13.5t44.5 2.5h83q26 0 49.5 1.5t41.5 7.5t28.5 18t10.5 33q0 42 -35 53t-95 11h-75q-21 0 -41.5 2t-36.5 10.5t-25.5 24.5t-9.5 44q0 33 8.5 51.5t24 28t37 12t47.5 2.5h65q33 0 62 2t50 8.5t33 19t12 33.5zM395 757q16 0 23 9t7 23
q0 10 -12.5 31.5t-32.5 43t-44 37.5t-46 16q-24 0 -46.5 -16t-40 -38t-28 -43.5t-10.5 -32.5q0 -10 8 -20t19 -10q23 0 38.5 13t29.5 27q8 8 16.5 15.5t13.5 7.5t13 -7t18 -16q16 -14 33.5 -27t40.5 -13z" />
    <glyph glyph-name="Edieresis" unicode="&#xcb;" horiz-adv-x="526" 
d="M524 689q0 35 -28 49t-88 14h-232q-38 0 -63 -5t-42 -21q-20 -20 -25 -53t-5 -80v-451q0 -43 6 -69t23 -43q19 -19 48 -23.5t77 -4.5h202q70 0 107.5 11t37.5 47q0 21 -10 34t-28 20.5t-43.5 10t-56.5 2.5h-113q-22 0 -41.5 3.5t-34.5 13.5t-23.5 28.5t-8.5 47.5
q0 37 7.5 58.5t21.5 32.5t33.5 13.5t44.5 2.5h83q26 0 49.5 1.5t41.5 7.5t28.5 18t10.5 33q0 42 -35 53t-95 11h-75q-21 0 -41.5 2t-36.5 10.5t-25.5 24.5t-9.5 44q0 33 8.5 51.5t24 28t37 12t47.5 2.5h65q33 0 62 2t50 8.5t33 19t12 33.5zM401 892q-32 0 -47 -18.5
t-15 -40.5q0 -24 16 -43.5t46 -19.5q31 0 48.5 19.5t17.5 43.5q0 22 -15.5 40.5t-50.5 18.5zM182 892q-32 0 -47 -18.5t-15 -40.5q0 -24 16 -43.5t46 -19.5q32 0 48.5 19.5t16.5 43.5q0 22 -15.5 40.5t-49.5 18.5z" />
    <glyph glyph-name="Igrave" unicode="&#xcc;" horiz-adv-x="264" 
d="M212 651q0 17 -2 36.5t-8.5 35.5t-20.5 26.5t-38 10.5t-38 -11t-21 -27.5t-8.5 -35.5t-1.5 -35v-528q0 -27 2.5 -50t10 -39t21 -25t36.5 -9q24 0 37.5 9.5t20 26.5t8.5 39t2 48v528zM63 940q0 -15 10 -44t24 -58t30.5 -50.5t28.5 -21.5q31 0 41.5 14.5t10.5 54.5
q0 14 -6 41t-17 54t-28 47.5t-39 20.5q-30 0 -42.5 -13.5t-12.5 -44.5z" />
    <glyph glyph-name="Iacute" unicode="&#xcd;" horiz-adv-x="264" 
d="M212 651q0 17 -2 36.5t-8.5 35.5t-20.5 26.5t-38 10.5t-38 -11t-21 -27.5t-8.5 -35.5t-1.5 -35v-528q0 -27 2.5 -50t10 -39t21 -25t36.5 -9q24 0 37.5 9.5t20 26.5t8.5 39t2 48v528zM224 945q0 31 -12.5 44.5t-42.5 13.5q-22 0 -39 -20.5t-28 -47.5t-17 -54t-6 -41
q0 -40 10.5 -54.5t41.5 -14.5q12 0 28.5 21.5t30.5 50.5t24 58t10 44z" />
    <glyph glyph-name="Icircumflex" unicode="&#xce;" horiz-adv-x="264" 
d="M212 651q0 17 -2 36.5t-8.5 35.5t-20.5 26.5t-38 10.5t-38 -11t-21 -27.5t-8.5 -35.5t-1.5 -35v-528q0 -27 2.5 -50t10 -39t21 -25t36.5 -9q24 0 37.5 9.5t20 26.5t8.5 39t2 48v528zM234 775q16 0 23 9t7 23q0 10 -12.5 31.5t-32.5 43t-44 37.5t-46 16q-24 0 -46.5 -16
t-40 -38t-28 -43.5t-10.5 -32.5q0 -10 8 -20t19 -10q23 0 38.5 13t29.5 27q8 8 16.5 15.5t13.5 7.5t13 -7t18 -16q16 -14 33.5 -27t40.5 -13z" />
    <glyph glyph-name="Idieresis" unicode="&#xcf;" horiz-adv-x="264" 
d="M212 651q0 17 -2 36.5t-8.5 35.5t-20.5 26.5t-38 10.5t-38 -11t-21 -27.5t-8.5 -35.5t-1.5 -35v-528q0 -27 2.5 -50t10 -39t21 -25t36.5 -9q24 0 37.5 9.5t20 26.5t8.5 39t2 48v528zM206 904q-32 0 -47 -18.5t-15 -40.5q0 -24 16 -43.5t46 -19.5q31 0 48.5 19.5
t17.5 43.5q0 22 -15.5 40.5t-50.5 18.5zM78 905q-32 0 -47 -18.5t-15 -40.5q0 -24 16 -43.5t46 -19.5q32 0 48.5 19.5t16.5 43.5q0 22 -15.5 40.5t-49.5 18.5z" />
    <glyph glyph-name="Eth" unicode="&#xd0;" horiz-adv-x="777" 
d="M84 451q-36 0 -64 -15t-28 -44q0 -14 8 -24.5t20.5 -17t29 -9.5t34.5 -3h25v-199q0 -32 4 -57.5t16 -43.5t34 -28t58 -10h121q49 0 95 5t89 18.5t84.5 38.5t81.5 65q18 18 35 42t31 56t22.5 72t8.5 90q0 89 -24 152t-75 114q-35 35 -74.5 57t-81.5 35t-85.5 17.5
t-87.5 4.5h-132q-39 0 -63 -9.5t-36.5 -26.5t-16.5 -39.5t-4 -47.5v-193h-25zM247 508q0 31 3.5 55.5t14.5 41.5t31 25.5t52 8.5h3q63 0 116.5 -14t93.5 -44.5t62.5 -79t22.5 -116.5q0 -65 -24 -113.5t-65 -80.5t-94.5 -48t-111.5 -16q-32 0 -52 7.5t-31.5 22t-16 36.5
t-4.5 51v94h155q17 0 34 4t30.5 11t21.5 17t8 22q0 15 -8 26t-21.5 18.5t-30.5 11t-34 3.5h-155v57z" />
    <glyph glyph-name="Ntilde" unicode="&#xd1;" horiz-adv-x="742" 
d="M479 347l-176 274q-30 47 -49.5 72.5t-36.5 37.5q-21 16 -39.5 18.5t-44.5 2.5q-36 0 -55.5 -14t-28.5 -36.5t-10.5 -50.5t-1.5 -55v-485q0 -47 17 -77t51 -30q22 0 35.5 12t21 29t10.5 37t3 36v262q0 59 7 83t19 24q15 0 34 -19.5t40 -51.5l206 -323q19 -30 35 -49.5
t32.5 -31t34.5 -16.5t41 -5q29 0 48 9.5t30 25.5t15.5 36.5t4.5 43.5v489q0 31 -3.5 57t-11.5 45t-21.5 30t-33.5 11t-33 -9.5t-21 -25t-11.5 -35.5t-3.5 -41l1 -170q0 -98 -4.5 -140t-22.5 -42t-36.5 19t-41.5 54v-1zM472 858h-6q-13 0 -25.5 5t-25.5 10q-17 8 -35 14
t-42 6h-11q-5 0 -10 -1h1q-38 -5 -52 -25t-14 -40q0 -2 0.5 -4.5t0.5 -4.5q4 -21 13.5 -29t26.5 -8q2 0 5.5 0.5t5.5 0.5q5 1 9 2t11 3q4 2 8 2.5t8 1.5q5 1 10 1.5t7 0.5q15 0 26.5 -5t22.5 -10q15 -8 31 -14t38 -6h10q6 0 11 1h-1q23 3 42.5 21.5t19.5 44.5v8
q-5 21 -14.5 29t-24.5 8h-5q-5 -2 -11 -3.5t-11 -3.5q-3 -2 -7 -2.5t-9 -1.5z" />
    <glyph glyph-name="Ograve" unicode="&#xd2;" horiz-adv-x="797" 
d="M815 369q0 109 -33 186.5t-89 127.5t-129.5 73.5t-154.5 23.5q-95 0 -168 -31.5t-123 -87t-76 -130.5t-26 -162q0 -78 27.5 -148t79 -123t124 -84.5t162.5 -31.5q87 0 161 27.5t128.5 78t85.5 122t31 159.5zM162 369q0 69 21 122t55.5 89.5t79 55t91.5 18.5
q55 0 102.5 -19t83 -56t55.5 -90t20 -120q0 -53 -19 -100.5t-53.5 -83t-82.5 -56.5t-106 -21q-59 0 -105 24t-77.5 62t-48 84t-16.5 91zM345 976q0 -15 10 -44t24 -58t30.5 -50.5t28.5 -21.5q31 0 41.5 14.5t10.5 54.5q0 14 -6 41t-17 54t-28 47.5t-39 20.5
q-30 0 -42.5 -13.5t-12.5 -44.5z" />
    <glyph glyph-name="Oacute" unicode="&#xd3;" horiz-adv-x="797" 
d="M815 369q0 109 -33 186.5t-89 127.5t-129.5 73.5t-154.5 23.5q-95 0 -168 -31.5t-123 -87t-76 -130.5t-26 -162q0 -78 27.5 -148t79 -123t124 -84.5t162.5 -31.5q87 0 161 27.5t128.5 78t85.5 122t31 159.5zM162 369q0 69 21 122t55.5 89.5t79 55t91.5 18.5
q55 0 102.5 -19t83 -56t55.5 -90t20 -120q0 -53 -19 -100.5t-53.5 -83t-82.5 -56.5t-106 -21q-59 0 -105 24t-77.5 62t-48 84t-16.5 91zM495 973q0 31 -12.5 44.5t-42.5 13.5q-22 0 -39 -20.5t-28 -47.5t-17 -54t-6 -41q0 -40 10.5 -54.5t41.5 -14.5q12 0 28.5 21.5
t30.5 50.5t24 58t10 44z" />
    <glyph glyph-name="Ocircumflex" unicode="&#xd4;" horiz-adv-x="797" 
d="M815 369q0 109 -33 186.5t-89 127.5t-129.5 73.5t-154.5 23.5q-95 0 -168 -31.5t-123 -87t-76 -130.5t-26 -162q0 -78 27.5 -148t79 -123t124 -84.5t162.5 -31.5q87 0 161 27.5t128.5 78t85.5 122t31 159.5zM162 369q0 69 21 122t55.5 89.5t79 55t91.5 18.5
q55 0 102.5 -19t83 -56t55.5 -90t20 -120q0 -53 -19 -100.5t-53.5 -83t-82.5 -56.5t-106 -21q-59 0 -105 24t-77.5 62t-48 84t-16.5 91zM517 796q16 0 23 9t7 23q0 10 -12.5 31.5t-32.5 43t-44 37.5t-46 16q-24 0 -46.5 -16t-40 -38t-28 -43.5t-10.5 -32.5q0 -10 8 -20
t19 -10q23 0 38.5 13t29.5 27q8 8 16.5 15.5t13.5 7.5t13 -7t18 -16q16 -14 33.5 -27t40.5 -13z" />
    <glyph glyph-name="Otilde" unicode="&#xd5;" horiz-adv-x="797" 
d="M815 369q0 109 -33 186.5t-89 127.5t-129.5 73.5t-154.5 23.5q-95 0 -168 -31.5t-123 -87t-76 -130.5t-26 -162q0 -78 27.5 -148t79 -123t124 -84.5t162.5 -31.5q87 0 161 27.5t128.5 78t85.5 122t31 159.5zM162 369q0 69 21 122t55.5 89.5t79 55t91.5 18.5
q55 0 102.5 -19t83 -56t55.5 -90t20 -120q0 -53 -19 -100.5t-53.5 -83t-82.5 -56.5t-106 -21q-59 0 -105 24t-77.5 62t-48 84t-16.5 91zM482 902h-6q-13 0 -25.5 5t-25.5 10q-17 8 -35 14t-42 6h-11q-5 0 -10 -1h1q-38 -5 -52 -25t-14 -40q0 -2 0.5 -4.5t0.5 -4.5
q4 -21 13.5 -29t26.5 -8q2 0 5.5 0.5t5.5 0.5q5 1 9 2t11 3q4 2 8 2.5t8 1.5q5 1 10 1.5t7 0.5q15 0 26.5 -5t22.5 -10q15 -8 31 -14t38 -6h10q6 0 11 1h-1q23 3 42.5 21.5t19.5 44.5v8q-5 21 -14.5 29t-24.5 8h-5q-5 -2 -11 -3.5t-11 -3.5q-3 -2 -7 -2.5t-9 -1.5z" />
    <glyph glyph-name="Odieresis" unicode="&#xd6;" horiz-adv-x="797" 
d="M815 369q0 109 -33 186.5t-89 127.5t-129.5 73.5t-154.5 23.5q-95 0 -168 -31.5t-123 -87t-76 -130.5t-26 -162q0 -78 27.5 -148t79 -123t124 -84.5t162.5 -31.5q87 0 161 27.5t128.5 78t85.5 122t31 159.5zM162 369q0 69 21 122t55.5 89.5t79 55t91.5 18.5
q55 0 102.5 -19t83 -56t55.5 -90t20 -120q0 -53 -19 -100.5t-53.5 -83t-82.5 -56.5t-106 -21q-59 0 -105 24t-77.5 62t-48 84t-16.5 91zM514 922q-32 0 -47 -18.5t-15 -40.5q0 -24 16 -43.5t46 -19.5q31 0 48.5 19.5t17.5 43.5q0 22 -15.5 40.5t-50.5 18.5zM295 922
q-32 0 -47 -18.5t-15 -40.5q0 -24 16 -43.5t46 -19.5q32 0 48.5 19.5t16.5 43.5q0 22 -15.5 40.5t-49.5 18.5z" />
    <glyph glyph-name="multiply" unicode="&#xd7;" horiz-adv-x="401" 
d="M380 413q16 17 27.5 32t11.5 33q0 17 -14 31l2 -2q-12 15 -30 15q-16 0 -29.5 -8.5t-30.5 -20.5h1q-20 -14 -45 -28.5t-54 -14.5h-5q-23 2 -41.5 17.5t-33.5 31.5q-16 16 -29.5 27.5t-31.5 11.5q-8 0 -14.5 -2t-14.5 -10l1 2q-16 -13 -16 -35q0 -15 8 -28.5t21 -30.5
q14 -18 26.5 -40t12.5 -48v-6q-2 -22 -17.5 -42t-32.5 -37q-16 -17 -28 -32.5t-12 -33.5q0 -8 2 -14t8 -13q13 -16 32 -16q16 0 32 9.5t34 23.5t38.5 26.5t39.5 12.5h6q26 -2 48 -19.5t40 -34.5q16 -15 30.5 -26t31.5 -11q9 0 14 2.5t11 7.5q17 14 17 36q0 17 -10.5 34
t-23.5 34h1q-13 18 -25 36.5t-12 34.5v3q2 28 19.5 51t34.5 41z" />
    <glyph glyph-name="Oslash" unicode="&#xd8;" horiz-adv-x="797" 
d="M625 729q14 37 14 60q0 24 -20 44q-17 0 -37.5 -17t-35.5 -55q-32 10 -67 14.5t-70 4.5q-95 0 -168 -31.5t-123 -87t-76 -130.5t-26 -162q0 -55 14 -106.5t40.5 -96.5t65 -81.5t87.5 -60.5l-6 -11q-7 -12 -7 -37q0 -11 5 -23.5t16 -23.5q17 0 37 18t30 41l3 7
q49 -13 108 -13q87 0 161 27.5t128.5 78t85.5 122t31 159.5q0 69 -14 125.5t-39 101t-60 77.5t-77 56zM162 369q0 69 21 122t55.5 89.5t79 55t91.5 18.5q45 0 84 -12l-217 -495q-28 19 -49 44.5t-35.5 55t-22 61t-7.5 61.5zM670 369q0 -53 -19 -100.5t-53.5 -83t-82.5 -56.5
t-106 -21q-29 0 -56 6l215 488q47 -35 74.5 -94t27.5 -139z" />
    <glyph glyph-name="Ugrave" unicode="&#xd9;" horiz-adv-x="660" 
d="M177 352v251q0 24 -3 51t-10.5 49.5t-21 37t-33.5 14.5q-23 0 -37.5 -13t-22 -34t-10 -48.5t-2.5 -56.5v-279q0 -101 28 -165.5t72.5 -102.5t98.5 -52.5t105 -14.5q49 0 104 14t100.5 52t75.5 105.5t30 175.5v267q0 27 -2.5 54t-10 48.5t-21.5 35t-37 13.5
q-21 0 -34.5 -14.5t-21 -36.5t-10.5 -49t-3 -51v-282q0 -50 -12.5 -87t-34.5 -61t-53 -36t-68 -12h-2q-47 0 -78.5 17t-50.5 47t-27 71.5t-8 91.5zM273 918q0 -15 10 -44t24 -58t30.5 -50.5t28.5 -21.5q31 0 41.5 14.5t10.5 54.5q0 14 -6 41t-17 54t-28 47.5t-39 20.5
q-30 0 -42.5 -13.5t-12.5 -44.5z" />
    <glyph glyph-name="Uacute" unicode="&#xda;" horiz-adv-x="660" 
d="M177 352v251q0 24 -3 51t-10.5 49.5t-21 37t-33.5 14.5q-23 0 -37.5 -13t-22 -34t-10 -48.5t-2.5 -56.5v-279q0 -101 28 -165.5t72.5 -102.5t98.5 -52.5t105 -14.5q49 0 104 14t100.5 52t75.5 105.5t30 175.5v267q0 27 -2.5 54t-10 48.5t-21.5 35t-37 13.5
q-21 0 -34.5 -14.5t-21 -36.5t-10.5 -49t-3 -51v-282q0 -50 -12.5 -87t-34.5 -61t-53 -36t-68 -12h-2q-47 0 -78.5 17t-50.5 47t-27 71.5t-8 91.5zM440 901q0 31 -12.5 44.5t-42.5 13.5q-22 0 -39 -20.5t-28 -47.5t-17 -54t-6 -41q0 -40 10.5 -54.5t41.5 -14.5
q12 0 28.5 21.5t30.5 50.5t24 58t10 44z" />
    <glyph glyph-name="Ucircumflex" unicode="&#xdb;" horiz-adv-x="660" 
d="M177 352v251q0 24 -3 51t-10.5 49.5t-21 37t-33.5 14.5q-23 0 -37.5 -13t-22 -34t-10 -48.5t-2.5 -56.5v-279q0 -101 28 -165.5t72.5 -102.5t98.5 -52.5t105 -14.5q49 0 104 14t100.5 52t75.5 105.5t30 175.5v267q0 27 -2.5 54t-10 48.5t-21.5 35t-37 13.5
q-21 0 -34.5 -14.5t-21 -36.5t-10.5 -49t-3 -51v-282q0 -50 -12.5 -87t-34.5 -61t-53 -36t-68 -12h-2q-47 0 -78.5 17t-50.5 47t-27 71.5t-8 91.5zM440 735q16 0 23 9t7 23q0 10 -12.5 31.5t-32.5 43t-44 37.5t-46 16q-24 0 -46.5 -16t-40 -38t-28 -43.5t-10.5 -32.5
q0 -10 8 -20t19 -10q23 0 38.5 13t29.5 27q8 8 16.5 15.5t13.5 7.5t13 -7t18 -16q16 -14 33.5 -27t40.5 -13z" />
    <glyph glyph-name="Udieresis" unicode="&#xdc;" horiz-adv-x="660" 
d="M177 352v251q0 24 -3 51t-10.5 49.5t-21 37t-33.5 14.5q-23 0 -37.5 -13t-22 -34t-10 -48.5t-2.5 -56.5v-279q0 -101 28 -165.5t72.5 -102.5t98.5 -52.5t105 -14.5q49 0 104 14t100.5 52t75.5 105.5t30 175.5v267q0 27 -2.5 54t-10 48.5t-21.5 35t-37 13.5
q-21 0 -34.5 -14.5t-21 -36.5t-10.5 -49t-3 -51v-282q0 -50 -12.5 -87t-34.5 -61t-53 -36t-68 -12h-2q-47 0 -78.5 17t-50.5 47t-27 71.5t-8 91.5zM455 864q-32 0 -47 -18.5t-15 -40.5q0 -24 16 -43.5t46 -19.5q31 0 48.5 19.5t17.5 43.5q0 22 -15.5 40.5t-50.5 18.5z
M236 864q-32 0 -47 -18.5t-15 -40.5q0 -24 16 -43.5t46 -19.5q32 0 48.5 19.5t16.5 43.5q0 22 -15.5 40.5t-49.5 18.5z" />
    <glyph glyph-name="Yacute" unicode="&#xdd;" horiz-adv-x="551" 
d="M293 510q-26 0 -47.5 27.5t-41.5 63.5l-25 44v-1q-12 22 -25 41.5t-28.5 34.5t-33.5 23.5t-40 8.5q-17 0 -28 -6t-17 -15t-8.5 -20.5t-2.5 -21.5q0 -21 15.5 -50t39.5 -64l83 -120q35 -50 59 -101.5t24 -96.5v-160q0 -41 19 -67.5t50 -26.5q17 0 30 8.5t22 22t13.5 31
t4.5 35.5v165q0 20 7 43t18.5 48t27 51t33.5 52l86 126q23 33 37 60.5t14 46.5q0 18 -5.5 29t-13.5 17t-17.5 8t-17.5 2q-38 0 -67 -29.5t-53 -70.5l-27 -46q-22 -36 -43 -64t-42 -28zM383 877q0 31 -12.5 44.5t-42.5 13.5q-22 0 -39 -20.5t-28 -47.5t-17 -54t-6 -41
q0 -40 10.5 -54.5t41.5 -14.5q12 0 28.5 21.5t30.5 50.5t24 58t10 44z" />
    <glyph glyph-name="Thorn" unicode="&#xde;" 
d="M176 657q0 15 -2.5 34.5t-10 37t-20.5 29.5t-34 12q-20 0 -33 -12t-20.5 -29.5t-10 -37t-2.5 -34.5l-1 -531q0 -41 2.5 -65t10 -36t20.5 -15.5t34 -3.5q24 0 38 11t20.5 29t8.5 40t2 43q0 24 4.5 31.5t17.5 7.5q8 0 15.5 -0.5t18.5 -1.5q14 -1 33 -2t41 -1q55 0 103 12
t84 38t57 68.5t21 103.5v2q0 73 -29.5 116.5t-76 66.5t-104 30t-114.5 7q-8 0 -16 -0.5t-16 -0.5q-6 0 -11.5 -0.5t-10.5 -0.5q-9 0 -13.5 1.5t-5.5 7.5v43zM180 390q0 32 9.5 51t23.5 29.5t31 14t32 3.5q17 0 42 -4t48 -15t39.5 -31t16.5 -52q0 -31 -13.5 -52t-35 -33.5
t-47.5 -18t-51 -5.5q-44 0 -69.5 25.5t-25.5 87.5z" />
    <glyph glyph-name="agrave" unicode="&#xe0;" horiz-adv-x="502" 
d="M185 716q0 -14 8 -39.5t20.5 -52.5t27 -49.5t27.5 -29.5h-4q-14 0 -30 -2.5t-32 -6.5t-30.5 -9.5t-24.5 -11.5h1q-19 -10 -24.5 -21t-5.5 -21v-9q-3 -2 -30 -29q6 0 21.5 0.5t32 1t31.5 1t21 0.5q14 1 26.5 2t25.5 1q31 0 54.5 -8.5t34.5 -36.5l-1 1q2 -8 4.5 -14
t2.5 -11q0 -7 -5 -14q-14 -22 -42.5 -27t-60.5 -6q-13 -1 -26 -1.5t-24 -2.5q-13 -2 -30.5 -8t-35 -14t-32.5 -16.5t-22 -15.5h1q-8 -7 -19 -22t-14 -22q-3 -8 -6.5 -22.5t-5.5 -22.5v1q-1 -5 -1.5 -10.5t-0.5 -12.5q0 -39 15 -67t39.5 -46t56.5 -27t67 -9q21 0 46.5 4.5
t52.5 13.5v21q11 0 20.5 -0.5t11.5 -0.5q11 -4 23 -7.5t29 -6.5h-1q3 -1 6.5 -2t6.5 -2h-1q16 -6 34 -6q13 0 24 4q15 7 25 26.5t16 46.5t8 59.5t2 65.5q0 46 -2.5 86.5t-4.5 60.5q-2 22 -13 50t-23 45q-11 15 -28.5 28.5t-38.5 23.5t-45 16.5t-46 9.5q19 4 26 19.5t7 48.5
q0 14 -6 41t-17 54t-28 47.5t-39 20.5q-30 0 -42.5 -13.5t-12.5 -44.5zM293 79q-6 2 -20.5 7t-21.5 7q-14 4 -26.5 8t-22.5 9q-11 7 -21.5 22.5t-10.5 37.5q0 6 1 11q2 12 12.5 23.5t26 20.5t34.5 14.5t37 5.5q3 0 8.5 -0.5t10.5 -1.5h-2q21 -4 33.5 -22.5t12.5 -41.5
q0 -18 -9 -36q-2 -4 -11 -13q-7 -7 -13 -14t-10 -17v-6q0 -1 -0.5 -1.5t-0.5 -1.5v-7t2 -8q-1 0 -2.5 -0.5t-6.5 -5.5v10z" />
    <glyph glyph-name="aacute" unicode="&#xe1;" horiz-adv-x="500" 
d="M270 547q-13 0 -30 -3t-34 -7t-32.5 -9t-25.5 -11q-19 -10 -24.5 -21t-5.5 -21v-8l-30 -30q6 0 21 0.5t31.5 1t31.5 1t21 0.5q14 1 27 2t26 1q31 0 54 -8.5t35 -37.5l4 -12t2 -11q0 -7 -5 -14q-7 -11 -18.5 -17.5t-26 -10.5t-31 -5t-32.5 -2q-20 -1 -38.5 -2.5
t-36.5 -6.5h1q-29 -8 -55.5 -27t-42.5 -39q-1 -1 -1.5 -2l-0.5 -1q-11 -14 -22 -30.5t-13 -37.5v-1q-1 -5 -1.5 -8.5t-0.5 -11.5q0 -39 15 -67t39.5 -46t56.5 -27t67 -9q21 0 46.5 4.5t52.5 13.5v21q0 2 -0.5 5t-0.5 6q10 -4 23 -9.5t17 -6.5q18 -8 40 -15t42 -7h7
q18 1 31 10t22 22t14 29t8 32q-2 5 -3 8l-2 6q2 29 3.5 59.5t1.5 58.5q0 62 -9 117t-33.5 96t-67 64.5t-109.5 23.5h-8zM373 726q0 31 -12.5 44.5t-42.5 13.5q-22 0 -39 -20.5t-28 -47.5t-17 -54t-6 -41q0 -40 10.5 -54.5t41.5 -14.5q12 0 28.5 21.5t30.5 50.5t24 58t10 44z
M293 83q-3 1 -13.5 3.5t-14.5 4.5h1q-15 5 -32.5 11.5t-27.5 10.5l1 -1q-14 8 -25.5 23.5t-11.5 36.5q0 13 5 23q8 22 36 35t59 13q17 0 33 -5.5t27 -19.5q3 -5 6.5 -8t8.5 -5q0 -3 0.5 -5t0.5 -4q0 -19 -8 -39t-15 -32q-6 -3 -12.5 -9t-9.5 -13v-8q0 -1 -0.5 -1.5
t-0.5 -1.5v-7t2 -8q-1 1 -9 -5v11z" />
    <glyph glyph-name="acircumflex" unicode="&#xe2;" horiz-adv-x="512" 
d="M228 541q-9 -1 -21 -5t-25.5 -9.5t-26.5 -11t-24 -10.5q3 -18 3.5 -22t0.5 -5v-9q0 -19 7 -26.5t33 -7.5h10q6 0 11 1q2 0 4 0.5t4 0.5l28 10q10 2 12 2q26 0 52 -9.5t41 -26.5h-1q6 -7 11 -14t5 -17v-8q-6 -10 -8 -17q-8 -2 -11 -4l-5 -4.5t-7 -6.5q-3 -3 -6.5 -6
t-5.5 -4q-17 -5 -36 -7t-39 -3q-22 -2 -43.5 -3.5t-40.5 -7.5h1q-12 -3 -26.5 -10.5t-29 -17t-26.5 -20.5t-18 -21l1 1q-12 -18 -17 -37.5t-5 -38.5q0 -27 9.5 -52t24.5 -46t34.5 -36t40.5 -22q11 -4 23.5 -5t24.5 -1q28 0 59 7t56 15v26q0 1 -0.5 2t-0.5 3q17 -7 27.5 -11
t18 -6t13.5 -3t13 -2l6 -2t7 -2q1 0 2 -0.5t3 -0.5q19 -6 43 -6q17 0 31 5.5t25 21.5t15 58t4 93q0 32 -1.5 65t-3.5 61.5t-5 50.5t-6 33v-1q-3 11 -10 24.5t-15.5 27t-18 24.5t-17.5 17v-1q-25 19 -67 29.5t-88 10.5q-27 0 -49 -3zM394 569q16 0 23 9t7 23q0 10 -12.5 31.5
t-32.5 43t-44 37.5t-46 16q-24 0 -46.5 -16t-40 -38t-28 -43.5t-10.5 -32.5q0 -10 8 -20t19 -10q23 0 38.5 13t29.5 27q8 8 16.5 15.5t13.5 7.5t13 -7t18 -16q16 -14 33.5 -27t40.5 -13zM200 129q-18 19 -18 35q0 14 11 38h19v21q21 13 32 17q18 6 35 6q29 0 52 -12t26 -34
q1 -5 1 -10q0 -18 -10 -38t-20 -37l-19 -8v-11q-24 3 -41 5.5t-29.5 6t-21.5 8.5t-17 13zM309 93v-16q0 2 -7 -4q2 7 7 20z" />
    <glyph glyph-name="atilde" unicode="&#xe3;" horiz-adv-x="521" 
d="M251 541q-27 -2 -59 -15t-57 -27v-52q4 0 4 9q2 -4 4.5 -8t10.5 -11q4 0 12.5 -0.5t12.5 -0.5h16h11t10 1h-2q5 1 11 1.5t12 1.5q12 2 24 3t23 1q18 0 36 -6l-1 1q6 -3 13 -8t14 -12t12 -14t6 -13v-3q0 -5 -2 -8.5t-4 -7.5q-1 -2 -1.5 -2.5t-1.5 -2.5q-7 -15 -18.5 -23
t-26 -12t-31 -5.5t-33.5 -2.5q-22 -2 -44.5 -4t-46.5 -11v1q-9 -3 -24 -12t-29.5 -20t-27 -22.5t-16.5 -20.5v1q-10 -17 -14 -35t-4 -36q0 -25 7.5 -48.5t20.5 -43t30 -34.5t36 -22h-1q31 -12 66 -12q27 0 58 6.5t57 14.5v21q0 2 -0.5 5.5t-0.5 6.5q5 -2 12 -5t26 -12
q11 -5 24 -10t24 -7q6 -1 13 -1.5t17 -0.5q23 0 43.5 8t31.5 29q7 14 10.5 56.5t3.5 92.5q0 29 -1 58.5t-2.5 55.5t-4 46.5t-5.5 31.5q-4 13 -11.5 29t-17.5 31t-21.5 28t-22.5 21q-23 16 -61 24t-79 8h-22q-10 0 -20 -2h1zM377 683h-6q-13 0 -25.5 5t-25.5 10q-17 8 -35 14
t-42 6h-11q-5 0 -10 -1h1q-38 -5 -52 -25t-14 -40q0 -2 0.5 -4.5t0.5 -4.5q4 -21 13.5 -29t26.5 -8q2 0 5.5 0.5t5.5 0.5q5 1 9 2t11 3q4 2 8 2.5t8 1.5q5 1 10 1.5t7 0.5q15 0 26.5 -5t22.5 -10q15 -8 31 -14t38 -6h10q6 0 11 1h-1q23 3 42.5 21.5t19.5 44.5v8
q-5 21 -14.5 29t-24.5 8h-5q-5 -2 -11 -3.5t-11 -3.5q-3 -2 -7 -2.5t-9 -1.5zM313 80q-18 8 -26.5 10.5t-14.5 4.5q-15 5 -31 10t-28 13q0 4 -3 13q-4 4 -8 7t-8 5v-2q0 -1 1 -3q-1 2 -1.5 2.5t-1.5 2.5q-4 11 -4 19q0 22 15.5 39.5t28.5 24.5q14 8 29 13t32 5q25 0 48 -17
q12 -8 17 -19t5 -22q0 -16 -5.5 -31.5t-14.5 -29.5v-1h-1l1 1q-6 -3 -12 -8t-8 -10t-2.5 -8.5t-0.5 -6.5v-7t2 -8q-1 1 -9 -5v8zM212 119q-4 2 -5 4q2 -2 3 -2.5t2 -1.5z" />
    <glyph glyph-name="adieresis" unicode="&#xe4;" horiz-adv-x="529" 
d="M245 541q-20 -3 -46.5 -13.5t-48.5 -20.5v-72q6 0 15 1t19 2t19 2t14 1q15 2 28 3t24 1q18 0 34 -4t33 -16l-1 1q6 -5 9.5 -6.5t6.5 -3.5t5.5 -3.5t4.5 -3.5q0 -2 1.5 -6.5t6.5 -13.5v-6q0 -11 -5.5 -19t-13.5 -14q-17 -14 -37.5 -17t-46.5 -5l-28 -2t-26 -3h1
q-29 -5 -59 -19t-49 -29h1q-25 -20 -41.5 -52.5t-16.5 -69.5q0 -18 4.5 -37t15.5 -36q18 -31 60 -54t93 -23q14 0 27.5 1.5t27.5 6.5q12 4 19 8t11 8.5t6 10t4 12.5q0 2 4 7q14 -5 23.5 -9t14.5 -6q2 -1 2 -2l2 -0.5t7 -2t18 -4.5h-1q13 -4 28 -6.5t29 -2.5q20 0 36.5 6
t27.5 23q10 17 14 57t4 88q0 31 -1.5 64t-3.5 61.5t-4.5 50.5t-5.5 33q-3 10 -9 23t-13.5 26t-16 24t-16.5 18q-12 11 -31.5 19.5t-42.5 14.5t-47.5 9t-47.5 3q-11 0 -22.5 -0.5t-19.5 -2.5h1zM293 97q-14 3 -24.5 5.5t-19 5.5t-16.5 8t-17 14q-9 8 -12.5 17.5t-3.5 18.5
q0 13 6 26.5t16.5 24t23.5 18t27 10.5q7 2 12 2h11q33 0 56 -17t23 -46q0 -7 -1 -11q-2 -10 -11 -26.5t-18 -31.5l-19 -8q0 -1 -0.5 -8.5t-0.5 -8.5v-3q-9 3 -19.5 6t-12.5 4zM403 764q-32 0 -47 -18.5t-15 -40.5q0 -24 16 -43.5t46 -19.5q31 0 48.5 19.5t17.5 43.5
q0 22 -15.5 40.5t-50.5 18.5zM184 764q-32 0 -47 -18.5t-15 -40.5q0 -24 16 -43.5t46 -19.5q32 0 48.5 19.5t16.5 43.5q0 22 -15.5 40.5t-49.5 18.5z" />
    <glyph glyph-name="aring" unicode="&#xe5;" horiz-adv-x="489" 
d="M275 711q-39 0 -62 -22t-23 -59q0 -12 5.5 -27t14.5 -30t21 -27.5t24 -19.5q-42 -3 -75 -13.5t-56.5 -22.5t-36 -23.5t-12.5 -15.5q0 -14 12.5 -21.5t21.5 -7.5q14 0 21.5 2t18.5 4q18 5 42 9.5t53 4.5q12 0 28.5 -4.5t31.5 -13t25.5 -21.5t10.5 -30q0 -16 -9 -28
t-23 -20t-30.5 -12t-31.5 -4q-38 0 -78 -6.5t-74 -24t-55.5 -48t-21.5 -79.5t20 -79t47 -46.5t53.5 -22t38.5 -5.5q18 0 51 12t71 38q31 -20 63 -26t45 -6h1q43 0 61 27.5t18 61.5v201q0 107 -49.5 163t-140.5 59q13 7 25.5 20t23 28t17 30.5t6.5 26.5q0 34 -27 56t-66 22z
M270 81q-18 0 -37.5 4.5t-35 14t-25.5 23.5t-10 33q0 24 13 40.5t30.5 27.5t35 16t25.5 5q10 0 23.5 -4.5t25.5 -12.5t20.5 -20.5t8.5 -27.5q0 -27 -15.5 -52.5t-30.5 -42.5q-17 -3 -21.5 -3.5t-6.5 -0.5zM274 621q0 2 0.5 3l0.5 1q5 0 5 -6q0 -2 -5 -2q-1 0 -1 4z" />
    <glyph glyph-name="ae" unicode="&#xe6;" horiz-adv-x="1082" 
d="M551 495q-22 0 -38 4t-30 9h1q-18 6 -40 12t-58 6q-34 0 -63 -4.5t-50.5 -12.5t-33.5 -19.5t-12 -26.5q0 -14 12.5 -23t24.5 -9q8 0 16.5 2t19.5 5t24 6t25 3q14 0 31.5 -4.5t33 -14.5t26 -26t10.5 -39q0 -13 -4.5 -18.5t-10.5 -10.5l2 1l-11 -11q-12 -12 -33 -14.5
t-43 -2.5h-2q-62 0 -104.5 -11t-68.5 -32t-37.5 -52t-11.5 -71q0 -27 14.5 -52t38 -45t53.5 -32t60 -12q50 0 79.5 9.5t53.5 20.5q17 8 35 14.5t44 6.5q28 0 47 -6.5t37 -14.5q24 -11 52.5 -19.5t74.5 -8.5q27 0 55.5 6t52.5 16.5t39 24t15 29.5q0 21 -8.5 32t-30.5 11
q-14 0 -25 -4t-22 -9q-13 -6 -29.5 -12t-38.5 -6q-21 0 -40.5 6.5t-34 17.5t-23.5 27t-9 34q0 32 27.5 50t82.5 18q32 0 46.5 -3t25.5 -6q11 -4 23.5 -6.5t35.5 -2.5q28 0 47 8t30 21t15.5 27.5t4.5 28.5q0 39 -17 78t-47.5 70.5t-72 51t-90.5 19.5q-42 0 -63 -5.5
t-38 -13.5q-13 -5 -28.5 -10t-46.5 -5zM707 440q15 0 32.5 -4t31.5 -13t23.5 -23.5t9.5 -35.5q0 -27 -20.5 -44.5t-62.5 -17.5q-17 0 -35 3t-32.5 10.5t-23.5 21t-9 33.5q0 29 24.5 49.5t61.5 20.5zM378 236q3 0 15 -2t25 -9t23 -19t10 -31q0 -11 -4.5 -25.5t-14.5 -28.5
t-26 -23.5t-38 -9.5q-47 0 -70 22.5t-23 47.5q0 16 11 30.5t26.5 25t33.5 16.5t32 6z" />
    <glyph glyph-name="ccedilla" unicode="&#xe7;" horiz-adv-x="444" 
d="M23 267q0 -53 11.5 -90.5t29.5 -63.5t39.5 -44t42.5 -33q13 -10 22.5 -17t14.5 -12t10 -9.5t9 -8.5q11 -8 18 -16t18 -27q6 -11 11.5 -19t10.5 -16q11 -15 17.5 -27t6.5 -26q0 -9 1.5 -20.5t6.5 -21t14 -16t24 -6.5q25 0 31.5 14.5t6.5 35.5v8q0 23 -9.5 36t-21.5 26
q-9 10 -16.5 20.5t-7.5 24.5q0 11 16.5 21t35.5 20q26 13 47 28.5t21 42.5q0 32 -15 41.5t-44 9.5q-8 0 -16 -0.5t-16 -1.5q-11 -1 -21 -1.5t-23 -0.5q-34 0 -60 12.5t-44 34t-27.5 49.5t-9.5 58q0 36 13.5 63t34 44.5t43.5 26.5t43 9q1 0 16 -3q11 -2 26.5 -4t32.5 -2
q29 0 50 10.5t21 41.5q0 7 -4 20.5t-18.5 26t-43 22t-78.5 9.5q-41 0 -88.5 -15t-88 -47.5t-67 -83.5t-26.5 -123z" />
    <glyph glyph-name="egrave" unicode="&#xe8;" horiz-adv-x="511" 
d="M203 700q0 -14 8.5 -40.5t21.5 -54t28 -50t28 -28.5q-60 -3 -110 -22t-85 -53.5t-54.5 -84.5t-19.5 -113v-2q0 -52 23 -98t60.5 -80.5t86.5 -54.5t101 -20h2q45 0 77 9t52 22t29 26.5t9 22.5q0 25 -10.5 38t-36.5 13q-16 0 -31 -5t-30 -11q-14 -5 -29 -10t-35 -5
q-17 0 -35 5t-34 14.5t-26 23.5t-10 32q0 17 9.5 28t24 17.5t31.5 9t32 2.5q32 0 56.5 -3t43.5 -5q13 -2 24 -3t25 -1q51 0 78.5 24t27.5 64q0 48 -18 88t-48 69t-69.5 45.5t-82.5 18.5q18 4 24.5 19.5t6.5 47.5q0 14 -6 41t-17 54t-28 47.5t-39 20.5q-30 0 -42.5 -13.5
t-12.5 -44.5zM181 365q0 15 7.5 29.5t20 25.5t29.5 17.5t35 6.5q19 0 38.5 -5.5t35.5 -16t25.5 -25.5t9.5 -34q0 -30 -28.5 -43t-68.5 -13q-15 0 -33.5 2.5t-34 9t-26 17.5t-10.5 29z" />
    <glyph glyph-name="eacute" unicode="&#xe9;" horiz-adv-x="511" 
d="M535 307q0 49 -18.5 89.5t-49.5 70t-71.5 45.5t-85.5 16q-65 0 -118 -18t-91.5 -52.5t-59.5 -86t-21 -117.5v-2q0 -52 23 -98t60.5 -80.5t86.5 -54.5t101 -20h2q45 0 77 9t52 22t29 26.5t9 22.5q0 25 -10.5 38t-36.5 13q-16 0 -31 -5t-30 -11q-14 -5 -29 -10t-35 -5
q-17 0 -35 5t-34 14.5t-26 23.5t-10 32q0 17 9.5 28t24 17.5t31.5 9t32 2.5q32 0 56.5 -3t43.5 -5q13 -2 24 -3t25 -1q51 0 78.5 24t27.5 64zM360 701q0 31 -12.5 44.5t-42.5 13.5q-22 0 -39 -20.5t-28 -47.5t-17 -54t-6 -41q0 -40 10.5 -54.5t41.5 -14.5q12 0 28.5 21.5
t30.5 50.5t24 58t10 44zM181 365q0 15 7.5 29.5t20 25.5t29.5 17.5t35 6.5q19 0 38.5 -5.5t35.5 -16t25.5 -25.5t9.5 -34q0 -30 -28.5 -43t-68.5 -13q-15 0 -33.5 2.5t-34 9t-26 17.5t-10.5 29z" />
    <glyph glyph-name="ecircumflex" unicode="&#xea;" horiz-adv-x="511" 
d="M535 307q0 49 -18.5 89.5t-49.5 70t-71.5 45.5t-85.5 16q-65 0 -118 -18t-91.5 -52.5t-59.5 -86t-21 -117.5v-2q0 -52 23 -98t60.5 -80.5t86.5 -54.5t101 -20h2q45 0 77 9t52 22t29 26.5t9 22.5q0 25 -10.5 38t-36.5 13q-16 0 -31 -5t-30 -11q-14 -5 -29 -10t-35 -5
q-17 0 -35 5t-34 14.5t-26 23.5t-10 32q0 17 9.5 28t24 17.5t31.5 9t32 2.5q32 0 56.5 -3t43.5 -5q13 -2 24 -3t25 -1q51 0 78.5 24t27.5 64zM389 541q16 0 23 9t7 23q0 10 -12.5 31.5t-32.5 43t-44 37.5t-46 16q-24 0 -46.5 -16t-40 -38t-28 -43.5t-10.5 -32.5q0 -10 8 -20
t19 -10q23 0 38.5 13t29.5 27q8 8 16.5 15.5t13.5 7.5t13 -7t18 -16q16 -14 33.5 -27t40.5 -13zM181 365q0 15 7.5 29.5t20 25.5t29.5 17.5t35 6.5q19 0 38.5 -5.5t35.5 -16t25.5 -25.5t9.5 -34q0 -30 -28.5 -43t-68.5 -13q-15 0 -33.5 2.5t-34 9t-26 17.5t-10.5 29z" />
    <glyph glyph-name="edieresis" unicode="&#xeb;" horiz-adv-x="511" 
d="M535 307q0 49 -18.5 89.5t-49.5 70t-71.5 45.5t-85.5 16q-65 0 -118 -18t-91.5 -52.5t-59.5 -86t-21 -117.5v-2q0 -52 23 -98t60.5 -80.5t86.5 -54.5t101 -20h2q45 0 77 9t52 22t29 26.5t9 22.5q0 25 -10.5 38t-36.5 13q-16 0 -31 -5t-30 -11q-14 -5 -29 -10t-35 -5
q-17 0 -35 5t-34 14.5t-26 23.5t-10 32q0 17 9.5 28t24 17.5t31.5 9t32 2.5q32 0 56.5 -3t43.5 -5q13 -2 24 -3t25 -1q51 0 78.5 24t27.5 64zM181 365q0 15 7.5 29.5t20 25.5t29.5 17.5t35 6.5q19 0 38.5 -5.5t35.5 -16t25.5 -25.5t9.5 -34q0 -30 -28.5 -43t-68.5 -13
q-15 0 -33.5 2.5t-34 9t-26 17.5t-10.5 29zM400 666q-32 0 -47 -18.5t-15 -40.5q0 -24 16 -43.5t46 -19.5q31 0 48.5 19.5t17.5 43.5q0 22 -15.5 40.5t-50.5 18.5zM181 666q-32 0 -47 -18.5t-15 -40.5q0 -24 16 -43.5t46 -19.5q32 0 48.5 19.5t16.5 43.5q0 22 -15.5 40.5
t-49.5 18.5z" />
    <glyph glyph-name="igrave" unicode="&#xec;" horiz-adv-x="241" 
d="M201 412q0 15 -2.5 34.5t-10 37t-20.5 29.5t-34 12t-33.5 -12t-19 -29.5t-9 -37t-2.5 -34.5v-308q0 -13 2.5 -30.5t9 -33t19 -26.5t33.5 -11q20 0 33 10.5t20.5 26.5t10.5 33t3 31v308zM54 706q0 -15 10 -44t24 -58t30.5 -50.5t28.5 -21.5q31 0 41.5 14.5t10.5 54.5
q0 14 -6 41t-17 54t-28 47.5t-39 20.5q-30 0 -42.5 -13.5t-12.5 -44.5z" />
    <glyph glyph-name="iacute" unicode="&#xed;" horiz-adv-x="241" 
d="M201 412q0 15 -2.5 34.5t-10 37t-20.5 29.5t-34 12t-33.5 -12t-19 -29.5t-9 -37t-2.5 -34.5v-308q0 -13 2.5 -30.5t9 -33t19 -26.5t33.5 -11q20 0 33 10.5t20.5 26.5t10.5 33t3 31v308zM210 706q0 31 -12.5 44.5t-42.5 13.5q-22 0 -39 -20.5t-28 -47.5t-17 -54t-6 -41
q0 -40 10.5 -54.5t41.5 -14.5q12 0 28.5 21.5t30.5 50.5t24 58t10 44z" />
    <glyph glyph-name="icircumflex" unicode="&#xee;" horiz-adv-x="241" 
d="M201 412q0 15 -2.5 34.5t-10 37t-20.5 29.5t-34 12t-33.5 -12t-19 -29.5t-9 -37t-2.5 -34.5v-308q0 -13 2.5 -30.5t9 -33t19 -26.5t33.5 -11q20 0 33 10.5t20.5 26.5t10.5 33t3 31v308zM233 549q16 0 23 9t7 23q0 10 -12.5 31.5t-32.5 43t-44 37.5t-46 16
q-24 0 -46.5 -16t-40 -38t-28 -43.5t-10.5 -32.5q0 -10 8 -20t19 -10q23 0 38.5 13t29.5 27q8 8 16.5 15.5t13.5 7.5t13 -7t18 -16q16 -14 33.5 -27t40.5 -13z" />
    <glyph glyph-name="idieresis" unicode="&#xef;" horiz-adv-x="241" 
d="M201 412q0 15 -2.5 34.5t-10 37t-20.5 29.5t-34 12t-33.5 -12t-19 -29.5t-9 -37t-2.5 -34.5v-308q0 -13 2.5 -30.5t9 -33t19 -26.5t33.5 -11q20 0 33 10.5t20.5 26.5t10.5 33t3 31v308zM201 657q-32 0 -47 -18.5t-15 -40.5q0 -24 16 -43.5t46 -19.5q31 0 48.5 19.5
t17.5 43.5q0 22 -15.5 40.5t-50.5 18.5zM67 657q-32 0 -47 -18.5t-15 -40.5q0 -24 16 -43.5t46 -19.5q32 0 48.5 19.5t16.5 43.5q0 22 -15.5 40.5t-49.5 18.5z" />
    <glyph glyph-name="eth" unicode="&#xf0;" horiz-adv-x="557" 
d="M413 625q11 20 11 34t-5.5 23.5t-17.5 18.5q-8 5 -16 7t-16 2q-14 0 -29 -5q-20 23 -41.5 36.5t-44.5 13.5q-30 0 -40.5 -14.5t-10.5 -39.5q0 -20 9.5 -38.5t22.5 -38.5q0 -1 2 -3q-2 -2 -2.5 -3t-1.5 -2q-19 -30 -19 -48q0 -23 27 -41q3 -2 6.5 -3t10.5 -1q8 0 17 3
q-3 -18 -18.5 -25.5t-36.5 -13.5q-26 -8 -55 -20t-57 -40q-12 -12 -24.5 -28t-23 -38t-17.5 -51t-7 -66q0 -54 19 -100t53.5 -80t83.5 -53.5t108 -19.5q62 0 111 18t83.5 51.5t53 80.5t18.5 105q0 40 -9 76.5t-24 69.5t-34 64.5t-39 63.5q-3 5 -5.5 9.5t-5.5 9.5v-1l-47 73
q6 6 10 12zM427 254q0 -27 -10 -51.5t-27.5 -43t-41 -29.5t-50.5 -11t-50 10.5t-40.5 28t-27.5 40.5t-10 49q0 38 14 64t33.5 41.5t41 22.5t36.5 7q29 0 53.5 -12t42 -31t27 -41.5t9.5 -43.5z" />
    <glyph glyph-name="ntilde" unicode="&#xf1;" horiz-adv-x="572" 
d="M558 302q0 67 -16.5 112t-44 71t-63.5 37t-75 11q-47 0 -70.5 -7.5t-39.5 -15.5q-11 -5 -22.5 -9.5t-30.5 -4.5q-18 0 -26 4h1q-10 4 -22.5 6.5t-39.5 2.5q-35 0 -52 -34.5t-17 -83.5v-296q0 -42 19 -67.5t44 -25.5q38 0 54 29.5t16 79.5v155q0 31 7.5 58t21 47
t33.5 31.5t45 11.5q28 0 54.5 -6.5t47.5 -26.5t33.5 -58t12.5 -102v-123q0 -47 16.5 -71.5t47.5 -24.5q20 0 33 11t20.5 28t10 39t2.5 43v179zM363 665h-6q-13 0 -25.5 5t-25.5 10q-17 8 -35 14t-42 6h-11q-5 0 -10 -1h1q-38 -5 -52 -25t-14 -40q0 -2 0.5 -4.5t0.5 -4.5
q4 -21 13.5 -29t26.5 -8q2 0 5.5 0.5t5.5 0.5q5 1 9 2t11 3q4 2 8 2.5t8 1.5q5 1 10 1.5t7 0.5q15 0 26.5 -5t22.5 -10q15 -8 31 -14t38 -6h10q6 0 11 1h-1q23 3 42.5 21.5t19.5 44.5v8q-5 21 -14.5 29t-24.5 8h-5q-5 -2 -11 -3.5t-11 -3.5q-3 -2 -7 -2.5t-9 -1.5z" />
    <glyph glyph-name="ograve" unicode="&#xf2;" 
d="M566 261q0 66 -23.5 116.5t-62.5 85.5t-89.5 53t-104.5 18q-53 0 -103 -18.5t-89 -54t-62.5 -86t-23.5 -114.5q0 -63 22.5 -113t60.5 -85t88.5 -53.5t106.5 -18.5q64 0 116 22.5t88.5 60t56 86t19.5 101.5zM144 261q0 31 11 58.5t30 48.5t45 33t56 12q29 0 55 -11
t45.5 -31t31 -48t11.5 -62q0 -32 -12 -59t-32 -46.5t-46 -30.5t-53 -11q-33 0 -59 13t-44.5 33.5t-28.5 47t-10 53.5zM209 714q0 -15 10 -44t24 -58t30.5 -50.5t28.5 -21.5q31 0 41.5 14.5t10.5 54.5q0 14 -6 41t-17 54t-28 47.5t-39 20.5q-30 0 -42.5 -13.5t-12.5 -44.5z
" />
    <glyph glyph-name="oacute" unicode="&#xf3;" 
d="M566 261q0 66 -23.5 116.5t-62.5 85.5t-89.5 53t-104.5 18q-53 0 -103 -18.5t-89 -54t-62.5 -86t-23.5 -114.5q0 -63 22.5 -113t60.5 -85t88.5 -53.5t106.5 -18.5q64 0 116 22.5t88.5 60t56 86t19.5 101.5zM144 261q0 31 11 58.5t30 48.5t45 33t56 12q29 0 55 -11
t45.5 -31t31 -48t11.5 -62q0 -32 -12 -59t-32 -46.5t-46 -30.5t-53 -11q-33 0 -59 13t-44.5 33.5t-28.5 47t-10 53.5zM355 710q0 31 -12.5 44.5t-42.5 13.5q-22 0 -39 -20.5t-28 -47.5t-17 -54t-6 -41q0 -40 10.5 -54.5t41.5 -14.5q12 0 28.5 21.5t30.5 50.5t24 58t10 44z
" />
    <glyph glyph-name="ocircumflex" unicode="&#xf4;" 
d="M566 261q0 66 -23.5 116.5t-62.5 85.5t-89.5 53t-104.5 18q-53 0 -103 -18.5t-89 -54t-62.5 -86t-23.5 -114.5q0 -63 22.5 -113t60.5 -85t88.5 -53.5t106.5 -18.5q64 0 116 22.5t88.5 60t56 86t19.5 101.5zM144 261q0 31 11 58.5t30 48.5t45 33t56 12q29 0 55 -11
t45.5 -31t31 -48t11.5 -62q0 -32 -12 -59t-32 -46.5t-46 -30.5t-53 -11q-33 0 -59 13t-44.5 33.5t-28.5 47t-10 53.5zM382 546q16 0 23 9t7 23q0 10 -12.5 31.5t-32.5 43t-44 37.5t-46 16q-24 0 -46.5 -16t-40 -38t-28 -43.5t-10.5 -32.5q0 -10 8 -20t19 -10q23 0 38.5 13
t29.5 27q8 8 16.5 15.5t13.5 7.5t13 -7t18 -16q16 -14 33.5 -27t40.5 -13z" />
    <glyph glyph-name="otilde" unicode="&#xf5;" 
d="M566 261q0 66 -23.5 116.5t-62.5 85.5t-89.5 53t-104.5 18q-53 0 -103 -18.5t-89 -54t-62.5 -86t-23.5 -114.5q0 -63 22.5 -113t60.5 -85t88.5 -53.5t106.5 -18.5q64 0 116 22.5t88.5 60t56 86t19.5 101.5zM144 261q0 31 11 58.5t30 48.5t45 33t56 12q29 0 55 -11
t45.5 -31t31 -48t11.5 -62q0 -32 -12 -59t-32 -46.5t-46 -30.5t-53 -11q-33 0 -59 13t-44.5 33.5t-28.5 47t-10 53.5zM349 654h-6q-13 0 -25.5 5t-25.5 10q-17 8 -35 14t-42 6h-11q-5 0 -10 -1h1q-38 -5 -52 -25t-14 -40q0 -2 0.5 -4.5t0.5 -4.5q4 -21 13.5 -29t26.5 -8
q2 0 5.5 0.5t5.5 0.5q5 1 9 2t11 3q4 2 8 2.5t8 1.5q5 1 10 1.5t7 0.5q15 0 26.5 -5t22.5 -10q15 -8 31 -14t38 -6h10q6 0 11 1h-1q23 3 42.5 21.5t19.5 44.5v8q-5 21 -14.5 29t-24.5 8h-5q-5 -2 -11 -3.5t-11 -3.5q-3 -2 -7 -2.5t-9 -1.5z" />
    <glyph glyph-name="odieresis" unicode="&#xf6;" 
d="M566 261q0 66 -23.5 116.5t-62.5 85.5t-89.5 53t-104.5 18q-53 0 -103 -18.5t-89 -54t-62.5 -86t-23.5 -114.5q0 -63 22.5 -113t60.5 -85t88.5 -53.5t106.5 -18.5q64 0 116 22.5t88.5 60t56 86t19.5 101.5zM144 261q0 31 11 58.5t30 48.5t45 33t56 12q29 0 55 -11
t45.5 -31t31 -48t11.5 -62q0 -32 -12 -59t-32 -46.5t-46 -30.5t-53 -11q-33 0 -59 13t-44.5 33.5t-28.5 47t-10 53.5zM396 668q-32 0 -47 -18.5t-15 -40.5q0 -24 16 -43.5t46 -19.5q31 0 48.5 19.5t17.5 43.5q0 22 -15.5 40.5t-50.5 18.5zM177 668q-32 0 -47 -18.5
t-15 -40.5q0 -24 16 -43.5t46 -19.5q32 0 48.5 19.5t16.5 43.5q0 22 -15.5 40.5t-49.5 18.5z" />
    <glyph glyph-name="divide" unicode="&#xf7;" horiz-adv-x="590" 
d="M157 329q-36 0 -64 -15t-28 -44q0 -14 8 -24.5t20.5 -17t29 -9.5t34.5 -3h318q17 0 34 4t30.5 11t21.5 17t8 22q0 15 -8 26t-21.5 18.5t-30.5 11t-34 3.5h-318zM383 134q0 14 -5.5 26.5t-15 22t-22 15t-25.5 5.5q-29 0 -47.5 -21t-18.5 -48q0 -26 20 -46t46 -20
q12 0 24.5 5.5t22 14.5t15.5 21t6 25zM387 398q0 14 -5.5 26.5t-15 22t-22 15t-25.5 5.5q-29 0 -47.5 -21t-18.5 -48q0 -26 20 -46t46 -20q12 0 24.5 5.5t22 14.5t15.5 21t6 25z" />
    <glyph glyph-name="oslash" unicode="&#xf8;" 
d="M440 517q14 37 14 60q0 24 -20 44q-17 0 -37.5 -17t-35.5 -55l-10 -22q-17 3 -33 5t-32 2q-53 0 -103 -18.5t-89 -54t-62.5 -86t-23.5 -114.5q0 -85 39 -145t101 -93l-17 -43q-3 -5 -5.5 -15.5t-2.5 -21.5t5 -23.5t16 -23.5q17 0 37 18t30 41l17 42q28 -6 58 -6
q64 0 116 22.5t88.5 60t56 86t19.5 101.5q0 85 -37.5 144.5t-97.5 91.5zM144 261q0 31 11 58.5t30 48.5t45 33t56 12q5 0 9 -0.5t9 -1.5l-107 -265q-26 21 -39.5 52t-13.5 63zM429 261q0 -32 -12 -59t-32 -46.5t-46 -30.5t-53 -11h-10l106 260q22 -20 34.5 -49t12.5 -64z
" />
    <glyph glyph-name="ugrave" unicode="&#xf9;" horiz-adv-x="533" 
d="M105 521q-26 0 -45 -21.5t-19 -69.5v-227q0 -112 50 -166t135 -54q38 0 58.5 7t37.5 15q11 5 20.5 9t23.5 4t22 -1.5t16 -3.5q10 -3 21.5 -5t29.5 -2q42 0 56.5 33.5t14.5 96.5v259q0 26 -2 49t-8.5 40t-20 27t-36.5 10q-21 0 -34.5 -11t-21 -27.5t-10 -36t-2.5 -36.5
v-148q0 -27 -5.5 -55t-17.5 -51.5t-30 -38t-43 -14.5q-38 0 -62 13.5t-38 41.5t-19.5 69.5t-5.5 97.5v97q0 48 -16.5 73.5t-48.5 25.5zM197 703q0 -15 10 -44t24 -58t30.5 -50.5t28.5 -21.5q31 0 41.5 14.5t10.5 54.5q0 14 -6 41t-17 54t-28 47.5t-39 20.5
q-30 0 -42.5 -13.5t-12.5 -44.5z" />
    <glyph glyph-name="uacute" unicode="&#xfa;" horiz-adv-x="533" 
d="M105 521q-26 0 -45 -21.5t-19 -69.5v-227q0 -112 50 -166t135 -54q38 0 58.5 7t37.5 15q11 5 20.5 9t23.5 4t22 -1.5t16 -3.5q10 -3 21.5 -5t29.5 -2q42 0 56.5 33.5t14.5 96.5v259q0 26 -2 49t-8.5 40t-20 27t-36.5 10q-21 0 -34.5 -11t-21 -27.5t-10 -36t-2.5 -36.5
v-148q0 -27 -5.5 -55t-17.5 -51.5t-30 -38t-43 -14.5q-38 0 -62 13.5t-38 41.5t-19.5 69.5t-5.5 97.5v97q0 48 -16.5 73.5t-48.5 25.5zM353 710q0 31 -12.5 44.5t-42.5 13.5q-22 0 -39 -20.5t-28 -47.5t-17 -54t-6 -41q0 -40 10.5 -54.5t41.5 -14.5q12 0 28.5 21.5
t30.5 50.5t24 58t10 44z" />
    <glyph glyph-name="ucircumflex" unicode="&#xfb;" horiz-adv-x="533" 
d="M105 521q-26 0 -45 -21.5t-19 -69.5v-227q0 -112 50 -166t135 -54q38 0 58.5 7t37.5 15q11 5 20.5 9t23.5 4t22 -1.5t16 -3.5q10 -3 21.5 -5t29.5 -2q42 0 56.5 33.5t14.5 96.5v259q0 26 -2 49t-8.5 40t-20 27t-36.5 10q-21 0 -34.5 -11t-21 -27.5t-10 -36t-2.5 -36.5
v-148q0 -27 -5.5 -55t-17.5 -51.5t-30 -38t-43 -14.5q-38 0 -62 13.5t-38 41.5t-19.5 69.5t-5.5 97.5v97q0 48 -16.5 73.5t-48.5 25.5zM380 545q16 0 23 9t7 23q0 10 -12.5 31.5t-32.5 43t-44 37.5t-46 16q-24 0 -46.5 -16t-40 -38t-28 -43.5t-10.5 -32.5q0 -10 8 -20
t19 -10q23 0 38.5 13t29.5 27q8 8 16.5 15.5t13.5 7.5t13 -7t18 -16q16 -14 33.5 -27t40.5 -13z" />
    <glyph glyph-name="udieresis" unicode="&#xfc;" horiz-adv-x="533" 
d="M105 521q-26 0 -45 -21.5t-19 -69.5v-227q0 -112 50 -166t135 -54q38 0 58.5 7t37.5 15q11 5 20.5 9t23.5 4t22 -1.5t16 -3.5q10 -3 21.5 -5t29.5 -2q42 0 56.5 33.5t14.5 96.5v259q0 26 -2 49t-8.5 40t-20 27t-36.5 10q-21 0 -34.5 -11t-21 -27.5t-10 -36t-2.5 -36.5
v-148q0 -27 -5.5 -55t-17.5 -51.5t-30 -38t-43 -14.5q-38 0 -62 13.5t-38 41.5t-19.5 69.5t-5.5 97.5v97q0 48 -16.5 73.5t-48.5 25.5zM386 673q-32 0 -47 -18.5t-15 -40.5q0 -24 16 -43.5t46 -19.5q31 0 48.5 19.5t17.5 43.5q0 22 -15.5 40.5t-50.5 18.5zM167 673
q-32 0 -47 -18.5t-15 -40.5q0 -24 16 -43.5t46 -19.5q32 0 48.5 19.5t16.5 43.5q0 22 -15.5 40.5t-49.5 18.5z" />
    <glyph glyph-name="yacute" unicode="&#xfd;" horiz-adv-x="482" 
d="M65 520q-29 0 -40.5 -19.5t-11.5 -42.5q0 -20 9.5 -44t21.5 -53l-1 1q2 -6 5 -12.5t5 -12.5l103 -245q12 -27 16.5 -49.5t4.5 -43.5q0 -17 -5 -31.5t-12 -26.5t-14.5 -20.5t-12.5 -14.5h1q-11 -11 -27 -19t-31 -14q-25 -11 -42.5 -22.5t-17.5 -37.5q0 -21 20 -39.5
t58 -18.5q43 0 74.5 13t56 39.5t45 67t41.5 96.5l151 394q27 70 27 95q0 19 -12 36t-39 17q-21 0 -36.5 -10t-26 -26t-17.5 -34.5t-13 -35.5v1l-30 -85q-11 -32 -24 -54t-32 -22q-17 0 -31.5 22.5t-25.5 50.5l-35 88v-1q-8 21 -17.5 41.5t-21.5 36t-27 25.5t-36 10zM343 701
q0 31 -12.5 44.5t-42.5 13.5q-22 0 -39 -20.5t-28 -47.5t-17 -54t-6 -41q0 -40 10.5 -54.5t41.5 -14.5q12 0 28.5 21.5t30.5 50.5t24 58t10 44z" />
    <glyph glyph-name="thorn" unicode="&#xfe;" horiz-adv-x="597" 
d="M363 543h-7q-48 0 -80.5 -15.5t-56.5 -29.5q-11 -7 -20 -12t-13 -5h-1l-4 45v28q0 15 1 31q1 17 1.5 35t0.5 35q0 27 -2.5 51t-8.5 42t-17 29t-29 12q-32 0 -55 -23t-23 -70v-810q0 -17 1.5 -35t8 -33t19.5 -25t36 -10q21 0 34 11t20 28.5t9.5 39t2.5 42.5v41
q0 32 11.5 57t37.5 25q14 0 26 -3.5t25 -7.5h-1q16 -6 34 -10t45 -4q51 0 96 19.5t78.5 55t53 85.5t19.5 111q0 70 -23 121t-58.5 84t-78 49t-82.5 16zM314 425q29 0 57 -10.5t49.5 -30t34.5 -48t13 -65.5q0 -31 -11.5 -58t-32 -47.5t-48.5 -32t-62 -11.5q-28 0 -52 13
t-42 34.5t-28 48.5t-10 56q0 28 10.5 55t28.5 48.5t42 34.5t51 13z" />
    <glyph glyph-name="ydieresis" unicode="&#xff;" horiz-adv-x="482" 
d="M65 520q-29 0 -40.5 -19.5t-11.5 -42.5q0 -20 9.5 -44t21.5 -53l-1 1q2 -6 5 -12.5t5 -12.5l103 -245q12 -27 16.5 -49.5t4.5 -43.5q0 -17 -5 -31.5t-12 -26.5t-14.5 -20.5t-12.5 -14.5h1q-11 -11 -27 -19t-31 -14q-25 -11 -42.5 -22.5t-17.5 -37.5q0 -21 20 -39.5
t58 -18.5q43 0 74.5 13t56 39.5t45 67t41.5 96.5l151 394q27 70 27 95q0 19 -12 36t-39 17q-21 0 -36.5 -10t-26 -26t-17.5 -34.5t-13 -35.5v1l-30 -85q-11 -32 -24 -54t-32 -22q-17 0 -31.5 22.5t-25.5 50.5l-35 88v-1q-8 21 -17.5 41.5t-21.5 36t-27 25.5t-36 10zM360 666
q-32 0 -47 -18.5t-15 -40.5q0 -24 16 -43.5t46 -19.5q31 0 48.5 19.5t17.5 43.5q0 22 -15.5 40.5t-50.5 18.5zM141 666q-32 0 -47 -18.5t-15 -40.5q0 -24 16 -43.5t46 -19.5q32 0 48.5 19.5t16.5 43.5q0 22 -15.5 40.5t-49.5 18.5z" />
    </font>
</defs>
</svg>
