<?xml version="1.0" standalone="no"?>
<!DOCTYPE svg PUBLIC "-//W3C//DTD SVG 1.1//EN" "http://www.w3.org/Graphics/SVG/1.1/DTD/svg11.dtd" >
<svg xmlns="http://www.w3.org/2000/svg" xmlns:xlink="http://www.w3.org/1999/xlink" version="1.1">
<metadata>
Created by FontForge 20161116 at Sat Apr  6 19:06:08 2013
 By Jimmy Wärting
Typeface (c)Galdino Otten. 2013. All Rights Reserved
</metadata>
<defs>
<font id="OldSerifGut" horiz-adv-x="1014" >
  <font-face 
    font-family="Old Serif Gut"
    font-weight="400"
    font-stretch="normal"
    units-per-em="2048"
    panose-1="2 0 5 0 0 0 0 0 0 0"
    ascent="1638"
    descent="-410"
    x-height="1293"
    cap-height="1431"
    bbox="-342 -442 2278.78 1716"
    underline-thickness="150"
    underline-position="-292"
    unicode-range="U+0020-F002"
  />
<missing-glyph horiz-adv-x="1024" 
d="M100 0v1434h824v-1434h-824zM150 50h724v1334h-724v-1334zM569 299q1 136 1 272q21 -7 37 -14q42 -17 54 -79q11 -59 -12 -110q-24 -52 -69 -66q-2 -1 -11 -3zM440 850q-41 15 -53 74q-11 55 8 104t59 70q11 5 24 10v-136v-136zM647 777q-32 10 -77 26v313q24 -4 47 -14
q71 -31 87 -121q1 -3 4 -13q2 -9 3 -15q21 2 38 4v230q-8 1 -19 2q-10 1 -14 1q-87 8 -145 5q0 33 3 43q3 9 16 21q-1 -1 2 0q12 3 7 41h-151v-27q10 -7 24 -31q5 -9 5 -31v-27q-13 -3 -36 -10q-81 -26 -133 -97q-63 -86 -59 -215q4 -147 90 -195q44 -25 118 -55q1 0 21 -8
v-157v-157q-21 1 -43 4q-119 17 -146 149q-1 9 -11 9q2 0 -30 -2v-231q8 -1 16 -3q10 -3 11 -3q117 -26 202 -22v-9q0 -22 -5 -31q-15 -25 -24 -31v-38h151q2 29 1 36t-10 15q-1 1 -5 4q-4 2 -5 3q-17 16 -17 60v5q122 33 184 141q76 130 43 272q-28 122 -143 159z" />
    <glyph glyph-name=".notdef" horiz-adv-x="1024" 
d="M100 0v1434h824v-1434h-824zM150 50h724v1334h-724v-1334zM569 299q1 136 1 272q21 -7 37 -14q42 -17 54 -79q11 -59 -12 -110q-24 -52 -69 -66q-2 -1 -11 -3zM440 850q-41 15 -53 74q-11 55 8 104t59 70q11 5 24 10v-136v-136zM647 777q-32 10 -77 26v313q24 -4 47 -14
q71 -31 87 -121q1 -3 4 -13q2 -9 3 -15q21 2 38 4v230q-8 1 -19 2q-10 1 -14 1q-87 8 -145 5q0 33 3 43q3 9 16 21q-1 -1 2 0q12 3 7 41h-151v-27q10 -7 24 -31q5 -9 5 -31v-27q-13 -3 -36 -10q-81 -26 -133 -97q-63 -86 -59 -215q4 -147 90 -195q44 -25 118 -55q1 0 21 -8
v-157v-157q-21 1 -43 4q-119 17 -146 149q-1 9 -11 9q2 0 -30 -2v-231q8 -1 16 -3q10 -3 11 -3q117 -26 202 -22v-9q0 -22 -5 -31q-15 -25 -24 -31v-38h151q2 29 1 36t-10 15q-1 1 -5 4q-4 2 -5 3q-17 16 -17 60v5q122 33 184 141q76 130 43 272q-28 122 -143 159z" />
    <glyph glyph-name=".null" horiz-adv-x="0" 
 />
    <glyph glyph-name="nonmarkingreturn" horiz-adv-x="508" 
 />
    <glyph glyph-name="space" unicode=" " horiz-adv-x="508" 
 />
    <glyph glyph-name="space" unicode="&#xa0;" horiz-adv-x="508" 
 />
    <glyph glyph-name="exclam" unicode="!" horiz-adv-x="682" 
d="M360 359h-38l-88 810q-6 53 -6 79q0 63 33.5 101t80.5 38t79.5 -38t32.5 -113q0 -24 -4 -67zM340 193q46 0 78.5 -32.5t32.5 -77.5q0 -46 -32.5 -78.5t-78.5 -32.5t-78.5 32.5t-32.5 78.5q0 45 32.5 77.5t78.5 32.5z" />
    <glyph glyph-name="quotedbl" unicode="&#x22;" horiz-adv-x="836" 
d="M576 803l-54 292l-22 121q-2 25 -2 50q0 63 28 92t74 29q43 0 71.5 -29t28.5 -78q0 -85 -19 -184l-57 -293h-48zM210 803l-55 296q-22 122 -22 166q0 64 26.5 93t71.5 29q44 0 73 -29.5t29 -78.5q0 -39 -26 -181l-54 -295h-43z" />
    <glyph glyph-name="numbersign" unicode="#" horiz-adv-x="1024" 
d="M115 -28l93 455h-171v82h187l69 343h-256v80h275l91 455h83l-91 -455h337l97 455h83l-95 -455h170v-80h-185l-70 -343h255v-82h-272l-93 -455h-81l91 455h-339l-95 -455h-83zM308 509h339l72 343h-341z" />
    <glyph glyph-name="dollar" unicode="$" horiz-adv-x="1100" 
d="M626 324v304q37 -9 65 -16q75 -19 95 -88q20 -66 -22 -123q-41 -58 -120 -74q-3 0 -18 -3zM399 939q-72 17 -93 82q-19 62 14 117t104 77q18 6 42 12v-152v-152zM762 857q-57 12 -136 30v349q43 -4 83 -16q125 -35 152 -135q1 -4 6 -14q5 -11 7 -17q37 2 65 4v257
q-13 1 -31 2q-19 1 -26 2q-152 8 -253 5q0 37 5 48q5 10 28 23q-1 -1 2 0q21 3 13 46h-264v-30q17 -8 41 -35q9 -10 9 -34v-31q-23 -3 -63 -11q-142 -29 -232 -108q-111 -96 -105 -240q8 -163 159 -218q77 -27 206 -60q3 -1 38 -9v-175v-176q-38 2 -76 5q-209 19 -255 166
q-3 9 -20 10q3 0 -53 -3v-257q15 -2 28 -4q17 -3 20 -3q204 -29 353 -24v-10q0 -25 -8 -35q-26 -27 -42 -35v-42h264q4 32 2 40q-3 8 -17 17q-2 1 -9 4t-9 4q-30 17 -30 67v5q213 37 323 158q132 145 75 303q-50 136 -250 177z" />
    <glyph glyph-name="percent" unicode="%" horiz-adv-x="1706" 
d="M1392 1387l-988 -1443h-89l988 1443h89zM364 1387q135 0 209.5 -112t74.5 -257q0 -174 -84 -269t-202 -95q-79 0 -145 43.5t-105.5 129.5t-39.5 191t40 193.5t109.5 132t142.5 43.5zM361 1331q-51 0 -90.5 -60t-39.5 -252q0 -139 22 -212q17 -55 53 -85q21 -18 52 -18
q48 0 82 52q50 77 50 257q0 190 -49 267q-32 51 -80 51zM1346 673q71 0 141.5 -45t109 -131t38.5 -189q0 -177 -85 -270.5t-201 -93.5q-73 0 -141.5 45t-108 128.5t-39.5 190.5q0 105 39.5 192t108 130t138.5 43zM1347 620q-48 0 -83 -54q-45 -70 -45 -265q0 -179 46 -250
q34 -51 82 -51q46 0 82 55q48 73 48 251q0 188 -48 263q-33 51 -82 51z" />
    <glyph glyph-name="ampersand" unicode="&#x26;" horiz-adv-x="1873" 
d="M732 1492h52q145 0 236 -144q28 -51 28 -120q0 -220 -336 -376q0 -8 -12 -8l-4 -4v-4q116 -214 284 -440q117 148 156 248h100v-4q-50 -102 -204 -308q322 -376 536 -376q137 0 192 160q40 -23 40 -36q-41 -153 -140 -232q-82 -48 -160 -48q-244 0 -624 372
q-223 -212 -472 -212q-280 0 -376 244l-8 60v36q0 277 444 516q-88 192 -88 316q0 269 284 352zM564 1224q0 -103 92 -312q264 132 264 316q0 128 -112 176l-60 8q-135 0 -180 -164zM244 388q0 -203 188 -280q42 -12 84 -12q151 0 304 144q-230 298 -316 500
q-260 -154 -260 -352z" />
    <glyph glyph-name="quotesingle" unicode="'" horiz-adv-x="369" 
d="M158 803l-54 296q-23 123 -23 166q0 64 26 93t71 29t74.5 -29.5t29.5 -77.5q0 -37 -26 -182l-54 -295h-44z" />
    <glyph glyph-name="parenleft" unicode="(" horiz-adv-x="682" 
d="M636 -401v-37q-151 76 -252 178q-144 145 -222 342t-78 409q0 310 153 565.5t399 365.5v-42q-123 -68 -202 -186t-118 -299t-39 -378q0 -214 33 -389q26 -138 63 -221.5t99.5 -160.5t163.5 -147z" />
    <glyph glyph-name="parenright" unicode=")" horiz-adv-x="682" 
d="M46 1380v42q152 -75 253 -177q143 -146 221 -342.5t78 -409.5q0 -310 -152.5 -565.5t-399.5 -365.5v37q123 69 202.5 186.5t118 299t38.5 378.5q0 213 -33 389q-25 138 -62.5 221t-99.5 160t-164 147z" />
    <glyph glyph-name="asterisk" unicode="*" horiz-adv-x="1024" 
d="M494 1044q-4 69 -28 137q-34 98 -34 135q0 52 24.5 79t60.5 27q31 0 54 -27t23 -77q0 -45 -26.5 -125.5t-32.5 -148.5q55 35 99 85q68 79 101 98t67 19q33 0 55.5 -22.5t22.5 -53.5q0 -37 -33 -66t-165 -58q-77 -17 -128 -39q52 -27 127 -41q121 -22 158.5 -55t37.5 -72
q0 -30 -22.5 -52t-52.5 -22t-66.5 21t-98.5 94q-41 49 -102 92q2 -57 23 -124q36 -118 36 -161q0 -40 -24 -67.5t-51 -27.5q-37 0 -67 29q-21 21 -21 67q0 48 23 115.5t29 93t11 75.5q-59 -39 -103 -87q-73 -82 -110 -104q-26 -16 -54 -16q-34 0 -58 23t-24 51
q0 25 20.5 52.5t61.5 45.5q27 12 123 32q62 13 121 38q-54 27 -129 42q-123 26 -152 47q-45 33 -45 80q0 27 22.5 49.5t52.5 22.5q33 0 70 -21t92 -84.5t112 -98.5z" />
    <glyph glyph-name="plus" unicode="+" horiz-adv-x="1155" 
d="M535 141v499h-498v82h498v497h80v-497h500v-82h-500v-499h-80z" />
    <glyph glyph-name="comma" unicode="," horiz-adv-x="557" 
d="M224 0q-50 2 -86 44q-38 44 -38 106t38 106q36 42 86 44q12 2 25 2q22 0 42 -6l4 4q44 0 88.5 -65.5t44.5 -151.5q0 -109 -71 -226.5t-139 -117.5v43q73 43 87 190q0 19 -3 36q-25 -10 -53 -10q-13 0 -25 2z" />
    <glyph glyph-name="hyphen" unicode="-" horiz-adv-x="670" 
d="M156 409q-40 0 -40 28v83q0 29 41 29h356q41 0 41 -29v-83q0 -28 -40 -28h-358z" />
    <glyph glyph-name="hyphen" unicode="&#xad;" horiz-adv-x="670" 
d="M156 409q-40 0 -40 28v83q0 29 41 29h356q41 0 41 -29v-83q0 -28 -40 -28h-358z" />
    <glyph glyph-name="period" unicode="." horiz-adv-x="557" 
d="M256 274q60 0 102 -44t42 -107q0 -64 -42 -108.5t-102 -44.5t-102 44.5t-42 108.5q0 63 42 107t102 44z" />
    <glyph glyph-name="slash" unicode="/" horiz-adv-x="569" 
d="M93 -50h-80l541 1484h80z" />
    <glyph glyph-name="zero" unicode="0" horiz-adv-x="1200" 
d="M684 214q-86 -148 -176 -118q-89 30 -137 225q-54 217 -20 524q32 285 112 422q74 128 172 105l-1 -2q10 0 16 -2q7 -2 15 -8l1 2q95 -44 136 -211q45 -181 13 -465q-34 -308 -131 -472zM592 1466h-2q-243 0 -380 -201q-138 -202 -138 -517q0 -219 61 -389
q61 -169 174 -263q113 -93 277 -93h3h4h4h4q163 0 276 93q113 94 174 263q61 170 61 389q0 315 -138 517q-137 201 -380 201z" />
    <glyph glyph-name="one" unicode="1" horiz-adv-x="800" 
d="M556 1325q15 15 46 26v95h-305l-12 -45q-40 -169 -96 -223q-47 -46 -104 -46q1 0 -18 1q-21 2 -49 2v-102q27 0 41 -1h11q92 0 182 50v-931q-30 -28 -164 -39v-122h631v122q-148 25 -163 39v1174z" />
    <glyph glyph-name="two" unicode="2" horiz-adv-x="1100" 
d="M964 462q-9 -140 -95 -214q-87 -76 -247 -76h-353q12 10 136 77q126 67 169 100q200 153 314 346q69 117 83 258q20 209 -109 367q-119 145 -390 145h-1v0h-1h-1q-166 0 -314 -111l-89 -339h120q34 130 93 178q142 115 260 59q80 -38 119 -127q86 -197 -11 -428
q-79 -190 -218 -295q-58 -44 -381 -228v-168q182 -4 973 -4l29 460h-86zM964 462q-9 -140 -95 -214q-87 -76 -247 -76h-353q12 10 136 77q126 67 169 100q200 153 314 346q69 117 83 258q20 209 -109 367q-119 145 -390 145h-1v0h-1h-1q-166 0 -314 -111l-89 -339h120
q34 130 93 178q142 115 260 59q80 -38 119 -127q86 -197 -11 -428q-79 -190 -218 -295q-58 -44 -381 -228v-168q182 -4 973 -4l29 460h-86z" />
    <glyph glyph-name="three" unicode="3" horiz-adv-x="1200" 
d="M910 732q1 1 6 4q4 3 7 5q146 110 146 286q0 10 -1 20v5q1 3 1 5q0 173 -146 283t-403 110h-3q-157 0 -351 -108l-92 -283h116q17 99 98 166q83 70 191 70q122 0 207 -75q85 -76 85 -185t-92 -186q-91 -77 -214 -77q2 0 -2 2q-3 1 -20 1v-81q41 2 59 2q131 0 228 -87
q99 -87 99 -209q0 -123 -88 -209q-89 -86 -218 -86q-119 0 -206 74q-86 74 -101 184l-114 18l38 -260q121 -95 344 -129h1h2q264 -41 440 45q176 85 216 255q0 1 1 4q0 4 1 5q2 10 5 20q41 173 -84 304q-61 64 -156 107zM910 732q1 1 6 4q4 3 7 5q146 110 146 286
q0 10 -1 20v5q1 3 1 5q0 173 -146 283t-403 110h-3q-157 0 -351 -108l-92 -283h116q17 99 98 166q83 70 191 70q122 0 207 -75q85 -76 85 -185t-92 -186q-91 -77 -214 -77q2 0 -2 2q-3 1 -20 1v-81q41 2 59 2q131 0 228 -87q99 -87 99 -209q0 -123 -88 -209
q-89 -86 -218 -86q-119 0 -206 74q-86 74 -101 184l-114 18l38 -260q121 -95 344 -129h1h2q264 -41 440 45q176 85 216 255q0 1 1 4q0 4 1 5q2 10 5 20q41 173 -84 304q-61 64 -156 107z" />
    <glyph glyph-name="four" unicode="4" horiz-adv-x="1300" 
d="M419 731q147 202 218 302v-518q-47 -1 -191 -2q-137 0 -172 -1q23 52 145 219zM965 358q155 7 181 -36v196h-81q-56 -1 -100 -1v807q52 21 52 25v87h-340l-14 -41q-18 -67 -301 -496q-136 -214 -269 -415l-67 -88q2 2 -7 -16v-8v0q-3 0 4 -6q9 -6 21 -12l593 3v-185
q-43 -27 -191 -38v-126h700v126q-164 24 -181 38v186zM419 731q147 202 218 302v-518q-47 -1 -191 -2q-137 0 -172 -1q23 52 145 219zM965 358q155 7 181 -36v196h-81q-56 -1 -100 -1v807q52 21 52 25v87h-340l-14 -41q-18 -67 -301 -496q-136 -214 -269 -415l-67 -88
q2 2 -7 -16v-8v0q-3 0 4 -6q9 -6 21 -12l593 3v-185q-43 -27 -191 -38v-126h700v126q-164 24 -181 38v186z" />
    <glyph glyph-name="five" unicode="5" 
d="M899 805q-111 150 -336 120q-146 -19 -293 -100v360h168q128 0 544 -41l-15 293q-488 -4 -846 -7v-745l131 -102q43 116 100 153q140 91 245 33q72 -41 98 -122q73 -227 -40 -388q-46 -65 -113 -103q-64 -36 -125 -36q-107 0 -186 72q-78 71 -92 176l-103 17l34 -249
q110 -91 312 -124h1h2q225 -37 399 43q191 88 213 328q13 154 -28 268q-20 86 -70 154z" />
    <glyph glyph-name="six" unicode="6" horiz-adv-x="1054" 
d="M713 236q-39 -89 -128 -115q-94 -1 -164 72q-90 92 -121 259q-29 154 13 249q38 88 127 107v-2q8 3 14 4t15 1v1q91 7 159 -64q75 -78 104 -232q32 -167 -19 -280zM556 968h-3q-128 0 -225 -49q46 170 201 302q68 58 146 97q100 50 133 46l-63 92q-73 -6 -171 -56
q-91 -45 -183 -124q-196 -167 -266 -343q-145 -362 -23 -645q75 -173 198 -250q101 -63 248 -63h6h7q147 0 248 63t155 178q55 116 55 264q0 215 -123 351q-123 137 -340 137zM713 236q-39 -89 -128 -115q-94 -1 -164 72q-90 92 -121 259q-29 154 13 249q38 88 127 107v-2
q8 3 14 4t15 1v1q91 7 159 -64q75 -78 104 -232q32 -167 -19 -280zM556 968h-3q-128 0 -225 -49q46 170 201 302q68 58 146 97q100 50 133 46l-63 92q-73 -6 -171 -56q-91 -45 -183 -124q-196 -167 -266 -343q-145 -362 -23 -645q75 -173 198 -250q101 -63 248 -63h6h7
q147 0 248 63t155 178q55 116 55 264q0 215 -123 351q-123 137 -340 137z" />
    <glyph glyph-name="seven" unicode="7" horiz-adv-x="1100" 
d="M75 902h87q8 130 95 191q84 60 249 60h355q-354 -309 -546 -708q-137 -286 -137 -445h284q115 595 373 936q129 170 235 221v238q-183 4 -972 16z" />
    <glyph glyph-name="eight" unicode="8" horiz-adv-x="1300" 
d="M700 850q108 22 139 109q24 66 24 124q0 17 -3 34q-10 72 -46 136.5t-89 96.5q-49 30 -94 30h-8q-51 -3 -94 -41t-61 -105q-11 -44 -11 -89q0 -24 3 -50q11 -71 46 -134.5t194 -110.5zM567 732q-107 -19 -170 -139q-52 -101 -52 -181q0 -16 2 -31q13 -91 57.5 -172.5
t111.5 -123.5q60 -39 120 -39h12q66 4 120 53t76 135q14 54 14 111q0 32 -4 65q-11 98 -69.5 186.5t-217.5 135.5zM794 806q58 -13 113 -34q141 -56 221 -158t80 -213q0 -112 -78 -213t-219 -157t-295 -56t-295 56t-218.5 157t-77.5 213q0 111 79 213t221 158q56 21 113 34
q-33 9 -66 21q-119 44 -183.5 122.5t-64.5 165.5q0 86 66 165.5t183.5 122.5t242.5 43q124 0 242.5 -43t184.5 -122.5t66 -165.5q0 -87 -64.5 -165.5t-181.5 -122.5q-35 -13 -69 -21z" />
    <glyph glyph-name="nine" unicode="9" horiz-adv-x="1054" 
d="M352 1194q39 89 128 115q94 1 164 -71q90 -93 121 -260q29 -154 -13 -248q-38 -88 -127 -107v1q-8 -3 -14 -4t-15 0v-1q-91 -8 -160 64q-74 77 -103 231q-32 167 19 280zM509 462h3q128 0 225 49q-47 -169 -201 -302q-68 -58 -146 -97q-100 -50 -133 -45l63 -92
q73 5 171 55q91 45 183 124q196 168 266 344q145 362 23 644q-75 173 -198 250q-101 64 -248 64h-6h-7q-147 0 -248 -64q-101 -63 -156 -178q-54 -115 -54 -264q0 -214 123 -351t340 -137zM352 1194q39 89 128 115q94 1 164 -71q90 -93 121 -260q29 -154 -13 -248
q-38 -88 -127 -107v1q-8 -3 -14 -4t-15 0v-1q-91 -8 -160 64q-74 77 -103 231q-32 167 19 280zM509 462h3q128 0 225 49q-47 -169 -201 -302q-68 -58 -146 -97q-100 -50 -133 -45l63 -92q73 5 171 55q91 45 183 124q196 168 266 344q145 362 23 644q-75 173 -198 250
q-101 64 -248 64h-6h-7q-147 0 -248 -64q-101 -63 -156 -178q-54 -115 -54 -264q0 -214 123 -351t340 -137z" />
    <glyph glyph-name="colon" unicode=":" horiz-adv-x="569" 
d="M249 945q60 0 102 -44t42 -107q0 -64 -42 -108.5t-102 -44.5t-102 44.5t-42 108.5q0 63 42 107t102 44zM256 274q60 0 102 -44t42 -107q0 -64 -42 -108.5t-102 -44.5t-102 44.5t-42 108.5q0 63 42 107t102 44z" />
    <glyph glyph-name="semicolon" unicode=";" horiz-adv-x="569" 
d="M249 945q60 0 102 -44t42 -107q0 -64 -42 -108.5t-102 -44.5t-102 44.5t-42 108.5q0 63 42 107t102 44zM224 0q-50 2 -86 44q-38 44 -38 106t38 106q36 42 86 44q12 2 25 2q22 0 42 -6l4 4q44 0 88.5 -65.5t44.5 -151.5q0 -109 -71 -226.5t-139 -117.5v43q73 43 87 190
q0 19 -3 36q-25 -10 -53 -10q-13 0 -25 2z" />
    <glyph glyph-name="semicolon" unicode="&#x37e;" horiz-adv-x="569" 
d="M249 945q60 0 102 -44t42 -107q0 -64 -42 -108.5t-102 -44.5t-102 44.5t-42 108.5q0 63 42 107t102 44zM224 0q-50 2 -86 44q-38 44 -38 106t38 106q36 42 86 44q12 2 25 2q22 0 42 -6l4 4q44 0 88.5 -65.5t44.5 -151.5q0 -109 -71 -226.5t-139 -117.5v43q73 43 87 190
q0 19 -3 36q-25 -10 -53 -10q-13 0 -25 2z" />
    <glyph glyph-name="less" unicode="&#x3c;" horiz-adv-x="1155" 
d="M37 702l1076 470v-91l-817 -406l817 -402v-86l-1076 466v49z" />
    <glyph glyph-name="equal" unicode="=" horiz-adv-x="1155" 
d="M85 1004h1023v-161h-1023v161zM85 661h1023v-161h-1023v161z" />
    <glyph glyph-name="greater" unicode="&#x3e;" horiz-adv-x="1155" 
d="M1113 653l-1076 -466v86l817 402l-817 406v91l1076 -470v-49z" />
    <glyph glyph-name="question" unicode="?" horiz-adv-x="909" 
d="M454 320h-41q7 126 31.5 208.5t101.5 229.5q60 113 78 173.5t18 122.5q0 127 -67.5 202t-165.5 75q-87 0 -137 -41t-50 -89q0 -37 30 -91t30 -82q0 -36 -23 -60.5t-56 -24.5q-42 0 -76.5 41.5t-34.5 115.5q0 113 97 200t263 87q206 0 303 -120q72 -88 72 -195
q0 -73 -32.5 -150t-123.5 -181q-145 -164 -177.5 -232.5t-39.5 -188.5zM440 196q47 0 79.5 -32.5t32.5 -79.5q0 -46 -33 -78.5t-79 -32.5t-78.5 32.5t-32.5 78.5q0 47 32.5 79.5t78.5 32.5z" />
    <glyph glyph-name="at" unicode="@" horiz-adv-x="1886" 
d="M1408 958l-117 -399q-65 -224 -79 -284t-14 -96q0 -32 21.5 -54t53.5 -22q73 0 175.5 73t175.5 237t73 342q0 171 -82.5 316t-233 222.5t-332.5 77.5q-231 0 -429 -122.5t-313.5 -352.5t-115.5 -478q0 -230 101.5 -418t285.5 -284.5t396 -96.5q263 0 475.5 141t328.5 412
h58q-90 -274 -327 -444t-540 -170q-238 0 -442 112.5t-317 319t-113 454.5q0 264 124 492.5t347.5 357t474.5 128.5q207 0 373.5 -85.5t253.5 -250t87 -349.5q0 -183 -81.5 -362.5t-207.5 -261.5t-263 -82q-76 0 -114.5 36t-38.5 101q0 56 18 147q-148 -179 -237 -232
t-157 -53q-71 0 -126 63.5t-55 169.5q0 145 94.5 325t250.5 293q115 83 206 83q67 0 111.5 -34.5t60.5 -103.5l33 110zM1057 917q-75 0 -152 -79q-113 -116 -193 -313q-59 -144 -59 -232q0 -63 35.5 -102.5t79.5 -39.5q58 0 122 44t134 135.5t102 183.5q56 159 56 259
q0 66 -36.5 105t-88.5 39z" />
    <glyph glyph-name="A" unicode="A" horiz-adv-x="1700" 
d="M771 1147q-310 -665 -344 -739h641q-178 455 -288 738zM379 300q-44 -79 -85 -143q-23 -35 13 -52q9 -4 109 -40v-65h-416v78q69 -4 114 30q37 27 68 91q117 240 298 604q283 565 301 602q17 33 53 31q49 -4 101 0q33 2 47 -29q536 -1218 542 -1231q35 -82 153 -101v-75
h-656v67q100 30 107 33q43 17 26 61q-5 14 -47 139h-728z" />
    <glyph glyph-name="B" unicode="B" horiz-adv-x="1300" 
d="M606 809q96 23 153 73q82 70 85 170q4 100 -73 176q-103 103 -303 117q-20 1 -28 -6q-9 -8 -9 -28q1 -56 1 -482q0 -2 1 -27q76 -17 173 7zM433 708q-1 -620 -1 -600q0 -24 26 -25q195 -5 324 81q134 89 138 230q4 140 -126 233q-129 92 -358 95q-3 -13 -3 -14zM1013 755
q207 -88 243 -274q42 -222 -163 -377q-135 -103 -314 -104h-718h-39v46q77 29 87 34q21 11 21 34q2 614 0 1199q0 21 -23 37q-21 15 -52 20q-47 8 -32 55q31 2 33 2h638q174 -1 296 -104q123 -104 120 -247t-130 -242q-4 -3 -66 -45q95 -33 99 -34z" />
    <glyph glyph-name="C" unicode="C" horiz-adv-x="1600" 
d="M1479 1054q-5 -17 -26 -17q-7 0 -68 8q-2 13 -2 14q22 144 -130 226q-104 56 -239 66q-137 9 -265 -30q-137 -43 -232 -132q-104 -99 -139 -240q-78 -313 85 -552q185 -270 572 -281q111 -3 217 11q16 2 214 44q0 -61 -2 -69q-1 -11 -26 -21q-147 -64 -334 -76
q-331 -22 -574 61q-267 91 -400 292q-126 190 -108 435q17 227 187 394q163 160 419 218q439 100 925 -45q1 0 10 -6q-64 -231 -84 -300z" />
    <glyph glyph-name="D" unicode="D" horiz-adv-x="1653" 
d="M468 1306v-1114q0 -28 27 -41q166 -84 363 -46q296 57 397 314q62 159 38 365q-29 250 -203 404q-124 110 -293 140q-134 25 -329 2v-24zM40 18v57q89 25 98 27q36 12 36 52q-2 581 0 1175q0 41 -36 53q-8 2 -97 27v27l12 3q175 0 168 0q547 16 533 16q286 0 488 -110
q195 -107 288 -299q86 -178 70 -394q-17 -234 -180 -404q-159 -166 -408 -220q-156 -34 -423 -25q-69 2 -504 15h-45z" />
    <glyph glyph-name="E" unicode="E" horiz-adv-x="1300" 
d="M30 0v42q99 26 111 29q35 10 35 49q-2 538 0 1188q0 35 -31 44q-7 2 -114 33v41h1228v-328q-33 24 -34 25q-88 202 -328 198q-26 -1 -396 -1v-486q359 13 368 15q128 28 156 130q0 1 30 25v-447q-27 21 -28 23q2 -3 -7 31q-31 120 -143 130q-33 3 -377 19v-653h37h391
q197 2 291 163q9 17 13 20q10 8 26 2v-292h-1228z" />
    <glyph glyph-name="F" unicode="F" horiz-adv-x="1200" 
d="M31 0v43q98 31 110 34q24 9 24 40q-1 683 0 1203q0 35 -29 44q-11 4 -106 32v40h1136v-375q0 -1 -6 -5q-15 22 -15 23q-16 109 -101 180q-90 76 -215 71h-326h-37v-458l4 -4q278 9 309 12q131 13 163 133q0 1 36 26v-440q-4 0 -32 -2q-5 27 -5 28q-23 140 -153 153
q-24 2 -323 13q-1 -37 -1 -38q0 -526 -1 -629q0 -37 33 -46q9 -3 100 -30v-48h-565z" />
    <glyph glyph-name="G" unicode="G" horiz-adv-x="1658" 
d="M1341 1049q-77 11 -78 11l-4 8q24 176 -166 260q-101 45 -223 43q-126 -1 -236 -53q-264 -122 -297 -437q-23 -225 48 -390q146 -338 528 -369q178 -14 338 31q29 8 29 40q-4 223 -1 410q1 48 -47 54q-28 3 -89 10q-59 7 -90 10q-5 1 -68 7v37h667q11 -36 -24 -47
q-35 -12 -45 -28q-10 -15 -10 -53q0 -322 1 -377q0 -39 -36 -51q-388 -134 -390 -134q-432 -91 -756 86q-380 207 -361 674q9 243 173 418q156 168 402 223q386 86 805 -52l10 -7q-22 -91 -80 -324z" />
    <glyph glyph-name="H" unicode="H" horiz-adv-x="1600" 
d="M1034 0v45q96 29 108 33q26 11 26 35q1 160 1 671h-705q-1 -27 -1 -29q0 -544 -1 -632q0 -34 29 -42q10 -3 107 -33v-48h-567v45q96 29 105 32q29 9 29 44q-2 600 0 1199q0 35 -29 45q-10 3 -106 32v38h561q10 -28 6 -36t-30 -15q-78 -20 -91 -36q-13 -17 -13 -96v-384
h704q2 27 2 28q0 384 1 424q0 35 -29 45q-10 3 -107 32v38h538q13 -41 -27 -55q-58 -20 -68 -35q-9 -13 -9 -75q0 -875 -1 -1144q0 -39 32 -47q-4 1 39 -15q32 -13 36 -21t-3 -43h-537z" />
    <glyph glyph-name="I" unicode="I" horiz-adv-x="600" 
d="M30 0v44q78 32 86 37q20 11 20 36q1 605 0 1205q0 25 -20 36q-9 5 -86 37v36h536q15 -47 -28 -51q2 0 -6 -2q-51 -15 -61 -28q-9 -12 -9 -65q0 -922 -2 -1146q0 -56 50 -71q4 -1 12 -4t12 -4q31 -9 35 -17q4 -7 -3 -43h-536z" />
    <glyph glyph-name="J" unicode="J" horiz-adv-x="657" 
d="M607 1442q7 -23 1 -34q-6 -14 -31 -19q-78 -18 -92 -36q-13 -17 -13 -98q0 -53 2 -278v-278q0 -408 -2 -681q-1 -127 -80 -231q-79 -103 -212 -152q-131 -50 -220 -29v73h17q68 -9 120 31q50 39 62 107t12 127q0 161 1 684q0 426 1 685q0 50 -45 65q-33 11 -34 11
q-41 4 -29 53h542z" />
    <glyph glyph-name="K" unicode="K" horiz-adv-x="1600" 
d="M849 0v42q149 37 165 41q43 12 12 46q-130 142 -490 532q0 1 -8 5q-69 -56 -79 -66q-11 -9 -11 -28v-229v-228q-1 -25 24 -32q12 -4 111 -36v-47h-540v48q71 25 77 27q31 12 30 47q-1 599 0 1197q1 36 -29 48q-41 15 -46 16q-46 6 -30 54h537q6 -23 1 -34q-6 -14 -30 -19
q-77 -19 -90 -36t-13 -97v-448q30 24 30 25q514 442 676 588q34 31 79 30q22 -1 217 -1v-75q-95 -17 -113 -20t-25 -9q-187 -167 -542 -465l-5 -8q130 -148 139 -158q445 -505 510 -580q51 -59 130 -72q2 -1 42 -9v-49h-729z" />
    <glyph glyph-name="L" unicode="L" horiz-adv-x="1200" 
d="M20 0v42q98 31 110 35q25 8 25 40q-1 680 0 1203q0 34 -29 44q-10 3 -105 32v40h562q8 -31 4 -39q-4 -7 -33 -15q-76 -20 -88 -36q-13 -16 -13 -92v-1145q39 -1 40 -1q226 -1 352 0q106 0 186 66t102 170q0 2 13 35q3 -1 11 -4v-375h-1137z" />
    <glyph glyph-name="M" unicode="M" horiz-adv-x="2100" 
d="M296 1276q0 -208 -1 -583v-583q0 -37 33 -42q13 -2 157 -26v-46h-432v44q89 25 102 29q33 10 33 51q-2 627 0 1196q0 42 -36 53q-56 18 -66 19q-27 1 -33 14q-6 11 1 37q27 1 28 1q434 1 492 1q30 0 42 -30q107 -282 423 -1109l10 -23q15 36 16 37q323 815 432 1092
q13 33 50 33q75 -1 458 -1h35v-46q-94 -29 -102 -31q-31 -9 -31 -45v-534v-662q0 -40 34 -49q8 -2 101 -30v-48h-624v46q127 23 135 24q40 9 48 19q7 10 7 51v1209q-2 1 -5 3q-12 -25 -13 -25q-382 -905 -550 -1302q-12 -29 -40 -27q-1 0 -67 -3q-39 -1 -57 10
q-18 12 -31 48q-2 8 -10 32q-6 20 -10 31q-85 207 -243 593q-167 407 -243 593l-14 28q-1 0 -6 1h-6q-17 -48 -17 -50z" />
    <glyph glyph-name="N" unicode="N" horiz-adv-x="1700" 
d="M0 3v48q107 23 117 25q45 9 45 58q-2 537 0 1179q0 42 -35 53q-10 3 -101 28v40l33 1q449 1 517 1q32 0 47 -28q177 -327 679 -1255l18 -32q4 28 4 29q0 991 1 1182q0 33 -33 38q-15 3 -155 23v40h510v-41q-138 -29 -152 -32q-36 -6 -36 -49q1 -571 0 -1182q0 -39 31 -47
q7 -1 21 -8t21 -8q49 -9 34 -64q-30 -1 -31 -1q-420 -1 -474 -1q-31 0 -47 29q-196 365 -697 1293l-18 32q-2 -32 -2 -33q-1 -1004 -1 -1205q0 -36 32 -41q12 -2 129 -24v-48h-457z" />
    <glyph glyph-name="O" unicode="O" horiz-adv-x="1748" 
d="M760 67q-221 65 -330 242q-139 226 -84 539q50 290 221 425q159 125 381 94l-1 -2q22 -1 37 -3q14 -3 35 -10v2q219 -52 325 -227q116 -189 66 -478q-55 -313 -261 -475q-161 -126 -389 -107zM877 1464h-4q-400 0 -628 -204q-227 -205 -227 -526q0 -222 101 -394
q100 -172 287 -267q186 -95 457 -95q-3 0 12 0q16 0 13 0q270 0 457 95q186 95 287 267t101 394q0 321 -228 526q-227 204 -628 204zM760 67q-221 65 -330 242q-139 226 -84 539q50 290 221 425q159 125 381 94l-1 -2q22 -1 37 -3q14 -3 35 -10v2q219 -52 325 -227
q116 -189 66 -478q-55 -313 -261 -475q-161 -126 -389 -107zM877 1464h-4q-400 0 -628 -204q-227 -205 -227 -526q0 -222 101 -394q100 -172 287 -267q186 -95 457 -95q-3 0 12 0q16 0 13 0q270 0 457 95q186 95 287 267t101 394q0 321 -228 526q-227 204 -628 204z" />
    <glyph glyph-name="P" unicode="P" horiz-adv-x="1153" 
d="M460 1344v-600q-1 -25 26 -23q120 8 130 11q194 43 242 216q48 176 -92 304q-109 99 -303 104zM22 0v44q100 31 111 34q25 9 25 41q-1 644 0 1217q0 34 -27 43q-63 22 -75 22q-26 2 -33 16q-6 11 0 38h681q167 0 285 -111t128 -277q8 -140 -93 -261q-101 -120 -246 -141
q-39 -6 -86 -7h-232v-33q0 -410 -1 -501q0 -36 29 -43q7 -2 22 -10q15 -7 23 -8q50 -11 33 -63h-544z" />
    <glyph glyph-name="Q" unicode="Q" horiz-adv-x="1800" 
d="M1182 148l-22 -15q-26 36 -50 57q-125 108 -396 134l-61 -58q29 -6 49 -12q66 -21 120 -67q45 -39 108 -145q-73 -10 -148 -3q-227 66 -339 247q-142 232 -87 552q52 296 228 435q163 128 391 96v-2q22 0 37 -3t36 -10v2q224 -54 334 -232q119 -194 67 -490
q-55 -321 -267 -486zM903 1469h-5q-411 0 -644 -210q-234 -209 -234 -537q0 -228 103 -404q104 -177 295 -274q192 -97 470 -97q-3 0 12 1q16 -1 13 -1q35 0 69 2q42 -76 82 -111q72 -62 210 -101q106 -29 225 -37l61 59q-140 31 -218 99q-44 38 -96 133q75 22 137 53
q191 97 295 274q103 176 103 404q0 328 -234 537q-233 210 -644 210zM1182 148l-22 -15q-26 36 -50 57q-125 108 -396 134l-61 -58q29 -6 49 -12q66 -21 120 -67q45 -39 108 -145q-73 -10 -148 -3q-227 66 -339 247q-142 232 -87 552q52 296 228 435q163 128 391 96v-2
q22 0 37 -3t36 -10v2q224 -54 334 -232q119 -194 67 -490q-55 -321 -267 -486zM903 1469h-5q-411 0 -644 -210q-234 -209 -234 -537q0 -228 103 -404q104 -177 295 -274q192 -97 470 -97q-3 0 12 1q16 -1 13 -1q35 0 69 2q42 -76 82 -111q72 -62 210 -101q106 -29 225 -37
l61 59q-140 31 -218 99q-44 38 -96 133q75 22 137 53q191 97 295 274q103 176 103 404q0 328 -234 537q-233 210 -644 210z" />
    <glyph glyph-name="R" unicode="R" horiz-adv-x="1353" 
d="M450 771q99 -17 210 9q117 27 184 89q94 85 95 196q2 111 -91 191q-133 115 -398 95v-580zM20 1435q31 1 32 1q659 1 743 0q196 -2 317 -147q87 -105 77 -237q-9 -131 -110 -224q-93 -84 -220 -105q-16 -3 -22 -4q-1 0 -14 -6q36 -17 40 -18q210 -102 291 -292
q9 -21 19 -59q12 -44 18 -60q62 -173 84 -218q56 -117 185 -117q17 0 25 -17q2 -4 13 -51q-128 -8 -277 57q-224 97 -310 297q-9 21 -20 59q-12 45 -17 60q-57 161 -77 204q-64 143 -221 134q-6 -1 -126 -1q-2 -30 -2 -31v-522q0 -35 28 -42q7 -2 22 -9q14 -7 23 -8
q45 -9 31 -63h-531v45q95 28 103 31q30 10 30 46q-2 591 0 1181q0 37 -30 47q-8 2 -104 30v39z" />
    <glyph glyph-name="S" unicode="S" horiz-adv-x="1148" 
d="M24 -3q51 -9 51 -10q334 -54 553 -16q253 43 386 216q146 189 79 406q-56 183 -284 238q-131 31 -411 109q-82 22 -106 110q-22 82 15 156q38 73 118 104q161 61 324 7q142 -47 173 -181q0 -1 7 -42q36 2 69 5v344q-53 5 -59 5q-341 23 -539 -25q-161 -38 -264 -144
q-126 -129 -119 -322q8 -219 179 -291q88 -37 234 -81q48 -15 149 -41q99 -26 149 -42q85 -26 109 -118q22 -88 -25 -165q-47 -78 -137 -98q-123 -29 -288 -11q-237 25 -289 221q-4 14 -19 15q-6 0 -55 -4v-345z" />
    <glyph glyph-name="T" unicode="T" horiz-adv-x="1448" 
d="M399 0v64q121 29 133 32q33 9 33 46q-1 234 -1 1130q0 2 -2 39q-269 2 -288 -1q-173 -31 -201 -237q-1 -7 -7 -51h-36q1 19 24 414h1343q6 -103 24 -413h-37q-10 63 -10 65q-37 213 -246 231q-15 2 -260 -18v-33q0 -867 -1 -1124q0 -37 35 -45q10 -3 130 -33v-66h-633z
" />
    <glyph glyph-name="U" unicode="U" horiz-adv-x="1553" 
d="M1173 1436h351v-46q-72 -28 -79 -31q-28 -8 -28 -43q-1 -501 -5 -716q-2 -176 -50 -316q-62 -184 -228 -242q-370 -131 -713 20q-225 99 -234 373q-1 59 -1 693v187q2 39 -32 50q-9 3 -104 30v40h568q8 -31 3 -39q-4 -7 -32 -15q-77 -20 -90 -37q-12 -16 -12 -95
q1 -550 3 -683q0 -36 5 -92q6 -76 7 -92q7 -110 115 -177q123 -76 282 -69q104 5 181 25q188 48 208 268q17 176 21 396q2 90 1 242q-1 179 0 241q0 48 -42 60q-9 3 -95 26v42z" />
    <glyph glyph-name="V" unicode="V" horiz-adv-x="1548" 
d="M20 1431h618v-56q-91 -33 -98 -37q-37 -18 -23 -58q59 -171 328 -958q0 -2 12 -34q16 35 17 38q97 226 404 947q25 57 -32 78q-6 2 -91 21v59h374q2 -39 1 -43q-4 -21 -20 -24q-78 -13 -111 -90q-104 -238 -271 -621q-215 -493 -271 -621q-15 -34 -47 -32q-39 4 -94 0
q-27 -1 -38 26q-76 187 -387 946q-109 264 -124 306q-25 65 -113 84q-2 1 -34 6v63z" />
    <glyph glyph-name="W" unicode="W" horiz-adv-x="2300" 
d="M9 1379q27 -4 29 -5q85 -15 115 -90q92 -227 459 -1124q4 -11 10 -31q7 -23 10 -31q13 -36 30 -47q18 -12 57 -11q67 3 66 3q24 -2 34 24q62 156 246 617q1 3 62 154q15 -33 15 -34q218 -541 296 -736q11 -27 36 -25q46 3 95 0q30 -2 42 27q63 142 269 611
q167 379 267 611q32 72 97 79q40 5 34 46q0 2 -2 23h-365v-59q41 -6 45 -6q29 -6 42 -12q29 -12 36 -30q6 -17 -5 -45q-207 -482 -401 -936q-1 -1 -13 -24l-9 19q-283 802 -335 949q-11 30 12 43q9 6 95 49v52h-577v-61q28 -4 31 -5q84 -16 111 -86q21 -57 58 -147
q47 -113 60 -147q9 -22 1 -44q-32 -89 -152 -412q-8 -19 -81 -216l-6 11q-245 690 -342 966q-3 8 0 19q3 12 8 16q12 8 97 55v52h-577v-62z" />
    <glyph glyph-name="X" unicode="X" horiz-adv-x="1643" 
d="M970 2q-3 10 -9 33q-7 22 -10 34q69 18 73 20q65 27 25 86q-102 150 -289 422q-1 1 -22 28q-22 -25 -75 -86q-48 -54 -74 -85q-205 -235 -257 -295q-19 -21 -15 -40q3 -19 28 -30q5 -2 87 -24q-12 -45 -14 -49q-7 -15 -21 -15q-95 -1 -397 -1q14 51 16 56q7 13 24 16
q105 15 176 100q52 62 449 521q0 -1 12 14l-15 24q-405 553 -414 566q-35 47 -122 68q-42 9 -50 19t-14 57h603q47 0 56 -8t17 -57q-73 -19 -77 -21q-56 -25 -20 -77q110 -163 250 -370q1 -1 20 -27q247 322 295 385q12 16 7 33q-4 17 -24 26q-6 3 -90 27q12 45 15 51
q4 11 19 11q96 1 392 1q0 -40 -11 -55q-11 -14 -46 -20q-92 -16 -147 -90q-41 -55 -349 -451q23 -31 77 -106q49 -67 77 -105q275 -375 305 -418q54 -77 138 -88q50 -7 58 -59q1 -1 6 -21h-663z" />
    <glyph glyph-name="Y" unicode="Y" horiz-adv-x="1648" 
d="M542 -4h566q4 37 -1 44q-5 8 -37 17q-11 3 -34 11q-22 7 -34 10q-29 8 -29 39q0 90 1 282v282q0 25 17 47q65 80 224 278q142 177 223 279q39 49 98 65q11 3 33 7q22 5 33 8q17 4 22 14q3 5 19 56h-355q-44 0 -54 -8q-9 -7 -20 -50l2 -6q73 -18 78 -20q61 -25 17 -75
q-255 -291 -382 -437q-1 -1 -23 -24q-21 26 -21 27q-180 262 -287 420q-43 63 30 90q4 1 65 16q-5 19 -5 20q-2 28 -17 38q-13 10 -43 10q-89 -1 -577 -1h-35q4 -47 14 -58q8 -10 50 -21q80 -22 110 -65q41 -60 236 -340q145 -208 236 -340q13 -19 13 -42q1 -75 1 -226v-227
q0 -33 -27 -42q-10 -3 -107 -32v-46z" />
    <glyph glyph-name="Z" unicode="Z" horiz-adv-x="1457" 
d="M484 161l327 478l28 42l33 51l34 49l319 460q49 73 81 96q33 24 92 32l36 67h-1212l-24 -417h61q9 141 71 199q66 62 226 62h408l-344 -477l-27 -30l-34 -44l-33 -47l-334 -479q-19 -24 -44 -59q-22 -30 -30 -40q-26 -31 -57 -32l-39 -67h1291l24 468h-61
q-24 -312 -297 -312h-495z" />
    <glyph glyph-name="bracketleft" unicode="[" horiz-adv-x="500" 
d="M190 -100h210v-100h-310v1600h310v-100h-210v-1400z" />
    <glyph glyph-name="backslash" unicode="\" horiz-adv-x="569" 
d="M13 1434h80l541 -1484h-80z" />
    <glyph glyph-name="bracketright" unicode="]" horiz-adv-x="500" 
d="M300 1300h-210v100h310v-1600h-310v100h210v1400z" />
    <glyph glyph-name="asciicircum" unicode="^" 
d="M218 900l265 318h42l268 -318h-98l-193 202l-192 -202h-92z" />
    <glyph glyph-name="underscore" unicode="_" horiz-adv-x="1024" 
d="M0 -100h1024v-60h-1024v60z" />
    <glyph glyph-name="grave" unicode="`" horiz-adv-x="1024" 
d="M673 1079h-69l-330 202q-31 20 -46.5 40t-15.5 42q0 31 20.5 51t53.5 20q20 0 40.5 -12t55.5 -47z" />
    <glyph glyph-name="a" unicode="a" horiz-adv-x="1700" 
d="M771 1037q-310 -601 -344 -668h641q-178 411 -288 667zM379 271q-44 -71 -85 -129q-23 -32 13 -47q9 -4 109 -36v-59h-416v71q69 -4 114 27q37 24 68 82q117 217 298 546q283 511 301 544q17 30 53 28q49 -4 101 0q33 2 47 -26q536 -1101 542 -1113q35 -74 153 -91v-68
h-656v61q100 27 107 29q43 16 26 56q-5 12 -47 125h-728z" />
    <glyph glyph-name="b" unicode="b" horiz-adv-x="1300" 
d="M606 738q96 22 153 67q82 65 85 156q4 91 -73 161q-103 93 -303 106q-20 1 -28 -6q-9 -6 -9 -25q1 -51 1 -440q0 -1 1 -25q76 -15 173 6zM433 647q-1 -567 -1 -548q0 -22 26 -23q195 -5 324 73q134 82 138 210q4 129 -126 214q-129 84 -358 86zM1013 689
q207 -80 243 -250q42 -202 -163 -344q-135 -94 -314 -95h-718h-39v42q77 27 87 31q21 10 21 31q2 561 0 1095q0 19 -23 34q-21 13 -52 18q-47 7 -32 51q31 1 33 1h638q174 -1 296 -95q123 -95 120 -225q-3 -131 -130 -221q-4 -3 -66 -42q95 -29 99 -31z" />
    <glyph glyph-name="c" unicode="c" horiz-adv-x="1600" 
d="M1479 965q-5 -15 -26 -15q-7 0 -68 8q-2 11 -2 12q22 133 -130 207q-104 52 -239 61q-137 9 -265 -28q-137 -39 -232 -121q-104 -90 -139 -219q-78 -287 85 -506q185 -248 572 -258q111 -2 217 10q16 2 214 41q0 -56 -2 -63q-1 -10 -26 -20q-147 -58 -334 -70
q-331 -20 -574 56q-267 84 -400 268q-126 174 -108 399q17 208 187 360q163 147 419 200q439 92 925 -41q1 0 10 -5q-64 -212 -84 -276z" />
    <glyph glyph-name="d" unicode="d" horiz-adv-x="1653" 
d="M468 1177v-1004q0 -25 27 -37q166 -75 363 -41q296 51 397 283q62 143 38 329q-29 226 -203 364q-124 99 -293 127q-134 22 -329 1v-22zM40 16v52q89 22 98 24q36 10 36 47q-2 524 0 1060q0 37 -36 47q-8 2 -97 25v24l12 2q175 1 168 1q547 14 533 14q286 0 488 -99
q195 -96 288 -270q86 -160 70 -355q-17 -211 -180 -364q-159 -150 -408 -199q-156 -31 -423 -22q-69 2 -504 13h-45z" />
    <glyph glyph-name="e" unicode="e" horiz-adv-x="1300" 
d="M30 0v38q99 24 111 27q35 9 35 44q-2 490 0 1082q0 32 -31 40q-7 2 -114 29v38h1228v-299q-33 22 -34 23q-88 184 -328 180h-396v-443q359 12 368 14q128 25 156 118q0 1 30 23v-407q-27 20 -28 21q2 -3 -7 28q-31 109 -143 119q-33 2 -377 17v-595h37h391q197 2 291 149
q9 15 13 18q10 7 26 2v-266h-1228z" />
    <glyph glyph-name="f" unicode="f" horiz-adv-x="1200" 
d="M31 0v39q98 28 110 31q24 8 24 36q-1 621 0 1094q0 31 -29 40q-11 3 -106 29v36h1136v-341q0 -1 -6 -4q-15 20 -15 21q-16 99 -101 163q-90 69 -215 65h-326h-37v-417l4 -3q278 8 309 11q131 12 163 121l36 23v-400q-4 0 -32 -1q-5 24 -5 25q-23 127 -153 139
q-24 2 -323 12q-1 -34 -1 -35q0 -478 -1 -571q0 -34 33 -42q9 -3 100 -27v-44h-565z" />
    <glyph glyph-name="g" unicode="g" horiz-adv-x="1658" 
d="M1341 934q-77 10 -78 10l-4 7q24 157 -166 232q-101 40 -223 38q-126 -1 -236 -47q-264 -109 -297 -389q-23 -201 48 -348q146 -301 528 -328q178 -13 338 27q29 7 29 36q-4 199 -1 365q1 43 -47 48q-28 3 -89 9q-59 6 -90 9q-5 1 -68 6v33h667q11 -32 -24 -42t-45 -25
q-10 -13 -10 -47q0 -287 1 -336q0 -34 -36 -45q-388 -119 -390 -119q-432 -81 -756 76q-380 185 -361 601q9 216 173 372q156 150 402 199q386 76 805 -47l10 -6q-22 -81 -80 -289z" />
    <glyph glyph-name="h" unicode="h" horiz-adv-x="1600" 
d="M1034 0v41q96 26 108 30q26 10 26 32q1 145 1 589h-705q-1 -25 -1 -26q0 -474 -1 -554q0 -31 29 -38q10 -3 107 -30v-44h-567v41q96 26 105 29q29 8 29 40q-2 545 0 1089q0 31 -29 40q-10 3 -106 29v35h561q10 -25 6 -33q-4 -7 -30 -13q-78 -18 -91 -33t-13 -87v-349h704
q2 25 2 26q0 348 1 385q0 31 -29 40q-10 3 -107 29v35h538q13 -37 -27 -50q-58 -18 -68 -32q-9 -12 -9 -68q0 -794 -1 -1039q0 -35 32 -42q-4 1 39 -14q32 -12 36 -19t-3 -39h-537z" />
    <glyph glyph-name="i" unicode="i" horiz-adv-x="600" 
d="M30 0v40q78 29 86 34q20 10 20 33q1 550 0 1097q0 23 -20 33q-9 4 -86 33v33h536q15 -43 -28 -46q2 0 -6 -2q-51 -14 -61 -26q-9 -11 -9 -59q0 -839 -2 -1043q0 -51 50 -65q4 -1 12 -4l12 -3q31 -9 35 -16q4 -6 -3 -39h-536z" />
    <glyph glyph-name="j" unicode="j" horiz-adv-x="657" 
d="M607 1298q7 -21 1 -31q-6 -13 -31 -18q-78 -16 -92 -33q-13 -16 -13 -90q0 -49 2 -257v-256q0 -376 -2 -628q-1 -117 -80 -213q-79 -95 -212 -140q-131 -46 -220 -26v67h17q68 -8 120 28q50 36 62 99t12 117q0 149 1 631q0 392 1 631q0 46 -45 60q-33 10 -34 10
q-41 4 -29 49h542z" />
    <glyph glyph-name="k" unicode="k" horiz-adv-x="1600" 
d="M849 0v38q149 34 165 37q43 11 12 42q-130 129 -490 483q0 1 -8 4q-69 -51 -79 -60q-11 -8 -11 -25v-208v-207q-1 -22 24 -29q12 -3 111 -32v-43h-540v44q71 22 77 24q31 11 30 43q-1 543 0 1086q1 32 -29 43q-41 14 -46 15q-46 5 -30 49h537q6 -21 1 -31q-6 -13 -30 -17
q-77 -17 -90 -33q-13 -15 -13 -88v-406q30 21 30 22q514 401 676 534q34 28 79 27q22 -1 217 -1v-68q-95 -15 -113 -18t-25 -8q-187 -152 -542 -422l-5 -7q130 -135 139 -144q445 -458 510 -526q51 -54 130 -65q2 -1 42 -9v-44h-729z" />
    <glyph glyph-name="l" unicode="l" horiz-adv-x="1200" 
d="M20 0v38q98 28 110 32q25 7 25 36q-1 614 0 1087q0 31 -29 40q-10 3 -105 29v36h562q8 -28 4 -35t-33 -14q-76 -18 -88 -32q-13 -15 -13 -84v-1034q39 -1 40 -1q226 -1 352 0q106 0 186 59q80 60 102 154q0 2 13 32q3 -1 11 -4v-339h-1137z" />
    <glyph glyph-name="m" unicode="m" horiz-adv-x="2100" 
d="M296 1151q0 -188 -1 -526v-527q0 -33 33 -38q13 -1 157 -23v-42h-432v40q89 23 102 26q33 9 33 46q-2 566 0 1080q0 38 -36 48q-56 16 -66 17q-27 1 -33 13q-6 10 1 33q27 1 28 1q434 1 492 1q30 0 42 -27q107 -255 423 -1001l10 -21q15 32 16 33q323 736 432 986
q13 30 50 30q75 -1 458 -1h35v-41q-94 -27 -102 -28q-31 -9 -31 -41v-482v-598q0 -36 34 -44q8 -2 101 -27v-43h-624v41q127 21 135 22q40 8 48 17q7 9 7 46v1091q-2 1 -5 3q-12 -22 -13 -22q-382 -818 -550 -1176q-12 -26 -40 -24q-1 0 -67 -3q-39 -1 -57 9q-18 11 -31 43
q-2 8 -10 29q-6 18 -10 28q-85 187 -243 536q-167 367 -243 535q-1 2 -14 25q-1 0 -6 1h-6q-17 -43 -17 -45z" />
    <glyph glyph-name="n" unicode="n" horiz-adv-x="1700" 
d="M0 3v43q107 21 117 23q45 8 45 53q-2 488 0 1071q0 38 -35 48q-10 3 -101 26v36l33 1q449 1 517 1q32 0 47 -25q177 -298 679 -1141l18 -29q4 25 4 26q0 901 1 1074q0 30 -33 35q-15 3 -155 21v36h510v-37q-138 -26 -152 -29q-36 -6 -36 -45q1 -519 0 -1074q0 -35 31 -42
q7 -1 21 -8q14 -6 21 -7q49 -8 34 -58q-30 -1 -31 -1q-420 -1 -474 -1q-31 0 -47 26q-196 332 -697 1175l-18 29q-2 -29 -2 -30q-1 -912 -1 -1095q0 -32 32 -37q12 -2 129 -22v-43h-457z" />
    <glyph glyph-name="o" unicode="o" horiz-adv-x="1748" 
d="M760 59q-221 60 -330 221q-139 207 -84 493q50 265 221 388q159 115 381 86l-1 -1q22 -1 37 -3q14 -3 35 -9v1q219 -47 325 -207q116 -173 66 -437q-55 -286 -261 -434q-161 -115 -389 -98zM877 1336h-4q-400 0 -628 -186q-227 -188 -227 -481q0 -203 101 -360
q100 -157 287 -244q186 -87 457 -87q-3 0 12 0q16 0 13 0q270 0 457 87q186 87 287 244t101 360q0 293 -228 481q-227 186 -628 186zM760 59q-221 60 -330 221q-139 207 -84 493q50 265 221 388q159 115 381 86l-1 -1q22 -1 37 -3q14 -3 35 -9v1q219 -47 325 -207
q116 -173 66 -437q-55 -286 -261 -434q-161 -115 -389 -98zM877 1336h-4q-400 0 -628 -186q-227 -188 -227 -481q0 -203 101 -360q100 -157 287 -244q186 -87 457 -87q-3 0 12 0q16 0 13 0q270 0 457 87q186 87 287 244t101 360q0 293 -228 481q-227 186 -628 186z" />
    <glyph glyph-name="p" unicode="p" horiz-adv-x="1153" 
d="M460 1205v-538q-1 -22 26 -20q120 7 130 10q194 38 242 193q48 158 -92 273q-109 89 -303 93zM22 0v39q100 28 111 31q25 8 25 37q-1 577 0 1091q0 31 -27 39q-63 20 -75 20q-26 1 -33 14q-6 10 0 34h681q167 0 285 -100q118 -99 128 -248q8 -126 -93 -234t-246 -127
q-39 -5 -86 -6h-232v-29q0 -368 -1 -450q0 -32 29 -38q7 -2 22 -9t23 -7q50 -10 33 -57h-544z" />
    <glyph glyph-name="q" unicode="q" horiz-adv-x="1800" 
d="M1182 108l-22 -14q-26 33 -50 52q-125 98 -396 122l-61 -53q29 -5 49 -11q66 -19 120 -61q45 -35 108 -132q-73 -9 -148 -2q-227 60 -339 224q-142 211 -87 503q52 269 228 396q163 116 391 87v-2q22 0 37 -3q15 -2 36 -9v2q224 -49 334 -211q119 -177 67 -446
q-55 -292 -267 -442zM903 1310h-5q-411 0 -644 -191q-234 -190 -234 -489q0 -207 103 -368q104 -161 295 -249q192 -88 470 -88q-3 0 12 1q16 -1 13 -1q35 0 69 2q42 -70 82 -101q72 -57 210 -92q106 -27 225 -34l61 54q-140 28 -218 90q-44 34 -96 121q75 20 137 48
q191 88 295 249q103 161 103 368q0 299 -234 489q-233 191 -644 191zM1182 108l-22 -14q-26 33 -50 52q-125 98 -396 122l-61 -53q29 -5 49 -11q66 -19 120 -61q45 -35 108 -132q-73 -9 -148 -2q-227 60 -339 224q-142 211 -87 503q52 269 228 396q163 116 391 87v-2
q22 0 37 -3q15 -2 36 -9v2q224 -49 334 -211q119 -177 67 -446q-55 -292 -267 -442zM903 1310h-5q-411 0 -644 -191q-234 -190 -234 -489q0 -207 103 -368q104 -161 295 -249q192 -88 470 -88q-3 0 12 1q16 -1 13 -1q35 0 69 2q42 -70 82 -101q72 -57 210 -92
q106 -27 225 -34l61 54q-140 28 -218 90q-44 34 -96 121q75 20 137 48q191 88 295 249q103 161 103 368q0 299 -234 489q-233 191 -644 191z" />
    <glyph glyph-name="r" unicode="r" horiz-adv-x="1353" 
d="M450 697q99 -16 210 8q117 25 184 81q94 78 95 180q2 102 -91 175q-133 106 -398 87v-531zM20 1305q31 1 32 1q659 1 743 0q196 -2 317 -135q87 -96 77 -217q-9 -120 -110 -205q-93 -77 -220 -96q-16 -3 -22 -4q-1 0 -14 -6q36 -15 40 -16q210 -94 291 -268q9 -19 19 -54
q12 -40 18 -55q62 -158 84 -200q56 -107 185 -107q17 0 25 -15q2 -4 13 -47q-128 -7 -277 52q-224 89 -310 272q-9 20 -20 54q-12 42 -17 55q-57 148 -77 187q-64 131 -221 123q-6 -1 -126 -1q-2 -27 -2 -28v-479q0 -32 28 -38q7 -2 22 -8q14 -7 23 -8q45 -8 31 -57h-531v41
q95 26 103 28q30 9 30 42q-2 542 0 1083q0 34 -30 43q-8 2 -104 27v36z" />
    <glyph glyph-name="s" unicode="s" horiz-adv-x="1148" 
d="M24 -7q51 -8 51 -9q334 -49 553 -14q253 39 386 196q146 173 79 370q-56 167 -284 217q-131 29 -411 100q-82 20 -106 100q-22 75 15 142q38 67 118 95q161 55 324 6q142 -43 173 -165q0 -1 7 -38q36 2 69 5v313q-53 5 -59 5q-341 21 -539 -23q-161 -35 -264 -131
q-126 -118 -119 -294q8 -199 179 -265q88 -34 234 -74q48 -14 149 -37q99 -24 149 -38q85 -24 109 -108q22 -80 -25 -150q-47 -71 -137 -90q-123 -26 -288 -10q-237 23 -289 202q-4 12 -19 13q-6 0 -55 -3v-315z" />
    <glyph glyph-name="t" unicode="t" horiz-adv-x="1448" 
d="M399 0v58q121 26 133 29q33 8 33 41q-1 212 -1 1030q0 2 -2 35q-269 -6 -288 -9q-173 -28 -201 -214q-1 -6 -7 -46h-36q1 17 24 374h1343q6 -93 24 -373h-37q-10 57 -10 58q-37 193 -246 209q-15 2 -260 -8v-30q0 -792 -1 -1024q0 -33 35 -41q10 -2 130 -29v-60h-633z
" />
    <glyph glyph-name="u" unicode="u" horiz-adv-x="1553" 
d="M1173 1312h351v-42q-72 -26 -79 -28q-28 -8 -28 -40q-1 -458 -5 -655q-2 -161 -50 -289q-62 -168 -228 -221q-370 -120 -713 18q-225 91 -234 341q-1 54 -1 634v171q2 36 -32 46q-9 3 -104 28v36h568q8 -28 3 -36q-4 -6 -32 -13q-77 -19 -90 -34q-12 -15 -12 -87
q1 -503 3 -625q0 -33 5 -84q6 -70 7 -84q7 -101 115 -162q123 -70 282 -63q104 4 181 23q188 44 208 245q17 161 21 362q2 82 1 221q-1 164 0 221q0 44 -42 55q-9 3 -95 24v38z" />
    <glyph glyph-name="v" unicode="v" horiz-adv-x="1548" 
d="M20 1293h618v-51q-91 -29 -98 -33q-37 -16 -23 -52q59 -155 328 -866q0 -2 12 -31q16 32 17 35q97 204 404 855q25 52 -32 71q-6 2 -91 19v53h374q2 -35 1 -39q-4 -19 -20 -22q-78 -11 -111 -81q-104 -215 -271 -561q-215 -445 -271 -561q-15 -31 -47 -29q-39 4 -94 0
q-27 -1 -38 23q-76 169 -387 855q-109 239 -124 277q-25 58 -113 76q-2 1 -34 5v57z" />
    <glyph glyph-name="w" unicode="w" horiz-adv-x="2300" 
d="M9 1238q27 -4 29 -5q85 -13 115 -80q92 -203 459 -1006q4 -10 10 -27q7 -21 10 -28q13 -32 30 -42q18 -11 57 -10q67 3 66 3q24 -2 34 21q62 140 246 552q1 3 62 138q15 -30 15 -31q218 -484 296 -658q11 -24 36 -22q46 2 95 0q30 -2 42 24q63 127 269 546
q167 339 267 547q32 64 97 70q40 5 34 42q0 1 -2 20h-365v-53q41 -5 45 -5q29 -5 42 -11q29 -11 36 -27q6 -15 -5 -40q-207 -431 -401 -837q-1 -1 -13 -21l-9 17q-283 717 -335 848q-11 27 12 39q9 5 95 44v46h-577v-54q28 -4 31 -5q84 -14 111 -77q21 -51 58 -131
q47 -101 60 -132q9 -19 1 -39q-32 -80 -152 -369q-8 -17 -81 -193l-6 10q-245 617 -342 864q-3 7 0 17q3 11 8 14q12 7 97 49v47h-577v-55z" />
    <glyph glyph-name="x" unicode="x" horiz-adv-x="1643" 
d="M970 2q-3 9 -9 30q-7 20 -10 30q69 17 73 18q65 25 25 78q-102 136 -289 382q-1 1 -22 25q-22 -22 -75 -78q-48 -48 -74 -76q-205 -213 -257 -267q-19 -19 -15 -36q3 -18 28 -28q5 -1 87 -21q-12 -41 -14 -45q-7 -13 -21 -13q-95 -1 -397 -1q14 46 16 51q7 11 24 14
q105 14 176 91q52 56 449 471q0 -1 12 12l-15 22q-405 500 -414 512q-35 42 -122 61q-42 8 -50 17q-8 10 -14 52h603q47 0 56 -7t17 -52q-73 -17 -77 -19q-56 -22 -20 -69q110 -148 250 -335q1 -1 20 -24q247 291 295 348q12 14 7 30q-4 15 -24 23q-6 3 -90 25q12 40 15 46
q4 10 19 10h392q0 -36 -11 -49t-46 -18q-92 -15 -147 -82q-41 -49 -349 -408q23 -28 77 -95q49 -61 77 -95q275 -339 305 -378q54 -70 138 -80q50 -6 58 -53q1 -1 6 -19h-663z" />
    <glyph glyph-name="y" unicode="y" horiz-adv-x="1648" 
d="M542 -4h566q4 34 -1 40q-5 7 -37 15q-11 3 -34 10q-22 7 -34 9q-29 8 -29 36q0 81 1 255v255q0 23 17 43q65 72 224 252q142 160 223 252q39 45 98 59q11 3 33 6q22 5 33 8q17 3 22 12q3 5 19 51h-355q-44 0 -54 -7q-9 -6 -20 -45l2 -6q73 -16 78 -18q61 -23 17 -68
q-255 -263 -382 -396q-1 -1 -23 -21q-21 23 -21 24q-180 237 -287 380q-43 57 30 82q4 1 65 14q-5 18 -5 19q-2 25 -17 34q-13 9 -43 9q-89 -1 -577 -1h-35q4 -42 14 -52q8 -9 50 -19q80 -20 110 -59q41 -55 236 -308q145 -189 236 -308q13 -17 13 -38q1 -68 1 -205v-205
q0 -30 -27 -38q-10 -3 -107 -29v-42z" />
    <glyph glyph-name="z" unicode="z" horiz-adv-x="1457" 
d="M484 148l327 431l28 38l33 46l34 44l319 415q49 66 81 87q33 22 92 29l36 60h-1212l-24 -376h61q9 127 71 179q66 56 226 56h408l-344 -430l-27 -27l-34 -40l-33 -42l-334 -433q-19 -21 -44 -52q-22 -28 -30 -37q-26 -28 -57 -29l-39 -60h1291l24 422h-61
q-24 -281 -297 -281h-495z" />
    <glyph glyph-name="braceleft" unicode="{" 
d="M240 698q172 5 223 71t51 133v468q0 74 77 141.5t185 67.5h108v-50h-90q-61 0 -107 -33.5t-47 -91.5v-500q0 -83 -60.5 -158.5t-142.5 -76.5v-2q82 -1 143 -76t61 -158l-1 -500q1 -58 47 -91.5t107 -33.5h90v-50h-108q-108 0 -184.5 67.5t-77.5 141.5v468q0 66 -51 132
t-223 71v60z" />
    <glyph glyph-name="bar" unicode="|" 
d="M427 1577h160v-1995h-160v1995z" />
    <glyph glyph-name="braceright" unicode="}" 
d="M774 638q-172 -5 -223 -71t-51 -132v-468q-1 -74 -77.5 -141.5t-184.5 -67.5h-108v50h90q61 0 107 33.5t47 91.5l-1 500q0 83 61 158t144 76v2q-83 1 -143.5 76.5t-60.5 158.5v500q-1 58 -47 91.5t-107 33.5h-90v50h108q108 0 185 -67.5t77 -141.5v-468q0 -67 51 -133
t223 -71v-60z" />
    <glyph glyph-name="asciitilde" unicode="~" 
d="M923 878v-156q-63 -72 -122 -97.5t-116 -25.5q-60 0 -177.5 48.5t-176.5 48.5q-51 0 -107.5 -28t-129.5 -112v156q64 73 123 99t114 26q64 0 181.5 -49.5t172.5 -49.5q52 0 108.5 28t129.5 112z" />
    <glyph glyph-name="exclamdown" unicode="&#xa1;" horiz-adv-x="682" 
d="M360 359h-38l-88 810q-6 53 -6 79q0 63 33.5 101t80.5 38t79.5 -38t32.5 -113q0 -24 -4 -67zM340 193q46 0 78.5 -32.5t32.5 -77.5q0 -46 -32.5 -78.5t-78.5 -32.5t-78.5 32.5t-32.5 78.5q0 45 32.5 77.5t78.5 32.5z" />
    <glyph glyph-name="cent" unicode="&#xa2;" horiz-adv-x="1600" 
d="M1479 1054q-5 -17 -26 -17q-7 0 -68 8q-2 13 -2 14q22 144 -130 226q-104 56 -239 66q-137 9 -265 -30q-137 -43 -232 -132q-104 -99 -139 -240q-78 -313 85 -552q185 -270 572 -281q111 -3 217 11q16 2 214 44q0 -61 -2 -69q-1 -11 -26 -21q-147 -64 -334 -76
q-331 -22 -574 61q-267 91 -400 292q-126 190 -108 435q17 227 187 394q163 160 419 218q439 100 925 -45q1 0 10 -6q-64 -231 -84 -300z" />
    <glyph glyph-name="sterling" unicode="&#xa3;" 
d="M748 1347q-72 31 -160 31h-2q-100 0 -190 -101q-84 -93 -84 -241q0 -15 1 -30q0 -135 53 -273h360v-60h-334q14 -30 31 -60q35 -63 35 -138q0 -161 -162 -375h402q130 0 189 132l49 -1l-103 -231h-719l1 50q187 238 187 418q0 77 -34 143q-17 32 -31 62h-161v60h135
q-58 143 -58 253q0 226 123.5 347t306.5 121h4q75 0 185.5 -14t110.5 -34v-161h-58q-5 61 -77 102z" />
    <glyph glyph-name="currency" unicode="&#xa4;" 
d="M350 560q41 -40 99 -57q29 -8 58 -8t58 8q58 17 99 57q40 41 57 99q9 29 9 58t-9 58q-17 58 -57 99q-41 40 -100 57q-29 8 -58 8t-58 -9q-58 -17 -98 -56q-39 -40 -56 -98q-10 -30 -10 -60q0 -28 9 -56q16 -59 57 -100zM240 903l-118 118l80 81l118 -118q44 30 99 46
q44 14 89 14q41 0 83 -12q57 -17 102 -48l118 118l80 -81l-117 -117q31 -46 48 -102q12 -42 12 -85q0 -42 -12 -85q-17 -56 -48 -102l117 -117l-80 -81l-118 118q-45 -32 -101 -48q-42 -12 -85 -12q-42 0 -85 12q-57 16 -102 48l-118 -118l-80 81l118 117q-32 46 -48 103
q-12 42 -12 84q0 44 13 87q16 55 47 99z" />
    <glyph glyph-name="yen" unicode="&#xa5;" horiz-adv-x="1262" 
d="M547 225l-2 242q0 19 -1.5 35t-4.5 32l-484 1q-14 0 -21 6.5t-7 19.5t6.5 19t21.5 6h467l-121 172h-344q-17 0 -23.5 5.5t-6.5 18.5q0 14 6 19.5t22 5.5h307q-43 57 -108 155q-131 197 -227 197q-7 0 -13 5.5t-6 11.5q0 19 10.5 27.5t32.5 8.5q27 0 123 -8t164 -8h88
q33 0 41 -6.5t8 -26.5q0 -8 -15 -14t-38 -6q-6 0 -18.5 2t-18.5 2q-24 0 -37.5 -9.5t-13.5 -25.5q0 -18 16.5 -52t46.5 -77l158 -221q13 -19 33 -53q41 -70 71 -70q9 0 16.5 5t14.5 15l277 396q8 12 13 26.5t5 24.5q0 18 -10 27t-37 14q-15 2 -41 4q-47 3 -47 25
q0 15 8 22.5t25 7.5q3 0 15 -1q56 -7 108 -7h139q30 0 65 1t37 1q11 0 18.5 -4.5t8.5 -11.5q0 -28 -38 -34q-18 -3 -27 -5q-63 -15 -147 -117q-7 -9 -12 -15l-169 -206h323q15 0 24 -6t9 -17q0 -15 -6 -20.5t-23 -5.5h-366q-46 -57 -96.5 -112.5t-52.5 -59.5h511
q18 0 25.5 -5.5t7.5 -17.5q0 -14 -7 -21t-22 -7h-530q0 -11 -1 -30.5t-1 -29.5l2 -215q0 -114 5.5 -150t20.5 -44q30 -17 107.5 -19t77.5 -31q0 -12 -10 -20t-25 -8q-2 0 -35.5 4t-64.5 4q-91 0 -208.5 -4t-142.5 -4q-31 0 -40 4t-9 16t8 18.5t37 12.5q9 2 25 5q74 16 92 32
q17 13 24 47t7 102z" />
    <glyph glyph-name="brokenbar" unicode="&#xa6;" 
d="M427 371h160v-789h-160v789zM427 1578h160v-789h-160v789z" />
    <glyph glyph-name="section" unicode="&#xa7;" 
d="M545 321q56 16 97 53q73 65 73 166q0 5 -1 10h-2q-1 14 -4 27q-22 61 -113 127q-59 29 -126 29q-78 0 -125 -44.5t-47 -117.5q0 -123 248 -250zM466 -346q113 6 185 69q72 64 72 165q0 125 -316 276q-123 64 -175.5 137t-52.5 177q0 148 89 237q67 65 170 82l-40 19
q-123 64 -175.5 137t-52.5 177q0 148 89 237q82 79 216 86q8 1 17 1h3q66 0 163 -16.5t97 -41.5v-194h-51q-5 81 -80 132q-70 47 -149 51h-15q-78 0 -125 -44.5t-47 -117.5q0 -132 287 -269q149 -67 204.5 -143.5t55.5 -187.5q0 -171 -101 -282q-47 -39 -99 -64
q108 -56 154 -118q55 -77 55 -187q0 -171 -101 -283q-124 -102 -277 -105v1q-6 -1 -13 -1h-3q-66 0 -163 16.5t-97 41.5v194h51q5 -81 80 -132q68 -45 145 -50z" />
    <glyph glyph-name="dieresis" unicode="&#xa8;" horiz-adv-x="1024" 
d="M223 1289l71 72q13 12 25 12q11 0 27 -14l69 -73q10 -14 10 -25q0 -13 -12 -27l-69 -75q-17 -17 -25 -17q-14 0 -25 12l-76 86q-9 12 -9 23q0 13 14 26zM588 1289l71 72q13 12 25 12q11 0 27 -13l69 -74q10 -14 10 -25q0 -13 -12 -26l-69 -76q-17 -17 -25 -17
q-14 0 -25 12l-76 87q-9 11 -9 22q0 13 14 26z" />
    <glyph glyph-name="copyright" unicode="&#xa9;" horiz-adv-x="1674" 
d="M840 1456q145 0 280 -56.5t239 -160.5q102 -101 158.5 -238t56.5 -283q0 -147 -56.5 -282t-162.5 -240q-105 -105 -239 -159.5t-283 -54.5q-146 0 -278 55.5t-238 160.5q-106 104 -161.5 237.5t-55.5 282.5q0 148 55.5 283t159.5 238q102 104 238.5 160.5t286.5 56.5z
M357 1197q-95 -96 -146 -219.5t-51 -259.5q0 -137 51 -259t148 -219q98 -96 219 -147t256 -51q137 0 259.5 50.5t219.5 145.5q97 98 149 221.5t52 258.5q0 134 -52 259.5t-145 219.5q-96 96 -220 147.5t-258 51.5q-137 0 -262 -51.5t-220 -147.5zM1163 873q-3 -10 -16 -10
q-4 0 -40 5q-1 7 -1 8q13 88 -77 137q-62 35 -141 41q-81 6 -157 -19q-81 -26 -137 -80q-62 -60 -82 -146q-47 -190 50 -336q109 -165 338 -172q66 -1 128 7q10 1 127 27q0 -37 -1 -42q-1 -6 -16 -13q-87 -38 -197 -46q-196 -14 -340 37q-157 56 -236 178q-75 116 -64 265
q10 139 111 240q96 97 247 133q260 61 547 -28q1 0 6 -3q-38 -141 -49 -183z" />
    <glyph glyph-name="ordfeminine" unicode="&#xaa;" 
d="M232 537q0 -41 5 -79q14 -122 61.5 -230t118.5 -165q64 -53 128 -53q6 0 13 1q70 5 127.5 70.5t80.5 179.5q16 73 16 149q0 42 -5 85q-14 122 -62.5 231.5t-119.5 165.5q-65 50 -128 50h-11q-68 -5 -126 -69.5t-82 -178.5q-16 -84 -16 -157zM937 477q0 -132 -56.5 -251
t-159 -185t-214.5 -66t-214.5 66t-159 185t-56.5 251q0 131 58 251t161 185t211 65q109 0 212 -65q29 -18 54 -41q-84 235 -233.5 377t-326.5 155v55q306 0 515 -285t209 -697z" />
    <glyph glyph-name="guillemotleft" unicode="&#xab;" horiz-adv-x="944" 
d="M174 479l342 303h14v-37l-205 -266l205 -266v-37h-14zM487 479l342 303h14v-37l-205 -266l205 -266v-37h-14z" />
    <glyph glyph-name="logicalnot" unicode="&#xac;" 
d="M87 767h840v-491l-1 -1h-98v392h-741v100z" />
    <glyph glyph-name="registered" unicode="&#xae;" horiz-adv-x="1674" 
d="M840 1456q145 0 280 -56.5t239 -160.5q102 -101 158.5 -238t56.5 -283q0 -147 -56.5 -282t-162.5 -240q-105 -105 -239 -159.5t-283 -54.5q-146 0 -278 55.5t-238 160.5q-106 104 -161.5 237.5t-55.5 282.5q0 148 55.5 283t159.5 238q102 104 238.5 160.5t286.5 56.5z
M357 1197q-95 -96 -146 -219.5t-51 -259.5q0 -137 51 -259t148 -219q98 -96 219 -147t256 -51q137 0 259.5 50.5t219.5 145.5q97 98 149 221.5t52 258.5q0 134 -52 259.5t-145 219.5q-96 96 -220 147.5t-258 51.5q-137 0 -262 -51.5t-220 -147.5zM669 743q62 -9 131 4
q73 15 115 47q59 45 60 103q1 59 -57 101q-84 60 -249 50v-305zM400 1092h20q412 1 465 0q122 -1 198 -77q54 -55 48 -125q-6 -68 -69 -117q-58 -45 -137 -56q-10 -1 -14 -2q-1 0 -9 -3q23 -9 25 -9q131 -54 182 -154q6 -11 12 -31q7 -23 11 -32q39 -91 53 -114
q35 -62 115 -62q11 0 16 -9q1 -2 8 -26q-80 -5 -173 29q-140 52 -194 157q-6 11 -12 31q-8 23 -11 31q-36 85 -48 108q-40 75 -138 70h-79q-1 -16 -1 -17v-274q0 -19 17 -22q4 -1 14 -5q9 -4 14 -4q28 -5 20 -33h-332v23q59 15 64 17q19 5 19 24q-1 311 0 621q0 19 -19 25
q-5 1 -65 15v21z" />
    <glyph glyph-name="macron" unicode="&#xaf;" horiz-adv-x="1024" 
d="M0 -100h1024v-60h-1024v60z" />
    <glyph glyph-name="degree" unicode="&#xb0;" horiz-adv-x="674" 
d="M339 1372q-86 0 -147.5 -61t-61.5 -148t61 -147t148 -60t147 60t60 147t-60.5 148t-146.5 61zM339 1442q115 0 196 -81.5t81 -196.5q0 -114 -82 -196t-197 -82q-117 0 -197 81t-80 197t81.5 197t197.5 81z" />
    <glyph glyph-name="plusminus" unicode="&#xb1;" horiz-adv-x="1155" 
d="M535 141v499h-498v82h498v497h80v-497h500v-82h-500v-499h-80z" />
    <glyph glyph-name="uni00B2" unicode="&#xb2;" 
d="M722 1036q0 148 -86 245t-186 97q-170 0 -275 -131h-22v49q39 50 115 104t185 54q183 0 306.5 -121t123.5 -297q0 -262 -627 -916h422q130 0 209 112h49l-103 -232h-719l1 50q607 675 607 986z" />
    <glyph glyph-name="uni00B3" unicode="&#xb3;" 
d="M435 22q151 0 218 116.5t67 280.5q0 104 -44.5 205.5t-176.5 148.5v19q81 45 144 120.5t63 209.5q0 110 -55 189.5t-166 92.5q-68 0 -123.5 -45t-55.5 -111h-42v159q0 20 73.5 33.5t155.5 13.5q155 0 257 -84t102 -249q0 -87 -61 -166t-193 -139q93 -14 195 -134.5
t102 -278.5q0 -163 -144 -294t-325 -131q-152 0 -247.5 39t-95.5 88v100h49q0 -83 86 -133t217 -50z" />
    <glyph glyph-name="acute" unicode="&#xb4;" horiz-adv-x="1024" 
d="M607 1375q35 35 55.5 47t40.5 12q33 0 53.5 -20t20.5 -51q0 -22 -15.5 -42t-46.5 -40l-330 -203h-69z" />
    <glyph glyph-name="mu" unicode="&#xb5;" horiz-adv-x="1553" 
d="M1173 1436h351v-46q-72 -28 -79 -31q-28 -8 -28 -43q-1 -501 -5 -716q-2 -176 -50 -316q-62 -184 -228 -242q-370 -131 -713 20q-225 99 -234 373q-1 59 -1 693v187q2 39 -32 50q-9 3 -104 30v40h568q8 -31 3 -39q-4 -7 -32 -15q-77 -20 -90 -37q-12 -16 -12 -95
q1 -550 3 -683q0 -36 5 -92q6 -76 7 -92q7 -110 115 -177q123 -76 282 -69q104 5 181 25q188 48 208 268q17 176 21 396q2 90 1 242q-1 179 0 241q0 48 -42 60q-9 3 -95 26v42z" />
    <glyph glyph-name="paragraph" unicode="&#xb6;" horiz-adv-x="1024" 
d="M929 1435v-70h-127v-1365h-82v1365h-166v-1365h-84v738q-174 8 -275.5 102.5t-101.5 245.5q0 157 107.5 253t285.5 96h443z" />
    <glyph glyph-name="periodcentered" unicode="&#xb7;" horiz-adv-x="508" 
d="M145 740l82 84q15 14 29 14q13 0 31 -16l80 -86q12 -16 12 -29q0 -15 -14 -31l-80 -88q-20 -20 -29 -20q-16 0 -29 14l-88 101q-10 13 -10 26q0 15 16 31z" />
    <glyph glyph-name="periodcentered" unicode="&#x2219;" horiz-adv-x="508" 
d="M145 740l82 84q15 14 29 14q13 0 31 -16l80 -86q12 -16 12 -29q0 -15 -14 -31l-80 -88q-20 -20 -29 -20q-16 0 -29 14l-88 101q-10 13 -10 26q0 15 16 31z" />
    <glyph glyph-name="cedilla" unicode="&#xb8;" horiz-adv-x="1024" 
d="M360 -290q85 -52 152 -52q66 0 94.5 21.5t28.5 66.5t-49 64q-40 16 -102 16q-16 0 -34 -2l48 176h63l-37 -104q32 4 62 5q86 0 134 -40.5t48 -113.5q0 -76 -58.5 -120.5t-160.5 -44.5q-109 0 -189 32v96z" />
    <glyph glyph-name="uni00B9" unicode="&#xb9;" 
d="M234 0v50h96q103 0 103 235v794q0 129 -117 129h-98v50q292 63 327 176h50v-1149q0 -235 103 -235h96v-50h-560z" />
    <glyph glyph-name="ordmasculine" unicode="&#xba;" 
d="M507 1459q108 0 211 -96t161 -274t58 -372t-56.5 -370t-159 -274t-214.5 -98t-214.5 98t-159 274t-56.5 370t57.5 372t160.5 274t212 96zM237 689q14 -180 61.5 -340t118.5 -244q65 -78 129 -78q6 0 12 1q70 7 127.5 104.5t81.5 265.5q15 107 15 220q0 62 -5 126
q-14 181 -62.5 343t-119.5 244q-65 76 -128 76q-6 0 -11 -1q-68 -7 -126 -102.5t-82 -264.5q-16 -110 -16 -225q0 -62 5 -125z" />
    <glyph glyph-name="guillemotright" unicode="&#xbb;" horiz-adv-x="944" 
d="M115 176h-14v37l205 266l-205 266v37h14l342 -303zM428 176h-14v37l205 266l-205 266v37h14l342 -303z" />
    <glyph glyph-name="onequarter" unicode="&#xbc;" horiz-adv-x="569" 
d="M93 -50h-80l541 1484h80z" />
    <glyph glyph-name="onehalf" unicode="&#xbd;" horiz-adv-x="569" 
d="M93 -50h-80l541 1484h80z" />
    <glyph glyph-name="threequarters" unicode="&#xbe;" horiz-adv-x="569" 
d="M93 -50h-80l541 1484h80z" />
    <glyph glyph-name="questiondown" unicode="&#xbf;" horiz-adv-x="909" 
d="M454 320h-41q7 126 31.5 208.5t101.5 229.5q60 113 78 173.5t18 122.5q0 127 -67.5 202t-165.5 75q-87 0 -137 -41t-50 -89q0 -37 30 -91t30 -82q0 -36 -23 -60.5t-56 -24.5q-42 0 -76.5 41.5t-34.5 115.5q0 113 97 200t263 87q206 0 303 -120q72 -88 72 -195
q0 -73 -32.5 -150t-123.5 -181q-145 -164 -177.5 -232.5t-39.5 -188.5zM440 196q47 0 79.5 -32.5t32.5 -79.5q0 -46 -33 -78.5t-79 -32.5t-78.5 32.5t-32.5 78.5q0 47 32.5 79.5t78.5 32.5z" />
    <glyph glyph-name="Agrave" unicode="&#xc0;" horiz-adv-x="1700" 
d="M771 1037q-310 -601 -344 -668h641q-178 411 -288 667zM379 271q-44 -71 -85 -129q-23 -32 13 -47q9 -4 109 -36v-59h-416v71q69 -4 114 27q37 24 68 82q117 217 298 546q283 511 301 544q17 30 53 28q49 -4 101 0q33 2 47 -26q536 -1101 542 -1113q35 -74 153 -91v-68
h-656v61q100 27 107 29q43 16 26 56q-5 12 -47 125h-728z" />
    <glyph glyph-name="Aacute" unicode="&#xc1;" horiz-adv-x="1700" 
d="M771 1037q-310 -601 -344 -668h641q-178 411 -288 667zM379 271q-44 -71 -85 -129q-23 -32 13 -47q9 -4 109 -36v-59h-416v71q69 -4 114 27q37 24 68 82q117 217 298 546q283 511 301 544q17 30 53 28q49 -4 101 0q33 2 47 -26q536 -1101 542 -1113q35 -74 153 -91v-68
h-656v61q100 27 107 29q43 16 26 56q-5 12 -47 125h-728z" />
    <glyph glyph-name="Acircumflex" unicode="&#xc2;" horiz-adv-x="1700" 
d="M771 1037q-310 -601 -344 -668h641q-178 411 -288 667zM379 271q-44 -71 -85 -129q-23 -32 13 -47q9 -4 109 -36v-59h-416v71q69 -4 114 27q37 24 68 82q117 217 298 546q283 511 301 544q17 30 53 28q49 -4 101 0q33 2 47 -26q536 -1101 542 -1113q35 -74 153 -91v-68
h-656v61q100 27 107 29q43 16 26 56q-5 12 -47 125h-728z" />
    <glyph glyph-name="Atilde" unicode="&#xc3;" horiz-adv-x="1700" 
d="M771 1037q-310 -601 -344 -668h641q-178 411 -288 667zM379 271q-44 -71 -85 -129q-23 -32 13 -47q9 -4 109 -36v-59h-416v71q69 -4 114 27q37 24 68 82q117 217 298 546q283 511 301 544q17 30 53 28q49 -4 101 0q33 2 47 -26q536 -1101 542 -1113q35 -74 153 -91v-68
h-656v61q100 27 107 29q43 16 26 56q-5 12 -47 125h-728z" />
    <glyph glyph-name="Adieresis" unicode="&#xc4;" horiz-adv-x="1700" 
d="M771 1037q-310 -601 -344 -668h641q-178 411 -288 667zM379 271q-44 -71 -85 -129q-23 -32 13 -47q9 -4 109 -36v-59h-416v71q69 -4 114 27q37 24 68 82q117 217 298 546q283 511 301 544q17 30 53 28q49 -4 101 0q33 2 47 -26q536 -1101 542 -1113q35 -74 153 -91v-68
h-656v61q100 27 107 29q43 16 26 56q-5 12 -47 125h-728z" />
    <glyph glyph-name="Aring" unicode="&#xc5;" horiz-adv-x="1700" 
d="M771 1037q-310 -601 -344 -668h641q-178 411 -288 667zM379 271q-44 -71 -85 -129q-23 -32 13 -47q9 -4 109 -36v-59h-416v71q69 -4 114 27q37 24 68 82q117 217 298 546q283 511 301 544q17 30 53 28q49 -4 101 0q33 2 47 -26q536 -1101 542 -1113q35 -74 153 -91v-68
h-656v61q100 27 107 29q43 16 26 56q-5 12 -47 125h-728z" />
    <glyph glyph-name="AE" unicode="&#xc6;" horiz-adv-x="1700" 
d="M771 1037q-310 -601 -344 -668h641q-178 411 -288 667zM379 271q-44 -71 -85 -129q-23 -32 13 -47q9 -4 109 -36v-59h-416v71q69 -4 114 27q37 24 68 82q117 217 298 546q283 511 301 544q17 30 53 28q49 -4 101 0q33 2 47 -26q536 -1101 542 -1113q35 -74 153 -91v-68
h-656v61q100 27 107 29q43 16 26 56q-5 12 -47 125h-728z" />
    <glyph glyph-name="Ccedilla" unicode="&#xc7;" horiz-adv-x="1600" 
d="M1479 965q-5 -15 -26 -15q-7 0 -68 8q-2 11 -2 12q22 133 -130 207q-104 52 -239 61q-137 9 -265 -28q-137 -39 -232 -121q-104 -90 -139 -219q-78 -287 85 -506q185 -248 572 -258q111 -2 217 10q16 2 214 41q0 -56 -2 -63q-1 -10 -26 -20q-147 -58 -334 -70
q-331 -20 -574 56q-267 84 -400 268q-126 174 -108 399q17 208 187 360q163 147 419 200q439 92 925 -41q1 0 10 -5q-64 -212 -84 -276zM900 0q-24 -19 -24 -43q0 -35 52.5 -60.5t126.5 -25.5q51 0 93 13q-4 -74 -85 -151q-84 -83 -165 -83v30q87 30 103 133q0 13 -3 25
q-30 -7 -63 -7q-16 0 -30 2q-60 1 -103 30q-45 31 -45 75q0 35 30 62h113z" />
    <glyph glyph-name="Egrave" unicode="&#xc8;" horiz-adv-x="1300" 
d="M30 0v42q99 26 111 29q35 10 35 49q-2 538 0 1188q0 35 -31 44q-7 2 -114 33v41h1228v-328q-33 24 -34 25q-88 202 -328 198q-26 -1 -396 -1v-486q359 13 368 15q128 28 156 130q0 1 30 25v-447q-27 21 -28 23q2 -3 -7 31q-31 120 -143 130q-33 3 -377 19v-653h37h391
q197 2 291 163q9 17 13 20q10 8 26 2v-292h-1228z" />
    <glyph glyph-name="Eacute" unicode="&#xc9;" horiz-adv-x="1300" 
d="M30 0v42q99 26 111 29q35 10 35 49q-2 538 0 1188q0 35 -31 44q-7 2 -114 33v41h1228v-328q-33 24 -34 25q-88 202 -328 198q-26 -1 -396 -1v-486q359 13 368 15q128 28 156 130q0 1 30 25v-447q-27 21 -28 23q2 -3 -7 31q-31 120 -143 130q-33 3 -377 19v-653h37h391
q197 2 291 163q9 17 13 20q10 8 26 2v-292h-1228z" />
    <glyph glyph-name="Ecircumflex" unicode="&#xca;" horiz-adv-x="1300" 
d="M30 0v42q99 26 111 29q35 10 35 49q-2 538 0 1188q0 35 -31 44q-7 2 -114 33v41h1228v-328q-33 24 -34 25q-88 202 -328 198q-26 -1 -396 -1v-486q359 13 368 15q128 28 156 130q0 1 30 25v-447q-27 21 -28 23q2 -3 -7 31q-31 120 -143 130q-33 3 -377 19v-653h37h391
q197 2 291 163q9 17 13 20q10 8 26 2v-292h-1228z" />
    <glyph glyph-name="Edieresis" unicode="&#xcb;" horiz-adv-x="1300" 
d="M30 0v42q99 26 111 29q35 10 35 49q-2 538 0 1188q0 35 -31 44q-7 2 -114 33v41h1228v-328q-33 24 -34 25q-88 202 -328 198q-26 -1 -396 -1v-486q359 13 368 15q128 28 156 130q0 1 30 25v-447q-27 21 -28 23q2 -3 -7 31q-31 120 -143 130q-33 3 -377 19v-653h37h391
q197 2 291 163q9 17 13 20q10 8 26 2v-292h-1228z" />
    <glyph glyph-name="Igrave" unicode="&#xcc;" horiz-adv-x="600" 
d="M30 0v44q78 32 86 37q20 11 20 36q1 605 0 1205q0 25 -20 36q-9 5 -86 37v36h536q15 -47 -28 -51q2 0 -6 -2q-51 -15 -61 -28q-9 -12 -9 -65q0 -922 -2 -1146q0 -56 50 -71q4 -1 12 -4t12 -4q31 -9 35 -17q4 -7 -3 -43h-536z" />
    <glyph glyph-name="Iacute" unicode="&#xcd;" horiz-adv-x="600" 
d="M30 0v44q78 32 86 37q20 11 20 36q1 605 0 1205q0 25 -20 36q-9 5 -86 37v36h536q15 -47 -28 -51q2 0 -6 -2q-51 -15 -61 -28q-9 -12 -9 -65q0 -922 -2 -1146q0 -56 50 -71q4 -1 12 -4t12 -4q31 -9 35 -17q4 -7 -3 -43h-536z" />
    <glyph glyph-name="Icircumflex" unicode="&#xce;" horiz-adv-x="600" 
d="M30 0v44q78 32 86 37q20 11 20 36q1 605 0 1205q0 25 -20 36q-9 5 -86 37v36h536q15 -47 -28 -51q2 0 -6 -2q-51 -15 -61 -28q-9 -12 -9 -65q0 -922 -2 -1146q0 -56 50 -71q4 -1 12 -4t12 -4q31 -9 35 -17q4 -7 -3 -43h-536z" />
    <glyph glyph-name="Idieresis" unicode="&#xcf;" horiz-adv-x="600" 
d="M30 0v44q78 32 86 37q20 11 20 36q1 605 0 1205q0 25 -20 36q-9 5 -86 37v36h536q15 -47 -28 -51q2 0 -6 -2q-51 -15 -61 -28q-9 -12 -9 -65q0 -922 -2 -1146q0 -56 50 -71q4 -1 12 -4t12 -4q31 -9 35 -17q4 -7 -3 -43h-536z" />
    <glyph glyph-name="Eth" unicode="&#xd0;" horiz-adv-x="1653" 
d="M468 585v-412q0 -25 27 -37q166 -75 363 -41q296 51 397 283q62 143 38 329q-29 226 -203 364q-124 99 -293 127q-134 22 -329 1v-471h232v-143h-232zM173 728q0 234 1 471q0 37 -36 47q-8 2 -97 25v24l12 2q175 1 168 1q547 14 533 14q286 0 488 -99q195 -96 288 -270
q86 -160 70 -355q-17 -211 -180 -364q-159 -150 -408 -199q-156 -31 -423 -22q-69 2 -504 13h-45v52q89 22 98 24q36 10 36 47q-1 222 -1 446h-173v143h173z" />
    <glyph glyph-name="Ntilde" unicode="&#xd1;" horiz-adv-x="1700" 
d="M0 3v48q107 23 117 25q45 9 45 58q-2 537 0 1179q0 42 -35 53q-10 3 -101 28v40l33 1q449 1 517 1q32 0 47 -28q177 -327 679 -1255l18 -32q4 28 4 29q0 991 1 1182q0 33 -33 38q-15 3 -155 23v40h510v-41q-138 -29 -152 -32q-36 -6 -36 -49q1 -571 0 -1182q0 -39 31 -47
q7 -1 21 -8t21 -8q49 -9 34 -64q-30 -1 -31 -1q-420 -1 -474 -1q-31 0 -47 29q-196 365 -697 1293l-18 32q-2 -32 -2 -33q-1 -1004 -1 -1205q0 -36 32 -41q12 -2 129 -24v-48h-457z" />
    <glyph glyph-name="Ograve" unicode="&#xd2;" horiz-adv-x="1748" 
d="M760 67q-221 65 -330 242q-139 226 -84 539q50 290 221 425q159 125 381 94l-1 -2q22 -1 37 -3q14 -3 35 -10v2q219 -52 325 -227q116 -189 66 -478q-55 -313 -261 -475q-161 -126 -389 -107zM877 1464h-4q-400 0 -628 -204q-227 -205 -227 -526q0 -222 101 -394
q100 -172 287 -267q186 -95 457 -95q-3 0 12 0q16 0 13 0q270 0 457 95q186 95 287 267t101 394q0 321 -228 526q-227 204 -628 204zM760 67q-221 65 -330 242q-139 226 -84 539q50 290 221 425q159 125 381 94l-1 -2q22 -1 37 -3q14 -3 35 -10v2q219 -52 325 -227
q116 -189 66 -478q-55 -313 -261 -475q-161 -126 -389 -107zM877 1464h-4q-400 0 -628 -204q-227 -205 -227 -526q0 -222 101 -394q100 -172 287 -267q186 -95 457 -95q-3 0 12 0q16 0 13 0q270 0 457 95q186 95 287 267t101 394q0 321 -228 526q-227 204 -628 204z" />
    <glyph glyph-name="Oacute" unicode="&#xd3;" horiz-adv-x="1748" 
d="M760 67q-221 65 -330 242q-139 226 -84 539q50 290 221 425q159 125 381 94l-1 -2q22 -1 37 -3q14 -3 35 -10v2q219 -52 325 -227q116 -189 66 -478q-55 -313 -261 -475q-161 -126 -389 -107zM877 1464h-4q-400 0 -628 -204q-227 -205 -227 -526q0 -222 101 -394
q100 -172 287 -267q186 -95 457 -95q-3 0 12 0q16 0 13 0q270 0 457 95q186 95 287 267t101 394q0 321 -228 526q-227 204 -628 204zM760 67q-221 65 -330 242q-139 226 -84 539q50 290 221 425q159 125 381 94l-1 -2q22 -1 37 -3q14 -3 35 -10v2q219 -52 325 -227
q116 -189 66 -478q-55 -313 -261 -475q-161 -126 -389 -107zM877 1464h-4q-400 0 -628 -204q-227 -205 -227 -526q0 -222 101 -394q100 -172 287 -267q186 -95 457 -95q-3 0 12 0q16 0 13 0q270 0 457 95q186 95 287 267t101 394q0 321 -228 526q-227 204 -628 204z" />
    <glyph glyph-name="Ocircumflex" unicode="&#xd4;" horiz-adv-x="1748" 
d="M760 67q-221 65 -330 242q-139 226 -84 539q50 290 221 425q159 125 381 94l-1 -2q22 -1 37 -3q14 -3 35 -10v2q219 -52 325 -227q116 -189 66 -478q-55 -313 -261 -475q-161 -126 -389 -107zM877 1464h-4q-400 0 -628 -204q-227 -205 -227 -526q0 -222 101 -394
q100 -172 287 -267q186 -95 457 -95q-3 0 12 0q16 0 13 0q270 0 457 95q186 95 287 267t101 394q0 321 -228 526q-227 204 -628 204zM760 67q-221 65 -330 242q-139 226 -84 539q50 290 221 425q159 125 381 94l-1 -2q22 -1 37 -3q14 -3 35 -10v2q219 -52 325 -227
q116 -189 66 -478q-55 -313 -261 -475q-161 -126 -389 -107zM877 1464h-4q-400 0 -628 -204q-227 -205 -227 -526q0 -222 101 -394q100 -172 287 -267q186 -95 457 -95q-3 0 12 0q16 0 13 0q270 0 457 95q186 95 287 267t101 394q0 321 -228 526q-227 204 -628 204z" />
    <glyph glyph-name="Otilde" unicode="&#xd5;" horiz-adv-x="1748" 
d="M760 67q-221 65 -330 242q-139 226 -84 539q50 290 221 425q159 125 381 94l-1 -2q22 -1 37 -3q14 -3 35 -10v2q219 -52 325 -227q116 -189 66 -478q-55 -313 -261 -475q-161 -126 -389 -107zM877 1464h-4q-400 0 -628 -204q-227 -205 -227 -526q0 -222 101 -394
q100 -172 287 -267q186 -95 457 -95q-3 0 12 0q16 0 13 0q270 0 457 95q186 95 287 267t101 394q0 321 -228 526q-227 204 -628 204zM760 67q-221 65 -330 242q-139 226 -84 539q50 290 221 425q159 125 381 94l-1 -2q22 -1 37 -3q14 -3 35 -10v2q219 -52 325 -227
q116 -189 66 -478q-55 -313 -261 -475q-161 -126 -389 -107zM877 1464h-4q-400 0 -628 -204q-227 -205 -227 -526q0 -222 101 -394q100 -172 287 -267q186 -95 457 -95q-3 0 12 0q16 0 13 0q270 0 457 95q186 95 287 267t101 394q0 321 -228 526q-227 204 -628 204z" />
    <glyph glyph-name="Odieresis" unicode="&#xd6;" horiz-adv-x="1748" 
d="M760 67q-221 65 -330 242q-139 226 -84 539q50 290 221 425q159 125 381 94l-1 -2q22 -1 37 -3q14 -3 35 -10v2q219 -52 325 -227q116 -189 66 -478q-55 -313 -261 -475q-161 -126 -389 -107zM877 1464h-4q-400 0 -628 -204q-227 -205 -227 -526q0 -222 101 -394
q100 -172 287 -267q186 -95 457 -95q-3 0 12 0q16 0 13 0q270 0 457 95q186 95 287 267t101 394q0 321 -228 526q-227 204 -628 204zM760 67q-221 65 -330 242q-139 226 -84 539q50 290 221 425q159 125 381 94l-1 -2q22 -1 37 -3q14 -3 35 -10v2q219 -52 325 -227
q116 -189 66 -478q-55 -313 -261 -475q-161 -126 -389 -107zM877 1464h-4q-400 0 -628 -204q-227 -205 -227 -526q0 -222 101 -394q100 -172 287 -267q186 -95 457 -95q-3 0 12 0q16 0 13 0q270 0 457 95q186 95 287 267t101 394q0 321 -228 526q-227 204 -628 204z" />
    <glyph glyph-name="multiply" unicode="&#xd7;" 
d="M507 618l-247 -247l-99 99l247 247l-247 248l99 98l247 -247l248 247l98 -99l-247 -247l247 -247l-99 -99z" />
    <glyph glyph-name="Oslash" unicode="&#xd8;" horiz-adv-x="1748" 
d="M760 67q-221 65 -330 242q-139 226 -84 539q50 290 221 425q159 125 381 94l-1 -2q22 -1 37 -3q14 -3 35 -10v2q219 -52 325 -227q116 -189 66 -478q-55 -313 -261 -475q-161 -126 -389 -107zM877 1464h-4q-400 0 -628 -204q-227 -205 -227 -526q0 -222 101 -394
q100 -172 287 -267q186 -95 457 -95q-3 0 12 0q16 0 13 0q270 0 457 95q186 95 287 267t101 394q0 321 -228 526q-227 204 -628 204zM760 67q-221 65 -330 242q-139 226 -84 539q50 290 221 425q159 125 381 94l-1 -2q22 -1 37 -3q14 -3 35 -10v2q219 -52 325 -227
q116 -189 66 -478q-55 -313 -261 -475q-161 -126 -389 -107zM877 1464h-4q-400 0 -628 -204q-227 -205 -227 -526q0 -222 101 -394q100 -172 287 -267q186 -95 457 -95q-3 0 12 0q16 0 13 0q270 0 457 95q186 95 287 267t101 394q0 321 -228 526q-227 204 -628 204z" />
    <glyph glyph-name="Ugrave" unicode="&#xd9;" horiz-adv-x="1553" 
d="M1173 1436h351v-46q-72 -28 -79 -31q-28 -8 -28 -43q-1 -501 -5 -716q-2 -176 -50 -316q-62 -184 -228 -242q-370 -131 -713 20q-225 99 -234 373q-1 59 -1 693v187q2 39 -32 50q-9 3 -104 30v40h568q8 -31 3 -39q-4 -7 -32 -15q-77 -20 -90 -37q-12 -16 -12 -95
q1 -550 3 -683q0 -36 5 -92q6 -76 7 -92q7 -110 115 -177q123 -76 282 -69q104 5 181 25q188 48 208 268q17 176 21 396q2 90 1 242q-1 179 0 241q0 48 -42 60q-9 3 -95 26v42z" />
    <glyph glyph-name="Uacute" unicode="&#xda;" horiz-adv-x="1553" 
d="M1173 1436h351v-46q-72 -28 -79 -31q-28 -8 -28 -43q-1 -501 -5 -716q-2 -176 -50 -316q-62 -184 -228 -242q-370 -131 -713 20q-225 99 -234 373q-1 59 -1 693v187q2 39 -32 50q-9 3 -104 30v40h568q8 -31 3 -39q-4 -7 -32 -15q-77 -20 -90 -37q-12 -16 -12 -95
q1 -550 3 -683q0 -36 5 -92q6 -76 7 -92q7 -110 115 -177q123 -76 282 -69q104 5 181 25q188 48 208 268q17 176 21 396q2 90 1 242q-1 179 0 241q0 48 -42 60q-9 3 -95 26v42z" />
    <glyph glyph-name="Ucircumflex" unicode="&#xdb;" horiz-adv-x="1553" 
d="M1173 1436h351v-46q-72 -28 -79 -31q-28 -8 -28 -43q-1 -501 -5 -716q-2 -176 -50 -316q-62 -184 -228 -242q-370 -131 -713 20q-225 99 -234 373q-1 59 -1 693v187q2 39 -32 50q-9 3 -104 30v40h568q8 -31 3 -39q-4 -7 -32 -15q-77 -20 -90 -37q-12 -16 -12 -95
q1 -550 3 -683q0 -36 5 -92q6 -76 7 -92q7 -110 115 -177q123 -76 282 -69q104 5 181 25q188 48 208 268q17 176 21 396q2 90 1 242q-1 179 0 241q0 48 -42 60q-9 3 -95 26v42z" />
    <glyph glyph-name="Udieresis" unicode="&#xdc;" horiz-adv-x="1553" 
d="M1173 1436h351v-46q-72 -28 -79 -31q-28 -8 -28 -43q-1 -501 -5 -716q-2 -176 -50 -316q-62 -184 -228 -242q-370 -131 -713 20q-225 99 -234 373q-1 59 -1 693v187q2 39 -32 50q-9 3 -104 30v40h568q8 -31 3 -39q-4 -7 -32 -15q-77 -20 -90 -37q-12 -16 -12 -95
q1 -550 3 -683q0 -36 5 -92q6 -76 7 -92q7 -110 115 -177q123 -76 282 -69q104 5 181 25q188 48 208 268q17 176 21 396q2 90 1 242q-1 179 0 241q0 48 -42 60q-9 3 -95 26v42z" />
    <glyph glyph-name="Yacute" unicode="&#xdd;" horiz-adv-x="1553" 
d="M1173 1436h351v-46q-72 -28 -79 -31q-28 -8 -28 -43q-1 -501 -5 -716q-2 -176 -50 -316q-62 -184 -228 -242q-370 -131 -713 20q-225 99 -234 373q-1 59 -1 693v187q2 39 -32 50q-9 3 -104 30v40h568q8 -31 3 -39q-4 -7 -32 -15q-77 -20 -90 -37q-12 -16 -12 -95
q1 -550 3 -683q0 -36 5 -92q6 -76 7 -92q7 -110 115 -177q123 -76 282 -69q104 5 181 25q188 48 208 268q17 176 21 396q2 90 1 242q-1 179 0 241q0 48 -42 60q-9 3 -95 26v42z" />
    <glyph glyph-name="Thorn" unicode="&#xde;" horiz-adv-x="1153" 
d="M460 1344v-600q-1 -25 26 -23q120 8 130 11q194 43 242 216q48 176 -92 304q-109 99 -303 104zM22 0v44q100 31 111 34q25 9 25 41q-1 644 0 1217q0 34 -27 43q-63 22 -75 22q-26 2 -33 16q-6 11 0 38h681q167 0 285 -111t128 -277q8 -140 -93 -261q-101 -120 -246 -141
q-39 -6 -86 -7h-232v-33q0 -410 -1 -501q0 -36 29 -43q7 -2 22 -10q15 -7 23 -8q50 -11 33 -63h-544z" />
    <glyph glyph-name="germandbls" unicode="&#xdf;" horiz-adv-x="1353" 
d="M450 771q99 -17 210 9q117 27 184 89q94 85 95 196q2 111 -91 191q-133 115 -398 95v-580zM20 1435q31 1 32 1q659 1 743 0q196 -2 317 -147q87 -105 77 -237q-9 -131 -110 -224q-93 -84 -220 -105q-16 -3 -22 -4q-1 0 -14 -6q36 -17 40 -18q210 -102 291 -292
q9 -21 19 -59q12 -44 18 -60q62 -173 84 -218q56 -117 185 -117q17 0 25 -17q2 -4 13 -51q-128 -8 -277 57q-224 97 -310 297q-9 21 -20 59q-12 45 -17 60q-57 161 -77 204q-64 143 -221 134q-6 -1 -126 -1q-2 -30 -2 -31v-522q0 -35 28 -42q7 -2 22 -9q14 -7 23 -8
q45 -9 31 -63h-531v45q95 28 103 31q30 10 30 46q-2 591 0 1181q0 37 -30 47q-8 2 -104 30v39z" />
    <glyph glyph-name="agrave" unicode="&#xe0;" horiz-adv-x="1700" 
d="M771 1037q-310 -601 -344 -668h641q-178 411 -288 667zM379 271q-44 -71 -85 -129q-23 -32 13 -47q9 -4 109 -36v-59h-416v71q69 -4 114 27q37 24 68 82q117 217 298 546q283 511 301 544q17 30 53 28q49 -4 101 0q33 2 47 -26q536 -1101 542 -1113q35 -74 153 -91v-68
h-656v61q100 27 107 29q43 16 26 56q-5 12 -47 125h-728z" />
    <glyph glyph-name="aacute" unicode="&#xe1;" horiz-adv-x="1700" 
d="M771 1037q-310 -601 -344 -668h641q-178 411 -288 667zM379 271q-44 -71 -85 -129q-23 -32 13 -47q9 -4 109 -36v-59h-416v71q69 -4 114 27q37 24 68 82q117 217 298 546q283 511 301 544q17 30 53 28q49 -4 101 0q33 2 47 -26q536 -1101 542 -1113q35 -74 153 -91v-68
h-656v61q100 27 107 29q43 16 26 56q-5 12 -47 125h-728z" />
    <glyph glyph-name="acircumflex" unicode="&#xe2;" horiz-adv-x="1700" 
d="M771 1037q-310 -601 -344 -668h641q-178 411 -288 667zM379 271q-44 -71 -85 -129q-23 -32 13 -47q9 -4 109 -36v-59h-416v71q69 -4 114 27q37 24 68 82q117 217 298 546q283 511 301 544q17 30 53 28q49 -4 101 0q33 2 47 -26q536 -1101 542 -1113q35 -74 153 -91v-68
h-656v61q100 27 107 29q43 16 26 56q-5 12 -47 125h-728z" />
    <glyph glyph-name="atilde" unicode="&#xe3;" horiz-adv-x="1700" 
d="M771 1037q-310 -601 -344 -668h641q-178 411 -288 667zM379 271q-44 -71 -85 -129q-23 -32 13 -47q9 -4 109 -36v-59h-416v71q69 -4 114 27q37 24 68 82q117 217 298 546q283 511 301 544q17 30 53 28q49 -4 101 0q33 2 47 -26q536 -1101 542 -1113q35 -74 153 -91v-68
h-656v61q100 27 107 29q43 16 26 56q-5 12 -47 125h-728z" />
    <glyph glyph-name="adieresis" unicode="&#xe4;" horiz-adv-x="1700" 
d="M771 1037q-310 -601 -344 -668h641q-178 411 -288 667zM379 271q-44 -71 -85 -129q-23 -32 13 -47q9 -4 109 -36v-59h-416v71q69 -4 114 27q37 24 68 82q117 217 298 546q283 511 301 544q17 30 53 28q49 -4 101 0q33 2 47 -26q536 -1101 542 -1113q35 -74 153 -91v-68
h-656v61q100 27 107 29q43 16 26 56q-5 12 -47 125h-728z" />
    <glyph glyph-name="aring" unicode="&#xe5;" horiz-adv-x="1700" 
d="M771 1037q-310 -601 -344 -668h641q-178 411 -288 667zM379 271q-44 -71 -85 -129q-23 -32 13 -47q9 -4 109 -36v-59h-416v71q69 -4 114 27q37 24 68 82q117 217 298 546q283 511 301 544q17 30 53 28q49 -4 101 0q33 2 47 -26q536 -1101 542 -1113q35 -74 153 -91v-68
h-656v61q100 27 107 29q43 16 26 56q-5 12 -47 125h-728z" />
    <glyph glyph-name="ae" unicode="&#xe6;" horiz-adv-x="1600" 
d="M1479 965q-5 -15 -26 -15q-7 0 -68 8q-2 11 -2 12q22 133 -130 207q-104 52 -239 61q-137 9 -265 -28q-137 -39 -232 -121q-104 -90 -139 -219q-78 -287 85 -506q185 -248 572 -258q111 -2 217 10q16 2 214 41q0 -56 -2 -63q-1 -10 -26 -20q-147 -58 -334 -70
q-331 -20 -574 56q-267 84 -400 268q-126 174 -108 399q17 208 187 360q163 147 419 200q439 92 925 -41q1 0 10 -5q-64 -212 -84 -276z" />
    <glyph glyph-name="ccedilla" unicode="&#xe7;" horiz-adv-x="1600" 
d="M1479 965q-5 -15 -26 -15q-7 0 -68 8q-2 11 -2 12q22 133 -130 207q-104 52 -239 61q-137 9 -265 -28q-137 -39 -232 -121q-104 -90 -139 -219q-78 -287 85 -506q185 -248 572 -258q111 -2 217 10q16 2 214 41q0 -56 -2 -63q-1 -10 -26 -20q-147 -58 -334 -70
q-331 -20 -574 56q-267 84 -400 268q-126 174 -108 399q17 208 187 360q163 147 419 200q439 92 925 -41q1 0 10 -5q-64 -212 -84 -276zM900 0q-24 -19 -24 -43q0 -35 52.5 -60.5t126.5 -25.5q51 0 93 13q-4 -74 -85 -151q-84 -83 -165 -83v30q87 30 103 133q0 13 -3 25
q-30 -7 -63 -7q-16 0 -30 2q-60 1 -103 30q-45 31 -45 75q0 35 30 62h113z" />
    <glyph glyph-name="egrave" unicode="&#xe8;" horiz-adv-x="1300" 
d="M30 0v42q99 26 111 29q35 10 35 49q-2 538 0 1188q0 35 -31 44q-7 2 -114 33v41h1228v-328q-33 24 -34 25q-88 202 -328 198q-26 -1 -396 -1v-486q359 13 368 15q128 28 156 130q0 1 30 25v-447q-27 21 -28 23q2 -3 -7 31q-31 120 -143 130q-33 3 -377 19v-653h37h391
q197 2 291 163q9 17 13 20q10 8 26 2v-292h-1228z" />
    <glyph glyph-name="eacute" unicode="&#xe9;" horiz-adv-x="1300" 
d="M30 0v42q99 26 111 29q35 10 35 49q-2 538 0 1188q0 35 -31 44q-7 2 -114 33v41h1228v-328q-33 24 -34 25q-88 202 -328 198q-26 -1 -396 -1v-486q359 13 368 15q128 28 156 130q0 1 30 25v-447q-27 21 -28 23q2 -3 -7 31q-31 120 -143 130q-33 3 -377 19v-653h37h391
q197 2 291 163q9 17 13 20q10 8 26 2v-292h-1228z" />
    <glyph glyph-name="ecircumflex" unicode="&#xea;" horiz-adv-x="1300" 
d="M30 0v42q99 26 111 29q35 10 35 49q-2 538 0 1188q0 35 -31 44q-7 2 -114 33v41h1228v-328q-33 24 -34 25q-88 202 -328 198q-26 -1 -396 -1v-486q359 13 368 15q128 28 156 130q0 1 30 25v-447q-27 21 -28 23q2 -3 -7 31q-31 120 -143 130q-33 3 -377 19v-653h37h391
q197 2 291 163q9 17 13 20q10 8 26 2v-292h-1228z" />
    <glyph glyph-name="edieresis" unicode="&#xeb;" horiz-adv-x="1300" 
d="M30 0v42q99 26 111 29q35 10 35 49q-2 538 0 1188q0 35 -31 44q-7 2 -114 33v41h1228v-328q-33 24 -34 25q-88 202 -328 198q-26 -1 -396 -1v-486q359 13 368 15q128 28 156 130q0 1 30 25v-447q-27 21 -28 23q2 -3 -7 31q-31 120 -143 130q-33 3 -377 19v-653h37h391
q197 2 291 163q9 17 13 20q10 8 26 2v-292h-1228z" />
    <glyph glyph-name="igrave" unicode="&#xec;" horiz-adv-x="600" 
d="M30 0v44q78 32 86 37q20 11 20 36q1 605 0 1205q0 25 -20 36q-9 5 -86 37v36h536q15 -47 -28 -51q2 0 -6 -2q-51 -15 -61 -28q-9 -12 -9 -65q0 -922 -2 -1146q0 -56 50 -71q4 -1 12 -4t12 -4q31 -9 35 -17q4 -7 -3 -43h-536z" />
    <glyph glyph-name="iacute" unicode="&#xed;" horiz-adv-x="600" 
d="M30 0v44q78 32 86 37q20 11 20 36q1 605 0 1205q0 25 -20 36q-9 5 -86 37v36h536q15 -47 -28 -51q2 0 -6 -2q-51 -15 -61 -28q-9 -12 -9 -65q0 -922 -2 -1146q0 -56 50 -71q4 -1 12 -4t12 -4q31 -9 35 -17q4 -7 -3 -43h-536z" />
    <glyph glyph-name="icircumflex" unicode="&#xee;" horiz-adv-x="600" 
d="M30 0v44q78 32 86 37q20 11 20 36q1 605 0 1205q0 25 -20 36q-9 5 -86 37v36h536q15 -47 -28 -51q2 0 -6 -2q-51 -15 -61 -28q-9 -12 -9 -65q0 -922 -2 -1146q0 -56 50 -71q4 -1 12 -4t12 -4q31 -9 35 -17q4 -7 -3 -43h-536z" />
    <glyph glyph-name="idieresis" unicode="&#xef;" horiz-adv-x="600" 
d="M30 0v44q78 32 86 37q20 11 20 36q1 605 0 1205q0 25 -20 36q-9 5 -86 37v36h536q15 -47 -28 -51q2 0 -6 -2q-51 -15 -61 -28q-9 -12 -9 -65q0 -922 -2 -1146q0 -56 50 -71q4 -1 12 -4t12 -4q31 -9 35 -17q4 -7 -3 -43h-536z" />
    <glyph glyph-name="eth" unicode="&#xf0;" 
d="M232 537q0 -41 5 -79q14 -122 61.5 -230t118.5 -165q64 -53 128 -53q6 0 13 1q70 5 127.5 70.5t80.5 179.5q16 73 16 149q0 42 -5 85q-14 122 -62.5 231.5t-119.5 165.5q-65 50 -128 50h-11q-68 -5 -126 -69.5t-82 -178.5q-16 -84 -16 -157zM937 477q0 -132 -56.5 -251
t-159 -185t-214.5 -66t-214.5 66t-159 185t-56.5 251q0 131 58 251t161 185t211 65q109 0 212 -65q29 -18 54 -41q-84 235 -233.5 377t-326.5 155v55q306 0 515 -285t209 -697z" />
    <glyph glyph-name="ntilde" unicode="&#xf1;" horiz-adv-x="1700" 
d="M0 3v48q107 23 117 25q45 9 45 58q-2 537 0 1179q0 42 -35 53q-10 3 -101 28v40l33 1q449 1 517 1q32 0 47 -28q177 -327 679 -1255l18 -32q4 28 4 29q0 991 1 1182q0 33 -33 38q-15 3 -155 23v40h510v-41q-138 -29 -152 -32q-36 -6 -36 -49q1 -571 0 -1182q0 -39 31 -47
q7 -1 21 -8t21 -8q49 -9 34 -64q-30 -1 -31 -1q-420 -1 -474 -1q-31 0 -47 29q-196 365 -697 1293l-18 32q-2 -32 -2 -33q-1 -1004 -1 -1205q0 -36 32 -41q12 -2 129 -24v-48h-457z" />
    <glyph glyph-name="ograve" unicode="&#xf2;" horiz-adv-x="1748" 
d="M760 67q-221 65 -330 242q-139 226 -84 539q50 290 221 425q159 125 381 94l-1 -2q22 -1 37 -3q14 -3 35 -10v2q219 -52 325 -227q116 -189 66 -478q-55 -313 -261 -475q-161 -126 -389 -107zM877 1464h-4q-400 0 -628 -204q-227 -205 -227 -526q0 -222 101 -394
q100 -172 287 -267q186 -95 457 -95q-3 0 12 0q16 0 13 0q270 0 457 95q186 95 287 267t101 394q0 321 -228 526q-227 204 -628 204zM760 67q-221 65 -330 242q-139 226 -84 539q50 290 221 425q159 125 381 94l-1 -2q22 -1 37 -3q14 -3 35 -10v2q219 -52 325 -227
q116 -189 66 -478q-55 -313 -261 -475q-161 -126 -389 -107zM877 1464h-4q-400 0 -628 -204q-227 -205 -227 -526q0 -222 101 -394q100 -172 287 -267q186 -95 457 -95q-3 0 12 0q16 0 13 0q270 0 457 95q186 95 287 267t101 394q0 321 -228 526q-227 204 -628 204z" />
    <glyph glyph-name="oacute" unicode="&#xf3;" horiz-adv-x="1748" 
d="M760 67q-221 65 -330 242q-139 226 -84 539q50 290 221 425q159 125 381 94l-1 -2q22 -1 37 -3q14 -3 35 -10v2q219 -52 325 -227q116 -189 66 -478q-55 -313 -261 -475q-161 -126 -389 -107zM877 1464h-4q-400 0 -628 -204q-227 -205 -227 -526q0 -222 101 -394
q100 -172 287 -267q186 -95 457 -95q-3 0 12 0q16 0 13 0q270 0 457 95q186 95 287 267t101 394q0 321 -228 526q-227 204 -628 204zM760 67q-221 65 -330 242q-139 226 -84 539q50 290 221 425q159 125 381 94l-1 -2q22 -1 37 -3q14 -3 35 -10v2q219 -52 325 -227
q116 -189 66 -478q-55 -313 -261 -475q-161 -126 -389 -107zM877 1464h-4q-400 0 -628 -204q-227 -205 -227 -526q0 -222 101 -394q100 -172 287 -267q186 -95 457 -95q-3 0 12 0q16 0 13 0q270 0 457 95q186 95 287 267t101 394q0 321 -228 526q-227 204 -628 204z" />
    <glyph glyph-name="ocircumflex" unicode="&#xf4;" horiz-adv-x="1748" 
d="M760 67q-221 65 -330 242q-139 226 -84 539q50 290 221 425q159 125 381 94l-1 -2q22 -1 37 -3q14 -3 35 -10v2q219 -52 325 -227q116 -189 66 -478q-55 -313 -261 -475q-161 -126 -389 -107zM877 1464h-4q-400 0 -628 -204q-227 -205 -227 -526q0 -222 101 -394
q100 -172 287 -267q186 -95 457 -95q-3 0 12 0q16 0 13 0q270 0 457 95q186 95 287 267t101 394q0 321 -228 526q-227 204 -628 204zM760 67q-221 65 -330 242q-139 226 -84 539q50 290 221 425q159 125 381 94l-1 -2q22 -1 37 -3q14 -3 35 -10v2q219 -52 325 -227
q116 -189 66 -478q-55 -313 -261 -475q-161 -126 -389 -107zM877 1464h-4q-400 0 -628 -204q-227 -205 -227 -526q0 -222 101 -394q100 -172 287 -267q186 -95 457 -95q-3 0 12 0q16 0 13 0q270 0 457 95q186 95 287 267t101 394q0 321 -228 526q-227 204 -628 204z" />
    <glyph glyph-name="otilde" unicode="&#xf5;" horiz-adv-x="1748" 
d="M760 67q-221 65 -330 242q-139 226 -84 539q50 290 221 425q159 125 381 94l-1 -2q22 -1 37 -3q14 -3 35 -10v2q219 -52 325 -227q116 -189 66 -478q-55 -313 -261 -475q-161 -126 -389 -107zM877 1464h-4q-400 0 -628 -204q-227 -205 -227 -526q0 -222 101 -394
q100 -172 287 -267q186 -95 457 -95q-3 0 12 0q16 0 13 0q270 0 457 95q186 95 287 267t101 394q0 321 -228 526q-227 204 -628 204zM760 67q-221 65 -330 242q-139 226 -84 539q50 290 221 425q159 125 381 94l-1 -2q22 -1 37 -3q14 -3 35 -10v2q219 -52 325 -227
q116 -189 66 -478q-55 -313 -261 -475q-161 -126 -389 -107zM877 1464h-4q-400 0 -628 -204q-227 -205 -227 -526q0 -222 101 -394q100 -172 287 -267q186 -95 457 -95q-3 0 12 0q16 0 13 0q270 0 457 95q186 95 287 267t101 394q0 321 -228 526q-227 204 -628 204z" />
    <glyph glyph-name="odieresis" unicode="&#xf6;" horiz-adv-x="1748" 
d="M760 67q-221 65 -330 242q-139 226 -84 539q50 290 221 425q159 125 381 94l-1 -2q22 -1 37 -3q14 -3 35 -10v2q219 -52 325 -227q116 -189 66 -478q-55 -313 -261 -475q-161 -126 -389 -107zM877 1464h-4q-400 0 -628 -204q-227 -205 -227 -526q0 -222 101 -394
q100 -172 287 -267q186 -95 457 -95q-3 0 12 0q16 0 13 0q270 0 457 95q186 95 287 267t101 394q0 321 -228 526q-227 204 -628 204zM760 67q-221 65 -330 242q-139 226 -84 539q50 290 221 425q159 125 381 94l-1 -2q22 -1 37 -3q14 -3 35 -10v2q219 -52 325 -227
q116 -189 66 -478q-55 -313 -261 -475q-161 -126 -389 -107zM877 1464h-4q-400 0 -628 -204q-227 -205 -227 -526q0 -222 101 -394q100 -172 287 -267q186 -95 457 -95q-3 0 12 0q16 0 13 0q270 0 457 95q186 95 287 267t101 394q0 321 -228 526q-227 204 -628 204z" />
    <glyph glyph-name="divide" unicode="&#xf7;" 
d="M87 647v140h839l1 -1v-139h-840zM398 408l82 84q15 14 29 14q13 0 31 -16l80 -86q12 -16 12 -29q0 -15 -14 -31l-80 -88q-20 -20 -29 -20q-16 0 -29 14l-88 101q-10 13 -10 26q0 15 16 31zM398 1101l82 84q15 14 29 14q13 0 31 -16l80 -86q12 -16 12 -29q0 -15 -14 -31
l-80 -88q-20 -20 -29 -20q-16 0 -29 14l-88 101q-10 13 -10 26q0 15 16 31z" />
    <glyph glyph-name="oslash" unicode="&#xf8;" horiz-adv-x="1748" 
d="M760 67q-221 65 -330 242q-139 226 -84 539q50 290 221 425q159 125 381 94l-1 -2q22 -1 37 -3q14 -3 35 -10v2q219 -52 325 -227q116 -189 66 -478q-55 -313 -261 -475q-161 -126 -389 -107zM877 1464h-4q-400 0 -628 -204q-227 -205 -227 -526q0 -222 101 -394
q100 -172 287 -267q186 -95 457 -95q-3 0 12 0q16 0 13 0q270 0 457 95q186 95 287 267t101 394q0 321 -228 526q-227 204 -628 204zM760 67q-221 65 -330 242q-139 226 -84 539q50 290 221 425q159 125 381 94l-1 -2q22 -1 37 -3q14 -3 35 -10v2q219 -52 325 -227
q116 -189 66 -478q-55 -313 -261 -475q-161 -126 -389 -107zM877 1464h-4q-400 0 -628 -204q-227 -205 -227 -526q0 -222 101 -394q100 -172 287 -267q186 -95 457 -95q-3 0 12 0q16 0 13 0q270 0 457 95q186 95 287 267t101 394q0 321 -228 526q-227 204 -628 204z" />
    <glyph glyph-name="ugrave" unicode="&#xf9;" horiz-adv-x="1553" 
d="M1173 1436h351v-46q-72 -28 -79 -31q-28 -8 -28 -43q-1 -501 -5 -716q-2 -176 -50 -316q-62 -184 -228 -242q-370 -131 -713 20q-225 99 -234 373q-1 59 -1 693v187q2 39 -32 50q-9 3 -104 30v40h568q8 -31 3 -39q-4 -7 -32 -15q-77 -20 -90 -37q-12 -16 -12 -95
q1 -550 3 -683q0 -36 5 -92q6 -76 7 -92q7 -110 115 -177q123 -76 282 -69q104 5 181 25q188 48 208 268q17 176 21 396q2 90 1 242q-1 179 0 241q0 48 -42 60q-9 3 -95 26v42z" />
    <glyph glyph-name="uacute" unicode="&#xfa;" horiz-adv-x="1553" 
d="M1173 1436h351v-46q-72 -28 -79 -31q-28 -8 -28 -43q-1 -501 -5 -716q-2 -176 -50 -316q-62 -184 -228 -242q-370 -131 -713 20q-225 99 -234 373q-1 59 -1 693v187q2 39 -32 50q-9 3 -104 30v40h568q8 -31 3 -39q-4 -7 -32 -15q-77 -20 -90 -37q-12 -16 -12 -95
q1 -550 3 -683q0 -36 5 -92q6 -76 7 -92q7 -110 115 -177q123 -76 282 -69q104 5 181 25q188 48 208 268q17 176 21 396q2 90 1 242q-1 179 0 241q0 48 -42 60q-9 3 -95 26v42z" />
    <glyph glyph-name="ucircumflex" unicode="&#xfb;" horiz-adv-x="1553" 
d="M1173 1436h351v-46q-72 -28 -79 -31q-28 -8 -28 -43q-1 -501 -5 -716q-2 -176 -50 -316q-62 -184 -228 -242q-370 -131 -713 20q-225 99 -234 373q-1 59 -1 693v187q2 39 -32 50q-9 3 -104 30v40h568q8 -31 3 -39q-4 -7 -32 -15q-77 -20 -90 -37q-12 -16 -12 -95
q1 -550 3 -683q0 -36 5 -92q6 -76 7 -92q7 -110 115 -177q123 -76 282 -69q104 5 181 25q188 48 208 268q17 176 21 396q2 90 1 242q-1 179 0 241q0 48 -42 60q-9 3 -95 26v42z" />
    <glyph glyph-name="udieresis" unicode="&#xfc;" horiz-adv-x="1553" 
d="M1173 1436h351v-46q-72 -28 -79 -31q-28 -8 -28 -43q-1 -501 -5 -716q-2 -176 -50 -316q-62 -184 -228 -242q-370 -131 -713 20q-225 99 -234 373q-1 59 -1 693v187q2 39 -32 50q-9 3 -104 30v40h568q8 -31 3 -39q-4 -7 -32 -15q-77 -20 -90 -37q-12 -16 -12 -95
q1 -550 3 -683q0 -36 5 -92q6 -76 7 -92q7 -110 115 -177q123 -76 282 -69q104 5 181 25q188 48 208 268q17 176 21 396q2 90 1 242q-1 179 0 241q0 48 -42 60q-9 3 -95 26v42z" />
    <glyph glyph-name="yacute" unicode="&#xfd;" horiz-adv-x="1648" 
d="M542 -4h566q4 37 -1 44q-5 8 -37 17q-11 3 -34 11q-22 7 -34 10q-29 8 -29 39q0 90 1 282v282q0 25 17 47q65 80 224 278q142 177 223 279q39 49 98 65q11 3 33 7q22 5 33 8q17 4 22 14q3 5 19 56h-355q-44 0 -54 -8q-9 -7 -20 -50l2 -6q73 -18 78 -20q61 -25 17 -75
q-255 -291 -382 -437q-1 -1 -23 -24q-21 26 -21 27q-180 262 -287 420q-43 63 30 90q4 1 65 16q-5 19 -5 20q-2 28 -17 38q-13 10 -43 10q-89 -1 -577 -1h-35q4 -47 14 -58q8 -10 50 -21q80 -22 110 -65q41 -60 236 -340q145 -208 236 -340q13 -19 13 -42q1 -75 1 -226v-227
q0 -33 -27 -42q-10 -3 -107 -32v-46z" />
    <glyph glyph-name="thorn" unicode="&#xfe;" horiz-adv-x="1648" 
d="M542 -4h566q4 37 -1 44q-5 8 -37 17q-11 3 -34 11q-22 7 -34 10q-29 8 -29 39q0 90 1 282v282q0 25 17 47q65 80 224 278q142 177 223 279q39 49 98 65q11 3 33 7q22 5 33 8q17 4 22 14q3 5 19 56h-355q-44 0 -54 -8q-9 -7 -20 -50l2 -6q73 -18 78 -20q61 -25 17 -75
q-255 -291 -382 -437q-1 -1 -23 -24q-21 26 -21 27q-180 262 -287 420q-43 63 30 90q4 1 65 16q-5 19 -5 20q-2 28 -17 38q-13 10 -43 10q-89 -1 -577 -1h-35q4 -47 14 -58q8 -10 50 -21q80 -22 110 -65q41 -60 236 -340q145 -208 236 -340q13 -19 13 -42q1 -75 1 -226v-227
q0 -33 -27 -42q-10 -3 -107 -32v-46z" />
    <glyph glyph-name="ydieresis" unicode="&#xff;" horiz-adv-x="1648" 
d="M542 -4h566q4 37 -1 44q-5 8 -37 17q-11 3 -34 11q-22 7 -34 10q-29 8 -29 39q0 90 1 282v282q0 25 17 47q65 80 224 278q142 177 223 279q39 49 98 65q11 3 33 7q22 5 33 8q17 4 22 14q3 5 19 56h-355q-44 0 -54 -8q-9 -7 -20 -50l2 -6q73 -18 78 -20q61 -25 17 -75
q-255 -291 -382 -437q-1 -1 -23 -24q-21 26 -21 27q-180 262 -287 420q-43 63 30 90q4 1 65 16q-5 19 -5 20q-2 28 -17 38q-13 10 -43 10q-89 -1 -577 -1h-35q4 -47 14 -58q8 -10 50 -21q80 -22 110 -65q41 -60 236 -340q145 -208 236 -340q13 -19 13 -42q1 -75 1 -226v-227
q0 -33 -27 -42q-10 -3 -107 -32v-46z" />
    <glyph glyph-name="dotlessi" unicode="&#x131;" horiz-adv-x="514" 
d="M328 223q0 -173 100 -173h46v-50h-442v50h46q100 0 100 173v432q0 77 -111 77h-48v44q222 69 261 182h48v-735z" />
    <glyph glyph-name="circumflex" unicode="&#x2c6;" horiz-adv-x="1024" 
d="M221 1079l232 355h118l232 -355h-58l-233 216l-233 -216h-58z" />
    <glyph glyph-name="caron" unicode="&#x2c7;" horiz-adv-x="1024" 
d="M221 1434h58l233 -214l233 214h58l-232 -356h-118z" />
    <glyph glyph-name="uni02C9" unicode="&#x2c9;" horiz-adv-x="1024" 
d="M254 1195v125h516v-125h-516z" />
    <glyph glyph-name="breve" unicode="&#x2d8;" horiz-adv-x="1024" 
d="M219 1349h51q17 -73 75 -107t167 -34t166 33.5t74 107.5h51q-20 -133 -94 -201.5t-197 -68.5q-122 0 -197 69t-96 201z" />
    <glyph glyph-name="dotaccent" unicode="&#x2d9;" horiz-adv-x="1024" 
d="M422 1289l69 72q6 6 13 9t14 3q6 0 12.5 -3t12.5 -9l71 -76q5 -4 7 -10t2 -14q-1 -9 -3 -15t-8 -12l-71 -76q-12 -11 -16 -13.5t-7 -2.5q-10 0 -16.5 2.5t-10.5 8.5l-75 87q-4 4 -6 9.5t-2 13.5q0 6 3 12.5t11 13.5z" />
    <glyph glyph-name="ring" unicode="&#x2da;" horiz-adv-x="1024" 
d="M411 1257q0 -42 29 -71t71 -29t71 29t29 71q0 40 -29.5 69.5t-70.5 29.5t-70.5 -29.5t-29.5 -69.5zM335 1257q0 75 51 126t125 51q76 0 127.5 -51.5t51.5 -125.5q0 -75 -51.5 -126.5t-127.5 -51.5q-74 0 -125 51.5t-51 126.5z" />
    <glyph glyph-name="ogonek" unicode="&#x2db;" horiz-adv-x="1024" 
d="M640 0q-71 -62 -110.5 -119.5t-39.5 -112.5q0 -47 27 -75t73 -28q40 0 69.5 15.5t49.5 48.5l28 -16q-36 -63 -90.5 -97t-119.5 -34q-70 0 -114 35.5t-44 90.5q0 76 60.5 156.5t161.5 135.5h49z" />
    <glyph glyph-name="tilde" unicode="&#x2dc;" horiz-adv-x="1024" 
d="M808 1382q-20 -103 -68.5 -154t-126.5 -51h-4q-50 0 -113 23q-66 24 -114 24q-39 0 -60.5 -20.5t-33.5 -71.5h-54q19 106 68 158.5t129 52.5q46 -1 113 -24q64 -23 112 -23h4q36 0 58 20t36 66h54z" />
    <glyph glyph-name="hungarumlaut" unicode="&#x2dd;" horiz-adv-x="1024" 
d="M217 1079l144 273q24 44 45.5 63t46.5 19q28 0 48 -20t20 -47q0 -16 -10.5 -35t-30.5 -41l-205 -212h-58zM502 1079l144 273q24 44 45.5 63t46.5 19q28 0 48 -20t20 -47q0 -16 -10.5 -35t-30.5 -41l-205 -212h-58z" />
    <glyph glyph-name="endash" unicode="&#x2013;" horiz-adv-x="1108" 
d="M56 419v120h996v-120h-996z" />
    <glyph glyph-name="emdash" unicode="&#x2014;" horiz-adv-x="2048" 
d="M0 419v120h2048v-120h-2048z" />
    <glyph glyph-name="quoteleft" unicode="&#x2018;" horiz-adv-x="557" 
d="M319 1016q-44 0 -88.5 65.5t-44.5 151.5q0 109 71 226.5t139 117.5v-43q-73 -43 -87 -190q0 -119 129 -161v-42z" />
    <glyph glyph-name="quoteright" unicode="&#x2019;" horiz-adv-x="557" 
d="M238 1577q44 0 88.5 -65.5t44.5 -151.5q0 -109 -71 -226.5t-139 -117.5v43q73 43 87 190q0 119 -129 161v42z" />
    <glyph glyph-name="quotesinglbase" unicode="&#x201a;" horiz-adv-x="557" 
d="M238 281q44 0 88.5 -65.5t44.5 -151.5q0 -109 -71 -226.5t-139 -117.5v43q73 43 87 190q0 119 -129 161v42z" />
    <glyph glyph-name="quotedblleft" unicode="&#x201c;" horiz-adv-x="910" 
d="M319 1016q-44 0 -88.5 65.5t-44.5 151.5q0 109 71 226.5t139 117.5v-43q-73 -43 -87 -190q0 -119 129 -161v-42zM672 1016q-44 0 -88.5 65.5t-44.5 151.5q0 109 71 226.5t139 117.5v-43q-73 -43 -87 -190q0 -119 129 -161v-42z" />
    <glyph glyph-name="quotedblright" unicode="&#x201d;" horiz-adv-x="910" 
d="M238 1577q44 0 88.5 -65.5t44.5 -151.5q0 -109 -71 -226.5t-139 -117.5v43q73 43 87 190q0 119 -129 161v42zM591 1577q44 0 88.5 -65.5t44.5 -151.5q0 -109 -71 -226.5t-139 -117.5v43q73 43 87 190q0 119 -129 161v42z" />
    <glyph glyph-name="quotedblbase" unicode="&#x201e;" horiz-adv-x="910" 
d="M238 281q44 0 88.5 -65.5t44.5 -151.5q0 -109 -71 -226.5t-139 -117.5v43q73 43 87 190q0 119 -129 161v42zM591 281q44 0 88.5 -65.5t44.5 -151.5q0 -109 -71 -226.5t-139 -117.5v43q73 43 87 190q0 119 -129 161v42z" />
    <glyph glyph-name="dagger" unicode="&#x2020;" 
d="M486 1022q-8 97 -54 178q-57 101 -57 129q0 49 36 78.5t96 29.5q57 0 94.5 -27.5t37.5 -71.5q0 -32 -55 -137q-46 -85 -55 -179q96 8 177 54q101 57 129 57q49 0 79 -36t30 -96q0 -57 -27.5 -94.5t-72.5 -37.5q-32 0 -136 55q-85 46 -179 57q8 -176 110 -277
q-106 -460 -112 -974h-38q-6 514 -114 974q102 101 111 277q-96 -10 -178 -55q-101 -57 -129 -57q-49 0 -78.5 36t-29.5 96q0 57 27.5 94.5t71.5 37.5q32 0 137 -56q85 -46 179 -55z" />
    <glyph glyph-name="daggerdbl" unicode="&#x2021;" 
d="M528 186q94 11 179 57q104 55 136 55q45 0 72.5 -37.5t27.5 -94.5q0 -60 -30 -96t-79 -36q-28 0 -129 57q-81 46 -177 54q9 -94 55 -179q55 -105 55 -137q0 -44 -37.5 -71.5t-94.5 -27.5q-60 0 -96 29.5t-36 78.5q0 28 57 129q46 81 54 178q-94 -9 -179 -55
q-105 -56 -137 -56q-44 0 -71.5 37.5t-27.5 94.5q0 60 29.5 96t78.5 36q28 0 129 -57q82 -45 178 -55q-9 226 -111 398q102 171 111 397q-96 -10 -178 -55q-101 -57 -129 -57q-49 0 -78.5 36t-29.5 96q0 57 27.5 94.5t71.5 37.5q32 0 137 -56q85 -46 179 -55q-8 97 -54 178
q-57 101 -57 129q0 49 36 78.5t96 29.5q57 0 94.5 -27.5t37.5 -71.5q0 -32 -55 -137q-46 -85 -55 -179q96 8 177 54q101 57 129 57q49 0 79 -36t30 -96q0 -57 -27.5 -94.5t-72.5 -37.5q-32 0 -136 55q-85 46 -179 57q8 -226 110 -397q-102 -172 -110 -398z" />
    <glyph glyph-name="bullet" unicode="&#x2022;" horiz-adv-x="1024" 
d="M216 718q0 123 87 209t210 86q122 0 208.5 -86.5t86.5 -208.5t-87.5 -209.5t-209.5 -87.5q-123 0 -209 87t-86 210z" />
    <glyph glyph-name="ellipsis" unicode="&#x2026;" horiz-adv-x="2048" 
d="M145 167l82 84q15 14 29 14q13 0 31 -16l80 -86q12 -16 12 -29q0 -15 -14 -31l-80 -88q-20 -20 -29 -20q-16 0 -29 14l-88 101q-10 13 -10 26q0 15 16 31zM828 167l82 84q15 14 29 14q13 0 31 -16l80 -86q12 -16 12 -29q0 -15 -14 -31l-80 -88q-20 -20 -29 -20
q-16 0 -29 14l-88 101q-10 13 -10 26q0 15 16 31zM1511 167l82 84q15 14 29 14q13 0 31 -16l80 -86q12 -16 12 -29q0 -15 -14 -31l-80 -88q-20 -20 -29 -20q-16 0 -29 14l-88 101q-10 13 -10 26q0 15 16 31z" />
    <glyph glyph-name="guilsinglleft" unicode="&#x2039;" horiz-adv-x="631" 
d="M174 479l342 303h14v-37l-205 -266l205 -266v-37h-14z" />
    <glyph glyph-name="guilsinglright" unicode="&#x203a;" horiz-adv-x="631" 
d="M115 176h-14v37l205 266l-205 266v37h14l342 -303z" />
    <glyph glyph-name="fraction" unicode="&#x2044;" horiz-adv-x="342" 
d="M-342 -29l940 1461h84l-938 -1461h-86z" />
    <glyph glyph-name="fraction" unicode="&#x2215;" horiz-adv-x="342" 
d="M-342 -29l940 1461h84l-938 -1461h-86z" />
    <glyph glyph-name="franc" unicode="&#x20a3;" 
d="M247 357h-194v60h194v732q0 235 -103 235h-96v50h915l103 -231h-49q-59 182 -190 182l-316 -1q-102 0 -102 -235v-352h361q100 0 100 63v58h50v-342h-50v60q0 62 -100 62h-361v-281h194v-60h-194v-72q0 -235 102 -235h97v-50h-560v50h96q103 0 103 235v72z" />
    <glyph glyph-name="lira" unicode="&#x20a4;" 
d="M748 1347q-72 31 -160 31h-2q-100 0 -190 -101q-84 -93 -84 -241q0 -15 1 -30q0 -106 33 -213h380v-60h-360q12 -30 26 -60h352v-60h-321q35 -63 35 -138q0 -161 -162 -375h402q130 0 189 132l49 -1l-103 -231h-719l1 50q187 238 187 418q0 77 -34 143l-2 2h-172v60h143
q-14 31 -26 60h-135v60h113q-36 107 -36 193q0 226 123.5 347t310.5 121q75 0 185.5 -14t110.5 -34v-161h-58q-5 61 -77 102z" />
    <glyph glyph-name="peseta" unicode="&#x20a7;" horiz-adv-x="2028" 
d="M409 1384v-662q3 -9 7 -17q41 -102 108 -153q57 -44 116 -44q10 0 19 1q68 8 127 75t87 177q22 87 22 179q0 24 -1 47q-7 116 -49.5 218.5t-108.5 144.5q-56 35 -112 35q-10 0 -21 -1h-194zM1496 908h-179v-685q0 -81 34 -119q28 -31 81 -37l-71 192l49 1
q55 -130 114 -174q57 -44 127 -44h7q92 0 151 52q59 53 59 136q0 102 -259 226q-101 52 -144 112t-43 145q0 121 73 194zM1039 910q-7 -101 -48 -194q-50 -114 -141 -177.5t-190 -63.5q-100 0 -191 64q-33 22 -60 51v-305q0 -235 102 -235h97v-50h-560v50h96q103 0 103 235
v864q0 235 -103 235h-96v50h618q92 -2 181 -62q91 -62 143 -177q50 -113 51 -237h10q216 0 216 355h50v-355h259q42 19 110 20h2q54 0 133.5 -13.5t79.5 -33.5v-159h-42q-4 66 -65.5 108t-133.5 42q-64 0 -102.5 -36.5t-38.5 -96.5q0 -108 235 -220q122 -55 167.5 -117.5
t45.5 -153.5q0 -140 -83 -231q-102 -84 -228 -86q-58 0 -105 11q-28 6 -56 6q-18 0 -36 -3q-28 -5 -59 -5q-124 0 -173.5 57t-57.5 176h-1v687h-129z" />
    <glyph glyph-name="Euro" unicode="&#x20ac;" 
d="M140 372q-62 135 -76 281h-108l17 60h87v29q0 16 1 31h-71l17 60h58q14 145 76 281q81 178 226 274t298 96q43 0 87 -8q40 -10 82 -29q8 -6 16 -6q20 0 34 45h41l84 -281l-40 -1q-49 134 -138 178q-43 22 -81 32v3q-50 16 -101 16q-17 0 -34 -2q-120 -12 -226 -113.5
t-157 -273.5q-32 -104 -39 -211h706l-17 -60h-692q0 -30 2 -60h674l-17 -60h-652q17 -158 83 -298q74 -157 193 -236q102 -68 216 -69q186 3 256 91q74 91 74 185h48v-143q0 -70 -111 -127q-105 -54 -267 -56q-181 0 -325.5 98t-223.5 274z" />
    <glyph glyph-name="afii61352" unicode="&#x2116;" horiz-adv-x="1700" 
d="M0 3v48q107 23 117 25q45 9 45 58q-2 537 0 1179q0 42 -35 53q-10 3 -101 28v40l33 1q449 1 517 1q32 0 47 -28q177 -327 679 -1255l18 -32q4 28 4 29q0 991 1 1182q0 33 -33 38q-15 3 -155 23v40h510v-41q-138 -29 -152 -32q-36 -6 -36 -49q1 -571 0 -1182q0 -39 31 -47
q7 -1 21 -8t21 -8q49 -9 34 -64q-30 -1 -31 -1q-420 -1 -474 -1q-31 0 -47 29q-196 365 -697 1293l-18 32q-2 -32 -2 -33q-1 -1004 -1 -1205q0 -36 32 -41q12 -2 129 -24v-48h-457z" />
    <glyph glyph-name="trademark" unicode="&#x2122;" horiz-adv-x="2100" 
d="M296 1276q0 -208 -1 -583v-583q0 -37 33 -42q13 -2 157 -26v-46h-432v44q89 25 102 29q33 10 33 51q-2 627 0 1196q0 42 -36 53q-56 18 -66 19q-27 1 -33 14q-6 11 1 37q27 1 28 1q434 1 492 1q30 0 42 -30q107 -282 423 -1109l10 -23q15 36 16 37q323 815 432 1092
q13 33 50 33q75 -1 458 -1h35v-46q-94 -29 -102 -31q-31 -9 -31 -45v-534v-662q0 -40 34 -49q8 -2 101 -30v-48h-624v46q127 23 135 24q40 9 48 19q7 10 7 51v1209q-2 1 -5 3q-12 -25 -13 -25q-382 -905 -550 -1302q-12 -29 -40 -27q-1 0 -67 -3q-39 -1 -57 10
q-18 12 -31 48q-2 8 -10 32q-6 20 -10 31q-85 207 -243 593q-167 407 -243 593l-14 28q-1 0 -6 1h-6q-17 -48 -17 -50z" />
    <glyph glyph-name="partialdiff" unicode="&#x2202;" 
d="M232 537q0 -41 5 -79q14 -122 61.5 -230t118.5 -165q64 -53 128 -53q6 0 13 1q70 5 127.5 70.5t80.5 179.5q16 73 16 149q0 42 -5 85q-14 122 -62.5 231.5t-119.5 165.5q-65 50 -128 50h-11q-68 -5 -126 -69.5t-82 -178.5q-16 -84 -16 -157zM937 477q0 -132 -56.5 -251
t-159 -185t-214.5 -66t-214.5 66t-159 185t-56.5 251q0 131 58 251t161 185t211 65q109 0 212 -65q29 -18 54 -41q-84 235 -233.5 377t-326.5 155v55q306 0 515 -285t209 -697z" />
    <glyph glyph-name="Delta" unicode="&#x2206;" horiz-adv-x="1081" 
d="M514 1195l-406 -1072h801zM547 1434l526 -1434h-1067z" />
    <glyph glyph-name="product" unicode="&#x220f;" horiz-adv-x="1515" 
d="M511 1384q-102 0 -102 -235v-1281q0 -235 102 -235h97v-51h-560v51h96q103 0 103 235v1281q0 235 -103 235h-96v50h1419v-50h-97q-102 0 -102 -235v-1281q0 -235 102 -235h97v-50h-560v50h96q103 0 103 235v1281q0 235 -103 235h-492z" />
    <glyph glyph-name="summation" unicode="&#x2211;" horiz-adv-x="1206" 
d="M1059 548l-788 -914h635q130 0 189 182h49l-103 -232h-921v50q62 0 106 53l663 781l-663 859q-44 57 -106 57v50h921l103 -232h-49q-59 182 -189 182h-485z" />
    <glyph glyph-name="minus" unicode="&#x2212;" 
d="M87 647v140h839l1 -1v-139h-840z" />
    <glyph glyph-name="radical" unicode="&#x221a;" 
d="M181 0l-164 359l74 35l85 -185l728 1470h150v-60h-72z" />
    <glyph glyph-name="infinity" unicode="&#x221e;" 
d="M439 755q-15 103 -74 133q-46 22 -84 22q-12 0 -23 -2q-49 -10 -92.5 -44.5t-65.5 -84.5q-20 -46 -20 -90v-8q2 -48 27.5 -89t71.5 -58q29 -11 61 -11q16 0 33 3q47 10 90.5 43.5t75.5 185.5zM466 687q12 -96 94 -153q69 -48 123 -48q11 0 21 2q62 12 117.5 52t84.5 101
q26 54 26 108v11q-2 60 -35.5 108.5t-91.5 68.5q-37 13 -76 13q-22 0 -44 -4q-67 -9 -127 -62t-92 -197zM450 827q9 35 21 69q34 88 95 137t128 49t128 -48t95 -135t34 -182t-34 -182t-95 -135t-128 -48t-128 49t-95 136q-12 35 -21 70q-5 -21 -12 -41q-27 -73 -74 -113
t-99 -40t-100 41t-73.5 113.5t-25.5 149.5q0 76 25.5 149t73.5 114t100 41t99 -40t74 -112q7 -21 12 -42z" />
    <glyph glyph-name="integral" unicode="&#x222b;" horiz-adv-x="665" 
d="M-12 -281q-60 0 -60 29v159h36q1 -43 34.5 -64.5t63.5 -21.5h1q82 0 115 162q32 162 40 316l70 734l8 62q27 238 135 429.5t234 191.5q60 0 60 -29v-159h-36q-1 43 -35 64.5t-63 21.5q-71 0 -116 -155.5t-49 -363.5l-73 -767q-20 -231 -130.5 -420t-234.5 -189z" />
    <glyph glyph-name="approxequal" unicode="&#x2248;" 
d="M923 1053v-156q-63 -72 -122 -97.5t-116 -25.5q-60 0 -177.5 48.5t-176.5 48.5q-51 0 -107.5 -28t-129.5 -112v156q64 73 123 99t114 26q64 0 181.5 -49.5t172.5 -49.5q52 0 108.5 28t129.5 112zM923 705v-156q-63 -72 -122 -97.5t-116 -25.5q-60 0 -177.5 48.5
t-176.5 48.5q-51 0 -107.5 -28t-129.5 -112v156q64 73 123 99t114 26q64 0 181.5 -49.5t172.5 -49.5q52 0 108.5 28t129.5 112z" />
    <glyph glyph-name="lessequal" unicode="&#x2264;" 
d="M927 1074l-625 -359l625 -355v-167l-840 481v83l840 484v-167zM87 1v140h839l1 -1v-139h-840z" />
    <glyph glyph-name="greaterequal" unicode="&#x2265;" 
d="M87 1241l840 -484v-83l-840 -481v167l625 355l-625 359v167zM87 2v140h839l1 -1v-139h-840z" />
    <glyph glyph-name="uniF001" unicode="&#xf001;" horiz-adv-x="1073" 
 />
    <glyph glyph-name="uniF001" unicode="&#xfb01;" horiz-adv-x="1073" 
 />
    <glyph glyph-name="uniF002" unicode="&#xf002;" horiz-adv-x="1081" 
 />
    <glyph glyph-name="uniF002" unicode="&#xfb02;" horiz-adv-x="1081" 
 />
  </font>
</defs>
</svg>
