<?xml version="1.0" standalone="no"?>
<!DOCTYPE svg PUBLIC "-//W3C//DTD SVG 1.1//EN" "http://www.w3.org/Graphics/SVG/1.1/DTD/svg11.dtd" >
<svg xmlns="http://www.w3.org/2000/svg" xmlns:xlink="http://www.w3.org/1999/xlink" version="1.1">
<metadata>
Created by FontForge 20170910 at Tue Dec  9 17:52:58 2003
 By Jimmy Wärting
Copyright 1990-2003 Bitstream Inc. All rights reserved.
</metadata>
<defs>
<font id="Square721BT-Roman" horiz-adv-x="1157" >
  <font-face 
    font-family="Square721 BT"
    font-weight="400"
    font-stretch="normal"
    units-per-em="2048"
    panose-1="2 11 5 4 2 2 2 6 2 4"
    ascent="1556"
    descent="-492"
    x-height="1053"
    cap-height="1489"
    bbox="-342 -483 2662 2028"
    underline-thickness="104"
    underline-position="-253"
    unicode-range="U+0020-F002"
  />
<missing-glyph horiz-adv-x="1229" 
d="M102 -362v1806h1024v-1806h-1024zM217 -248h795v1577h-795v-1577z" />
    <glyph glyph-name=".notdef" horiz-adv-x="1229" 
d="M102 -362v1806h1024v-1806h-1024zM217 -248h795v1577h-795v-1577z" />
    <glyph glyph-name=".null" horiz-adv-x="0" 
 />
    <glyph glyph-name="nonmarkingreturn" horiz-adv-x="692" 
 />
    <glyph glyph-name="space" unicode=" " horiz-adv-x="692" 
 />
    <glyph glyph-name="exclam" unicode="!" horiz-adv-x="516" 
d="M190 399l-10 1090h156l-8 -1090h-138zM180 0v193h156v-193h-156z" />
    <glyph glyph-name="quotedbl" unicode="&#x22;" horiz-adv-x="569" 
d="M473 1434v-553h-102v553h102zM199 1434v-553h-101v553h101z" />
    <glyph glyph-name="numbersign" unicode="#" horiz-adv-x="1575" 
d="M975 864h-266l-97 -276h267zM918 1454l-168 -483h264l172 483h127l-170 -483h315l-37 -107h-317l-98 -276h340l-37 -109h-340l-170 -479h-129l172 479h-269l-172 -479h-127l170 479h-327l39 109h325l101 276h-353l35 107h354l173 483h127z" />
    <glyph glyph-name="dollar" unicode="$" horiz-adv-x="1384" 
d="M629 1354h-43q-160 0 -216.5 -55.5t-56.5 -217.5q0 -133 58 -178.5t258 -58.5v510zM772 133h39q161 0 218.5 60t57.5 233q0 146 -63.5 197.5t-250.5 56.5zM137 485h156q0 -11 -1 -33t-1 -32q0 -165 55.5 -224t208.5 -59q29 0 44 0.5t29 1.5v547q-270 3 -372 89.5
t-102 305.5q0 229 95 328.5t314 99.5q26 0 40 -0.5t26 -0.5v104h143v-105h41q223 0 320.5 -82.5t97.5 -271.5q0 -14 -1 -31.5t-4 -52.5h-156q0 11 0.5 25t0.5 39q0 127 -55 172t-215 45h-29v-512q273 -7 374 -94t101 -312q0 -244 -94 -350.5t-309 -106.5q-29 0 -44 0.5
t-28 1.5v-96h-143v96q-10 0 -29 -1t-27 -1q-232 0 -336 99t-104 321q0 25 4 80v10z" />
    <glyph glyph-name="percent" unicode="%" horiz-adv-x="1858" 
d="M594 -18l526 1525h142l-527 -1525h-141zM387 690h74q111 0 145.5 37t34.5 178v252q0 142 -35.5 179.5t-144.5 37.5h-74q-110 0 -146 -38t-36 -179v-252q0 -140 34.5 -177.5t147.5 -37.5zM1399 117h71q113 0 148 37.5t35 177.5v252q0 141 -36 179t-147 38h-71
q-110 0 -146 -38t-36 -179v-252q0 -140 34.5 -177.5t147.5 -37.5zM379 555q-171 0 -238 70t-67 247v316q0 178 68 248.5t237 70.5h90q169 0 236 -69.5t67 -249.5v-316q0 -180 -66.5 -248.5t-236.5 -68.5h-90zM1389 -18q-170 0 -237 70t-67 249v313q0 179 67.5 249.5
t236.5 70.5h90q169 0 237 -70t68 -250v-313q0 -180 -67.5 -249.5t-237.5 -69.5h-90z" />
    <glyph glyph-name="ampersand" unicode="&#x26;" horiz-adv-x="1489" 
d="M1073 299l-548 458q-136 -2 -189 -65.5t-53 -240.5q0 -125 13.5 -178t45.5 -80q35 -31 110.5 -43.5t272.5 -12.5q163 0 244 38t104 124zM1208 184q-51 -114 -166 -159t-405 -45q-206 0 -298 28.5t-151 97.5q-39 47 -57 131t-18 230q0 190 62 282t206 121
q-70 49 -103.5 126.5t-33.5 189.5q0 180 94 250.5t350 70.5q241 0 346 -76t105 -249v-125h-166v114q0 107 -45 144t-240 37q-187 0 -229.5 -33t-42.5 -133q0 -142 140 -259l11 -9l537 -449v207h166v-219q0 -22 -3 -51t-10 -66l281 -234l-96 -116z" />
    <glyph glyph-name="quotesingle" unicode="'" horiz-adv-x="295" 
d="M199 1434v-553h-101v553h101z" />
    <glyph glyph-name="parenleft" unicode="(" horiz-adv-x="664" 
d="M152 997q0 286 80.5 398t281.5 112h64v-155h-46q-125 0 -166.5 -62t-41.5 -299v-493q0 -237 41.5 -299t166.5 -62h46v-155h-64q-201 0 -281.5 112t-80.5 398v505z" />
    <glyph glyph-name="parenright" unicode=")" horiz-adv-x="664" 
d="M512 997v-505q0 -286 -81 -398t-281 -112h-64v155h45q126 0 167.5 62t41.5 299v493q0 237 -41.5 299t-167.5 62h-45v155h64q200 0 281 -112t81 -398z" />
    <glyph glyph-name="asterisk" unicode="*" horiz-adv-x="1024" 
d="M391 1038l115 -65l-144 -248l-112 66zM383 1049h-283v133h283v-133zM518 973l115 65l141 -245l-112 -66zM639 1049v133h285v-133h-285zM662 1505l112 -65l-141 -248l-115 68zM250 1440l112 65l144 -245l-115 -66z" />
    <glyph glyph-name="plus" unicode="+" horiz-adv-x="1706" 
d="M903 1221v-562h549v-98h-549v-561h-98v561h-551v98h551v562h98z" />
    <glyph glyph-name="comma" unicode="," horiz-adv-x="692" 
d="M258 0v217h176v-262q0 -79 -46 -122.5t-130 -43.5v92q40 4 57 21t17 53v45h-74z" />
    <glyph glyph-name="hyphen" unicode="-" horiz-adv-x="825" 
d="M133 485v140h559v-140h-559z" />
    <glyph glyph-name="period" unicode="." horiz-adv-x="692" 
d="M133 0v217h174v-217h-174z" />
    <glyph glyph-name="slash" unicode="/" horiz-adv-x="545" 
d="M90 -190h-137l528 1697h140z" />
    <glyph glyph-name="zero" unicode="0" horiz-adv-x="1384" 
d="M627 135h131q117 0 170.5 15.5t89.5 52.5q35 36 49 92t14 199v24v475q0 143 -14 199t-49 92q-37 38 -93.5 54t-166.5 16h-131q-119 0 -172.5 -15.5t-87.5 -52.5q-35 -36 -49.5 -92.5t-14.5 -200.5v-24v-473q0 -144 14.5 -200.5t49.5 -92.5q34 -37 87.5 -52.5t172.5 -15.5
zM621 -18q-272 0 -380 112t-108 398v505q0 286 108 398t380 112h143q272 0 379.5 -112t107.5 -398v-505q0 -286 -107.5 -398t-379.5 -112h-143z" />
    <glyph glyph-name="one" unicode="1" horiz-adv-x="1384" 
d="M731 0v1341l-350 -352l-102 101l399 399h215v-1489h-162z" />
    <glyph glyph-name="two" unicode="2" horiz-adv-x="1384" 
d="M150 0v252q0 117 18 184.5t59 116.5q39 46 98.5 78t196.5 69l336 93q78 21 128 46.5t69 53.5q14 20 20 56t6 141q0 108 -14 151t-49 70q-30 22 -118.5 32.5t-248.5 10.5q-215 0 -273.5 -47.5t-58.5 -200.5v-88h-169v98q0 221 105.5 306t406.5 85q174 0 260.5 -8.5
t130.5 -28.5q109 -48 150.5 -126t41.5 -269q0 -210 -62 -293.5t-237 -132.5l-416 -117q-134 -38 -172.5 -82t-38.5 -131v-163h926v-156h-1095z" />
    <glyph glyph-name="three" unicode="3" horiz-adv-x="1384" 
d="M145 494h166v-134q0 -131 70 -178t324 -47q177 0 247 18t101 62q14 22 20 69t6 169q0 140 -56 184.5t-204 44.5h-227v152h207q148 0 201 50.5t53 215.5q0 111 -11.5 149.5t-40.5 61.5q-25 21 -102.5 31t-224.5 10q-214 0 -275 -40.5t-61 -154.5v-135h-166v131
q0 191 112.5 272.5t385.5 81.5q176 0 262.5 -9.5t134.5 -33.5q86 -41 121 -116.5t35 -237.5q0 -178 -46 -248.5t-163 -95.5q130 -26 181.5 -97.5t51.5 -232.5q0 -101 -9 -167.5t-30 -114.5q-40 -95 -143.5 -133.5t-355.5 -38.5q-235 0 -318.5 19.5t-136.5 68.5
q-56 51 -82.5 125t-26.5 182v117z" />
    <glyph glyph-name="four" unicode="4" horiz-adv-x="1384" 
d="M274 504h631v821zM113 346v191l729 952h229v-985h227v-158h-227v-346h-166v346h-792z" />
    <glyph glyph-name="five" unicode="5" horiz-adv-x="1384" 
d="M141 436h166v-98q0 -118 68.5 -160.5t304.5 -42.5h51q129 0 184 19.5t95 66.5q22 26 31.5 67t9.5 140v27v41q0 115 -7.5 168t-25.5 90q-33 64 -102 90t-228 26q-203 0 -276.5 -31.5t-77.5 -111.5h-164v762h983v-158h-819v-428q44 61 116.5 86t258.5 25q164 0 243.5 -18
t132.5 -60q73 -59 103.5 -151t30.5 -283q0 -181 -24.5 -269.5t-82.5 -142.5q-64 -59 -150.5 -83.5t-271.5 -24.5q-229 0 -321.5 26t-147.5 90q-39 47 -59.5 109t-20.5 133v96z" />
    <glyph glyph-name="six" unicode="6" horiz-adv-x="1384" 
d="M156 416v684q0 223 99.5 315t338.5 92h231q228 0 327 -76.5t99 -250.5v-80h-166v47q0 120 -65 161.5t-291 41.5q-155 0 -227.5 -9.5t-106.5 -31.5q-36 -23 -59 -76t-23 -117v-352q40 82 129.5 115.5t292.5 33.5q280 0 396 -70t116 -233v-270q0 -107 -31 -181t-92 -114
q-56 -36 -140 -50.5t-312 -14.5q-293 0 -404.5 96t-111.5 340zM1083 350v213q0 119 -64 159t-321 40q-151 0 -228 -16.5t-112 -53.5q-25 -26 -36 -76.5t-11 -150.5q0 -94 8.5 -149.5t26.5 -77.5q41 -54 114 -75.5t285 -21.5q213 0 275.5 40.5t62.5 168.5z" />
    <glyph glyph-name="seven" unicode="7" horiz-adv-x="1384" 
d="M174 1331v158h1069v-164l-719 -1325h-198l743 1331h-895z" />
    <glyph glyph-name="eight" unicode="8" horiz-adv-x="1384" 
d="M702 842q225 0 288 47.5t63 200.5q0 89 -7 128t-24 64q-24 37 -101 53.5t-233 16.5q-139 0 -212.5 -12.5t-102.5 -41.5q-23 -21 -32 -62.5t-9 -154.5q0 -146 64.5 -192.5t305.5 -46.5zM690 137q147 0 218 11.5t104 37.5q36 28 50.5 74t14.5 152q0 86 -8 128.5t-27 71.5
q-29 46 -99 64t-253 18q-156 0 -223.5 -11t-99.5 -38t-46 -77.5t-14 -137.5q0 -107 11 -153.5t36 -73.5q33 -35 108 -50.5t228 -15.5zM350 774q-103 27 -144.5 96t-41.5 224q0 122 12.5 181.5t42.5 104.5q47 70 150.5 98.5t330.5 28.5q172 0 273 -17.5t145 -55.5
q58 -49 81.5 -117t23.5 -211q0 -165 -44 -238.5t-149 -93.5q119 -31 166 -103.5t47 -240.5q0 -162 -21 -238.5t-71 -121.5q-53 -48 -155 -68t-320 -20t-319.5 29t-157.5 100q-31 38 -44.5 106.5t-13.5 208.5q0 173 46 245t163 103z" />
    <glyph glyph-name="nine" unicode="9" horiz-adv-x="1384" 
d="M281 1135v-213q0 -119 64 -159t321 -40q151 0 228 16t112 54q24 25 34.5 74t10.5 153q0 98 -8 152t-25 75q-42 55 -117.5 77t-284.5 22q-210 0 -272.5 -40.5t-62.5 -170.5zM1208 1071v-686q0 -222 -99 -313.5t-339 -91.5h-231q-229 0 -327.5 75.5t-98.5 249.5v80h166v-47
q0 -121 65 -162t291 -41q155 0 227.5 9.5t106.5 31.5q36 23 59 76t23 117v356q-40 -83 -129.5 -117.5t-294.5 -34.5q-281 0 -395.5 69.5t-114.5 231.5v273q0 106 30.5 179.5t92.5 113.5q57 37 144 52t306 15q294 0 406 -96.5t112 -339.5z" />
    <glyph glyph-name="colon" unicode=":" horiz-adv-x="692" 
d="M258 0v217h176v-217h-176zM258 834v219h176v-219h-176z" />
    <glyph glyph-name="semicolon" unicode=";" horiz-adv-x="692" 
d="M258 834v219h176v-219h-176zM258 0v217h176v-262q0 -79 -46 -122.5t-130 -43.5v92q40 4 57 21t17 53v45h-74z" />
    <glyph glyph-name="less" unicode="&#x3c;" horiz-adv-x="1706" 
d="M1442 1026l-1022 -416l1022 -413v-109l-1178 481v82l1178 484v-109z" />
    <glyph glyph-name="equal" unicode="=" horiz-adv-x="1706" 
d="M1452 473v-98h-1198v98h1198zM1452 846v-98h-1198v98h1198z" />
    <glyph glyph-name="greater" unicode="&#x3e;" horiz-adv-x="1706" 
d="M1442 651v-82l-1178 -481v109l1022 413l-1022 416v109z" />
    <glyph glyph-name="question" unicode="?" horiz-adv-x="1063" 
d="M383 0v190h166v-190h-166zM383 408v118q0 89 41 143t195 122l12 5q145 62 176 107q19 28 28 81t9 134q0 136 -48.5 186t-191.5 50q-155 0 -218.5 -8t-88.5 -27q-30 -23 -43.5 -73t-13.5 -140q0 -30 0.5 -46.5t0.5 -31.5h-163v148q0 181 104.5 256t370.5 75
q264 0 357.5 -84.5t93.5 -308.5q0 -187 -39 -274.5t-138 -132.5q-29 -14 -82 -37q-196 -86 -196 -187v-75h-166z" />
    <glyph glyph-name="at" unicode="@" horiz-adv-x="2048" 
d="M1298 836l60 125h94l-139 -562q-10 -44 -13.5 -62.5t-3.5 -29.5q0 -43 28.5 -67.5t78.5 -24.5q52 0 106.5 21t104.5 61q97 77 151 204.5t54 282.5q0 254 -198 417t-509 163q-175 0 -320 -49.5t-262 -149.5q-147 -126 -222 -290.5t-75 -362.5q0 -174 60 -305t184 -232
q102 -82 244 -128t301 -46q171 0 334.5 49.5t300.5 143.5l39 -55q-147 -111 -311 -166.5t-343 -55.5q-191 0 -347 46.5t-275 138.5q-155 118 -229 273.5t-74 361.5q0 204 86 381.5t252 314.5q132 109 298.5 165t360.5 56q162 0 308 -44t249 -124q129 -99 194.5 -228
t65.5 -280q0 -171 -62 -309.5t-181 -232.5q-70 -54 -149 -82.5t-161 -28.5q-97 0 -144.5 37.5t-47.5 113.5q0 4 1 14t1 15q-51 -87 -127 -133.5t-168 -46.5q-153 0 -233 83.5t-80 244.5q0 230 135 388t329 158q94 0 158 -41t96 -122zM1210 469l62 248q-18 93 -75.5 145.5
t-139.5 52.5q-154 0 -254.5 -133.5t-100.5 -337.5q0 -111 55 -173t152 -62q107 0 189.5 71.5t111.5 188.5z" />
    <glyph glyph-name="A" unicode="A" horiz-adv-x="1417" 
d="M387 528h645l-297 803h-53zM23 0l550 1489h271l553 -1489h-170l-142 381h-753l-139 -381h-170z" />
    <glyph glyph-name="B" unicode="B" horiz-adv-x="1436" 
d="M346 846h537q131 0 176 47t45 207q0 153 -48 192t-245 39h-465v-485zM346 156h543q148 0 199 45.5t51 236.5q0 161 -57 208.5t-296 47.5h-440v-538zM184 0v1489h693q240 0 318.5 -73t78.5 -298q0 -173 -38.5 -242.5t-135.5 -95.5q118 -30 164.5 -106.5t46.5 -257.5
q0 -246 -97 -331t-389 -85h-641z" />
    <glyph glyph-name="C" unicode="C" horiz-adv-x="1399" 
d="M133 997q0 286 109.5 398t386.5 112h174q275 0 386 -96.5t111 -327.5v-65h-170v41q0 169 -69 231t-270 62h-115q-135 0 -196.5 -16.5t-102.5 -55.5q-41 -38 -57.5 -99.5t-16.5 -224.5v-424q0 -162 16.5 -223.5t57.5 -99.5q41 -39 99.5 -55.5t199.5 -16.5h115
q206 0 274 65t68 249q0 28 -0.5 43t-1.5 28h169v-98q0 -248 -107.5 -345t-389.5 -97h-174q-277 0 -386.5 112t-109.5 398v505z" />
    <glyph glyph-name="D" unicode="D" horiz-adv-x="1536" 
d="M180 0v1489h719q280 0 393 -111t113 -387v-491q0 -277 -113.5 -388.5t-392.5 -111.5h-719zM344 147h528q215 0 288 73t73 278v481q0 216 -72.5 289t-288.5 73h-528v-1194z" />
    <glyph glyph-name="E" unicode="E" horiz-adv-x="1309" 
d="M180 0v1489h1045v-158h-881v-487h856v-152h-856v-536h881v-156h-1045z" />
    <glyph glyph-name="F" unicode="F" horiz-adv-x="1214" 
d="M180 0v1489h930v-158h-766v-487h743v-152h-743v-692h-164z" />
    <glyph glyph-name="G" unicode="G" horiz-adv-x="1503" 
d="M123 997q0 285 118 397.5t418 112.5h189q275 0 405.5 -93.5t130.5 -291.5v-63h-170v18q0 154 -78 214.5t-298 60.5h-131q-153 0 -220 -17t-114 -57q-43 -37 -60.5 -99t-17.5 -223v-424q0 -160 17.5 -222t60.5 -99q47 -40 112 -57t222 -17h131q142 0 201 15t102 51
q40 34 56.5 93t16.5 202v92h-413v151h583v-249q0 -286 -118 -398t-418 -112h-189q-300 0 -418 112t-118 398v505z" />
    <glyph glyph-name="H" unicode="H" horiz-adv-x="1546" 
d="M180 0v1489h164v-643h858v643h164v-1489h-164v690h-858v-690h-164z" />
    <glyph glyph-name="I" unicode="I" horiz-adv-x="526" 
d="M180 0v1489h166v-1489h-166z" />
    <glyph glyph-name="J" unicode="J" horiz-adv-x="1208" 
d="M47 522h166v-24q0 -232 53 -296.5t219 -64.5h119q167 0 220 64t53 297v991h165v-1040q0 -251 -97.5 -359t-326.5 -108h-147q-237 0 -330.5 111.5t-93.5 398.5v30z" />
    <glyph glyph-name="K" unicode="K" horiz-adv-x="1370" 
d="M180 0v1489h164v-631h127l604 631h217l-686 -711l774 -778h-225l-684 698h-127v-698h-164z" />
    <glyph glyph-name="L" unicode="L" horiz-adv-x="1223" 
d="M180 0v1489h162v-1333h844v-156h-1006z" />
    <glyph glyph-name="M" unicode="M" horiz-adv-x="1919" 
d="M180 0v1489h271l510 -1327l505 1327h273v-1489h-164v1350l-514 -1350h-203l-514 1350v-1350h-164z" />
    <glyph glyph-name="N" unicode="N" horiz-adv-x="1587" 
d="M180 0v1489h254l807 -1329v1329h164v-1489h-254l-807 1331v-1331h-164z" />
    <glyph glyph-name="O" unicode="O" horiz-adv-x="1526" 
d="M809 1352h-92q-157 0 -222 -17t-112 -57q-44 -38 -62 -102.5t-18 -221.5v-422q0 -156 18 -219.5t62 -101.5q47 -40 112 -57t222 -17h92q157 0 223 17t113 57q43 37 60.5 99t17.5 222v424q0 157 -18 221.5t-62 102.5q-46 39 -111 55.5t-223 16.5zM133 997q0 285 118 397.5
t419 112.5h188q304 0 420.5 -111t116.5 -399v-505q0 -286 -118.5 -398t-418.5 -112h-188q-301 0 -419 112t-118 398v505z" />
    <glyph glyph-name="P" unicode="P" horiz-adv-x="1341" 
d="M1075 924v219q0 108 -50.5 148t-219.5 40h-461v-596h461q166 0 218 41t52 148zM180 0v1489h627q251 0 345.5 -74.5t94.5 -265.5v-225q0 -196 -93.5 -271t-346.5 -75h-463v-578h-164z" />
    <glyph glyph-name="Q" unicode="Q" horiz-adv-x="1526" 
d="M1223 498v458q0 157 -18 221.5t-62 102.5q-46 39 -111 55.5t-223 16.5h-92q-157 0 -222 -17t-112 -57q-44 -38 -62 -102.5t-18 -221.5v-422q0 -156 18 -219.5t62 -101.5q47 -40 112 -57t222 -17h129q119 0 174 6t80 21l-281 280l105 107l284 -280q7 41 11 99.5t4 127.5z
M133 997q0 285 118 397.5t419 112.5h188q304 0 420.5 -111t116.5 -399v-505q0 -143 -17.5 -214t-58.5 -116l90 -90l-109 -111l-94 96q-41 -41 -115 -58t-233 -17h-188q-301 0 -419 112t-118 398v505z" />
    <glyph glyph-name="R" unicode="R" horiz-adv-x="1432" 
d="M819 1331h-475v-596h475q186 0 243.5 46t57.5 165v174q0 121 -55.5 166t-245.5 45zM180 0v1489h672q251 0 345.5 -74.5t94.5 -265.5v-225q0 -117 -47.5 -183.5t-144.5 -83.5q106 -25 149 -91t43 -208v-358h-172v307q0 160 -50.5 216.5t-197.5 56.5h-528v-580h-164z" />
    <glyph glyph-name="S" unicode="S" horiz-adv-x="1460" 
d="M139 485h166v-28q0 -133 20 -196t66 -89q36 -20 111 -28.5t309 -8.5q127 0 197 16.5t104 53.5q19 20 28 68t9 130q0 166 -33.5 208.5t-132.5 50.5l-459 36q-206 16 -285 103t-79 293q0 130 26 209t84 131q45 40 126 56.5t286 16.5h53q229 0 322.5 -22t156.5 -76
q43 -36 63.5 -102.5t20.5 -165.5q0 -29 -0.5 -44.5t-1.5 -27.5h-166v37q0 82 -9.5 125.5t-30.5 64.5q-31 31 -110.5 43.5t-301.5 12.5q-230 0 -289 -52t-59 -208q0 -128 38.5 -176.5t148.5 -57.5l468 -39q184 -16 258 -101.5t74 -285.5q0 -146 -19 -219.5t-63 -122.5
q-54 -61 -145.5 -85.5t-333.5 -24.5h-74q-206 0 -291.5 21t-142.5 73q-56 48 -82.5 130t-26.5 208v73z" />
    <glyph glyph-name="T" unicode="T" horiz-adv-x="1069" 
d="M-23 1331v158h1115v-158h-476v-1331h-165v1331h-474z" />
    <glyph glyph-name="U" unicode="U" horiz-adv-x="1532" 
d="M166 1489h166v-977q0 -144 15.5 -201t53.5 -92q40 -36 95.5 -50.5t191.5 -14.5h156q137 0 193 14.5t96 50.5q37 34 52 91t15 202v977h166v-997q0 -285 -112.5 -397.5t-397.5 -112.5h-180q-285 0 -397.5 112.5t-112.5 397.5v997z" />
    <glyph glyph-name="V" unicode="V" horiz-adv-x="1331" 
d="M2 1489h176l475 -1335l477 1335h175l-545 -1489h-213z" />
    <glyph glyph-name="W" unicode="W" horiz-adv-x="2062" 
d="M61 1489h170l340 -1288l342 1288h234l344 -1288l340 1288h172l-406 -1489h-211l-356 1311l-350 -1311h-219z" />
    <glyph glyph-name="X" unicode="X" horiz-adv-x="1305" 
d="M-14 0l583 782l-526 707h190l420 -584l418 584h193l-527 -705l580 -784h-187l-475 664l-481 -664h-188z" />
    <glyph glyph-name="Y" unicode="Y" horiz-adv-x="1219" 
d="M690 0h-162v659l-616 830h194l502 -694l502 694h195l-615 -827v-662z" />
    <glyph glyph-name="Z" unicode="Z" horiz-adv-x="1331" 
d="M96 0v178l957 1163h-914v148h1088v-174l-951 -1159h951v-156h-1131z" />
    <glyph glyph-name="bracketleft" unicode="[" horiz-adv-x="664" 
d="M152 1489h426v-158h-267v-1173h267v-158h-426v1489z" />
    <glyph glyph-name="backslash" unicode="\" horiz-adv-x="545" 
d="M621 -190h-140l-530 1697h141z" />
    <glyph glyph-name="bracketright" unicode="]" horiz-adv-x="664" 
d="M512 1489v-1489h-426v158h266v1173h-266v158h426z" />
    <glyph glyph-name="asciicircum" unicode="^" horiz-adv-x="2048" 
d="M1094 1458l530 -557h-143l-457 455l-459 -455h-143l532 557h140z" />
    <glyph glyph-name="underscore" unicode="_" horiz-adv-x="1024" 
d="M1024 -383v-100h-1024v100h1024z" />
    <glyph glyph-name="grave" unicode="`" horiz-adv-x="1024" 
d="M545 1178l-269 348h152l209 -348h-92z" />
    <glyph glyph-name="a" unicode="a" 
d="M850 268v111q0 75 -76.5 110t-243.5 35q-153 0 -204.5 -38.5t-51.5 -147.5q0 -124 54.5 -165.5t218.5 -41.5q147 0 225 35.5t78 101.5zM858 111q-36 -66 -114.5 -95.5t-217.5 -29.5q-247 0 -331 70.5t-84 262.5q0 111 19.5 174t64.5 101q38 32 111.5 45.5t211.5 13.5
q143 0 218.5 -23.5t113.5 -78.5v182q0 129 -50 167t-251 38q-146 0 -194 -30.5t-50 -114.5h-155v24q0 135 87.5 192.5t301.5 57.5q167 0 254 -14t129 -45q46 -36 65 -89t19 -182v-737h-142z" />
    <glyph glyph-name="b" unicode="b" horiz-adv-x="1176" 
d="M319 612v-172q0 -164 76.5 -238.5t245.5 -74.5q153 0 203.5 55t50.5 254v180q0 200 -50.5 255t-203.5 55q-169 0 -245.5 -74.5t-76.5 -239.5zM164 0v1489h155v-586q45 87 121.5 125.5t206.5 38.5q225 0 317.5 -93t92.5 -323v-250q0 -229 -92.5 -322t-317.5 -93
q-136 0 -216 42.5t-118 133.5v-162h-149z" />
    <glyph glyph-name="c" unicode="c" 
d="M543 -14q-236 0 -330 92t-94 323v250q0 232 93.5 324t328.5 92h73q223 0 321.5 -85.5t102.5 -280.5l-161 -1q-5 128 -58 176t-205 48h-73q-161 0 -210.5 -54t-49.5 -254v-180q0 -201 50 -255t210 -54h73q154 0 208.5 52.5t54.5 191.5v18h161v-20q0 -206 -97.5 -294.5
t-324.5 -88.5h-73z" />
    <glyph glyph-name="d" unicode="d" horiz-adv-x="1176" 
d="M856 440v172q0 165 -76.5 239.5t-244.5 74.5q-153 0 -203.5 -55t-50.5 -255v-180q0 -199 50.5 -254t203.5 -55q168 0 244.5 74.5t76.5 238.5zM862 162q-37 -92 -116.5 -134t-215.5 -42q-225 0 -318 93.5t-93 321.5v250q0 229 93 322.5t318 93.5q130 0 206 -38.5
t120 -125.5v586h156v-1489h-150v162z" />
    <glyph glyph-name="e" unicode="e" 
d="M281 629h596v41q0 148 -53 201t-210 53h-73q-156 0 -208 -53t-52 -201v-41zM543 -14q-236 0 -330 92t-94 323v250q0 232 93.5 324t328.5 92h73q236 0 330 -92t94 -324v-159l-757 -1q-1 -16 -1.5 -35.5t-0.5 -54.5q0 -163 52 -218.5t210 -55.5h73q141 0 196 40.5t64 141.5
h162q-12 -171 -110 -247t-310 -76h-73z" />
    <glyph glyph-name="f" unicode="f" horiz-adv-x="688" 
d="M47 920v133h147q0 12 -0.5 27.5t-0.5 43.5q0 201 70.5 283t244.5 82q45 0 88 -2t86 -6v-142q-13 1 -36 2q-69 2 -95 2q-121 0 -161 -36.5t-40 -182.5v-71h332v-133h-332v-920h-155v920h-148z" />
    <glyph glyph-name="g" unicode="g" horiz-adv-x="1204" 
d="M887 440v172q0 165 -76.5 239.5t-245.5 74.5q-153 0 -204.5 -55.5t-51.5 -254.5v-180q0 -198 51.5 -253.5t204.5 -55.5q169 0 245.5 74.5t76.5 238.5zM1042 1053v-1041q0 -232 -91 -323.5t-320 -91.5h-72q-206 0 -301 75t-108 248h159q10 -101 62.5 -140.5t189.5 -39.5
h70q138 0 197 45t59 147v218q-44 -87 -120.5 -125.5t-207.5 -38.5q-225 0 -317 93t-92 322v250q0 230 92 323t317 93q135 0 215.5 -43t118.5 -135v164h149z" />
    <glyph glyph-name="h" unicode="h" horiz-adv-x="1180" 
d="M162 0v1489h149v-580q38 81 122 119.5t222 38.5q207 0 290 -83.5t83 -293.5v-690h-156v657q0 165 -48.5 217t-188.5 52q-165 0 -241.5 -75t-76.5 -239v-612h-155z" />
    <glyph glyph-name="i" unicode="i" horiz-adv-x="479" 
d="M162 1313v176h155v-176h-155zM162 0v1053h155v-1053h-155z" />
    <glyph glyph-name="j" unicode="j" horiz-adv-x="508" 
d="M350 -154q0 -125 -53 -187t-160 -62q-14 0 -32.5 1.5t-40.5 4.5l-1 123h54q43 0 59.5 35.5t16.5 168.5v1123h157v-1207zM193 1313v176h157v-176h-157z" />
    <glyph glyph-name="k" unicode="k" horiz-adv-x="991" 
d="M162 0v1489h155v-846h48l344 410h178l-398 -469l476 -584h-197l-403 500h-48v-500h-155z" />
    <glyph glyph-name="l" unicode="l" horiz-adv-x="479" 
d="M162 0v1489h155v-1489h-155z" />
    <glyph glyph-name="m" unicode="m" horiz-adv-x="1810" 
d="M184 0v1053h152v-144q33 81 110.5 119.5t204.5 38.5q134 0 209.5 -41t112.5 -133q46 92 121.5 133t197.5 41q207 0 287 -82t80 -295v-690h-156v641q0 176 -45.5 230.5t-177.5 54.5q-146 0 -212.5 -74.5t-66.5 -239.5v-612h-151v713q0 125 -45.5 169t-173.5 44
q-150 0 -220.5 -76t-70.5 -238v-612h-156z" />
    <glyph glyph-name="n" unicode="n" horiz-adv-x="1180" 
d="M162 0v1053h149v-144q38 81 122 119.5t222 38.5q207 0 290 -83.5t83 -293.5v-690h-156v657q0 165 -48.5 217t-188.5 52q-165 0 -241.5 -75.5t-76.5 -238.5v-612h-155z" />
    <glyph glyph-name="o" unicode="o" 
d="M877 436v180q0 199 -50.5 253.5t-212.5 54.5h-73q-161 0 -210.5 -54t-49.5 -254v-180q0 -201 50 -255t210 -54h73q161 0 212 55t51 254zM543 -14q-236 0 -330 92t-94 323v250q0 232 93.5 324t328.5 92h73q236 0 330 -92t94 -324v-250q0 -232 -93.5 -323.5t-328.5 -91.5
h-73z" />
    <glyph glyph-name="p" unicode="p" horiz-adv-x="1176" 
d="M319 440q0 -164 76.5 -238.5t245.5 -74.5q153 0 203.5 55t50.5 254v180q0 200 -50.5 255t-203.5 55q-169 0 -245.5 -74.5t-76.5 -239.5v-172zM164 1053h149v-164q38 92 118.5 135t215.5 43q225 0 317.5 -93t92.5 -323v-250q0 -229 -92.5 -322t-317.5 -93
q-130 0 -206.5 38.5t-121.5 125.5v-553h-155v1456z" />
    <glyph glyph-name="q" unicode="q" horiz-adv-x="1176" 
d="M856 440v172q0 165 -76.5 239.5t-244.5 74.5q-153 0 -203.5 -55t-50.5 -255v-180q0 -199 50.5 -254t203.5 -55q168 0 244.5 74.5t76.5 238.5zM1012 1053v-1456h-156v553q-44 -87 -120 -125.5t-206 -38.5q-225 0 -318 93.5t-93 321.5v250q0 229 93 322.5t318 93.5
q135 0 214.5 -43t117.5 -135v164h150z" />
    <glyph glyph-name="r" unicode="r" horiz-adv-x="958" 
d="M160 0v1053h151v-144q33 82 103 120t186 38q172 0 241.5 -83t69.5 -294v-8h-157v31q0 126 -40 169.5t-151 43.5q-130 0 -188 -73.5t-58 -240.5v-612h-157z" />
    <glyph glyph-name="s" unicode="s" horiz-adv-x="1194" 
d="M123 313h158v-24q0 -97 60 -133.5t241 -36.5q203 0 250 37t47 143q0 103 -38.5 137.5t-192.5 42.5q-57 3 -154 6q-212 6 -252 29q-60 33 -85.5 90t-25.5 164q0 175 89 237t392 62q235 0 318.5 -59t83.5 -207h-156v10q0 70 -60.5 96.5t-240.5 26.5q-174 0 -222 -32
t-48 -134q0 -62 9 -87t32 -38q47 -25 208 -29q41 -1 63 -2q132 -5 207 -13.5t107 -23.5q70 -32 99.5 -92t29.5 -174q0 -116 -29 -176t-104 -106q-34 -22 -111 -31.5t-214 -9.5q-280 0 -370.5 64.5t-90.5 234.5v28z" />
    <glyph glyph-name="t" unicode="t" horiz-adv-x="1010" 
d="M57 920v133h129v237h156v-237h516v-133h-516v-580q0 -124 40.5 -168.5t154.5 -44.5q113 0 152.5 43t39.5 170v31h158v-9q0 -222 -73.5 -299t-305.5 -77q-181 0 -251.5 81.5t-70.5 294.5v558h-129z" />
    <glyph glyph-name="u" unicode="u" horiz-adv-x="1180" 
d="M1020 1053v-1053h-150v143q-37 -80 -122 -118.5t-224 -38.5q-206 0 -289 83.5t-83 292.5v691h155v-658q0 -164 49 -216t191 -52q164 0 239.5 75t75.5 238v613h158z" />
    <glyph glyph-name="v" unicode="v" horiz-adv-x="967" 
d="M14 1053h156l313 -906l314 906h151l-362 -1053h-203z" />
    <glyph glyph-name="w" unicode="w" horiz-adv-x="1597" 
d="M59 1053h146l241 -906l242 906h215l244 -906l242 906h149l-285 -1053h-215l-241 903l-246 -903h-211z" />
    <glyph glyph-name="x" unicode="x" horiz-adv-x="1036" 
d="M35 0l399 563l-348 490h176l254 -369l254 369h176l-344 -490l399 -563h-176l-309 444l-303 -444h-178z" />
    <glyph glyph-name="y" unicode="y" horiz-adv-x="999" 
d="M47 1053h156l313 -906l311 906h154l-397 -1145q-65 -186 -132.5 -252t-181.5 -66q-17 0 -37.5 1.5t-44.5 5.5l1 137q7 -1 17.5 -1.5t29.5 -0.5q72 0 111.5 32.5t74.5 126.5l39 109h-47z" />
    <glyph glyph-name="z" unicode="z" horiz-adv-x="1057" 
d="M119 0v170l651 739h-620v144h811v-146l-674 -766h674v-141h-842z" />
    <glyph glyph-name="braceleft" unicode="{" horiz-adv-x="1024" 
d="M854 1370h-37q-131 0 -177 -49.5t-46 -204.5v-242q0 -168 -43.5 -240t-153.5 -104q110 -31 153.5 -103t43.5 -241v-241q0 -155 45 -204.5t170 -49.5q7 0 22 1t23 1v-107h-47q-197 0 -266.5 72.5t-69.5 296.5v244q0 154 -57 217t-195 63q-7 0 -21.5 -1t-23.5 -1v109
q9 0 23.5 -1t21.5 -1q138 0 195 63t57 217v242q0 223 70 297t266 74h47v-107z" />
    <glyph glyph-name="bar" unicode="|" horiz-adv-x="1024" 
d="M567 1565v-2048h-108v2048h108z" />
    <glyph glyph-name="braceright" unicode="}" horiz-adv-x="1024" 
d="M555 1106v-242q0 -154 57 -217t195 -63q7 0 22 1t23 1v-109q-8 0 -23 1t-22 1q-138 0 -195 -63t-57 -217v-244q0 -223 -69.5 -296t-266.5 -73h-47v107h39q130 0 175.5 49t45.5 203v241q0 171 43 242t154 102q-111 32 -154 103t-43 241v242q0 157 -45 206.5t-170 49.5
q-7 0 -22 -1t-23 -1v107h47q196 0 266 -74t70 -297z" />
    <glyph glyph-name="asciitilde" unicode="~" horiz-adv-x="1706" 
d="M1530 637q-102 -72 -198 -107.5t-189 -35.5q-99 0 -260 57q-20 7 -29 10l-16 6q-176 64 -273 64q-83 0 -175 -38t-212 -122v113q106 73 202 109t185 36q104 0 272 -61q11 -4 18 -7q9 -3 31 -11q167 -60 257 -60q85 0 177 38t210 122v-113z" />
    <glyph glyph-name="Adieresis" unicode="&#xc4;" horiz-adv-x="1417" 
d="M387 528h645l-297 803h-53zM23 0l550 1489h271l553 -1489h-170l-142 381h-753l-139 -381h-170zM799 1693v164h141v-164h-141zM478 1693v164h141v-164h-141z" />
    <glyph glyph-name="Aring" unicode="&#xc5;" horiz-adv-x="1417" 
d="M563 1786q0 -63 44 -106.5t108 -43.5q62 0 105.5 43.5t43.5 106.5t-43 106t-106 43q-64 0 -108 -43t-44 -106zM473 1786q0 102 69.5 172t170.5 70t171 -70.5t70 -171.5t-70 -170.5t-171 -69.5q-102 0 -171 69t-69 171zM387 528h645l-297 803h-53zM23 0l550 1489h271
l553 -1489h-170l-142 381h-753l-139 -381h-170z" />
    <glyph glyph-name="Ccedilla" unicode="&#xc7;" horiz-adv-x="1399" 
d="M133 997q0 286 109.5 398t386.5 112h174q275 0 386 -96.5t111 -327.5v-65h-170v41q0 169 -69 231t-270 62h-115q-135 0 -196.5 -16.5t-102.5 -55.5q-41 -38 -57.5 -99.5t-16.5 -224.5v-424q0 -162 16.5 -223.5t57.5 -99.5q41 -39 99.5 -55.5t199.5 -16.5h115
q206 0 274 65t68 249q0 28 -0.5 43t-1.5 28h169v-98q0 -248 -107.5 -345t-389.5 -97h-174q-277 0 -386.5 112t-109.5 398v505zM735 0v-115h64q95 0 123 -27t28 -137q0 -121 -26.5 -150.5t-122.5 -29.5h-264v88h213q53 0 65 14t12 83q0 61 -10.5 75.5t-68.5 14.5h-78v184h65z
" />
    <glyph glyph-name="Eacute" unicode="&#xc9;" horiz-adv-x="1309" 
d="M180 0v1489h1045v-158h-881v-487h856v-152h-856v-536h881v-156h-1045zM700 1618h-92l209 348h152z" />
    <glyph glyph-name="Ntilde" unicode="&#xd1;" horiz-adv-x="1587" 
d="M180 0v1489h254l807 -1329v1329h164v-1489h-254l-807 1331v-1331h-164zM1104 1880q-26 -90 -74 -135t-117 -45q-14 0 -30.5 2.5t-35.5 7.5l-95 28q-18 6 -30 8.5t-24 2.5q-28 0 -52 -19t-40 -53h-80q22 87 72 133.5t123 46.5q16 0 29 -2t24 -6l97 -31q12 -4 27 -7t28 -3
q34 0 57.5 17.5t38.5 54.5h82z" />
    <glyph glyph-name="Odieresis" unicode="&#xd6;" horiz-adv-x="1526" 
d="M809 1352h-92q-157 0 -222 -17t-112 -57q-44 -38 -62 -102.5t-18 -221.5v-422q0 -156 18 -219.5t62 -101.5q47 -40 112 -57t222 -17h92q157 0 223 17t113 57q43 37 60.5 99t17.5 222v424q0 157 -18 221.5t-62 102.5q-46 39 -111 55.5t-223 16.5zM133 997q0 285 118 397.5
t419 112.5h188q304 0 420.5 -111t116.5 -399v-505q0 -286 -118.5 -398t-418.5 -112h-188q-301 0 -419 112t-118 398v505zM854 1693v164h141v-164h-141zM533 1693v164h141v-164h-141z" />
    <glyph glyph-name="Udieresis" unicode="&#xdc;" horiz-adv-x="1532" 
d="M166 1489h166v-977q0 -144 15.5 -201t53.5 -92q40 -36 95.5 -50.5t191.5 -14.5h156q137 0 193 14.5t96 50.5q37 34 52 91t15 202v977h166v-997q0 -285 -112.5 -397.5t-397.5 -112.5h-180q-285 0 -397.5 112.5t-112.5 397.5v997zM856 1693v164h141v-164h-141zM535 1693
v164h141v-164h-141z" />
    <glyph glyph-name="aacute" unicode="&#xe1;" 
d="M850 268v111q0 75 -76.5 110t-243.5 35q-153 0 -204.5 -38.5t-51.5 -147.5q0 -124 54.5 -165.5t218.5 -41.5q147 0 225 35.5t78 101.5zM858 111q-36 -66 -114.5 -95.5t-217.5 -29.5q-247 0 -331 70.5t-84 262.5q0 111 19.5 174t64.5 101q38 32 111.5 45.5t211.5 13.5
q143 0 218.5 -23.5t113.5 -78.5v182q0 129 -50 167t-251 38q-146 0 -194 -30.5t-50 -114.5h-155v24q0 135 87.5 192.5t301.5 57.5q167 0 254 -14t129 -45q46 -36 65 -89t19 -182v-737h-142zM547 1178h-92l209 348h152z" />
    <glyph glyph-name="agrave" unicode="&#xe0;" 
d="M850 268v111q0 75 -76.5 110t-243.5 35q-153 0 -204.5 -38.5t-51.5 -147.5q0 -124 54.5 -165.5t218.5 -41.5q147 0 225 35.5t78 101.5zM858 111q-36 -66 -114.5 -95.5t-217.5 -29.5q-247 0 -331 70.5t-84 262.5q0 111 19.5 174t64.5 101q38 32 111.5 45.5t211.5 13.5
q143 0 218.5 -23.5t113.5 -78.5v182q0 129 -50 167t-251 38q-146 0 -194 -30.5t-50 -114.5h-155v24q0 135 87.5 192.5t301.5 57.5q167 0 254 -14t129 -45q46 -36 65 -89t19 -182v-737h-142zM613 1178l-269 348h152l209 -348h-92z" />
    <glyph glyph-name="acircumflex" unicode="&#xe2;" 
d="M850 268v111q0 75 -76.5 110t-243.5 35q-153 0 -204.5 -38.5t-51.5 -147.5q0 -124 54.5 -165.5t218.5 -41.5q147 0 225 35.5t78 101.5zM858 111q-36 -66 -114.5 -95.5t-217.5 -29.5q-247 0 -331 70.5t-84 262.5q0 111 19.5 174t64.5 101q38 32 111.5 45.5t211.5 13.5
q143 0 218.5 -23.5t113.5 -78.5v182q0 129 -50 167t-251 38q-146 0 -194 -30.5t-50 -114.5h-155v24q0 135 87.5 192.5t301.5 57.5q167 0 254 -14t129 -45q46 -36 65 -89t19 -182v-737h-142zM304 1178l200 348h152l200 -348h-92l-184 262l-184 -262h-92z" />
    <glyph glyph-name="adieresis" unicode="&#xe4;" 
d="M850 268v111q0 75 -76.5 110t-243.5 35q-153 0 -204.5 -38.5t-51.5 -147.5q0 -124 54.5 -165.5t218.5 -41.5q147 0 225 35.5t78 101.5zM858 111q-36 -66 -114.5 -95.5t-217.5 -29.5q-247 0 -331 70.5t-84 262.5q0 111 19.5 174t64.5 101q38 32 111.5 45.5t211.5 13.5
q143 0 218.5 -23.5t113.5 -78.5v182q0 129 -50 167t-251 38q-146 0 -194 -30.5t-50 -114.5h-155v24q0 135 87.5 192.5t301.5 57.5q167 0 254 -14t129 -45q46 -36 65 -89t19 -182v-737h-142zM670 1253v164h141v-164h-141zM349 1253v164h141v-164h-141z" />
    <glyph glyph-name="atilde" unicode="&#xe3;" 
d="M850 268v111q0 75 -76.5 110t-243.5 35q-153 0 -204.5 -38.5t-51.5 -147.5q0 -124 54.5 -165.5t218.5 -41.5q147 0 225 35.5t78 101.5zM858 111q-36 -66 -114.5 -95.5t-217.5 -29.5q-247 0 -331 70.5t-84 262.5q0 111 19.5 174t64.5 101q38 32 111.5 45.5t211.5 13.5
q143 0 218.5 -23.5t113.5 -78.5v182q0 129 -50 167t-251 38q-146 0 -194 -30.5t-50 -114.5h-155v24q0 135 87.5 192.5t301.5 57.5q167 0 254 -14t129 -45q46 -36 65 -89t19 -182v-737h-142zM869 1440q-26 -90 -74 -135t-117 -45q-14 0 -30.5 2.5t-35.5 7.5l-95 28
q-18 6 -30 8.5t-24 2.5q-28 0 -52 -19t-40 -53h-80q22 87 72 133.5t123 46.5q16 0 29 -2t24 -6l97 -31q12 -4 27 -7t28 -3q34 0 57.5 17.5t38.5 54.5h82z" />
    <glyph glyph-name="aring" unicode="&#xe5;" 
d="M444 1366q0 -63 43.5 -106t106.5 -43q62 0 105.5 43.5t43.5 105.5q0 63 -43 106.5t-106 43.5t-106.5 -43.5t-43.5 -106.5zM352 1366q0 101 70 170.5t172 69.5t172 -69.5t70 -170.5t-70 -170.5t-172 -69.5t-172 69.5t-70 170.5zM858 111q-36 -66 -114.5 -95.5
t-217.5 -29.5q-247 0 -331 70.5t-84 262.5q0 111 19.5 174t64.5 101q38 32 111.5 45.5t211.5 13.5q143 0 218.5 -23.5t113.5 -78.5v182q0 129 -50 167t-251 38q-146 0 -194 -30.5t-50 -114.5h-155v20q0 140 87.5 197t317.5 57q190 0 275.5 -21t123.5 -71q28 -36 40 -80.5
t12 -136.5v-21v-737h-142zM850 268v111q0 75 -76.5 110t-243.5 35q-153 0 -204.5 -38.5t-51.5 -147.5q0 -124 54.5 -165.5t218.5 -41.5q147 0 225 35.5t78 101.5z" />
    <glyph glyph-name="ccedilla" unicode="&#xe7;" 
d="M543 -14q-236 0 -330 92t-94 323v250q0 232 93.5 324t328.5 92h73q223 0 321.5 -85.5t102.5 -280.5l-161 -1q-5 128 -58 176t-205 48h-73q-161 0 -210.5 -54t-49.5 -254v-180q0 -201 50 -255t210 -54h73q154 0 208.5 52.5t54.5 191.5v18h161v-20q0 -206 -97.5 -294.5
t-324.5 -88.5h-73zM590 0v-115h64q95 0 123 -27t28 -137q0 -121 -26.5 -150.5t-122.5 -29.5h-264v88h213q53 0 65 14t12 83q0 61 -10.5 75.5t-68.5 14.5h-78v184h65z" />
    <glyph glyph-name="eacute" unicode="&#xe9;" 
d="M281 629h596v41q0 148 -53 201t-210 53h-73q-156 0 -208 -53t-52 -201v-41zM543 -14q-236 0 -330 92t-94 323v250q0 232 93.5 324t328.5 92h73q236 0 330 -92t94 -324v-159l-757 -1q-1 -16 -1.5 -35.5t-0.5 -54.5q0 -163 52 -218.5t210 -55.5h73q141 0 196 40.5t64 141.5
h162q-12 -171 -110 -247t-310 -76h-73zM553 1178h-92l209 348h152z" />
    <glyph glyph-name="egrave" unicode="&#xe8;" 
d="M281 629h596v41q0 148 -53 201t-210 53h-73q-156 0 -208 -53t-52 -201v-41zM543 -14q-236 0 -330 92t-94 323v250q0 232 93.5 324t328.5 92h73q236 0 330 -92t94 -324v-159l-757 -1q-1 -16 -1.5 -35.5t-0.5 -54.5q0 -163 52 -218.5t210 -55.5h73q141 0 196 40.5t64 141.5
h162q-12 -171 -110 -247t-310 -76h-73zM619 1178l-269 348h152l209 -348h-92z" />
    <glyph glyph-name="ecircumflex" unicode="&#xea;" 
d="M281 629h596v41q0 148 -53 201t-210 53h-73q-156 0 -208 -53t-52 -201v-41zM543 -14q-236 0 -330 92t-94 323v250q0 232 93.5 324t328.5 92h73q236 0 330 -92t94 -324v-159l-757 -1q-1 -16 -1.5 -35.5t-0.5 -54.5q0 -163 52 -218.5t210 -55.5h73q141 0 196 40.5t64 141.5
h162q-12 -171 -110 -247t-310 -76h-73zM310 1178l200 348h152l200 -348h-92l-184 262l-184 -262h-92z" />
    <glyph glyph-name="edieresis" unicode="&#xeb;" 
d="M281 629h596v41q0 148 -53 201t-210 53h-73q-156 0 -208 -53t-52 -201v-41zM543 -14q-236 0 -330 92t-94 323v250q0 232 93.5 324t328.5 92h73q236 0 330 -92t94 -324v-159l-757 -1q-1 -16 -1.5 -35.5t-0.5 -54.5q0 -163 52 -218.5t210 -55.5h73q141 0 196 40.5t64 141.5
h162q-12 -171 -110 -247t-310 -76h-73zM676 1253v164h141v-164h-141zM355 1253v164h141v-164h-141z" />
    <glyph glyph-name="iacute" unicode="&#xed;" horiz-adv-x="479" 
d="M162 0v1053h155v-1053h-155zM207 1178h-92l209 348h152z" />
    <glyph glyph-name="igrave" unicode="&#xec;" horiz-adv-x="479" 
d="M162 0v1053h155v-1053h-155zM273 1178l-269 348h152l209 -348h-92z" />
    <glyph glyph-name="icircumflex" unicode="&#xee;" horiz-adv-x="479" 
d="M162 0v1053h155v-1053h-155zM-36 1178l200 348h152l200 -348h-92l-184 262l-184 -262h-92z" />
    <glyph glyph-name="idieresis" unicode="&#xef;" horiz-adv-x="479" 
d="M162 0v1053h155v-1053h-155zM330 1253v164h141v-164h-141zM9 1253v164h141v-164h-141z" />
    <glyph glyph-name="ntilde" unicode="&#xf1;" horiz-adv-x="1180" 
d="M162 0v1053h149v-144q38 81 122 119.5t222 38.5q207 0 290 -83.5t83 -293.5v-690h-156v657q0 165 -48.5 217t-188.5 52q-165 0 -241.5 -75.5t-76.5 -238.5v-612h-155zM910 1440q-26 -90 -74 -135t-117 -45q-14 0 -30.5 2.5t-35.5 7.5l-95 28q-18 6 -30 8.5t-24 2.5
q-28 0 -52 -19t-40 -53h-80q22 87 72 133.5t123 46.5q16 0 29 -2t24 -6l97 -31q12 -4 27 -7t28 -3q34 0 57.5 17.5t38.5 54.5h82z" />
    <glyph glyph-name="oacute" unicode="&#xf3;" 
d="M877 436v180q0 199 -50.5 253.5t-212.5 54.5h-73q-161 0 -210.5 -54t-49.5 -254v-180q0 -201 50 -255t210 -54h73q161 0 212 55t51 254zM543 -14q-236 0 -330 92t-94 323v250q0 232 93.5 324t328.5 92h73q236 0 330 -92t94 -324v-250q0 -232 -93.5 -323.5t-328.5 -91.5
h-73zM547 1178h-92l209 348h152z" />
    <glyph glyph-name="ograve" unicode="&#xf2;" 
d="M877 436v180q0 199 -50.5 253.5t-212.5 54.5h-73q-161 0 -210.5 -54t-49.5 -254v-180q0 -201 50 -255t210 -54h73q161 0 212 55t51 254zM543 -14q-236 0 -330 92t-94 323v250q0 232 93.5 324t328.5 92h73q236 0 330 -92t94 -324v-250q0 -232 -93.5 -323.5t-328.5 -91.5
h-73zM613 1178l-269 348h152l209 -348h-92z" />
    <glyph glyph-name="ocircumflex" unicode="&#xf4;" 
d="M877 436v180q0 199 -50.5 253.5t-212.5 54.5h-73q-161 0 -210.5 -54t-49.5 -254v-180q0 -201 50 -255t210 -54h73q161 0 212 55t51 254zM543 -14q-236 0 -330 92t-94 323v250q0 232 93.5 324t328.5 92h73q236 0 330 -92t94 -324v-250q0 -232 -93.5 -323.5t-328.5 -91.5
h-73zM304 1178l200 348h152l200 -348h-92l-184 262l-184 -262h-92z" />
    <glyph glyph-name="odieresis" unicode="&#xf6;" 
d="M877 436v180q0 199 -50.5 253.5t-212.5 54.5h-73q-161 0 -210.5 -54t-49.5 -254v-180q0 -201 50 -255t210 -54h73q161 0 212 55t51 254zM543 -14q-236 0 -330 92t-94 323v250q0 232 93.5 324t328.5 92h73q236 0 330 -92t94 -324v-250q0 -232 -93.5 -323.5t-328.5 -91.5
h-73zM670 1253v164h141v-164h-141zM349 1253v164h141v-164h-141z" />
    <glyph glyph-name="otilde" unicode="&#xf5;" 
d="M877 436v180q0 199 -50.5 253.5t-212.5 54.5h-73q-161 0 -210.5 -54t-49.5 -254v-180q0 -201 50 -255t210 -54h73q161 0 212 55t51 254zM543 -14q-236 0 -330 92t-94 323v250q0 232 93.5 324t328.5 92h73q236 0 330 -92t94 -324v-250q0 -232 -93.5 -323.5t-328.5 -91.5
h-73zM869 1440q-26 -90 -74 -135t-117 -45q-14 0 -30.5 2.5t-35.5 7.5l-95 28q-18 6 -30 8.5t-24 2.5q-28 0 -52 -19t-40 -53h-80q22 87 72 133.5t123 46.5q16 0 29 -2t24 -6l97 -31q12 -4 27 -7t28 -3q34 0 57.5 17.5t38.5 54.5h82z" />
    <glyph glyph-name="uacute" unicode="&#xfa;" horiz-adv-x="1180" 
d="M1020 1053v-1053h-150v143q-37 -80 -122 -118.5t-224 -38.5q-206 0 -289 83.5t-83 292.5v691h155v-658q0 -164 49 -216t191 -52q164 0 239.5 75t75.5 238v613h158zM557 1178h-92l209 348h152z" />
    <glyph glyph-name="ugrave" unicode="&#xf9;" horiz-adv-x="1180" 
d="M1020 1053v-1053h-150v143q-37 -80 -122 -118.5t-224 -38.5q-206 0 -289 83.5t-83 292.5v691h155v-658q0 -164 49 -216t191 -52q164 0 239.5 75t75.5 238v613h158zM623 1178l-269 348h152l209 -348h-92z" />
    <glyph glyph-name="ucircumflex" unicode="&#xfb;" horiz-adv-x="1180" 
d="M1020 1053v-1053h-150v143q-37 -80 -122 -118.5t-224 -38.5q-206 0 -289 83.5t-83 292.5v691h155v-658q0 -164 49 -216t191 -52q164 0 239.5 75t75.5 238v613h158zM314 1178l200 348h152l200 -348h-92l-184 262l-184 -262h-92z" />
    <glyph glyph-name="udieresis" unicode="&#xfc;" horiz-adv-x="1180" 
d="M1020 1053v-1053h-150v143q-37 -80 -122 -118.5t-224 -38.5q-206 0 -289 83.5t-83 292.5v691h155v-658q0 -164 49 -216t191 -52q164 0 239.5 75t75.5 238v613h158zM680 1253v164h141v-164h-141zM359 1253v164h141v-164h-141z" />
    <glyph glyph-name="dagger" unicode="&#x2020;" horiz-adv-x="1024" 
d="M590 1489v-399h295v-142h-295v-948h-156v948h-295v142h295v399h156z" />
    <glyph glyph-name="degree" unicode="&#xb0;" horiz-adv-x="674" 
d="M545 1174q0 86 -60.5 147t-146.5 61t-147.5 -61t-61.5 -147q0 -87 61 -147t148 -60t147 60t60 147zM338 1452q115 0 195.5 -81.5t80.5 -196.5t-81.5 -197t-196.5 -82q-117 0 -197 81t-80 198q0 116 81.5 197t197.5 81z" />
    <glyph glyph-name="cent" unicode="&#xa2;" horiz-adv-x="1384" 
d="M444 147l256 777h-100q-161 0 -211.5 -54.5t-50.5 -253.5v-180q0 -154 23.5 -209.5t82.5 -79.5zM535 -14l-82 -248h-144l88 268q-118 39 -168.5 127.5t-50.5 267.5v250q0 232 93.5 324t328.5 92h148l65 199h143l-73 -222q108 -36 160.5 -120t54.5 -223h-162
q-3 86 -28 138t-70 64l-256 -776h92q153 0 207.5 52.5t54.5 191.5v18h162v-20q0 -205 -98.5 -294t-325.5 -89h-139z" />
    <glyph glyph-name="sterling" unicode="&#xa3;" horiz-adv-x="1384" 
d="M115 0v156h20q93 0 132.5 58t39.5 196v184h-192v143h192v426q0 182 108.5 263t354.5 81q260 0 373.5 -69.5t113.5 -227.5v-155h-170v92q0 123 -62.5 165t-242.5 42q-93 0 -156.5 -12.5t-97.5 -36.5q-30 -24 -42.5 -61.5t-12.5 -133.5v-20v-353h438v-143h-438v-182
q0 -107 -24 -172.5t-70 -83.5h899v-156h-1163z" />
    <glyph glyph-name="section" unicode="&#xa7;" horiz-adv-x="1118" 
d="M735 860l-297 98q-103 -19 -159 -59.5t-56 -95.5q0 -50 39.5 -87t120.5 -63l297 -96q103 20 159 60.5t56 95.5q0 49 -39 85t-121 62zM305 287v-49q0 -67 46.5 -91t201.5 -24q163 0 205.5 27.5t42.5 107.5q0 56 -21 85.5t-71 45.5l-373 121q-150 48 -211.5 107.5
t-61.5 152.5q0 92 60 154.5t166 81.5q-78 27 -112 81.5t-34 153.5q0 151 82.5 208.5t315.5 57.5q201 0 285.5 -54t84.5 -179v-47h-157v24q0 65 -45 90t-181 25q-148 0 -185.5 -22.5t-37.5 -90.5q0 -54 20 -80t76 -45l447 -145q103 -34 155 -95t52 -149q0 -93 -62.5 -156
t-167.5 -75q75 -23 106.5 -78t31.5 -170q0 -158 -83 -218t-319 -60q-237 0 -325.5 52.5t-88.5 182.5v70h158z" />
    <glyph glyph-name="bullet" unicode="&#x2022;" horiz-adv-x="1208" 
d="M307 762q0 123 87 209t210 86q122 0 208.5 -86.5t86.5 -208.5t-87.5 -209.5t-209.5 -87.5q-123 0 -209 87t-86 210z" />
    <glyph glyph-name="paragraph" unicode="&#xb6;" horiz-adv-x="1024" 
d="M940 1409h-127v-1409h-82v1409h-186v-1409h-84v782q-174 8 -275.5 102.5t-101.5 245.5q0 157 107.5 253t285.5 96h463v-70z" />
    <glyph glyph-name="germandbls" unicode="&#xdf;" horiz-adv-x="1081" 
d="M127 0v1069q0 235 87 324.5t310 89.5q220 0 313 -87.5t93 -291.5q0 -118 -40 -182t-132 -97q129 -27 182 -115t53 -284q0 -242 -83 -342t-279 -100q-34 0 -72.5 3t-83.5 9l1 143q30 -7 61 -10.5t65 -3.5q135 0 181 58.5t46 242.5q0 208 -48.5 262.5t-190.5 54.5h-115v129
h88q117 0 163 53t46 191q0 130 -52.5 178.5t-197.5 48.5q-142 0 -190.5 -52t-48.5 -238v-1053h-156z" />
    <glyph glyph-name="registered" unicode="&#xae;" horiz-adv-x="1706" 
d="M850 1071h-158v-303h158q134 0 188 33.5t54 113.5q0 83 -57 119.5t-185 36.5zM874 1157q178 0 263.5 -57t85.5 -176q0 -89 -54 -149t-145 -73l188 -389h-145l-178 371h-197v-371h-127v844h309zM1505 721q0 134 -48 253t-138 210q-94 93 -213.5 142.5t-253.5 49.5
q-130 0 -246.5 -48t-208.5 -140q-95 -97 -145.5 -216.5t-50.5 -248.5t49.5 -247t142.5 -212q94 -93 212 -142.5t247 -49.5q130 0 250.5 50t216.5 144q91 89 138.5 204.5t47.5 250.5zM852 1456q152 0 285.5 -55t236.5 -160q102 -102 156.5 -235.5t54.5 -282.5
q0 -150 -53.5 -281t-157.5 -233q-107 -106 -242 -162.5t-280 -56.5q-147 0 -279.5 55.5t-236.5 161.5q-105 104 -160 237t-55 279q0 144 56.5 279.5t162.5 242.5q101 103 232 157t280 54z" />
    <glyph glyph-name="copyright" unicode="&#xa9;" horiz-adv-x="1706" 
d="M1073 915q-18 80 -75 124t-142 44q-122 0 -190 -95t-68 -267q0 -166 69 -260t189 -94q89 0 151 50.5t78 137.5h115q-11 -125 -108.5 -205t-241.5 -80q-177 0 -279 122t-102 335q0 203 107.5 326t283.5 123q135 0 226.5 -72t103.5 -189h-117zM1505 723q0 132 -48.5 251
t-139.5 210q-94 94 -213 143t-252 49q-132 0 -249 -48t-208 -140q-94 -96 -144 -215.5t-50 -249.5q0 -129 49.5 -247t142.5 -212q94 -93 212 -142.5t247 -49.5q130 0 250.5 50t216.5 144q91 89 138.5 206t47.5 251zM852 1456q149 0 283.5 -55.5t238.5 -159.5
q102 -102 156.5 -235.5t54.5 -282.5q0 -150 -53.5 -281t-157.5 -233q-107 -106 -242 -162.5t-280 -56.5t-278 55.5t-238 161.5q-105 104 -160 237t-55 279q0 145 56.5 279.5t162.5 242.5q101 103 232 157t280 54z" />
    <glyph glyph-name="trademark" unicode="&#x2122;" horiz-adv-x="1706" 
d="M938 1454l166 -422l156 422h116v-530h-71v467l-177 -467h-49l-186 467v-467h-72v530h117zM694 1454v-57h-172v-473h-82v473h-176v57h430z" />
    <glyph glyph-name="acute" unicode="&#xb4;" horiz-adv-x="1024" 
d="M479 1178h-92l209 348h152z" />
    <glyph glyph-name="dieresis" unicode="&#xa8;" horiz-adv-x="1024" 
d="M602 1253v164h141v-164h-141zM281 1253v164h141v-164h-141z" />
    <glyph glyph-name="notequal" unicode="&#x2260;" horiz-adv-x="1706" 
d="M1288 1110l-205 -264h369v-96h-432l-215 -277h647v-98h-709l-254 -324l-73 60l205 264h-367v98h428l215 277h-643v96h707l253 323z" />
    <glyph glyph-name="AE" unicode="&#xc6;" horiz-adv-x="2079" 
d="M301 528h653v803h-209zM954 0v371h-741l-203 -371h-176l823 1489h1338v-158h-887v-487h862v-152h-862v-536h887v-156h-1041z" />
    <glyph glyph-name="Oslash" unicode="&#xd8;" horiz-adv-x="1526" 
d="M319 260l781 1071q-33 11 -91.5 16t-162.5 5h-166q-143 0 -203 -15t-102 -51q-40 -33 -56 -90.5t-16 -204.5v-493q0 -72 4 -130t12 -108zM1210 1229l-784 -1073q45 -10 102 -14.5t152 -4.5h166q143 0 202.5 15t102.5 51q40 33 56 90.5t16 204.5v493q0 75 -3 134t-10 104z
M133 997q0 285 118 397.5t419 112.5h188q129 0 202 -12t130 -39l86 119l119 -90l-88 -121q46 -60 67 -143.5t21 -223.5v-505q0 -286 -118.5 -398t-418.5 -112h-188q-138 0 -210.5 12t-119.5 41l-88 -121l-121 92l92 125q-48 50 -69 130.5t-21 230.5v505z" />
    <glyph glyph-name="infinity" unicode="&#x221e;" horiz-adv-x="1706" 
d="M897 559q52 -100 122 -149.5t159 -49.5q106 0 173.5 75t67.5 192q0 113 -62.5 187.5t-156.5 74.5q-86 0 -155 -74t-148 -256zM811 668q-52 99 -121.5 147.5t-159.5 48.5q-106 0 -173.5 -74.5t-67.5 -189.5q0 -112 63 -187t156 -75q87 0 156.5 75t146.5 255zM838 721
q72 144 149 206t182 62q124 0 215 -107.5t91 -265.5q0 -169 -81.5 -273.5t-211.5 -104.5q-95 0 -168 60.5t-146 203.5q-71 -139 -148 -201.5t-173 -62.5q-132 0 -223 106.5t-91 267.5q0 169 81.5 273t211.5 104q97 0 171.5 -64t140.5 -204z" />
    <glyph glyph-name="plusminus" unicode="&#xb1;" horiz-adv-x="1706" 
d="M1452 150v-99h-1198v99h1198zM903 1169v-348h549v-98h-549v-348h-98v348h-551v98h551v348h98z" />
    <glyph glyph-name="lessequal" unicode="&#x2264;" horiz-adv-x="1706" 
d="M1442 139v-98h-1178v98h1178zM1442 1075l-1010 -338l1010 -336v-106l-1178 401v84l1178 402v-107z" />
    <glyph glyph-name="greaterequal" unicode="&#x2265;" horiz-adv-x="1706" 
d="M1442 139v-98h-1178v98h1178zM1442 780v-84l-1178 -401v106l1010 336l-1010 338v107z" />
    <glyph glyph-name="yen" unicode="&#xa5;" horiz-adv-x="1219" 
d="M690 0h-162v653h-528v123h449l-132 180h-317v123h217l-305 410h194l502 -694l502 694h195l-304 -410h218v-123h-320l-131 -180h451v-123h-529v-653z" />
    <glyph glyph-name="mu" unicode="&#xb5;" horiz-adv-x="1110" 
d="M344 1065l-125 -592q-8 -39 -12 -73t-4 -66q0 -117 58 -180.5t167 -63.5q125 0 215 107.5t133 310.5l121 557h139l-164 -770q-12 -55 -17 -85t-5 -48q0 -33 17 -49.5t51 -16.5q7 0 16.5 0.5t19.5 1.5l-20 -110q-19 -5 -41 -8t-45 -3q-70 0 -103.5 36t-33.5 110v14
q-42 -77 -120 -119.5t-179 -42.5q-92 0 -161 40t-108 116l-114 -557h-140l316 1491h139z" />
    <glyph glyph-name="partialdiff" unicode="&#x2202;" horiz-adv-x="1034" 
d="M752 592q12 83 18 160t6 149q0 158 -40 242t-115 84q-50 0 -108 -68.5t-103 -68.5q-31 0 -52.5 20t-21.5 47q0 62 63.5 107t155.5 45q165 0 264 -150.5t99 -406.5q0 -334 -136 -556.5t-333 -222.5q-143 0 -233.5 107t-90.5 278q0 179 109 304.5t262 125.5q98 0 160.5 -48
t95.5 -148zM711 463q0 128 -45 193t-134 65q-113 0 -186.5 -124.5t-73.5 -322.5q0 -126 44.5 -188.5t134.5 -62.5q112 0 186 125.5t74 314.5z" />
    <glyph glyph-name="summation" unicode="&#x2211;" horiz-adv-x="1317" 
d="M49 1473h1223v-144h-1014l705 -766l-740 -813h1057v-143h-1266v133l744 821l-709 772v140z" />
    <glyph glyph-name="product" unicode="&#x220f;" horiz-adv-x="1509" 
d="M160 1473h1188v-1866h-168v1718h-852v-1718h-168v1866z" />
    <glyph glyph-name="pi" unicode="&#x3c0;" horiz-adv-x="1171" 
d="M1120 944h-182l-115 -541q-15 -69 -22.5 -117t-7.5 -71q0 -58 25 -82t85 -24q29 0 51 2.5t41 6.5l-26 -118q-28 -8 -53.5 -12t-47.5 -4q-101 0 -157 53t-56 149q0 46 11 118t45 233l86 407h-365l-199 -944h-139l199 944h-39q-55 0 -85.5 -31.5t-41.5 -99.5h-131
q25 143 88 197.5t215 54.5h848z" />
    <glyph glyph-name="integral" unicode="&#x222b;" horiz-adv-x="985" 
d="M293 -272q104 0 117 713q2 127 4 196q11 486 98 698.5t268 212.5q70 0 114 -37t44 -96q0 -48 -28.5 -76t-78.5 -28q-78 0 -103 69.5t-34 69.5q-105 0 -116 -623q-4 -185 -7 -289q-15 -497 -101 -703t-267 -206q-69 0 -113.5 36t-44.5 91q0 51 31 81t82 30
q36 0 61.5 -16.5t40.5 -51.5q4 -9 7 -33q4 -38 26 -38z" />
    <glyph glyph-name="ordfeminine" unicode="&#xaa;" horiz-adv-x="868" 
d="M637 940v78q0 52 -57.5 76t-182.5 24q-114 0 -152 -26.5t-38 -102.5q0 -87 40 -116t163 -29q112 0 169.5 24.5t57.5 71.5zM643 829q-26 -46 -84.5 -67t-163.5 -21q-186 0 -248.5 49.5t-62.5 184.5q0 80 14 123t47 69q29 22 84.5 31.5t159.5 9.5q109 0 164.5 -16.5
t83.5 -54.5v129q0 90 -38.5 116.5t-186.5 26.5q-108 0 -144.5 -21.5t-38.5 -80.5h-116v16q0 95 66 135.5t224 40.5q128 0 193 -10t96 -33q34 -24 48 -60t14 -128v-516h-105z" />
    <glyph glyph-name="ordmasculine" unicode="&#xba;" horiz-adv-x="868" 
d="M657 1057v127q0 139 -37.5 177t-158.5 38h-55q-120 0 -157.5 -37.5t-37.5 -177.5v-127q0 -142 37.5 -179.5t157.5 -37.5h55q120 0 158 38.5t38 178.5zM408 741q-177 0 -247.5 64.5t-70.5 226.5v176q0 163 70 227t246 64h55q177 0 247 -64t70 -227v-176q0 -162 -70 -226.5
t-245 -64.5h-55z" />
    <glyph glyph-name="Omega" unicode="&#x3a9;" horiz-adv-x="1579" 
d="M1462 139v-139h-581v127q207 124 313 293.5t106 374.5q0 260 -141.5 420.5t-367.5 160.5q-228 0 -370 -160t-142 -419q0 -207 106.5 -377.5t312.5 -292.5v-127h-581v139h344q-173 133 -256.5 291.5t-83.5 353.5q0 320 188.5 524.5t481.5 204.5q291 0 480 -203.5
t189 -523.5q0 -196 -83.5 -354t-258.5 -293h344z" />
    <glyph glyph-name="ae" unicode="&#xe6;" horiz-adv-x="1878" 
d="M1001 629h598v41q0 148 -52.5 201t-209.5 53h-73q-157 0 -210 -53t-53 -201v-41zM150 793v20q0 141 87 197.5t318 56.5q188 0 268.5 -26t114.5 -89q46 63 117.5 89t206.5 26h75q235 0 328.5 -92t93.5 -324v-159l-758 -1q-1 -17 -1.5 -35.5t-0.5 -52.5q0 -164 52.5 -220
t212.5 -56h73q140 0 194.5 40t63.5 142h162q-12 -171 -110 -247t-310 -76h-73q-161 0 -236 35.5t-119 123.5q-59 -85 -154.5 -122t-260.5 -37q-219 0 -301 72.5t-82 260.5q0 111 19.5 174t64.5 101q38 32 111.5 45.5t211.5 13.5q143 0 219 -23.5t115 -78.5v182
q0 128 -51 166.5t-252 38.5q-147 0 -194.5 -30.5t-49.5 -114.5h-155zM850 270v109q0 75 -76.5 110t-243.5 35q-153 0 -204.5 -38.5t-51.5 -147.5q0 -125 55.5 -168t217.5 -43q146 0 224.5 37t78.5 106z" />
    <glyph glyph-name="oslash" unicode="&#xf8;" 
d="M778 911q-30 7 -68.5 10t-95.5 3h-73q-161 0 -210.5 -54t-49.5 -254v-180q0 -85 1 -123.5t5 -70.5zM543 -14q-85 0 -141.5 8t-100.5 26l-106 -141l-119 90l106 146q-33 45 -48 111t-15 175v250q0 232 93.5 324t328.5 92h73q89 0 149 -8.5t95 -26.5l105 142l116 -89
l-104 -143q33 -51 48 -118t15 -173v-250q0 -232 -93.5 -323.5t-328.5 -91.5h-73zM877 436v180q0 67 -2 116t-7 85l-495 -678q43 -6 84.5 -9t83.5 -3h73q161 0 212 55t51 254z" />
    <glyph glyph-name="questiondown" unicode="&#xbf;" horiz-adv-x="1063" 
d="M680 1489v-191h-166v191h166zM680 1081v-118q0 -88 -41.5 -142t-196.5 -123l-5 -2q-149 -64 -181 -110q-19 -29 -29 -83t-10 -132q0 -136 48.5 -186t191.5 -50q155 0 219.5 8t89.5 27q29 22 42 69t13 136q0 34 -0.5 52t-0.5 34h163v-148q0 -181 -105 -256t-370 -75
q-264 0 -357.5 84.5t-93.5 308.5q0 185 40 273t139 134q29 14 82 37q196 85 196 187v75h166z" />
    <glyph glyph-name="exclamdown" unicode="&#xa1;" horiz-adv-x="516" 
d="M190 1087h138l8 -1087h-156zM180 1489h156v-193h-156v193z" />
    <glyph glyph-name="logicalnot" unicode="&#xac;" horiz-adv-x="1706" 
d="M1452 858v-502h-96v402h-1102v100h1198z" />
    <glyph glyph-name="radical" unicode="&#x221a;" horiz-adv-x="1276" 
d="M1276 1636v-71h-125l-594 -1606h-41l-328 899l-114 -39l-19 58l246 86l272 -746l525 1419h178z" />
    <glyph glyph-name="florin" unicode="&#x192;" horiz-adv-x="1384" 
d="M-47 -230q55 -11 95 -16.5t65 -5.5q122 0 185.5 77.5t102.5 289.5l127 676h-295v133h316l35 188q35 193 136.5 294t260.5 101q44 0 90.5 -5.5t95.5 -16.5v-150q-57 12 -95.5 17.5t-65.5 5.5q-100 0 -163 -66.5t-87 -195.5l-33 -172h313v-133h-331l-136 -715
q-50 -263 -149.5 -371t-284.5 -108q-39 0 -83.5 5.5t-98.5 16.5v151z" />
    <glyph glyph-name="approxequal" unicode="&#x2248;" horiz-adv-x="1706" 
d="M1530 469q-106 -74 -201 -109.5t-186 -35.5q-101 0 -291 69.5t-287 69.5q-82 0 -171 -36.5t-216 -123.5v111q107 74 202 109.5t185 35.5q109 0 298.5 -68.5t279.5 -68.5q86 0 175 35.5t212 122.5v-111zM1530 807q-104 -74 -199 -109.5t-188 -35.5q-103 0 -292 69.5
t-286 69.5q-82 0 -171 -36.5t-216 -123.5v113q105 73 201 109t186 36q109 0 298.5 -69.5t279.5 -69.5q84 0 171 34.5t216 123.5v-111z" />
    <glyph glyph-name="Delta" unicode="&#x2206;" horiz-adv-x="1346" 
d="M1139 139l-467 1186l-465 -1186h932zM766 1473l590 -1473h-1366l590 1473h186z" />
    <glyph glyph-name="guillemotleft" unicode="&#xab;" horiz-adv-x="981" 
d="M516 213h-172l-246 313l246 314h172l-248 -314zM866 213h-172l-245 313l245 314h172l-248 -314z" />
    <glyph glyph-name="guillemotright" unicode="&#xbb;" horiz-adv-x="981" 
d="M467 213l246 313l-246 314h170l246 -314l-246 -313h-170zM115 213l247 313l-247 314h172l245 -314l-245 -313h-172z" />
    <glyph glyph-name="ellipsis" unicode="&#x2026;" horiz-adv-x="2048" 
d="M129 0v217h174v-217h-174zM811 0v217h174v-217h-174zM1495 0v217h174v-217h-174z" />
    <glyph glyph-name="nonbreakingspace" unicode="&#xa0;" horiz-adv-x="1384" 
 />
    <glyph glyph-name="Agrave" unicode="&#xc0;" horiz-adv-x="1417" 
d="M387 528h645l-297 803h-53zM23 0l550 1489h271l553 -1489h-170l-142 381h-753l-139 -381h-170zM742 1618l-269 348h152l209 -348h-92z" />
    <glyph glyph-name="Atilde" unicode="&#xc3;" horiz-adv-x="1417" 
d="M387 528h645l-297 803h-53zM23 0l550 1489h271l553 -1489h-170l-142 381h-753l-139 -381h-170zM998 1880q-26 -90 -74 -135t-117 -45q-14 0 -30.5 2.5t-35.5 7.5l-95 28q-18 6 -30 8.5t-24 2.5q-28 0 -52 -19t-40 -53h-80q22 87 72 133.5t123 46.5q16 0 29 -2t24 -6
l97 -31q12 -4 27 -7t28 -3q34 0 57.5 17.5t38.5 54.5h82z" />
    <glyph glyph-name="Otilde" unicode="&#xd5;" horiz-adv-x="1526" 
d="M809 1352h-92q-157 0 -222 -17t-112 -57q-44 -38 -62 -102.5t-18 -221.5v-422q0 -156 18 -219.5t62 -101.5q47 -40 112 -57t222 -17h92q157 0 223 17t113 57q43 37 60.5 99t17.5 222v424q0 157 -18 221.5t-62 102.5q-46 39 -111 55.5t-223 16.5zM133 997q0 285 118 397.5
t419 112.5h188q304 0 420.5 -111t116.5 -399v-505q0 -286 -118.5 -398t-418.5 -112h-188q-301 0 -419 112t-118 398v505zM1053 1880q-26 -90 -74 -135t-117 -45q-14 0 -30.5 2.5t-35.5 7.5l-95 28q-18 6 -30 8.5t-24 2.5q-28 0 -52 -19t-40 -53h-80q22 87 72 133.5t123 46.5
q16 0 29 -2t24 -6l97 -31q12 -4 27 -7t28 -3q34 0 57.5 17.5t38.5 54.5h82z" />
    <glyph glyph-name="OE" unicode="&#x152;" horiz-adv-x="2351" 
d="M303 991v-493q0 -147 16 -204.5t56 -90.5q42 -36 102 -51t203 -15h166q143 0 202.5 15t102.5 51q40 33 56 90.5t16 204.5v493q0 147 -16 204.5t-56 90.5q-43 36 -102.5 51t-202.5 15h-166q-143 0 -203 -15t-102 -51q-40 -33 -56 -90.5t-16 -204.5zM1223 0v135
q-53 -83 -134 -118t-231 -35h-188q-301 0 -419 112t-118 398v505q0 285 118 397.5t419 112.5h188q150 0 232.5 -35t132.5 -118v135h1044v-158h-881v-487h857v-152h-857v-536h881v-156h-1044z" />
    <glyph glyph-name="oe" unicode="&#x153;" horiz-adv-x="1907" 
d="M1028 629h598v41q0 148 -53 201t-209 53h-74q-156 0 -209 -53t-53 -201v-41zM543 -14q-236 0 -330 92t-94 323v250q0 232 93.5 324t328.5 92h73q141 0 215.5 -29t124.5 -98q45 69 119 98t217 29h74q236 0 330 -92t94 -324v-159l-760 -1q-1 -17 -1.5 -35.5t-0.5 -52.5
q0 -164 52.5 -220t211.5 -56h74q140 0 195 40.5t65 141.5h160q-12 -171 -110 -247t-310 -76h-74q-145 0 -219 29.5t-119 99.5q-48 -71 -120.5 -100t-215.5 -29h-73zM877 436v180q0 199 -50.5 253.5t-212.5 54.5h-73q-161 0 -210.5 -54t-49.5 -254v-180q0 -201 50 -255
t210 -54h73q161 0 212 55t51 254z" />
    <glyph glyph-name="endash" unicode="&#x2013;" horiz-adv-x="1024" 
d="M0 502v104h1024v-104h-1024z" />
    <glyph glyph-name="emdash" unicode="&#x2014;" horiz-adv-x="2048" 
d="M0 606h2048v-104h-2048v104z" />
    <glyph glyph-name="quotedblleft" unicode="&#x201c;" horiz-adv-x="1006" 
d="M758 1288v-207h-166v250q0 76 43 117t123 41l-1 -88q-38 -4 -53.5 -19.5t-15.5 -50.5v-43h70zM412 1288v-207h-164v250q0 76 42 117t122 41l-1 -88q-37 -4 -52 -19.5t-15 -50.5v-43h68z" />
    <glyph glyph-name="quotedblright" unicode="&#x201d;" horiz-adv-x="1006" 
d="M248 1282v207h164v-250q0 -76 -42.5 -117t-121.5 -41v88q37 4 52 19.5t15 50.5v43h-67zM592 1282v207h164v-250q0 -76 -42.5 -117t-121.5 -41v88q36 3 51.5 19t15.5 51v43h-67z" />
    <glyph glyph-name="quoteleft" unicode="&#x2018;" horiz-adv-x="664" 
d="M414 1288v-207h-164v250q0 76 42.5 117t121.5 41l-1 -88q-37 -4 -52 -19.5t-15 -50.5v-43h68z" />
    <glyph glyph-name="quoteright" unicode="&#x2019;" horiz-adv-x="664" 
d="M250 1282v207h164v-250q0 -76 -42.5 -117t-121.5 -41v88q36 3 51.5 19t15.5 51v43h-67z" />
    <glyph glyph-name="divide" unicode="&#xf7;" horiz-adv-x="1706" 
d="M854 365q45 0 76 -31t31 -76q0 -44 -31 -75t-76 -31t-75.5 31t-30.5 75t31 75.5t75 31.5zM1452 659v-98h-1198v98h1198zM854 1071q44 0 75.5 -32t31.5 -76q0 -45 -31 -76t-76 -31t-75.5 30.5t-30.5 76.5q0 44 31.5 76t74.5 32z" />
    <glyph glyph-name="lozenge" unicode="&#x25ca;" horiz-adv-x="1012" 
d="M506 1409l-385 -817l385 -825l385 825zM506 1653l500 -1061l-500 -1069l-500 1069z" />
    <glyph glyph-name="ydieresis" unicode="&#xff;" horiz-adv-x="999" 
d="M47 1053h156l313 -906l311 906h154l-397 -1145q-65 -186 -132.5 -252t-181.5 -66q-17 0 -37.5 1.5t-44.5 5.5l1 137q7 -1 17.5 -1.5t29.5 -0.5q72 0 111.5 32.5t74.5 126.5l39 109h-47zM590 1253v164h141v-164h-141zM269 1253v164h141v-164h-141z" />
    <glyph glyph-name="Ydieresis" unicode="&#x178;" horiz-adv-x="1219" 
d="M690 0h-162v659l-616 830h194l502 -694l502 694h195l-615 -827v-662zM700 1693v164h141v-164h-141zM379 1693v164h141v-164h-141z" />
    <glyph glyph-name="fraction" unicode="&#x2215;" horiz-adv-x="342" 
d="M-342 -18l868 1525h156l-866 -1525h-158z" />
    <glyph glyph-name="currency" unicode="&#xa4;" horiz-adv-x="1384" 
d="M1251 471q0 -259 -107.5 -374t-336.5 -115h-90q-277 0 -386.5 112t-109.5 398v43h-182l41 122h141v181h-182l41 123h141v36q0 286 109.5 398t386.5 112h90q222 0 333 -109.5t111 -328.5h-170q0 157 -68 221t-233 64h-104q-163 0 -224 -69t-61 -265v-59h670l-41 -123h-629
v-181h572l-41 -122h-531v-76q0 -185 60.5 -254.5t224.5 -69.5h104q166 0 233.5 64t67.5 272h170z" />
    <glyph glyph-name="guilsinglleft" unicode="&#x2039;" horiz-adv-x="631" 
d="M516 213h-172l-246 313l246 314h172l-248 -314z" />
    <glyph glyph-name="guilsinglright" unicode="&#x203a;" horiz-adv-x="631" 
d="M115 213l247 313l-247 314h172l245 -314l-245 -313h-172z" />
    <glyph glyph-name="fi" unicode="&#xf001;" horiz-adv-x="1151" 
d="M831 1305v176h158v-176h-158zM831 0v1053h158v-1053h-158zM47 920v133h147q0 12 -0.5 27.5t-0.5 43.5q0 201 70.5 283t244.5 82q45 0 88 -2t86 -6v-142q-13 1 -36 2q-69 2 -95 2q-121 0 -161 -36.5t-40 -182.5v-71h332v-133h-332v-920h-155v920h-148z" />
    <glyph glyph-name="fi" unicode="&#xfb01;" horiz-adv-x="1151" 
d="M831 1305v176h158v-176h-158zM831 0v1053h158v-1053h-158zM47 920v133h147q0 12 -0.5 27.5t-0.5 43.5q0 201 70.5 283t244.5 82q45 0 88 -2t86 -6v-142q-13 1 -36 2q-69 2 -95 2q-121 0 -161 -36.5t-40 -182.5v-71h332v-133h-332v-920h-155v920h-148z" />
    <glyph glyph-name="fl" unicode="&#xf002;" horiz-adv-x="1151" 
d="M831 0v1481h158v-1481h-158zM47 920v133h147q0 12 -0.5 27.5t-0.5 43.5q0 201 70.5 283t244.5 82q45 0 88 -2t86 -6v-142q-13 1 -36 2q-69 2 -95 2q-121 0 -161 -36.5t-40 -182.5v-71h332v-133h-332v-920h-155v920h-148z" />
    <glyph glyph-name="fl" unicode="&#xfb02;" horiz-adv-x="1151" 
d="M831 0v1481h158v-1481h-158zM47 920v133h147q0 12 -0.5 27.5t-0.5 43.5q0 201 70.5 283t244.5 82q45 0 88 -2t86 -6v-142q-13 1 -36 2q-69 2 -95 2q-121 0 -161 -36.5t-40 -182.5v-71h332v-133h-332v-920h-155v920h-148z" />
    <glyph glyph-name="daggerdbl" unicode="&#x2021;" horiz-adv-x="1024" 
d="M590 1489v-340h295v-141h-295v-525h295v-141h-295v-342h-156v342h-295v141h295v525h-295v141h295v340h156z" />
    <glyph glyph-name="periodcentered" unicode="&#xb7;" horiz-adv-x="692" 
d="M227 795q0 49 35 83.5t84 34.5t84 -34.5t35 -83.5t-34.5 -83t-84.5 -34q-49 0 -84 34t-35 83z" />
    <glyph glyph-name="quotesinglbase" unicode="&#x201a;" horiz-adv-x="664" 
d="M250 0v207h164v-250q0 -76 -42.5 -117t-121.5 -41v88q36 3 51.5 19t15.5 51v43h-67z" />
    <glyph glyph-name="quotedblbase" unicode="&#x201e;" horiz-adv-x="1006" 
d="M248 0v207h164v-250q0 -76 -42.5 -117t-121.5 -41v88q36 3 51.5 19t15.5 51v43h-67zM592 0v207h164v-250q0 -76 -42.5 -117t-121.5 -41v88q36 3 51.5 19t15.5 51v43h-67z" />
    <glyph glyph-name="perthousand" unicode="&#x2030;" horiz-adv-x="2736" 
d="M2277 117h74q111 0 145.5 37t34.5 178v252q0 142 -35.5 179.5t-144.5 37.5h-74q-109 0 -144.5 -37.5t-35.5 -179.5v-252q0 -142 34 -178.5t146 -36.5zM2269 -18q-170 0 -237.5 70t-67.5 249v313q0 178 68 249t237 71h90q169 0 236 -70t67 -250v-313q0 -180 -66.5 -249.5
t-236.5 -69.5h-90zM379 555q-171 0 -238 70t-67 247v316q0 178 68 248.5t237 70.5h90q169 0 236 -69.5t67 -249.5v-316q0 -180 -66.5 -248.5t-236.5 -68.5h-90zM1399 117h71q113 0 148 37.5t35 177.5v252q0 141 -36 179t-147 38h-71q-110 0 -146 -38t-36 -179v-252
q0 -140 34.5 -177.5t147.5 -37.5zM387 690h74q111 0 145.5 37t34.5 178v252q0 142 -35.5 179.5t-144.5 37.5h-74q-110 0 -146 -38t-36 -179v-252q0 -140 34.5 -177.5t147.5 -37.5zM1389 -18q-170 0 -237 70t-67 249v313q0 179 67.5 249.5t236.5 70.5h90q169 0 237 -70
t68 -250v-313q0 -180 -67.5 -249.5t-237.5 -69.5h-90zM594 -18l526 1525h142l-527 -1525h-141z" />
    <glyph glyph-name="Acircumflex" unicode="&#xc2;" horiz-adv-x="1417" 
d="M387 528h645l-297 803h-53zM23 0l550 1489h271l553 -1489h-170l-142 381h-753l-139 -381h-170zM433 1618l200 348h152l200 -348h-92l-184 262l-184 -262h-92z" />
    <glyph glyph-name="Ecircumflex" unicode="&#xca;" horiz-adv-x="1309" 
d="M180 0v1489h1045v-158h-881v-487h856v-152h-856v-536h881v-156h-1045zM457 1618l200 348h152l200 -348h-92l-184 262l-184 -262h-92z" />
    <glyph glyph-name="Aacute" unicode="&#xc1;" horiz-adv-x="1417" 
d="M387 528h645l-297 803h-53zM23 0l550 1489h271l553 -1489h-170l-142 381h-753l-139 -381h-170zM676 1618h-92l209 348h152z" />
    <glyph glyph-name="Edieresis" unicode="&#xcb;" horiz-adv-x="1309" 
d="M180 0v1489h1045v-158h-881v-487h856v-152h-856v-536h881v-156h-1045zM823 1693v164h141v-164h-141zM502 1693v164h141v-164h-141z" />
    <glyph glyph-name="Egrave" unicode="&#xc8;" horiz-adv-x="1309" 
d="M180 0v1489h1045v-158h-881v-487h856v-152h-856v-536h881v-156h-1045zM766 1618l-269 348h152l209 -348h-92z" />
    <glyph glyph-name="Iacute" unicode="&#xcd;" horiz-adv-x="526" 
d="M180 0v1489h166v-1489h-166zM231 1618h-92l209 348h152z" />
    <glyph glyph-name="Icircumflex" unicode="&#xce;" horiz-adv-x="526" 
d="M180 0v1489h166v-1489h-166zM-12 1618l200 348h152l200 -348h-92l-184 262l-184 -262h-92z" />
    <glyph glyph-name="Idieresis" unicode="&#xcf;" horiz-adv-x="526" 
d="M180 0v1489h166v-1489h-166zM354 1693v164h141v-164h-141zM33 1693v164h141v-164h-141z" />
    <glyph glyph-name="Igrave" unicode="&#xcc;" horiz-adv-x="526" 
d="M180 0v1489h166v-1489h-166zM297 1618l-269 348h152l209 -348h-92z" />
    <glyph glyph-name="Oacute" unicode="&#xd3;" horiz-adv-x="1526" 
d="M809 1352h-92q-157 0 -222 -17t-112 -57q-44 -38 -62 -102.5t-18 -221.5v-422q0 -156 18 -219.5t62 -101.5q47 -40 112 -57t222 -17h92q157 0 223 17t113 57q43 37 60.5 99t17.5 222v424q0 157 -18 221.5t-62 102.5q-46 39 -111 55.5t-223 16.5zM133 997q0 285 118 397.5
t419 112.5h188q304 0 420.5 -111t116.5 -399v-505q0 -286 -118.5 -398t-418.5 -112h-188q-301 0 -419 112t-118 398v505zM731 1618h-92l209 348h152z" />
    <glyph glyph-name="Ocircumflex" unicode="&#xd4;" horiz-adv-x="1526" 
d="M809 1352h-92q-157 0 -222 -17t-112 -57q-44 -38 -62 -102.5t-18 -221.5v-422q0 -156 18 -219.5t62 -101.5q47 -40 112 -57t222 -17h92q157 0 223 17t113 57q43 37 60.5 99t17.5 222v424q0 157 -18 221.5t-62 102.5q-46 39 -111 55.5t-223 16.5zM133 997q0 285 118 397.5
t419 112.5h188q304 0 420.5 -111t116.5 -399v-505q0 -286 -118.5 -398t-418.5 -112h-188q-301 0 -419 112t-118 398v505zM488 1618l200 348h152l200 -348h-92l-184 262l-184 -262h-92z" />
    <glyph glyph-name="apple" unicode="&#xf000;" horiz-adv-x="1618" 
d="M836 1216q-1 6 -1.5 14t-0.5 23q0 124 95 229.5t236 131.5q1 -10 1.5 -23t0.5 -39q0 -131 -103.5 -234.5t-203.5 -103.5h-8q-3 0 -7.5 1t-8.5 1zM1505 403q-114 -247 -205 -342.5t-204 -95.5q-50 0 -131.5 33t-122.5 33q-45 0 -131 -33t-127 -33q-64 0 -128.5 44
t-129.5 132q-102 140 -157.5 295.5t-55.5 300.5q0 219 125 356.5t323 137.5q68 0 155 -34t124 -34q34 0 121.5 34t152.5 34q111 0 199 -39.5t160 -122.5q-102 -65 -151.5 -145.5t-49.5 -182.5q0 -113 60 -200t173 -138z" />
    <glyph glyph-name="Ograve" unicode="&#xd2;" horiz-adv-x="1526" 
d="M809 1352h-92q-157 0 -222 -17t-112 -57q-44 -38 -62 -102.5t-18 -221.5v-422q0 -156 18 -219.5t62 -101.5q47 -40 112 -57t222 -17h92q157 0 223 17t113 57q43 37 60.5 99t17.5 222v424q0 157 -18 221.5t-62 102.5q-46 39 -111 55.5t-223 16.5zM133 997q0 285 118 397.5
t419 112.5h188q304 0 420.5 -111t116.5 -399v-505q0 -286 -118.5 -398t-418.5 -112h-188q-301 0 -419 112t-118 398v505zM797 1618l-269 348h152l209 -348h-92z" />
    <glyph glyph-name="Uacute" unicode="&#xda;" horiz-adv-x="1532" 
d="M166 1489h166v-977q0 -144 15.5 -201t53.5 -92q40 -36 95.5 -50.5t191.5 -14.5h156q137 0 193 14.5t96 50.5q37 34 52 91t15 202v977h166v-997q0 -285 -112.5 -397.5t-397.5 -112.5h-180q-285 0 -397.5 112.5t-112.5 397.5v997zM733 1618h-92l209 348h152z" />
    <glyph glyph-name="Ucircumflex" unicode="&#xdb;" horiz-adv-x="1532" 
d="M166 1489h166v-977q0 -144 15.5 -201t53.5 -92q40 -36 95.5 -50.5t191.5 -14.5h156q137 0 193 14.5t96 50.5q37 34 52 91t15 202v977h166v-997q0 -285 -112.5 -397.5t-397.5 -112.5h-180q-285 0 -397.5 112.5t-112.5 397.5v997zM490 1618l200 348h152l200 -348h-92
l-184 262l-184 -262h-92z" />
    <glyph glyph-name="Ugrave" unicode="&#xd9;" horiz-adv-x="1532" 
d="M166 1489h166v-977q0 -144 15.5 -201t53.5 -92q40 -36 95.5 -50.5t191.5 -14.5h156q137 0 193 14.5t96 50.5q37 34 52 91t15 202v977h166v-997q0 -285 -112.5 -397.5t-397.5 -112.5h-180q-285 0 -397.5 112.5t-112.5 397.5v997zM799 1618l-269 348h152l209 -348h-92z" />
    <glyph glyph-name="dotlessi" unicode="&#x131;" horiz-adv-x="479" 
d="M162 0v1053h155v-1053h-155z" />
    <glyph glyph-name="circumflex" unicode="&#x2c6;" horiz-adv-x="1024" 
d="M236 1178l200 348h152l200 -348h-92l-184 262l-184 -262h-92z" />
    <glyph glyph-name="tilde" unicode="&#x2dc;" horiz-adv-x="1024" 
d="M801 1440q-26 -90 -74 -135t-117 -45q-14 0 -30.5 2.5t-35.5 7.5l-95 28q-18 6 -30 8.5t-24 2.5q-28 0 -52 -19t-40 -53h-80q22 87 72 133.5t123 46.5q16 0 29 -2t24 -6l97 -31q12 -4 27 -7t28 -3q34 0 57.5 17.5t38.5 54.5h82z" />
    <glyph glyph-name="macron" unicode="&#xaf;" horiz-adv-x="1024" 
d="M256 1278v117h512v-117h-512z" />
    <glyph glyph-name="breve" unicode="&#x2d8;" horiz-adv-x="1024" 
d="M238 1483h79q6 -76 53 -111t142 -35t140.5 35t52.5 111h81q-9 -137 -74.5 -199.5t-199.5 -62.5q-132 0 -198.5 63.5t-75.5 198.5z" />
    <glyph glyph-name="dotaccent" unicode="&#x2d9;" horiz-adv-x="1024" 
d="M436 1249v174h152v-174h-152z" />
    <glyph glyph-name="ring" unicode="&#x2da;" horiz-adv-x="1024" 
d="M362 1364q0 -63 43.5 -106.5t106.5 -43.5q62 0 106 44t44 106q0 63 -43.5 106t-106.5 43t-106.5 -43t-43.5 -106zM272 1364q0 102 69.5 172t170.5 70t171.5 -70.5t70.5 -171.5t-70 -170.5t-172 -69.5q-101 0 -170.5 69.5t-69.5 170.5z" />
    <glyph glyph-name="cedilla" unicode="&#xb8;" horiz-adv-x="1024" 
d="M522 0v-115h64q95 0 123 -27t28 -137q0 -121 -26.5 -150.5t-122.5 -29.5h-264v88h213q53 0 65 14t12 83q0 61 -10.5 75.5t-68.5 14.5h-78v184h65z" />
    <glyph glyph-name="hungarumlaut" unicode="&#x2dd;" horiz-adv-x="1024" 
d="M571 1178l168 348h133l-227 -348h-74zM336 1178l149 348h133l-208 -348h-74z" />
    <glyph glyph-name="ogonek" unicode="&#x2db;" horiz-adv-x="1024" 
d="M588 0l-107 -180q-16 -29 -22 -45.5t-6 -30.5q0 -21 9 -30t30 -9h104v-108h-160q-63 0 -86.5 19t-23.5 69q0 26 11 55t34 59l149 201h68z" />
    <glyph glyph-name="caron" unicode="&#x2c7;" horiz-adv-x="1024" 
d="M236 1526h92l184 -262l184 262h92l-200 -348h-152z" />
    <glyph glyph-name="Lslash" unicode="&#x141;" horiz-adv-x="1223" 
d="M180 0v643l-160 -111v170l160 113v674h162v-586l356 248v-168l-356 -250v-577h844v-156h-1006z" />
    <glyph glyph-name="lslash" unicode="&#x142;" horiz-adv-x="541" 
d="M217 0v778l-180 -127v160l180 127v551h156v-465l180 127v-160l-180 -127v-864h-156z" />
    <glyph glyph-name="Scaron" unicode="&#x160;" horiz-adv-x="1460" 
d="M139 485h166v-28q0 -133 20 -196t66 -89q36 -20 111 -28.5t309 -8.5q127 0 197 16.5t104 53.5q19 20 28 68t9 130q0 166 -33.5 208.5t-132.5 50.5l-459 36q-206 16 -285 103t-79 293q0 130 26 209t84 131q45 40 126 56.5t286 16.5h53q229 0 322.5 -22t156.5 -76
q43 -36 63.5 -102.5t20.5 -165.5q0 -29 -0.5 -44.5t-1.5 -27.5h-166v37q0 82 -9.5 125.5t-30.5 64.5q-31 31 -110.5 43.5t-301.5 12.5q-230 0 -289 -52t-59 -208q0 -128 38.5 -176.5t148.5 -57.5l468 -39q184 -16 258 -101.5t74 -285.5q0 -146 -19 -219.5t-63 -122.5
q-54 -61 -145.5 -85.5t-333.5 -24.5h-74q-206 0 -291.5 21t-142.5 73q-56 48 -82.5 130t-26.5 208v73zM455 1966h92l184 -262l184 262h92l-200 -348h-152z" />
    <glyph glyph-name="scaron" unicode="&#x161;" horiz-adv-x="1194" 
d="M123 313h158v-24q0 -97 60 -133.5t241 -36.5q203 0 250 37t47 143q0 103 -38.5 137.5t-192.5 42.5q-57 3 -154 6q-212 6 -252 29q-60 33 -85.5 90t-25.5 164q0 175 89 237t392 62q235 0 318.5 -59t83.5 -207h-156v10q0 70 -60.5 96.5t-240.5 26.5q-174 0 -222 -32
t-48 -134q0 -62 9 -87t32 -38q47 -25 208 -29q41 -1 63 -2q132 -5 207 -13.5t107 -23.5q70 -32 99.5 -92t29.5 -174q0 -116 -29 -176t-104 -106q-34 -22 -111 -31.5t-214 -9.5q-280 0 -370.5 64.5t-90.5 234.5v28zM322 1526h92l184 -262l184 262h92l-200 -348h-152z" />
    <glyph glyph-name="Zcaron" unicode="&#x17d;" horiz-adv-x="1331" 
d="M96 0v178l957 1163h-914v148h1088v-174l-951 -1159h951v-156h-1131zM390 1966h92l184 -262l184 262h92l-200 -348h-152z" />
    <glyph glyph-name="zcaron" unicode="&#x17e;" horiz-adv-x="1057" 
d="M119 0v170l651 739h-620v144h811v-146l-674 -766h674v-141h-842zM252 1526h92l184 -262l184 262h92l-200 -348h-152z" />
    <glyph glyph-name="brokenbar" unicode="&#xa6;" horiz-adv-x="1024" 
d="M567 408v-758h-108v758h108zM567 1432v-758h-108v758h108z" />
    <glyph glyph-name="Eth" unicode="&#xd0;" horiz-adv-x="1583" 
d="M391 147h531q213 0 285.5 72.5t72.5 278.5v481q0 217 -72 289.5t-286 72.5h-531v-489h447v-143h-447v-562zM227 0v709h-227v143h227v637h719q280 0 393 -111t113 -387v-491q0 -277 -113 -388.5t-393 -111.5h-719z" />
    <glyph glyph-name="eth" unicode="&#xf0;" 
d="M614 924h-73q-161 0 -210.5 -54t-49.5 -254v-180q0 -201 50 -255t210 -54h73q162 0 212.5 54.5t50.5 254.5v180q0 135 -75 221.5t-188 86.5zM688 1280l-332 -106l-43 114l289 94l-78 107h166l51 -66l205 68l45 -113l-164 -55q109 -158 160 -322t51 -350v-250
q0 -232 -93.5 -323.5t-328.5 -91.5h-73q-236 0 -330 92t-94 323v250q0 232 93.5 324t328.5 92h59q79 0 142 -33t118 -104q-26 88 -68.5 175.5t-103.5 174.5z" />
    <glyph glyph-name="Yacute" unicode="&#xdd;" horiz-adv-x="1219" 
d="M690 0h-162v659l-616 830h194l502 -694l502 694h195l-615 -827v-662zM577 1618h-92l209 348h152z" />
    <glyph glyph-name="yacute" unicode="&#xfd;" horiz-adv-x="999" 
d="M47 1053h156l313 -906l311 906h154l-397 -1145q-65 -186 -132.5 -252t-181.5 -66q-17 0 -37.5 1.5t-44.5 5.5l1 137q7 -1 17.5 -1.5t29.5 -0.5q72 0 111.5 32.5t74.5 126.5l39 109h-47zM467 1178h-92l209 348h152z" />
    <glyph glyph-name="Thorn" unicode="&#xde;" horiz-adv-x="1341" 
d="M344 1042v-596h461q166 0 218 41.5t52 147.5v219q0 109 -50.5 148.5t-219.5 39.5h-461zM180 1489h164v-289h463q251 0 345.5 -74.5t94.5 -265.5v-227q0 -195 -93 -269.5t-347 -74.5h-463v-289h-164v1489z" />
    <glyph glyph-name="thorn" unicode="&#xfe;" horiz-adv-x="1176" 
d="M319 612v-172q0 -164 76.5 -238.5t245.5 -74.5q153 0 203.5 55t50.5 254v180q0 201 -51.5 255.5t-218.5 54.5q-156 0 -231 -76.5t-75 -237.5zM313 1489v-600q37 91 118.5 134.5t215.5 43.5q225 0 317.5 -93t92.5 -323v-250q0 -229 -92.5 -322t-317.5 -93
q-131 0 -208 38.5t-120 125.5v-553h-155v1892h149z" />
    <glyph glyph-name="minus" unicode="&#x2212;" horiz-adv-x="1706" 
d="M1452 659v-98h-1198v98h1198z" />
    <glyph glyph-name="multiply" unicode="&#xd7;" horiz-adv-x="1706" 
d="M856 680l481 481l70 -69l-481 -482l481 -481l-70 -70l-481 482l-481 -482l-70 70l481 481l-481 482l70 69z" />
    <glyph glyph-name="onesuperior" unicode="&#xb9;" horiz-adv-x="913" 
d="M483 596v805l-231 -211l-68 59l265 240h141v-893h-107z" />
    <glyph glyph-name="twosuperior" unicode="&#xb2;" horiz-adv-x="913" 
d="M98 596v152q0 69 12 109.5t40 70.5q25 28 65 47t129 41l223 55q53 14 85 29.5t44 32.5q9 11 13 32.5t4 83.5q0 67 -9.5 92.5t-32.5 41.5q-19 13 -78.5 19.5t-162.5 6.5q-141 0 -180 -28.5t-39 -120.5v-54h-113v60q0 132 70.5 183.5t267.5 51.5q113 0 171 -5t87 -17
q73 -29 100 -76t27 -162q0 -126 -41 -176.5t-155 -79.5l-275 -70q-88 -23 -113.5 -49t-25.5 -78v-98h610v-94h-723z" />
    <glyph glyph-name="threesuperior" unicode="&#xb3;" horiz-adv-x="913" 
d="M96 893h109v-80q0 -79 45.5 -107t214.5 -28q119 0 164 10.5t65 36.5q10 14 14.5 43.5t4.5 99.5q0 83 -37.5 110.5t-134.5 27.5h-150v90h135q98 0 133 30.5t35 128.5q0 68 -7 91t-25 36t-69 19t-149 6q-141 0 -181 -24t-40 -93v-82h-110v80q0 115 74.5 164t254.5 49
q115 0 172.5 -6t90.5 -20q56 -25 79 -71.5t23 -141.5q0 -106 -30 -149t-107 -58q85 -15 119 -57.5t34 -139.5q0 -59 -6 -99t-20 -71q-26 -57 -93.5 -79.5t-236.5 -22.5q-154 0 -209 11.5t-90 39.5q-37 31 -54.5 75.5t-17.5 108.5v72z" />
    <glyph glyph-name="onequarter" unicode="&#xbc;" horiz-adv-x="2087" 
d="M1386 283h398v458zM1286 195v106l459 533h143v-551h144v-88h-144v-195h-104v195h-498zM530 -18l869 1525h155l-866 -1525h-158zM461 655v752l-221 -199l-64 58l252 223h135v-834h-102z" />
    <glyph glyph-name="onehalf" unicode="&#xbd;" horiz-adv-x="2087" 
d="M1309 0v141q0 65 11.5 103t37.5 65q23 26 59 43.5t127 40.5l211 51q51 13 82 27t41 29q10 11 14 31t4 79q0 58 -9 83t-32 40q-17 13 -71.5 19t-159.5 6q-135 0 -172 -27t-37 -113v-49h-106v56q0 124 66.5 171.5t254.5 47.5q106 0 162.5 -5t85.5 -16q69 -28 95 -71.5
t26 -149.5q0 -118 -39.5 -164.5t-149.5 -72.5l-262 -66q-86 -24 -109.5 -48.5t-23.5 -72.5v-90h584v-88h-690zM530 -18l869 1525h155l-866 -1525h-158zM461 655v752l-221 -199l-64 58l252 223h135v-834h-102z" />
    <glyph glyph-name="threequarters" unicode="&#xbe;" horiz-adv-x="2087" 
d="M1386 283h398v458zM1286 195v106l459 533h143v-551h144v-88h-144v-195h-104v195h-498zM530 -18l869 1525h155l-866 -1525h-158zM92 932h105v-74q0 -74 43.5 -100.5t203.5 -26.5q113 0 157 10t63 35q9 14 12.5 41.5t3.5 91.5q0 78 -35.5 102.5t-128.5 24.5h-143v86h131
q93 0 126.5 29t33.5 121q0 62 -7.5 83t-26.5 34q-15 12 -64 18t-142 6q-134 0 -172.5 -23t-38.5 -87v-76h-104v73q0 108 70.5 153.5t242.5 45.5q108 0 163.5 -5.5t85.5 -18.5q55 -22 77 -64t22 -133q0 -100 -28.5 -139.5t-102.5 -55.5q82 -14 114.5 -54t32.5 -130
q0 -54 -5.5 -91.5t-18.5 -66.5q-26 -53 -90.5 -74.5t-225.5 -21.5q-147 0 -199.5 11t-86.5 38q-35 29 -51.5 70.5t-16.5 101.5v66z" />
    <glyph glyph-name="franc" unicode="&#x20a3;" horiz-adv-x="2173" 
d="M180 0v1489h930v-158h-766v-487h743v-152h-743v-692h-164zM1374 0v1053h151v-144q33 82 103 120t186 38q172 0 241.5 -83t69.5 -294v-8h-157v31q0 126 -40 169.5t-151 43.5q-130 0 -188 -73.5t-58 -240.5v-612h-157z" />
    <glyph glyph-name="Gbreve" unicode="&#x11e;" horiz-adv-x="1503" 
d="M123 997q0 285 118 397.5t418 112.5h189q275 0 405.5 -93.5t130.5 -291.5v-63h-170v18q0 154 -78 214.5t-298 60.5h-131q-153 0 -220 -17t-114 -57q-43 -37 -60.5 -99t-17.5 -223v-424q0 -160 17.5 -222t60.5 -99q47 -40 112 -57t222 -17h131q142 0 201 15t102 51
q40 34 56.5 93t16.5 202v92h-413v151h583v-249q0 -286 -118 -398t-418 -112h-189q-300 0 -418 112t-118 398v505zM478 1923h79q6 -76 53 -111t142 -35t140.5 35t52.5 111h81q-9 -137 -74.5 -199.5t-199.5 -62.5q-132 0 -198.5 63.5t-75.5 198.5z" />
    <glyph glyph-name="gbreve" unicode="&#x11f;" horiz-adv-x="1204" 
d="M887 440v172q0 165 -76.5 239.5t-245.5 74.5q-153 0 -204.5 -55.5t-51.5 -254.5v-180q0 -198 51.5 -253.5t204.5 -55.5q169 0 245.5 74.5t76.5 238.5zM1042 1053v-1041q0 -232 -91 -323.5t-320 -91.5h-72q-206 0 -301 75t-108 248h159q10 -101 62.5 -140.5t189.5 -39.5
h70q138 0 197 45t59 147v218q-44 -87 -120.5 -125.5t-207.5 -38.5q-225 0 -317 93t-92 322v250q0 230 92 323t317 93q135 0 215.5 -43t118.5 -135v164h149zM328 1483h79q6 -76 53 -111t142 -35t140.5 35t52.5 111h81q-9 -137 -74.5 -199.5t-199.5 -62.5q-132 0 -198.5 63.5
t-75.5 198.5z" />
    <glyph glyph-name="Idotaccent" unicode="&#x130;" horiz-adv-x="526" 
d="M180 0v1489h166v-1489h-166zM188 1689v174h152v-174h-152z" />
    <glyph glyph-name="Scedilla" unicode="&#x15e;" horiz-adv-x="1460" 
d="M139 485h166v-28q0 -133 20 -196t66 -89q36 -20 111 -28.5t309 -8.5q127 0 197 16.5t104 53.5q19 20 28 68t9 130q0 166 -33.5 208.5t-132.5 50.5l-459 36q-206 16 -285 103t-79 293q0 130 26 209t84 131q45 40 126 56.5t286 16.5h53q229 0 322.5 -22t156.5 -76
q43 -36 63.5 -102.5t20.5 -165.5q0 -29 -0.5 -44.5t-1.5 -27.5h-166v37q0 82 -9.5 125.5t-30.5 64.5q-31 31 -110.5 43.5t-301.5 12.5q-230 0 -289 -52t-59 -208q0 -128 38.5 -176.5t148.5 -57.5l468 -39q184 -16 258 -101.5t74 -285.5q0 -146 -19 -219.5t-63 -122.5
q-54 -61 -145.5 -85.5t-333.5 -24.5h-74q-206 0 -291.5 21t-142.5 73q-56 48 -82.5 130t-26.5 208v73zM741 0v-115h64q95 0 123 -27t28 -137q0 -121 -26.5 -150.5t-122.5 -29.5h-264v88h213q53 0 65 14t12 83q0 61 -10.5 75.5t-68.5 14.5h-78v184h65z" />
    <glyph glyph-name="scedilla" unicode="&#x15f;" horiz-adv-x="1194" 
d="M123 313h158v-24q0 -97 60 -133.5t241 -36.5q203 0 250 37t47 143q0 103 -38.5 137.5t-192.5 42.5q-57 3 -154 6q-212 6 -252 29q-60 33 -85.5 90t-25.5 164q0 175 89 237t392 62q235 0 318.5 -59t83.5 -207h-156v10q0 70 -60.5 96.5t-240.5 26.5q-174 0 -222 -32
t-48 -134q0 -62 9 -87t32 -38q47 -25 208 -29q41 -1 63 -2q132 -5 207 -13.5t107 -23.5q70 -32 99.5 -92t29.5 -174q0 -116 -29 -176t-104 -106q-34 -22 -111 -31.5t-214 -9.5q-280 0 -370.5 64.5t-90.5 234.5v28zM608 0v-115h64q95 0 123 -27t28 -137q0 -121 -26.5 -150.5
t-122.5 -29.5h-264v88h213q53 0 65 14t12 83q0 61 -10.5 75.5t-68.5 14.5h-78v184h65z" />
    <glyph glyph-name="Cacute" unicode="&#x106;" horiz-adv-x="1399" 
d="M133 997q0 286 109.5 398t386.5 112h174q275 0 386 -96.5t111 -327.5v-65h-170v41q0 169 -69 231t-270 62h-115q-135 0 -196.5 -16.5t-102.5 -55.5q-41 -38 -57.5 -99.5t-16.5 -224.5v-424q0 -162 16.5 -223.5t57.5 -99.5q41 -39 99.5 -55.5t199.5 -16.5h115
q206 0 274 65t68 249q0 28 -0.5 43t-1.5 28h169v-98q0 -248 -107.5 -345t-389.5 -97h-174q-277 0 -386.5 112t-109.5 398v505zM694 1618h-92l209 348h152z" />
    <glyph glyph-name="cacute" unicode="&#x107;" 
d="M543 -14q-236 0 -330 92t-94 323v250q0 232 93.5 324t328.5 92h73q223 0 321.5 -85.5t102.5 -280.5l-161 -1q-5 128 -58 176t-205 48h-73q-161 0 -210.5 -54t-49.5 -254v-180q0 -201 50 -255t210 -54h73q154 0 208.5 52.5t54.5 191.5v18h161v-20q0 -206 -97.5 -294.5
t-324.5 -88.5h-73zM547 1178h-92l209 348h152z" />
    <glyph glyph-name="Ccaron" unicode="&#x10c;" horiz-adv-x="1399" 
d="M133 997q0 286 109.5 398t386.5 112h174q275 0 386 -96.5t111 -327.5v-65h-170v41q0 169 -69 231t-270 62h-115q-135 0 -196.5 -16.5t-102.5 -55.5q-41 -38 -57.5 -99.5t-16.5 -224.5v-424q0 -162 16.5 -223.5t57.5 -99.5q41 -39 99.5 -55.5t199.5 -16.5h115
q206 0 274 65t68 249q0 28 -0.5 43t-1.5 28h169v-98q0 -248 -107.5 -345t-389.5 -97h-174q-277 0 -386.5 112t-109.5 398v505zM451 1966h92l184 -262l184 262h92l-200 -348h-152z" />
    <glyph glyph-name="ccaron" unicode="&#x10d;" 
d="M543 -14q-236 0 -330 92t-94 323v250q0 232 93.5 324t328.5 92h73q223 0 321.5 -85.5t102.5 -280.5l-161 -1q-5 128 -58 176t-205 48h-73q-161 0 -210.5 -54t-49.5 -254v-180q0 -201 50 -255t210 -54h73q154 0 208.5 52.5t54.5 191.5v18h161v-20q0 -206 -97.5 -294.5
t-324.5 -88.5h-73zM304 1526h92l184 -262l184 262h92l-200 -348h-152z" />
    <glyph glyph-name="dcroat" unicode="&#x111;" horiz-adv-x="1176" 
d="M862 162q-37 -91 -117 -133.5t-215 -42.5q-226 0 -318.5 92.5t-92.5 322.5v250q0 231 92.5 323.5t318.5 92.5q132 0 207 -38t119 -126v367h-381v133h381v86h156v-86h164v-133h-164v-1270h-150v162zM856 440v172q0 165 -76.5 239.5t-244.5 74.5q-152 0 -203 -54t-51 -256
v-180q0 -201 51 -255t203 -54q168 0 244.5 74.5t76.5 238.5z" />
    <glyph glyph-name="sfthyphen" unicode="&#xad;" horiz-adv-x="825" 
d="M133 485v140h559v-140h-559z" />
    <glyph glyph-name="periodcentered" unicode="&#x2219;" horiz-adv-x="692" 
d="M227 795q0 49 35 83.5t84 34.5t84 -34.5t35 -83.5t-34.5 -83t-84.5 -34q-49 0 -84 34t-35 83z" />
    <glyph glyph-name="Euro" horiz-adv-x="1384" 
d="M1251 471q0 -259 -107.5 -374t-336.5 -115h-90q-277 0 -386.5 112t-109.5 398v43h-182l41 122h141v181h-182l41 123h141v36q0 286 109.5 398t386.5 112h90q222 0 333 -109.5t111 -328.5h-170q0 157 -68 221t-233 64h-104q-163 0 -224 -69t-61 -265v-59h670l-41 -123h-629
v-181h572l-41 -122h-531v-76q0 -185 60.5 -254.5t224.5 -69.5h104q166 0 233.5 64t67.5 272h170z" />
    <glyph glyph-name="Euro" unicode="&#x20ac;" horiz-adv-x="1384" 
d="M1251 471q0 -259 -107.5 -374t-336.5 -115h-90q-277 0 -386.5 112t-109.5 398v43h-182l41 122h141v181h-182l41 123h141v36q0 286 109.5 398t386.5 112h90q222 0 333 -109.5t111 -328.5h-170q0 157 -68 221t-233 64h-104q-163 0 -224 -69t-61 -265v-59h670l-41 -123h-629
v-181h572l-41 -122h-531v-76q0 -185 60.5 -254.5t224.5 -69.5h104q166 0 233.5 64t67.5 272h170z" />
    </font>
</defs>
</svg>
