<?xml version="1.0" standalone="no"?>
<!DOCTYPE svg PUBLIC "-//W3C//DTD SVG 1.1//EN" "http://www.w3.org/Graphics/SVG/1.1/DTD/svg11.dtd" >
<svg xmlns="http://www.w3.org/2000/svg" xmlns:xlink="http://www.w3.org/1999/xlink" version="1.1">
<metadata>
Created by FontForge 20190801 at Mon May 18 00:46:30 2009
 By Jimmy Wärting
1998 Evert Bloemsma, published by FontShop International for the FontFont library. Cyrillic version - DA Regina | PDF-X by gtwsk.
</metadata>
<defs>
<font id="Cocon-Light" horiz-adv-x="570" >
  <font-face 
    font-family="Cocon"
    font-weight="300"
    font-stretch="normal"
    units-per-em="1000"
    panose-1="0 0 0 0 0 0 0 0 0 0"
    ascent="800"
    descent="-200"
    x-height="535"
    cap-height="683"
    bbox="-47 -285 1338 922"
    underline-thickness="20"
    underline-position="-176"
    stemh="84"
    stemv="92"
    unicode-range="U+0020-FB02"
  />
<missing-glyph horiz-adv-x="220" 
 />
    <glyph glyph-name=".notdef" horiz-adv-x="220" 
 />
    <glyph glyph-name="space" unicode=" " horiz-adv-x="220" 
 />
    <glyph glyph-name="exclam" unicode="!" horiz-adv-x="314" 
d="M189 220h-20c-35 0 -55 21 -57 67l-13 394h43c35 0 60 -21 60 -63v-3zM225 70c0 -41 -31 -70 -71 -70s-72 29 -72 70s32 71 72 71s71 -30 71 -71z" />
    <glyph glyph-name="quotedbl" unicode="&#x22;" horiz-adv-x="415" 
d="M330 438h-12c-33 0 -53 22 -57 78l-12 164h38c35 0 57 -23 57 -64v-10zM145 438h-12c-34 0 -53 22 -57 78l-12 164h38c34 0 57 -23 57 -64v-10z" />
    <glyph glyph-name="numbersign" unicode="#" 
d="M479 426h-44l-31 -174h83v-13c0 -30 -16 -49 -51 -49h-44l-35 -190h-23c-23 0 -36 8 -36 36c0 7 1 16 3 26l24 128h-138l-34 -190h-24c-22 0 -35 8 -35 36c0 7 1 17 3 27l23 127h-89v14c0 30 15 48 50 48h51l31 174h-88v13c0 30 15 48 50 48h48l35 193h15
c28 0 43 -12 43 -40c0 -6 -1 -12 -2 -20l-24 -133h138l34 193h15c28 0 44 -13 44 -43c0 -6 -1 -13 -2 -20l-23 -130h85v-13c0 -30 -17 -48 -52 -48zM229 426l-30 -174h138l31 174h-139z" />
    <glyph glyph-name="dollar" unicode="$" 
d="M509 197c-1 -100 -70 -179 -199 -195v-123h-20c-29 0 -37 10 -37 37v83c-106 2 -188 64 -188 134v41h6c41 -58 111 -95 195 -95c110 0 154 35 154 108c0 70 -19 93 -195 134c-98 22 -169 63 -169 162s72 178 197 195v131h16c22 0 41 -8 41 -36v-92
c154 -2 182 -93 182 -126v-32h-8c-41 53 -91 78 -184 78c-76 0 -154 -24 -154 -104c0 -70 36 -85 190 -123c92 -23 173 -70 173 -177z" />
    <glyph glyph-name="percent" unicode="%" horiz-adv-x="1003" 
d="M217 255c-98 0 -159 95 -159 210c0 131 61 225 168 225c98 0 159 -94 159 -209c0 -131 -61 -226 -168 -226zM375 0h-28c-21 0 -33 8 -33 27c0 11 4 25 12 43l277 610h26c14 0 31 -17 31 -42c0 -8 -2 -16 -6 -25zM772 -10c-98 0 -159 95 -159 210c0 131 61 225 168 225
c98 0 159 -94 159 -209c0 -131 -61 -226 -168 -226zM218 614c-59 0 -79 -66 -79 -134c0 -82 21 -148 86 -148c59 0 79 66 79 133c0 83 -21 149 -86 149zM773 349c-59 0 -79 -66 -79 -134c0 -82 21 -148 86 -148c59 0 79 66 79 133c0 83 -21 149 -86 149z" />
    <glyph glyph-name="ampersand" unicode="&#x26;" horiz-adv-x="678" 
d="M599 -9c-38 0 -70 15 -101 47l-38 39c-42 -42 -88 -87 -195 -87c-144 0 -209 81 -209 189c0 76 45 145 135 199c-50 56 -72 97 -72 145c0 84 59 167 185 167c95 0 163 -57 163 -147c0 -68 -43 -118 -157 -184c47 -60 111 -129 151 -169c51 59 75 128 78 184h24
c19 0 42 -20 42 -56c0 -52 -37 -121 -89 -183c65 -65 92 -91 138 -98c-15 -41 -26 -46 -55 -46zM298 612c-56 0 -90 -30 -90 -88c0 -45 34 -74 59 -108c71 38 115 70 115 116c0 53 -34 80 -84 80zM236 320c-53 -33 -91 -75 -91 -124c0 -87 49 -126 135 -126
c51 0 88 22 129 63c-61 61 -119 125 -173 187z" />
    <glyph glyph-name="quoteright" unicode="&#x2019;" horiz-adv-x="276" 
d="M80 442v6c31 32 49 68 49 99c0 22 -12 46 -30 59c-12 8 -25 32 -25 51c0 35 24 63 70 63c38 0 74 -34 74 -112c0 -94 -52 -162 -138 -166z" />
    <glyph glyph-name="parenleft" unicode="(" horiz-adv-x="354" 
d="M298 -169c-21 0 -48 11 -76 29c-77 49 -168 219 -168 408c0 187 68 344 164 418c24 19 59 34 84 34h35c-113 -115 -183 -240 -183 -431c0 -202 65 -344 177 -458h-33z" />
    <glyph glyph-name="parenright" unicode=")" horiz-adv-x="354" 
d="M57 719c21 0 48 -11 76 -29c77 -49 168 -219 168 -408c0 -187 -68 -344 -164 -418c-24 -19 -59 -34 -84 -34h-35c113 115 183 240 183 431c0 202 -65 344 -177 458h33z" />
    <glyph glyph-name="asterisk" unicode="*" horiz-adv-x="515" 
d="M398 491c-39 0 -82 -4 -100 -9c13 -14 22 -25 32 -41c33 -54 55 -73 92 -83c-14 -29 -28 -50 -56 -50c-19 0 -39 6 -53 27c-11 17 -27 53 -31 70c-3 12 -13 33 -24 55c-54 -67 -70 -114 -70 -160c-51 3 -78 24 -78 60c0 35 19 57 43 75c26 19 46 35 64 53
c-51 21 -81 26 -120 26c-18 0 -36 -4 -54 -10c3 46 24 92 70 92c30 0 53 -11 76 -30c12 -10 34 -24 50 -33c2 19 4 31 4 42c0 43 -4 99 -34 136c17 5 28 9 41 9c42 0 73 -19 73 -61c0 -17 -4 -39 -12 -58c-7 -17 -15 -42 -21 -70c57 2 123 49 151 91c16 -24 31 -48 31 -74
c0 -40 -34 -57 -74 -57z" />
    <glyph glyph-name="plus" unicode="+" 
d="M464 250h-148v-229h-26c-19 0 -44 19 -44 65v164h-211v37c0 17 15 39 43 39h168v206h34c16 0 36 -15 36 -46v-160h207v-28c0 -20 -17 -48 -59 -48z" />
    <glyph glyph-name="comma" unicode="," horiz-adv-x="288" 
d="M83 -156v6c31 32 49 68 49 99c0 22 -12 46 -30 59c-12 8 -25 32 -25 51c0 35 24 63 70 63c38 0 74 -34 74 -112c0 -94 -52 -162 -138 -166z" />
    <glyph glyph-name="hyphen" unicode="-" horiz-adv-x="353" 
d="M300 325c0 -31 -21 -57 -51 -57h-195v30c0 29 24 54 56 54h190v-27z" />
    <glyph glyph-name="period" unicode="." horiz-adv-x="288" 
d="M215 70c0 -41 -31 -70 -71 -70s-72 29 -72 70s32 71 72 71s71 -30 71 -71z" />
    <glyph glyph-name="slash" unicode="/" horiz-adv-x="483" 
d="M125 -10h-31c-9 0 -31 11 -31 37c0 11 3 25 10 41l293 651h30c19 0 35 -17 35 -34c0 -7 -1 -15 -5 -23z" />
    <glyph glyph-name="zero" unicode="0" 
d="M526 354c0 -251 -93 -365 -247 -365c-132 0 -236 123 -236 339c0 231 80 362 247 362c127 0 236 -98 236 -336zM436 326c0 216 -57 279 -157 279c-83 0 -143 -74 -143 -252c0 -206 71 -278 149 -278c79 0 151 63 151 251z" />
    <glyph glyph-name="one" unicode="1" horiz-adv-x="365" 
d="M265 0h-33c-34 0 -60 19 -60 68v517l-102 -48c-9 -4 -18 -6 -26 -6c-20 0 -35 11 -39 25l-10 34l104 53c42 21 76 37 113 37c27 0 53 -20 53 -47v-633z" />
    <glyph glyph-name="two" unicode="2" 
d="M512 52c0 -21 -14 -52 -59 -52h-345c-28 0 -45 18 -45 39c-1 49 15 75 112 161l143 127c64 57 85 98 85 149c0 81 -50 130 -146 130c-105 0 -154 -53 -183 -102h-6v42c0 71 69 144 208 144c125 0 219 -87 219 -198c0 -107 -43 -157 -132 -232l-138 -117
c-22 -19 -46 -43 -57 -59h344v-32z" />
    <glyph glyph-name="three" unicode="3" 
d="M499 202c0 -126 -74 -212 -246 -212c-108 0 -200 57 -200 134v41h6c47 -61 113 -91 201 -91c93 0 146 38 146 116s-60 119 -181 120c-33 0 -46 17 -46 44v26h50c129 5 170 39 170 113s-52 113 -157 113c-98 0 -157 -43 -184 -91h-6v39c0 55 72 136 206 136
c148 0 233 -79 233 -184c0 -96 -61 -140 -142 -156c84 -15 150 -77 150 -148z" />
    <glyph glyph-name="four" unicode="4" 
d="M548 216c0 -34 -21 -47 -50 -47h-59v-169h-33c-32 0 -59 18 -59 63v106h-241c-42 0 -69 24 -69 48c0 13 1 28 6 40c62 136 223 357 296 423h38c32 0 62 -19 62 -75v-359h109v-30zM347 246v346c-52 -61 -172 -238 -225 -346h225z" />
    <glyph glyph-name="five" unicode="5" 
d="M520 216c0 -141 -93 -226 -248 -226c-118 0 -191 60 -191 125v31h6c39 -46 100 -72 191 -72c94 0 150 39 150 133c0 92 -52 126 -171 126c-47 0 -120 -12 -168 -28v281c0 68 31 94 87 94h314v-30c0 -34 -20 -54 -60 -54h-258v-198c25 5 82 14 114 14
c151 0 234 -76 234 -196z" />
    <glyph glyph-name="six" unicode="6" 
d="M528 219c0 -135 -91 -229 -239 -229c-128 0 -236 100 -236 321s108 379 286 379c106 0 156 -55 156 -106v-29h-5c-34 32 -69 54 -152 54c-115 0 -194 -87 -194 -280c23 56 94 104 170 104c132 0 214 -88 214 -214zM437 207c0 105 -48 146 -140 146
c-96 0 -149 -68 -149 -119c0 -97 56 -164 149 -164c94 0 140 59 140 137z" />
    <glyph glyph-name="seven" unicode="7" 
d="M509 629c0 -26 -25 -91 -63 -165l-135 -263c-28 -55 -39 -118 -39 -161v-40h-37c-32 0 -54 17 -54 62c0 53 23 119 47 164l138 258c22 41 41 80 48 112h-362v29c0 31 16 55 57 55h341c44 0 59 -19 59 -51z" />
    <glyph glyph-name="eight" unicode="8" 
d="M530 196c0 -107 -73 -206 -240 -206c-154 0 -234 88 -234 193c0 67 41 136 132 162c-87 28 -123 76 -123 145c0 112 83 200 231 200c130 0 224 -74 224 -186c0 -88 -46 -131 -127 -152c87 -21 137 -99 137 -156zM429 495c0 67 -48 114 -139 114c-92 0 -134 -47 -134 -109
c0 -71 51 -114 141 -114c89 0 132 40 132 109zM438 188c0 66 -43 121 -149 121c-91 0 -141 -52 -141 -117c0 -72 57 -118 148 -118c100 0 142 51 142 114z" />
    <glyph glyph-name="nine" unicode="9" 
d="M518 367c0 -257 -75 -377 -251 -377c-112 0 -197 47 -197 138v31h5c36 -53 100 -87 193 -87c113 0 159 84 159 254c-30 -55 -88 -90 -158 -90c-148 0 -229 102 -229 216c0 136 106 238 239 238c142 0 239 -82 239 -323zM426 438c0 119 -52 170 -153 170
c-93 0 -142 -63 -142 -144c0 -103 55 -150 152 -150c94 0 143 63 143 124z" />
    <glyph glyph-name="colon" unicode=":" horiz-adv-x="288" 
d="M215 70c0 -41 -31 -70 -71 -70s-72 29 -72 70s32 71 72 71s71 -30 71 -71zM215 463c0 -41 -31 -70 -71 -70s-72 29 -72 70s32 71 72 71s71 -30 71 -71z" />
    <glyph glyph-name="semicolon" unicode=";" horiz-adv-x="288" 
d="M83 -156v6c31 32 49 68 49 99c0 22 -12 46 -30 59c-12 8 -25 32 -25 51c0 35 24 63 70 63c38 0 74 -34 74 -112c0 -94 -52 -162 -138 -166zM215 463c0 -41 -31 -70 -71 -70s-72 29 -72 70s32 71 72 71s71 -30 71 -71z" />
    <glyph glyph-name="less" unicode="&#x3c;" 
d="M423 435c-47 -20 -183 -86 -278 -141c100 -62 246 -141 335 -182v-18c0 -22 -16 -33 -50 -33c-11 0 -35 10 -45 15c-85 37 -239 125 -331 197v22c0 15 12 27 45 49c69 46 265 145 385 191v-29c0 -32 -14 -51 -61 -71z" />
    <glyph glyph-name="equal" unicode="=" 
d="M453 364h-367v36c0 22 14 39 43 39h367v-38c0 -20 -20 -37 -43 -37zM453 151h-367v36c0 22 14 39 43 39h367v-38c0 -20 -20 -37 -43 -37z" />
    <glyph glyph-name="greater" unicode="&#x3e;" 
d="M141 158c47 20 183 86 278 141c-100 62 -246 141 -335 182v18c0 22 16 33 50 33c11 0 35 -10 45 -15c85 -36 239 -125 331 -197v-22c0 -15 -12 -26 -45 -49c-69 -45 -265 -144 -385 -191v29c0 32 14 51 61 71z" />
    <glyph glyph-name="question" unicode="?" horiz-adv-x="472" 
d="M337 524c0 60 -50 91 -123 91c-100 0 -133 -49 -160 -85h-6v31c0 62 51 137 183 137c130 0 198 -75 198 -163c0 -59 -26 -102 -73 -144l-86 -77c-21 -19 -28 -40 -28 -79v-29h-34c-16 0 -42 23 -42 54c0 47 27 85 47 103l73 65c40 36 51 54 51 96zM285 70
c0 -41 -31 -70 -71 -70s-72 29 -72 70s32 71 72 71s71 -30 71 -71z" />
    <glyph glyph-name="at" unicode="@" horiz-adv-x="757" 
d="M529 159c-42 0 -68 20 -81 77c-24 -57 -65 -77 -122 -77c-52 0 -112 61 -112 152c0 125 85 225 202 225c60 0 121 -36 121 -89c0 -18 -4 -47 -11 -81c-7 -33 -12 -66 -12 -87c0 -34 11 -53 33 -54c44 -1 99 59 99 178c0 136 -84 237 -238 237s-289 -124 -289 -322
c0 -171 108 -268 255 -268c45 0 102 3 158 26v-24c0 -25 -13 -33 -45 -46c-24 -10 -66 -16 -131 -16c-164 0 -307 120 -307 320c0 209 146 390 369 390c175 0 298 -124 298 -293c0 -151 -82 -248 -187 -248zM401 458c-51 0 -96 -60 -96 -137c0 -62 25 -81 50 -81
c69 0 87 76 105 197c-12 12 -28 21 -59 21z" />
    <glyph glyph-name="A" unicode="A" horiz-adv-x="597" 
d="M582 0h-33c-39 0 -57 17 -63 48c-9 47 -24 99 -32 132h-318c-13 -50 -31 -124 -41 -180h-35c-29 0 -41 13 -41 44c0 94 135 508 240 636h30c38 0 63 -25 92 -76c60 -105 167 -384 201 -604zM431 253c-36 128 -78 238 -137 345c-64 -114 -102 -219 -137 -345h274z" />
    <glyph glyph-name="B" unicode="B" horiz-adv-x="610" 
d="M555 201c0 -127 -97 -206 -224 -206h-80c-126 0 -176 60 -176 152v510c39 13 117 28 165 28h90c137 0 212 -79 212 -178c0 -65 -24 -123 -121 -151c107 -29 134 -106 134 -155zM165 592v-202h139c95 0 148 27 148 108c0 75 -50 106 -142 106h-56c-23 0 -56 -4 -89 -12z
M310 314h-144v-163c0 -49 30 -74 90 -74h71c83 0 136 39 136 118c0 87 -43 119 -153 119z" />
    <glyph glyph-name="C" unicode="C" horiz-adv-x="591" 
d="M566 529h-7c-38 57 -106 76 -167 76c-147 0 -245 -103 -245 -248c0 -187 109 -282 249 -282c72 0 126 25 163 67h5v-28c0 -65 -67 -124 -186 -124c-178 0 -323 143 -323 352c0 179 122 348 336 348c112 0 175 -69 175 -126v-35z" />
    <glyph glyph-name="D" unicode="D" horiz-adv-x="670" 
d="M615 347c0 -211 -127 -352 -305 -352h-61c-115 0 -174 58 -174 145v525c38 10 108 20 152 20h85c164 0 303 -133 303 -338zM523 333c0 183 -89 270 -233 270h-39c-22 0 -59 -4 -84 -9v-429c0 -62 33 -88 96 -88h37c141 0 223 104 223 256z" />
    <glyph glyph-name="E" unicode="E" horiz-adv-x="560" 
d="M523 71c0 -47 -16 -76 -127 -76h-84c-170 0 -247 98 -247 283v123c0 58 11 135 23 184c16 66 41 95 86 95h355v-37c0 -24 -15 -47 -66 -47h-282c-14 -55 -24 -136 -24 -207h295v-29c0 -27 -18 -49 -59 -49h-236v-50c0 -137 51 -183 186 -183h52c51 0 96 10 128 19v-26z
" />
    <glyph glyph-name="F" unicode="F" horiz-adv-x="489" 
d="M484 641c0 -19 -15 -46 -55 -46h-256v-196h265v-30c0 -32 -23 -52 -58 -52h-207v-317h-35c-39 0 -58 16 -58 55v541c0 61 24 84 99 84h305v-39z" />
    <glyph glyph-name="G" unicode="G" horiz-adv-x="666" 
d="M422 690c113 0 183 -62 183 -123v-33h-5c-29 39 -91 72 -189 72c-129 0 -249 -83 -249 -258c0 -193 116 -274 255 -274c87 0 110 24 110 93v63c0 29 -2 57 -5 77h41c29 0 48 -22 48 -47v-116c0 -96 -62 -154 -211 -154c-176 0 -330 140 -330 347c0 200 124 353 352 353z
" />
    <glyph glyph-name="H" unicode="H" horiz-adv-x="686" 
d="M606 0h-31c-28 0 -60 21 -60 67v246h-343v-313h-34c-27 0 -58 20 -58 67v613h49c21 0 43 -16 43 -46v-237h343v283h44c24 0 47 -19 47 -46v-634z" />
    <glyph glyph-name="I" unicode="I" horiz-adv-x="263" 
d="M178 0h-33c-35 0 -60 20 -60 67v613h44c24 0 49 -19 49 -46v-634z" />
    <glyph glyph-name="J" unicode="J" horiz-adv-x="393" 
d="M318 200c0 -132 -70 -210 -197 -210c-64 0 -116 35 -116 86v37h5c17 -19 62 -37 108 -37c76 0 109 38 109 120v484h32c40 0 59 -24 59 -60v-420z" />
    <glyph glyph-name="K" unicode="K" horiz-adv-x="573" 
d="M171 0h-34c-31 0 -57 24 -57 64v616h27c42 0 64 -24 64 -63v-258c73 98 141 196 224 285c21 23 46 36 103 36h45v-5c-80 -70 -192 -215 -271 -316c38 -52 150 -191 197 -243c35 -38 56 -57 104 -77c-14 -26 -25 -44 -59 -44c-33 0 -66 14 -87 37
c-77 85 -205 244 -256 316v-348z" />
    <glyph glyph-name="L" unicode="L" horiz-adv-x="498" 
d="M496 69c0 -41 -20 -74 -133 -74h-57c-158 0 -226 88 -226 244v442h33c36 0 58 -15 58 -68v-350c0 -145 30 -182 154 -182h38c49 0 101 6 133 15v-27z" />
    <glyph glyph-name="M" unicode="M" horiz-adv-x="901" 
d="M826 0h-34c-41 0 -60 21 -60 73c0 107 -16 379 -37 501c-16 -29 -34 -77 -60 -151l-106 -305c-14 -41 -34 -89 -49 -118h-21c-27 0 -60 21 -112 179l-85 257c-15 47 -39 102 -58 137c-28 -187 -41 -428 -43 -573h-27c-33 0 -63 25 -63 73c0 188 37 462 63 607h34
c88 0 126 -79 151 -152l90 -267c15 -45 33 -101 40 -136c11 40 28 92 45 138l88 245c27 75 68 148 87 172h24c61 0 87 -45 96 -129c19 -172 33 -392 37 -551z" />
    <glyph glyph-name="N" unicode="N" horiz-adv-x="685" 
d="M605 0h-28c-62 0 -117 34 -189 179l-144 291c-28 57 -50 89 -75 113v-583h-38c-29 0 -51 22 -51 62v619h44c80 0 134 -55 174 -136l144 -292c26 -52 47 -104 77 -141v568h38c26 0 48 -20 48 -48v-632z" />
    <glyph glyph-name="O" unicode="O" horiz-adv-x="726" 
d="M671 349c0 -208 -113 -359 -313 -359c-164 0 -302 127 -302 342c0 209 113 358 313 358c183 0 302 -140 302 -341zM580 332c0 182 -69 274 -222 274c-129 0 -211 -84 -211 -257c0 -176 75 -275 222 -275c132 0 211 100 211 258z" />
    <glyph glyph-name="P" unicode="P" horiz-adv-x="551" 
d="M541 476c0 -128 -102 -222 -233 -222c-61 0 -109 11 -136 29v-283h-34c-34 0 -58 19 -58 60v594c41 16 119 31 173 31h53c136 0 235 -76 235 -209zM449 466c0 89 -47 134 -141 134h-52c-23 0 -63 -5 -84 -10v-229c37 -20 85 -26 137 -26c93 0 140 50 140 131z" />
    <glyph glyph-name="Q" unicode="Q" horiz-adv-x="734" 
d="M646 -96c-105 0 -265 44 -364 96c-144 40 -228 180 -228 332c0 204 100 358 318 358c182 0 300 -135 300 -341c0 -187 -114 -318 -241 -332c80 -28 172 -37 260 -41v-31c0 -24 -22 -41 -45 -41zM581 334c0 187 -69 273 -225 273c-159 0 -211 -136 -211 -258
c0 -179 84 -277 227 -277c125 0 209 103 209 262z" />
    <glyph glyph-name="R" unicode="R" horiz-adv-x="598" 
d="M576 2c0 0 -36 -5 -49 -5c-38 0 -61 17 -75 51l-51 122c-42 100 -72 112 -114 115c-43 3 -92 9 -115 14v-299h-34c-39 0 -58 20 -58 58v596c40 16 118 31 172 31h61c137 0 222 -69 222 -186c0 -108 -72 -164 -159 -176c69 -22 90 -79 106 -116l62 -146
c8 -18 23 -44 32 -54v-5zM443 485c0 93 -63 120 -137 120h-51c-24 0 -53 -4 -83 -11v-218c44 -7 84 -10 123 -10c72 0 148 32 148 119z" />
    <glyph glyph-name="S" unicode="S" horiz-adv-x="579" 
d="M272 -10c-97 0 -204 58 -204 135v44h5c41 -55 119 -93 206 -93c117 0 154 43 154 111c0 71 -37 97 -177 128c-133 29 -198 73 -198 170c0 116 98 205 258 205c126 0 195 -64 195 -126v-41h-5c-43 54 -99 81 -195 81c-100 0 -157 -39 -157 -105c0 -64 30 -85 165 -116
c96 -22 209 -75 209 -186c0 -113 -82 -207 -256 -207z" />
    <glyph glyph-name="T" unicode="T" horiz-adv-x="523" 
d="M518 646c0 -19 -22 -49 -53 -49h-160v-597h-34c-39 0 -59 13 -59 58v539h-207v34c0 26 16 50 58 50h455v-35z" />
    <glyph glyph-name="U" unicode="U" horiz-adv-x="684" 
d="M70 307v373h32c44 0 60 -18 60 -72v-293c0 -169 56 -240 183 -240c129 0 177 69 177 232v373h35c38 0 57 -22 57 -67v-298c0 -207 -96 -325 -275 -325c-180 0 -269 116 -269 317z" />
    <glyph glyph-name="V" unicode="V" horiz-adv-x="602" 
d="M574 615c-39 -197 -170 -505 -241 -620h-23c-17 0 -40 13 -59 45c-111 186 -192 433 -228 640h40c25 0 59 -19 66 -55c26 -135 97 -371 177 -514c75 146 158 390 187 569h44c23 0 40 -18 40 -36c0 -9 -1 -19 -3 -29z" />
    <glyph glyph-name="W" unicode="W" horiz-adv-x="953" 
d="M900 583c-35 -183 -106 -397 -205 -588h-23c-19 0 -34 16 -43 32c-48 91 -116 269 -155 464c-41 -194 -119 -414 -166 -496h-20c-25 0 -45 21 -51 32c-99 194 -164 410 -199 653h48c31 0 52 -29 57 -60c27 -157 73 -334 140 -492c62 159 113 345 142 479
c3 14 10 51 10 51h26c46 0 60 -14 73 -77c26 -126 79 -314 140 -453c66 160 131 381 150 552h47c20 0 37 -16 37 -43c0 -18 -5 -36 -8 -54z" />
    <glyph glyph-name="X" unicode="X" horiz-adv-x="643" 
d="M555 -8c-51 0 -87 28 -158 133l-108 160c-108 -118 -172 -216 -174 -285h-37c-21 0 -37 24 -37 40c0 26 1 35 10 59c14 36 38 82 106 159l87 98l-99 144c-28 41 -54 77 -74 106s-34 53 -41 74h55c19 0 49 -6 121 -114l104 -156c121 132 167 206 188 270h31
c18 0 36 -17 36 -46c0 -45 -78 -151 -210 -293l115 -169c49 -72 99 -124 143 -164c-15 -11 -29 -16 -58 -16z" />
    <glyph glyph-name="Y" unicode="Y" horiz-adv-x="553" 
d="M541 643c0 -43 -141 -270 -215 -358v-285h-34c-34 0 -58 17 -58 55v229c-80 107 -174 269 -219 396h47c32 0 55 -15 69 -49c35 -83 90 -181 156 -277c63 90 144 227 180 326h38c26 0 36 -15 36 -37z" />
    <glyph glyph-name="Z" unicode="Z" horiz-adv-x="589" 
d="M537 49c0 -28 -24 -49 -58 -49h-361c-36 0 -58 22 -58 50c0 46 28 92 107 192l193 245c33 42 57 84 62 110h-367v19c0 40 15 64 78 64h352c18 0 44 -20 44 -51c0 -40 -29 -95 -86 -168l-191 -244c-38 -49 -73 -96 -91 -134h376v-34z" />
    <glyph glyph-name="bracketleft" unicode="[" horiz-adv-x="320" 
d="M89 -170v890h155c34 0 57 -20 57 -54v-17h-128v-748h71c35 0 57 -20 57 -53v-18h-212z" />
    <glyph glyph-name="backslash" unicode="\" horiz-adv-x="490" 
d="M423 0c-41 0 -72 23 -86 54l-286 626h32c33 0 62 -22 73 -46l289 -634h-22z" />
    <glyph glyph-name="bracketright" unicode="]" horiz-adv-x="320" 
d="M230 720v-890h-155c-35 0 -58 20 -58 54v17h129v748h-71c-35 0 -58 20 -58 53v18h213z" />
    <glyph glyph-name="asciicircum" unicode="^" horiz-adv-x="491" 
d="M338 458c-11 32 -50 107 -92 179c-43 -71 -92 -153 -122 -220h-13c-33 0 -42 18 -42 31c0 9 8 19 11 27c25 58 86 168 148 245h18c22 0 36 -20 47 -35c33 -46 99 -169 137 -271c-53 1 -84 21 -92 44z" />
    <glyph glyph-name="underscore" unicode="_" horiz-adv-x="565" 
d="M565 -285h-565v85h565v-85z" />
    <glyph glyph-name="quoteleft" unicode="&#x2018;" horiz-adv-x="276" 
d="M196 740v-6c-31 -32 -49 -69 -49 -99c0 -22 12 -47 30 -59c12 -9 25 -32 25 -51c0 -35 -24 -63 -70 -63c-38 0 -74 34 -74 112c0 94 52 162 138 166z" />
    <glyph glyph-name="a" unicode="a" horiz-adv-x="535" 
d="M468 176c0 -108 -58 -186 -208 -186c-109 0 -204 63 -204 158c0 115 89 178 249 178h72v25c0 78 -39 110 -126 110c-80 0 -139 -30 -170 -73h-5v44c0 49 64 113 184 113c136 0 208 -71 208 -201v-168zM378 183v67h-73c-107 0 -156 -33 -156 -92c0 -47 46 -84 115 -84
c81 0 114 32 114 109z" />
    <glyph glyph-name="b" unicode="b" horiz-adv-x="614" 
d="M559 276c0 -163 -100 -286 -252 -286c-149 0 -237 109 -237 265v465h43c24 0 50 -18 50 -62v-219c30 66 97 106 171 106c123 0 225 -95 225 -269zM466 266c0 145 -69 194 -156 194c-86 0 -147 -78 -147 -194c0 -134 63 -191 156 -191c89 0 147 76 147 191z" />
    <glyph glyph-name="c" unicode="c" horiz-adv-x="521" 
d="M466 390h-5c-19 40 -84 70 -136 70c-106 0 -177 -78 -177 -185c0 -140 96 -200 179 -200c58 0 107 15 134 47h5v-38c0 -34 -40 -94 -155 -94c-112 0 -256 98 -256 271c0 152 104 284 265 284c80 0 146 -40 146 -117v-38z" />
    <glyph glyph-name="d" unicode="d" horiz-adv-x="612" 
d="M542 283c0 -205 -75 -293 -242 -293c-133 0 -245 121 -245 270c0 183 86 285 234 285c65 0 124 -30 161 -103v278h24c45 0 68 -24 68 -74v-363zM449 258c0 97 -29 202 -157 202c-93 0 -145 -71 -145 -192c0 -107 66 -193 161 -193c97 0 141 52 141 183z" />
    <glyph glyph-name="e" unicode="e" horiz-adv-x="562" 
d="M507 359c0 -94 -44 -133 -227 -133h-132c9 -89 71 -152 171 -152c82 0 132 26 162 55h5v-40c0 -56 -60 -99 -180 -99c-147 0 -251 113 -251 267c0 173 108 288 250 288c104 0 202 -79 202 -186zM419 354c0 58 -40 109 -124 109c-88 0 -144 -74 -147 -143l-1 -22l121 2
c129 2 151 14 151 54z" />
    <glyph glyph-name="f" unicode="f" horiz-adv-x="354" 
d="M354 607h-5c-24 21 -49 27 -80 27c-70 0 -98 -32 -98 -109v-66h159v-33c0 -25 -21 -48 -60 -48h-100v-378h-34c-40 0 -56 26 -56 65v470c0 94 66 185 177 185c64 0 97 -37 97 -65v-48z" />
    <glyph glyph-name="g" unicode="g" horiz-adv-x="579" 
d="M512 171c0 -25 4 -74 4 -94c0 -166 -113 -243 -253 -243c-85 0 -167 43 -167 107v37h7c37 -35 83 -58 171 -58c87 0 155 49 155 152c0 15 -5 43 -5 69v27c-22 -50 -67 -97 -148 -97c-125 0 -222 80 -222 213c0 132 81 261 255 261c120 0 203 -75 203 -227v-147zM424 295
c0 115 -43 165 -129 165c-94 0 -149 -76 -149 -157c0 -107 58 -149 141 -149c86 0 137 60 137 141z" />
    <glyph glyph-name="h" unicode="h" horiz-adv-x="592" 
d="M522 0h-24c-48 0 -67 19 -67 59v253c0 107 -45 147 -128 147c-62 0 -133 -51 -133 -152v-307h-26c-45 0 -64 19 -64 59v661h27c41 0 65 -18 65 -68v-201c39 72 95 94 144 94c127 0 206 -70 206 -230v-315z" />
    <glyph glyph-name="i" unicode="i" horiz-adv-x="317" 
d="M198 671c0 -34 -27 -62 -61 -62s-62 28 -62 62s28 63 62 63s61 -29 61 -63zM302 49c0 -34 -21 -54 -53 -54c-105 0 -160 52 -160 159v381h28c31 0 63 -24 63 -71v-297c0 -67 33 -88 83 -88h39v-30z" />
    <glyph glyph-name="j" unicode="j" horiz-adv-x="315" 
d="M240 671c0 -34 -27 -62 -61 -62s-62 28 -62 62s28 63 62 63s61 -29 61 -63zM222 -10c0 -103 -56 -170 -160 -170c-48 0 -72 24 -72 46v31l56 4c54 4 85 35 85 93v541h28c48 0 63 -20 63 -71v-474z" />
    <glyph glyph-name="k" unicode="k" horiz-adv-x="499" 
d="M485 41c-7 -27 -13 -44 -61 -44c-30 0 -51 10 -70 30c-70 71 -134 156 -196 234v-261h-29c-40 0 -59 23 -59 72v648h28c39 0 60 -20 60 -60v-360c64 81 144 165 196 214c10 10 35 20 70 20h63v-5c-50 -40 -94 -75 -243 -242c46 -62 92 -123 146 -179
c46 -48 66 -60 95 -67z" />
    <glyph glyph-name="l" unicode="l" horiz-adv-x="320" 
d="M315 50c0 -37 -24 -54 -73 -54c-105 0 -162 51 -162 159v565h28c37 0 64 -23 64 -70v-484c0 -67 34 -86 84 -86h59v-30z" />
    <glyph glyph-name="m" unicode="m" horiz-adv-x="894" 
d="M825 0h-32c-35 0 -60 24 -60 67v236c0 112 -42 156 -115 156c-88 0 -125 -45 -125 -153v-306h-31c-44 0 -61 24 -61 67v236c0 97 -43 156 -120 156c-79 0 -120 -47 -120 -156v-303h-29c-38 0 -63 22 -63 67v248c0 123 78 230 218 230c79 0 133 -35 166 -97
c35 58 98 97 168 97c133 0 204 -80 204 -239v-306z" />
    <glyph glyph-name="n" unicode="n" horiz-adv-x="582" 
d="M512 0h-33c-37 0 -57 19 -57 59v246c0 111 -41 154 -136 154c-80 0 -126 -45 -126 -154v-305h-34c-33 0 -56 20 -56 62v245c0 150 90 238 227 238c134 0 215 -77 215 -237v-308z" />
    <glyph glyph-name="o" unicode="o" horiz-adv-x="599" 
d="M543 278c0 -180 -95 -288 -240 -288c-142 0 -248 109 -248 268c0 177 97 286 248 286c142 0 240 -107 240 -266zM451 257c0 132 -56 201 -161 201c-86 0 -143 -70 -143 -181c0 -123 60 -201 165 -201c90 0 139 76 139 181z" />
    <glyph glyph-name="p" unicode="p" horiz-adv-x="611" 
d="M556 280c0 -183 -105 -290 -240 -290c-61 0 -126 38 -154 94v-254h-33c-38 0 -59 19 -59 69v354c0 181 85 292 256 292c118 0 230 -107 230 -265zM464 255c0 145 -65 204 -158 204c-94 0 -146 -71 -146 -181c0 -138 67 -203 166 -203c86 0 138 64 138 180z" />
    <glyph glyph-name="q" unicode="q" horiz-adv-x="611" 
d="M543 -170h-36c-37 0 -58 27 -58 61v198c-22 -55 -87 -99 -161 -99c-121 0 -233 101 -233 270c0 161 110 285 259 285c140 0 229 -94 229 -261v-454zM451 271c0 135 -58 189 -145 189c-98 0 -159 -79 -159 -194c0 -120 68 -191 152 -191c88 0 152 51 152 196z" />
    <glyph glyph-name="r" unicode="r" horiz-adv-x="363" 
d="M351 422h-5c-17 15 -46 27 -82 27c-71 0 -98 -35 -98 -149v-300h-39c-33 0 -52 26 -52 61v246c0 148 72 227 176 227c73 0 100 -32 100 -68v-44z" />
    <glyph glyph-name="s" unicode="s" horiz-adv-x="488" 
d="M434 162c0 -112 -87 -172 -209 -172c-90 0 -162 42 -162 106v39h5c30 -33 90 -60 159 -60c79 0 114 25 114 78c0 44 -19 63 -141 89c-100 21 -147 55 -147 135c0 87 79 168 212 168c79 0 156 -36 156 -101v-40h-5c-23 28 -81 55 -144 55c-91 0 -127 -31 -127 -76
c0 -36 20 -51 131 -75c106 -23 158 -72 158 -146z" />
    <glyph glyph-name="t" unicode="t" horiz-adv-x="374" 
d="M170 644v-110h184v-30c0 -33 -22 -55 -70 -55h-113v-265c0 -76 30 -108 88 -108c33 0 65 3 84 15h5v-32c0 -45 -35 -69 -97 -69c-119 0 -171 62 -171 185v348c0 31 8 61 23 83c13 19 43 38 56 38h11z" />
    <glyph glyph-name="u" unicode="u" horiz-adv-x="582" 
d="M512 230c0 -157 -81 -240 -224 -240c-131 0 -218 91 -218 248v297h28c41 0 63 -24 63 -71v-221c0 -109 55 -167 133 -167c84 0 127 48 127 163v296h25c44 0 66 -23 66 -71v-234z" />
    <glyph glyph-name="v" unicode="v" horiz-adv-x="526" 
d="M493 423c-30 -123 -116 -337 -200 -433h-25c-17 0 -32 6 -46 26c-102 151 -171 340 -198 519h45c36 0 50 -25 55 -52c24 -122 65 -262 148 -390c79 120 145 342 161 442h32c26 0 39 -18 39 -43s-7 -54 -11 -69z" />
    <glyph glyph-name="w" unicode="w" horiz-adv-x="824" 
d="M794 490c0 -21 -1 -51 -5 -71c-35 -156 -106 -320 -173 -428h-18c-24 0 -40 10 -50 27c-49 82 -117 235 -131 349c-20 -112 -94 -299 -149 -377h-19c-18 0 -35 8 -47 28c-87 150 -150 337 -174 517h48c33 0 53 -26 57 -52c18 -115 53 -245 113 -368
c68 127 109 286 137 406h29c33 0 54 -22 61 -54c24 -111 63 -245 120 -352c54 104 115 307 124 420h28c29 0 49 -16 49 -45z" />
    <glyph glyph-name="x" unicode="x" horiz-adv-x="511" 
d="M489 30v-7c-8 -9 -18 -28 -45 -28c-43 0 -61 11 -103 62c-38 46 -75 104 -108 153c-53 -58 -116 -127 -122 -210h-42c-19 0 -37 17 -37 43c0 21 7 43 18 67c27 59 85 120 137 174c-39 60 -71 109 -99 152c-22 34 -40 61 -60 91v8h54c37 0 64 -24 78 -48
c21 -37 45 -73 91 -145c32 33 61 66 82 95c27 38 43 72 48 98h24c25 0 43 -20 43 -53c0 -25 -11 -54 -55 -107c-22 -27 -53 -59 -99 -106l101 -141c46 -64 73 -87 94 -98z" />
    <glyph glyph-name="y" unicode="y" horiz-adv-x="531" 
d="M498 438c-41 -159 -131 -328 -160 -387c-85 -172 -135 -227 -211 -227c-41 0 -69 23 -69 46v34h43c42 0 69 10 131 127c-84 129 -173 329 -206 504h52c37 0 50 -29 56 -54c24 -107 78 -254 145 -364c57 98 134 301 152 418h36c24 0 42 -9 42 -41c0 -11 -7 -41 -11 -56z
" />
    <glyph glyph-name="z" unicode="z" horiz-adv-x="502" 
d="M462 49c0 -29 -25 -49 -63 -49h-297c-33 0 -58 20 -58 51c0 36 18 69 76 134l182 204c14 15 37 44 44 63h-306v31c0 31 23 52 55 52h305c29 0 55 -14 55 -50c0 -38 -27 -79 -75 -133l-173 -192c-27 -30 -40 -51 -54 -77h309v-34z" />
    <glyph glyph-name="braceleft" unicode="{" horiz-adv-x="370" 
d="M132 568c0 93 64 152 141 152c48 0 69 -14 69 -47v-19c-29 1 -42 1 -53 1c-56 0 -80 -40 -80 -111c0 -21 -2 -57 1 -81c3 -22 3 -35 3 -62c0 -76 -28 -107 -89 -119v-3c62 -13 89 -62 89 -128c0 -27 0 -41 -3 -63c-3 -24 -1 -60 -1 -80c0 -74 26 -112 80 -112h9
c21 0 47 -23 47 -48v-18h-71c-84 0 -142 55 -142 154c0 27 0 65 3 93c3 30 4 46 4 74c0 47 -24 82 -69 90c-32 6 -37 21 -37 31v33l37 6c54 9 68 50 68 87c0 28 0 47 -3 77c-2 19 -3 66 -3 93z" />
    <glyph glyph-name="bar" unicode="|" horiz-adv-x="257" 
d="M156 -170h-21c-19 0 -41 17 -41 45v845h20c20 0 42 -14 42 -40v-850z" />
    <glyph glyph-name="braceright" unicode="}" horiz-adv-x="370" 
d="M239 -18c0 -93 -64 -152 -141 -152c-48 0 -69 14 -69 47v19c28 -1 42 -1 53 -1c55 0 80 40 80 111c0 21 2 57 -1 81c-3 22 -3 35 -3 62c0 76 28 107 89 119v3c-62 12 -89 62 -89 128c0 27 0 40 3 63c3 24 1 59 1 80c0 74 -26 112 -80 112h-9c-22 0 -47 22 -47 48v18h71
c84 0 142 -55 142 -154c0 -27 0 -65 -3 -93c-3 -30 -4 -47 -4 -74c0 -47 24 -82 69 -90c32 -6 37 -21 37 -31v-33l-37 -6c-54 -9 -68 -50 -68 -87c0 -28 0 -48 3 -77c2 -19 3 -66 3 -93z" />
    <glyph glyph-name="asciitilde" unicode="~" horiz-adv-x="591" 
d="M388 230c-37 0 -62 17 -92 36c-31 19 -66 31 -89 31c-40 0 -68 -34 -75 -78h-12c-10 0 -38 9 -38 46c0 84 72 116 119 116c36 0 60 -15 90 -34c25 -15 67 -36 94 -36c47 0 70 28 75 75h19c12 0 31 -11 31 -46c0 -61 -50 -110 -122 -110z" />
    <glyph glyph-name="exclamdown" unicode="&#xa1;" horiz-adv-x="314" 
d="M226 463c0 -40 -31 -70 -71 -70s-72 30 -72 70c0 41 32 71 72 71s71 -30 71 -71zM124 290h20c35 0 55 -21 57 -67l13 -394h-43c-35 0 -60 21 -60 63v3z" />
    <glyph glyph-name="cent" unicode="&#xa2;" 
d="M285 -88v81c-104 19 -217 114 -217 268c0 137 84 257 217 280v126h26c29 0 41 -12 41 -37v-86c71 -6 127 -45 127 -116v-38h-5c-19 40 -84 70 -136 70c-106 0 -177 -78 -177 -185c0 -140 96 -200 179 -200c58 0 99 15 126 47h5v-38c0 -28 -22 -74 -93 -89
c-8 -2 -17 -3 -26 -4v-117c-5 0 -25 1 -25 1c-28 1 -42 12 -42 37z" />
    <glyph glyph-name="sterling" unicode="&#xa3;" 
d="M228 477c0 -35 6 -66 16 -109h170v-25c0 -32 -25 -46 -51 -46h-107c5 -27 6 -48 6 -60c0 -45 -15 -117 -39 -150v-5h293v-29c0 -32 -23 -53 -64 -53h-365v24c0 36 26 56 50 86c23 29 36 66 36 115c0 19 -5 51 -10 72h-109v25c0 29 17 46 48 46h50c-8 38 -16 72 -16 110
c0 118 83 212 219 212c74 0 135 -46 135 -104v-48h-5c-19 40 -78 66 -130 66c-89 0 -127 -47 -127 -127z" />
    <glyph glyph-name="fraction" unicode="&#x2044;" horiz-adv-x="483" 
d="M125 -10h-31c-9 0 -31 11 -31 37c0 11 3 25 10 41l293 651h30c19 0 35 -17 35 -34c0 -7 -1 -15 -5 -23z" />
    <glyph glyph-name="yen" unicode="&#xa5;" 
d="M329 352h168v-29c0 -22 -14 -41 -45 -41h-128v-93h173v-27c0 -19 -14 -41 -45 -41h-128v-121h-42c-23 0 -46 18 -46 53v68h-170v32c0 18 13 36 48 36h122v93h-170v31c0 18 12 39 48 39h118c-78 100 -168 237 -204 328h40c40 0 59 -14 67 -32c32 -69 94 -164 152 -239
c57 71 132 179 166 271h40c20 0 31 -9 31 -27c0 -42 -108 -201 -195 -301z" />
    <glyph glyph-name="florin" unicode="&#x192;" 
d="M454 616c-60 0 -93 -28 -101 -88l-17 -121h140v-28c0 -15 -15 -41 -67 -41h-80l-28 -240c-19 -161 -71 -210 -161 -210c-55 0 -80 26 -80 50v42h5c18 -8 41 -14 59 -14c60 0 81 23 92 119l28 253h-119v26c0 21 22 43 49 43h79l15 114c14 107 70 173 177 173
c42 0 69 -27 69 -55v-42h-5c-15 11 -42 19 -55 19z" />
    <glyph glyph-name="section" unicode="&#xa7;" 
d="M385 168c55 -38 70 -76 70 -115c0 -118 -72 -176 -206 -176c-87 0 -148 53 -148 103v37h5c37 -33 85 -54 148 -54c57 0 109 16 109 78c0 50 -33 65 -171 113c-86 30 -113 83 -113 142c0 47 18 90 100 123c-49 26 -78 68 -78 121c0 89 64 160 200 160
c81 0 133 -52 133 -100v-25h-5c-30 28 -77 42 -136 42c-66 0 -102 -31 -102 -65c0 -47 23 -65 124 -102c93 -34 158 -76 158 -160c0 -51 -24 -94 -88 -122zM312 356c-41 15 -59 25 -104 45c-29 -22 -51 -48 -51 -79c0 -46 28 -75 85 -95c37 -13 64 -22 109 -41
c28 23 40 48 40 84c0 42 -26 67 -79 86z" />
    <glyph glyph-name="currency" unicode="&#xa4;" horiz-adv-x="726" 
d="M693 47l-23 -21c-20 -17 -36 -27 -52 -27c-15 0 -31 9 -51 28l-38 36c-56 -37 -108 -53 -173 -53c-62 0 -119 21 -177 71l-96 -90l-21 22c-7 8 -12 16 -16 24c-3 6 -5 12 -5 19c0 11 5 25 14 41c8 14 18 27 30 39l36 37c-11 37 -15 64 -15 92c0 54 13 107 41 158
l-119 109l31 29c11 10 24 16 39 16c16 0 33 -7 51 -22l66 -57c53 32 100 46 154 46c38 0 75 -9 121 -31l98 92l36 -34c11 -10 17 -22 17 -35c0 -14 -7 -29 -23 -44l-50 -48c35 -55 51 -104 51 -161c0 -47 -7 -90 -26 -139zM523 264c0 125 -66 197 -171 197
c-84 0 -157 -75 -157 -173c0 -133 65 -198 171 -198c97 0 157 76 157 174z" />
    <glyph glyph-name="quotesingle" unicode="'" horiz-adv-x="314" 
d="M193 458h-12c-34 0 -53 22 -57 78l-12 164h38c34 0 57 -23 57 -64v-10z" />
    <glyph glyph-name="quotedblleft" unicode="&#x201c;" horiz-adv-x="430" 
d="M374 740v-6c-31 -32 -49 -68 -49 -99c0 -22 12 -46 30 -59c12 -8 25 -32 25 -51c0 -35 -24 -63 -70 -63c-38 0 -74 34 -74 112c0 94 52 162 138 166zM176 740v-6c-31 -32 -49 -68 -49 -99c0 -22 12 -46 30 -59c12 -8 25 -32 25 -51c0 -35 -24 -63 -70 -63
c-38 0 -74 34 -74 112c0 94 52 162 138 166z" />
    <glyph glyph-name="guillemotleft" unicode="&#xab;" horiz-adv-x="451" 
d="M407 73c-54 0 -82 14 -101 45l-87 145l87 146c16 26 40 43 101 43h14l-108 -189l108 -190h-14zM219 73c-54 0 -81 14 -101 45l-97 145l97 146c17 26 41 43 101 43h14l-118 -189l118 -190h-14z" />
    <glyph glyph-name="guilsinglleft" unicode="&#x2039;" horiz-adv-x="339" 
d="M265 73c-54 0 -81 14 -101 45l-97 145l97 146c17 26 41 43 101 43h14l-118 -189l118 -190h-14z" />
    <glyph glyph-name="guilsinglright" unicode="&#x203a;" horiz-adv-x="339" 
d="M69 73h-14l118 190l-118 189h14c60 0 84 -17 101 -43l97 -146l-97 -145c-20 -31 -47 -45 -101 -45z" />
    <glyph glyph-name="fi" unicode="&#xfb01;" horiz-adv-x="654" 
d="M533 671c0 -34 -27 -62 -61 -62s-62 28 -62 62s28 63 62 63s61 -29 61 -63zM354 607h-5c-24 21 -49 27 -80 27c-70 0 -98 -32 -98 -109v-66h159v-33c0 -25 -21 -48 -60 -48h-100v-378h-34c-40 0 -56 26 -56 65v470c0 94 66 185 177 185c64 0 97 -37 97 -65v-48zM637 49
c0 -34 -21 -54 -53 -54c-105 0 -160 52 -160 159v381h28c31 0 63 -24 63 -71v-297c0 -67 33 -88 83 -88h39v-30z" />
    <glyph glyph-name="fl" unicode="&#xfb02;" horiz-adv-x="664" 
d="M354 607h-5c-24 21 -49 27 -80 27c-70 0 -98 -32 -98 -109v-66h159v-33c0 -25 -21 -48 -60 -48h-100v-378h-34c-40 0 -56 26 -56 65v470c0 94 66 185 177 185c64 0 97 -37 97 -65v-48zM659 50c0 -37 -24 -54 -73 -54c-105 0 -162 51 -162 159v565h28c37 0 64 -23 64 -70
v-484c0 -67 34 -86 84 -86h59v-30z" />
    <glyph glyph-name="endash" unicode="&#x2013;" 
d="M446 268h-366v24c0 30 15 54 57 54h355v-36c0 -19 -17 -42 -46 -42z" />
    <glyph glyph-name="dagger" unicode="&#x2020;" horiz-adv-x="490" 
d="M399 457h-115v-606h-27c-26 0 -49 18 -49 53v553h-166v27c0 25 19 52 50 52h116v206h25c28 0 51 -21 51 -53v-153h166v-32c0 -25 -21 -47 -51 -47z" />
    <glyph glyph-name="daggerdbl" unicode="&#x2021;" horiz-adv-x="490" 
d="M389 108h-105v-279h-27c-32 0 -49 21 -49 53v226h-166v28c0 25 19 52 50 52h116v267h-166v28c0 25 19 52 50 52h116v184h35c26 0 41 -18 41 -43v-141h166v-26c0 -33 -21 -54 -61 -54h-105v-267h166v-26c0 -33 -21 -54 -61 -54z" />
    <glyph glyph-name="periodcentered" unicode="&#xb7;" horiz-adv-x="250" 
d="M60 287c0 36 29 64 65 64s64 -28 64 -64s-28 -65 -64 -65s-65 29 -65 65z" />
    <glyph glyph-name="paragraph" unicode="&#xb6;" horiz-adv-x="531" 
d="M428 -10c-34 0 -50 10 -50 51v548c0 36 -18 44 -48 44h-41v-643h-22c-30 1 -49 16 -49 51v254h-17c-90 0 -162 94 -162 191c0 131 90 214 262 214c94 0 148 -36 148 -99v-611h-21z" />
    <glyph glyph-name="bullet" unicode="&#x2022;" horiz-adv-x="326" 
d="M68 362c0 52 43 95 95 95s95 -43 95 -95s-43 -95 -95 -95s-95 43 -95 95z" />
    <glyph glyph-name="quotesinglbase" unicode="&#x201a;" horiz-adv-x="276" 
d="M80 -156v6c31 32 49 68 49 99c0 22 -12 46 -30 59c-12 8 -25 32 -25 51c0 35 24 63 70 63c38 0 74 -34 74 -112c0 -94 -52 -162 -138 -166z" />
    <glyph glyph-name="quotedblbase" unicode="&#x201e;" horiz-adv-x="430" 
d="M320 -156v6c31 32 49 68 49 99c0 22 -12 46 -30 59c-12 8 -25 32 -25 51c0 35 24 63 70 63c38 0 74 -34 74 -112c0 -94 -52 -162 -138 -166zM80 -156v6c31 32 49 68 49 99c0 22 -12 46 -30 59c-12 8 -25 32 -25 51c0 35 24 63 70 63c38 0 74 -34 74 -112
c0 -94 -52 -162 -138 -166z" />
    <glyph glyph-name="quotedblright" unicode="&#x201d;" horiz-adv-x="430" 
d="M253 442v6c32 32 49 68 49 99c0 22 -11 46 -30 59c-12 8 -25 32 -25 51c0 35 24 63 70 63c38 0 74 -34 74 -112c0 -94 -52 -162 -138 -166zM56 442v6c31 32 49 68 49 99c0 22 -12 46 -30 59c-12 8 -25 32 -25 51c0 35 24 63 70 63c38 0 74 -34 74 -112
c0 -94 -52 -162 -138 -166z" />
    <glyph glyph-name="guillemotright" unicode="&#xbb;" horiz-adv-x="451" 
d="M233 73h-14l118 190l-118 189h14c60 0 84 -17 101 -43l97 -146l-97 -145c-20 -31 -47 -45 -101 -45zM45 73h-14l108 190l-108 189h14c61 0 85 -17 101 -43l87 -146l-87 -145c-19 -31 -47 -45 -101 -45z" />
    <glyph glyph-name="ellipsis" unicode="&#x2026;" horiz-adv-x="808" 
d="M749 70c0 -41 -31 -70 -71 -70s-72 29 -72 70s32 71 72 71s71 -30 71 -71zM479 70c0 -41 -31 -70 -71 -70s-72 29 -72 70s32 71 72 71s71 -30 71 -71zM209 70c0 -41 -31 -70 -71 -70s-72 29 -72 70s32 71 72 71s71 -30 71 -71z" />
    <glyph glyph-name="perthousand" unicode="&#x2030;" horiz-adv-x="1403" 
d="M217 255c-98 0 -159 95 -159 210c0 131 61 225 168 225c98 0 159 -94 159 -209c0 -131 -61 -226 -168 -226zM375 0h-28c-21 0 -33 8 -33 27c0 11 4 25 12 43l277 610h26c14 0 31 -17 31 -42c0 -8 -2 -16 -6 -25zM1170 -10c-98 0 -159 95 -159 210c0 131 61 225 168 225
c98 0 159 -94 159 -209c0 -131 -61 -226 -168 -226zM772 -10c-98 0 -159 95 -159 210c0 131 61 225 168 225c98 0 159 -94 159 -209c0 -131 -61 -226 -168 -226zM218 614c-59 0 -79 -66 -79 -134c0 -82 21 -148 86 -148c59 0 79 66 79 133c0 83 -21 149 -86 149zM1171 349
c-59 0 -79 -66 -79 -134c0 -82 21 -148 86 -148c59 0 79 66 79 133c0 83 -21 149 -86 149zM773 349c-59 0 -79 -66 -79 -134c0 -82 21 -148 86 -148c59 0 79 66 79 133c0 83 -21 149 -86 149z" />
    <glyph glyph-name="questiondown" unicode="&#xbf;" horiz-adv-x="472" 
d="M334 463c0 -40 -32 -70 -71 -70c-40 0 -72 30 -72 70c0 41 32 71 72 71c39 0 71 -30 71 -71zM141 -5c0 -60 50 -91 123 -91c100 0 133 49 160 85h6v-31c0 -62 -51 -137 -183 -137c-130 0 -198 75 -198 163c0 59 26 102 73 144l86 77c21 19 28 40 28 79v29h34
c16 0 42 -23 42 -54c0 -47 -27 -85 -47 -103l-73 -65c-40 -36 -51 -54 -51 -96z" />
    <glyph glyph-name="grave" unicode="`" horiz-adv-x="529" 
d="M323 628h-16c-26 0 -56 4 -120 33c-44 20 -64 41 -64 70c0 22 14 40 41 40c23 0 49 -6 84 -41c25 -25 58 -60 75 -96v-6z" />
    <glyph glyph-name="acute" unicode="&#xb4;" horiz-adv-x="529" 
d="M155 628v6c17 36 50 71 75 96c35 35 61 41 84 41c27 0 41 -18 41 -40c0 -29 -20 -50 -64 -70c-64 -29 -94 -33 -120 -33h-16z" />
    <glyph glyph-name="circumflex" unicode="&#x2c6;" horiz-adv-x="607" 
d="M455 604l-153 78l-150 -78v40c0 27 11 45 32 57l119 69l117 -68c22 -13 35 -30 35 -58v-40z" />
    <glyph glyph-name="tilde" unicode="&#x2dc;" horiz-adv-x="416" 
d="M267 623c-22 0 -53 18 -70 36c-18 19 -35 33 -50 33c-28 0 -40 -26 -40 -70h-28c-11 0 -31 13 -31 41c0 70 54 99 97 99c21 0 49 -12 67 -31c22 -23 37 -38 55 -38c29 0 41 22 41 70h29c12 0 31 -14 31 -42c0 -61 -44 -98 -101 -98z" />
    <glyph glyph-name="macron" unicode="&#xaf;" horiz-adv-x="330" 
d="M221 628h-166v32c0 27 22 52 62 52h158v-36c0 -29 -20 -48 -54 -48z" />
    <glyph glyph-name="breve" unicode="&#x2d8;" horiz-adv-x="594" 
d="M297 617c-80 0 -130 32 -130 123v2c33 -31 71 -55 131 -55c56 0 97 25 129 55v-7c0 -85 -51 -118 -130 -118z" />
    <glyph glyph-name="dotaccent" unicode="&#x2d9;" horiz-adv-x="407" 
d="M147 685c0 31 26 56 57 56s56 -25 56 -56s-25 -57 -56 -57s-57 26 -57 57z" />
    <glyph glyph-name="dieresis" unicode="&#xa8;" horiz-adv-x="498" 
d="M280 680c0 33 27 60 60 60s61 -27 61 -60s-28 -61 -61 -61s-60 28 -60 61zM72 680c0 33 28 60 61 60s60 -27 60 -60s-27 -61 -60 -61s-61 28 -61 61z" />
    <glyph glyph-name="ring" unicode="&#x2da;" horiz-adv-x="413" 
d="M207 604c-71 0 -107 50 -107 103c0 55 34 104 107 104c71 0 106 -48 106 -104c0 -55 -38 -103 -106 -103zM207 758c-25 0 -43 -22 -43 -51c0 -27 19 -49 42 -49c25 0 45 19 45 49c0 29 -19 51 -44 51z" />
    <glyph glyph-name="cedilla" unicode="&#xb8;" horiz-adv-x="581" 
d="M355 -127c0 21 -14 28 -53 28c-17 0 -36 -1 -51 -3c8 28 27 102 27 102l2 10h48l-6 -60c70 0 106 -23 106 -74c0 -69 -61 -89 -123 -89c-35 0 -101 4 -101 58v27c20 -20 60 -28 94 -28c42 0 57 5 57 29z" />
    <glyph glyph-name="hungarumlaut" unicode="&#x2dd;" horiz-adv-x="372" 
d="M308 673c-27 -22 -89 -52 -113 -56h-4c10 29 31 67 48 94c23 36 53 66 80 66c29 0 37 -9 37 -32c0 -24 -23 -52 -48 -72zM138 673c-27 -22 -89 -52 -113 -56h-5c11 29 32 67 49 94c22 36 52 66 80 66c29 0 37 -9 37 -32c0 -24 -24 -52 -48 -72z" />
    <glyph glyph-name="ogonek" unicode="&#x2db;" horiz-adv-x="480" 
d="M254 -203c-67 0 -107 33 -107 85c0 51 44 95 91 118l14 8h34l-29 -26c-36 -33 -48 -47 -48 -88c0 -30 26 -48 62 -48c19 0 38 2 72 20v-19c0 -34 -35 -50 -89 -50z" />
    <glyph glyph-name="caron" unicode="&#x2c7;" horiz-adv-x="597" 
d="M147 784l153 -78l150 78v-40c0 -27 -11 -45 -32 -57l-119 -69l-117 68c-22 13 -35 30 -35 58v40z" />
    <glyph glyph-name="emdash" unicode="&#x2014;" horiz-adv-x="1019" 
d="M900 268h-845v24c0 30 16 54 58 54h833v-36c0 -19 -17 -42 -46 -42z" />
    <glyph glyph-name="AE" unicode="&#xc6;" horiz-adv-x="865" 
d="M704 -9h-64c-140 0 -206 60 -221 195h-270c-26 -67 -43 -127 -61 -186h-39c-26 0 -34 12 -34 32c0 6 0 12 1 20c14 99 182 500 303 628h515v-31c0 -31 -25 -53 -75 -53h-312c14 -69 27 -138 36 -206h279v-33c0 -32 -15 -48 -65 -48h-206l11 -90c13 -109 49 -144 145 -144
h57c61 0 92 7 131 21v-27c0 -52 -29 -78 -131 -78zM353 602c-74 -109 -124 -218 -171 -343h225c-6 71 -34 263 -54 343z" />
    <glyph glyph-name="ordfeminine" unicode="&#xaa;" horiz-adv-x="409" 
d="M64 589v22c0 37 39 84 125 84c96 0 139 -45 139 -157v-82c0 -74 -51 -125 -123 -125h-26c-78 0 -129 47 -129 110c0 61 39 109 161 109h45v18c0 38 -19 58 -80 58c-49 0 -90 -18 -108 -37h-4zM253 493h-42c-63 0 -83 -16 -83 -49c0 -31 21 -47 59 -47c37 0 66 17 66 58
v38z" />
    <glyph glyph-name="Lslash" unicode="&#x141;" horiz-adv-x="498" 
d="M250 345l-79 -36v-46c0 -146 30 -182 154 -182h38c49 0 101 6 133 15v-27c0 -41 -20 -74 -133 -74h-57c-158 0 -226 88 -226 244v29l-84 -38v37c0 25 10 46 53 65l31 14v335h33c36 0 58 -15 58 -68v-226l134 60v-36c0 -29 -13 -47 -55 -66z" />
    <glyph glyph-name="Oslash" unicode="&#xd8;" horiz-adv-x="732" 
d="M671 349c0 -208 -113 -359 -313 -359c-66 0 -129 21 -179 60l-45 -60h-21c-9 0 -21 10 -21 30c0 11 13 33 25 49l17 24c-49 58 -78 139 -78 239c0 206 100 358 313 358c67 0 127 -21 175 -57l43 57h20c19 0 25 -14 25 -24c0 -13 -7 -25 -13 -33l-31 -41
c53 -61 83 -145 83 -243zM494 567c-35 26 -80 39 -136 39c-129 0 -211 -84 -211 -257c0 -78 13 -140 41 -185zM581 332c0 81 -15 146 -45 191l-306 -406c35 -28 81 -43 139 -43c129 0 212 100 212 258z" />
    <glyph glyph-name="OE" unicode="&#x152;" horiz-adv-x="1018" 
d="M987 69c0 -47 -18 -74 -125 -74h-67c-126 0 -195 51 -219 141c-32 -88 -106 -146 -231 -146c-156 0 -289 127 -289 342c0 205 95 358 297 358c87 0 178 -46 212 -123c6 73 37 110 83 110h340v-34c0 -23 -16 -48 -54 -48h-279c-10 -52 -14 -131 -14 -205h269v-27
c0 -24 -17 -49 -58 -49h-211v-57c0 -135 49 -181 181 -181h39c42 0 96 10 126 19v-26zM551 348c0 137 -48 258 -205 258c-120 0 -201 -84 -201 -257c0 -177 71 -275 211 -275c157 0 195 147 195 274z" />
    <glyph glyph-name="ordmasculine" unicode="&#xba;" horiz-adv-x="409" 
d="M201 331c-96 0 -152 82 -152 175c0 106 56 188 159 188c96 0 153 -83 153 -176c0 -106 -56 -187 -160 -187zM201 622c-50 0 -74 -44 -74 -104c0 -72 24 -115 81 -115c50 0 75 44 75 103c0 72 -25 116 -82 116z" />
    <glyph glyph-name="ae" unicode="&#xe6;" horiz-adv-x="872" 
d="M817 359c0 -94 -43 -126 -220 -126h-127c0 -95 70 -157 164 -157c80 0 129 24 158 55h5v-31c0 -67 -59 -110 -176 -110c-80 0 -162 43 -193 102c-31 -57 -81 -101 -175 -101c-109 0 -198 60 -198 155c0 106 70 177 250 177h72v26c0 78 -40 108 -127 108
c-80 0 -135 -28 -166 -71h-8v38c0 62 73 119 183 119c88 0 146 -40 179 -96c37 61 105 98 177 98c105 0 202 -85 202 -186zM378 187v60h-73c-105 0 -151 -30 -151 -89c0 -49 43 -83 103 -83c78 0 121 41 121 112zM725 354c0 69 -46 108 -118 108c-88 0 -137 -74 -137 -155
l102 1c137 1 153 11 153 46z" />
    <glyph glyph-name="dotlessi" unicode="&#x131;" horiz-adv-x="317" 
d="M302 49c0 -34 -21 -54 -53 -54c-105 0 -160 52 -160 159v381h28c31 0 63 -24 63 -71v-297c0 -67 33 -88 83 -88h39v-30z" />
    <glyph glyph-name="lslash" unicode="&#x142;" horiz-adv-x="320" 
d="M250 345l-78 -35v-144c0 -67 34 -86 84 -86h59v-30c0 -37 -24 -54 -73 -54c-105 0 -162 51 -162 159v113l-84 -38v37c0 25 10 46 53 65l31 14v374h28c37 0 64 -23 64 -70v-263l133 60v-36c0 -29 -13 -47 -55 -66z" />
    <glyph glyph-name="oslash" unicode="&#xf8;" horiz-adv-x="599" 
d="M139 -21h-20c-9 0 -30 9 -30 29c0 9 2 21 10 33l21 30c-41 47 -65 111 -65 187c0 177 97 286 248 286c48 0 91 -12 127 -34l32 45h20c19 0 30 -23 30 -36c0 -5 -1 -12 -5 -18l-26 -36c39 -46 62 -111 62 -187c0 -180 -95 -288 -240 -288c-49 0 -94 13 -131 36zM174 148
l206 291c-24 15 -55 22 -90 22c-87 0 -145 -72 -145 -184c0 -51 9 -96 29 -129zM427 387l-205 -290c25 -16 55 -24 90 -24c91 0 141 78 141 184c0 54 -8 97 -26 130z" />
    <glyph glyph-name="oe" unicode="&#x153;" horiz-adv-x="958" 
d="M903 355c0 -91 -44 -129 -227 -129h-132c9 -89 70 -153 170 -153c85 0 135 27 163 56h5v-29c0 -67 -61 -110 -181 -110c-96 0 -170 51 -206 114c-32 -62 -93 -114 -192 -114c-142 0 -248 109 -248 268c0 177 97 286 248 286c96 0 162 -47 201 -117c34 65 108 118 195 118
c105 0 204 -79 204 -190zM816 351c0 78 -55 111 -125 111c-85 0 -144 -76 -147 -142l-1 -20l121 2c130 2 152 14 152 49zM451 257c0 132 -56 203 -161 203c-86 0 -144 -72 -144 -183c0 -123 61 -203 166 -203c90 0 139 78 139 183z" />
    <glyph glyph-name="germandbls" unicode="&#xdf;" horiz-adv-x="579" 
d="M359 -10c-76 0 -108 38 -108 70v36h5c16 -12 67 -24 97 -24c64 0 90 24 90 74c0 37 -16 60 -43 77l-69 43c-29 18 -50 47 -50 92c0 41 23 76 48 96l58 45c17 13 29 37 29 57c0 49 -35 85 -109 85c-94 0 -145 -57 -145 -179v-462h-30c-42 0 -62 30 -62 70v400
c0 158 103 250 242 250c113 0 195 -70 195 -155c0 -44 -25 -84 -57 -108l-50 -37c-24 -18 -40 -38 -40 -53c0 -24 13 -36 30 -47l65 -41c47 -29 79 -76 79 -131c0 -96 -68 -158 -175 -158z" />
    <glyph glyph-name="Zcaron" unicode="&#x17d;" horiz-adv-x="589" 
d="M537 49c0 -28 -24 -49 -58 -49h-361c-36 0 -58 22 -58 50c0 46 28 92 107 192l193 245c33 42 57 84 62 110h-367v19c0 40 15 64 78 64h352c18 0 44 -20 44 -51c0 -40 -29 -95 -86 -168l-191 -244c-38 -49 -73 -96 -91 -134h376v-34zM153 921l153 -78l150 78v-40
c0 -27 -11 -45 -32 -57l-119 -69l-117 68c-22 13 -35 30 -35 58v40z" />
    <glyph glyph-name="zcaron" unicode="&#x17e;" horiz-adv-x="502" 
d="M462 49c0 -29 -25 -49 -63 -49h-297c-33 0 -58 20 -58 51c0 36 18 69 76 134l182 204c14 15 37 44 44 63h-306v31c0 31 23 52 55 52h305c29 0 55 -14 55 -50c0 -38 -27 -79 -75 -133l-173 -192c-27 -30 -40 -51 -54 -77h309v-34zM107 784l153 -78l150 78v-40
c0 -27 -11 -45 -32 -57l-119 -69l-117 68c-22 13 -35 30 -35 58v40z" />
    <glyph glyph-name="Euro" unicode="&#x20ac;" 
d="M535 105c0 -60 -63 -115 -160 -115c-131 0 -245 104 -258 257h-89v33c0 21 24 29 36 29h49s-1 17 -1 28s1 32 1 32h-85v31c0 17 18 31 36 31h52c19 152 129 259 267 259c88 0 152 -60 152 -121v-30h-5c-24 35 -86 67 -133 67c-107 0 -175 -51 -189 -175h232v-26
c0 -20 -18 -36 -37 -36h-200s-2 -20 -2 -32s2 -28 2 -28h237v-27c0 -16 -15 -35 -37 -35h-197c12 -124 91 -173 190 -173c46 0 105 25 134 59h5v-28z" />
    <glyph glyph-name="Scaron" unicode="&#x160;" horiz-adv-x="579" 
d="M272 -10c-97 0 -204 58 -204 135v44h5c41 -55 119 -93 206 -93c117 0 154 43 154 111c0 71 -37 97 -177 128c-133 29 -198 73 -198 170c0 116 98 205 258 205c126 0 195 -64 195 -126v-41h-5c-43 54 -99 81 -195 81c-100 0 -157 -39 -157 -105c0 -64 30 -85 165 -116
c96 -22 209 -75 209 -186c0 -113 -82 -207 -256 -207zM150 922l153 -78l150 78v-40c0 -27 -11 -45 -32 -57l-119 -69l-117 68c-22 13 -35 30 -35 58v40z" />
    <glyph glyph-name="trademark" unicode="&#x2122;" horiz-adv-x="807" 
d="M729 328c-30 0 -51 19 -51 59c0 34 -3 104 -11 218c-21 -72 -33 -117 -47 -164c-13 -44 -29 -88 -43 -114h-20c-28 0 -48 27 -73 113c-14 46 -25 83 -50 166c-8 -119 -12 -212 -12 -279l-30 1c-28 1 -49 20 -49 51c0 104 13 233 28 317h19c53 0 85 -29 97 -58
c22 -53 41 -116 66 -201c17 51 30 104 48 154s40 93 60 106h6c47 0 72 -29 78 -79c10 -87 18 -188 18 -290h-34zM261 621h-55v-298h-36c-29 0 -48 13 -48 46v252h-101v31c0 17 15 42 49 42h239v-29c0 -18 -20 -44 -48 -44z" />
    <glyph glyph-name="scaron" unicode="&#x161;" horiz-adv-x="488" 
d="M434 162c0 -112 -87 -172 -209 -172c-90 0 -162 42 -162 106v39h5c30 -33 90 -60 159 -60c79 0 114 25 114 78c0 44 -19 63 -141 89c-100 21 -147 55 -147 135c0 87 79 168 212 168c79 0 156 -36 156 -101v-40h-5c-23 28 -81 55 -144 55c-91 0 -127 -31 -127 -76
c0 -36 20 -51 131 -75c106 -23 158 -72 158 -146zM107 784l153 -78l150 78v-40c0 -27 -11 -45 -32 -57l-119 -69l-117 68c-22 13 -35 30 -35 58v40z" />
    <glyph glyph-name="Ydieresis" unicode="&#x178;" horiz-adv-x="553" 
d="M541 643c0 -43 -141 -270 -215 -358v-285h-34c-34 0 -58 17 -58 55v229c-80 107 -174 269 -219 396h47c32 0 55 -15 69 -49c35 -83 90 -181 156 -277c63 90 144 227 180 326h38c26 0 36 -15 36 -37zM123 814c0 33 28 60 61 60s60 -27 60 -60s-27 -61 -60 -61
s-61 28 -61 61zM330 814c0 33 28 60 61 60s60 -27 60 -60s-27 -61 -60 -61s-61 28 -61 61z" />
    <glyph glyph-name="uni00A0" unicode="&#xa0;" horiz-adv-x="220" 
 />
    <glyph glyph-name="brokenbar" unicode="&#xa6;" horiz-adv-x="257" 
d="M156 322h-21c-19 0 -41 17 -41 45v353h20c20 0 42 -14 42 -40v-358zM156 -170h-21c-19 0 -41 17 -41 45v353h20c20 0 42 -14 42 -40v-358z" />
    <glyph glyph-name="copyright" unicode="&#xa9;" horiz-adv-x="806" 
d="M742 342c0 -190 -154 -344 -344 -344s-344 154 -344 344s154 344 344 344s344 -154 344 -344zM676 342c0 153 -125 278 -278 278s-278 -125 -278 -278s125 -278 278 -278s278 125 278 278zM525 251h6v-27c0 -52 -66 -79 -114 -79c-102 0 -183 85 -183 196
c0 123 75 206 189 206c66 0 110 -41 110 -92v-30h-7c-10 28 -47 57 -100 57c-80 0 -114 -59 -114 -130c0 -93 49 -140 114 -140c44 0 80 16 99 39z" />
    <glyph glyph-name="logicalnot" unicode="&#xac;" horiz-adv-x="584" 
d="M546 401v-293h-82v211h-427v82h509z" />
    <glyph glyph-name="minus" unicode="&#x2212;" 
d="M476 344v-43c0 -28 -23 -45 -61 -45h-326v42c0 26 22 46 59 46h328z" />
    <glyph glyph-name="registered" unicode="&#xae;" horiz-adv-x="806" 
d="M742 342c0 -190 -154 -344 -344 -344s-344 154 -344 344s154 344 344 344s344 -154 344 -344zM676 342c0 153 -125 278 -278 278s-278 -125 -278 -278s125 -278 278 -278s278 125 278 278zM516 152c-43 0 -59 28 -73 64s-26 83 -69 90c-9 2 -16 2 -35 4v-158h-28
c-38 0 -49 22 -49 52v326c29 9 71 15 97 15h43c74 0 124 -43 124 -116c0 -41 -20 -80 -79 -95c30 -16 49 -56 56 -70c12 -24 17 -50 29 -71c3 -6 7 -11 11 -17l8 -11c-14 -12 -17 -13 -35 -13zM393 484h-22c-4 0 -13 -2 -32 -4v-110c24 -3 37 -2 53 -2c29 0 57 19 57 55
c0 48 -25 61 -56 61z" />
    <glyph glyph-name="degree" unicode="&#xb0;" horiz-adv-x="415" 
d="M209 395c-90 0 -143 64 -143 145c0 84 50 150 143 150c91 0 141 -62 141 -148c0 -83 -54 -147 -141 -147zM209 635c-54 0 -81 -50 -81 -95c0 -41 28 -90 80 -90c54 0 82 45 82 92c0 45 -27 93 -81 93z" />
    <glyph glyph-name="plusminus" unicode="&#xb1;" 
d="M478 385h-148v-202h-26c-19 0 -44 12 -44 54v148h-211v36c0 17 15 39 43 39h168v191h34c16 0 36 -17 36 -47v-144h207v-28c0 -20 -17 -47 -59 -47zM474 -1h-412v32c0 28 20 43 52 43h404v-35c0 -21 -21 -40 -44 -40z" />
    <glyph glyph-name="twosuperior" unicode="&#xb2;" horiz-adv-x="404" 
d="M352 300c0 -27 -23 -41 -57 -41h-197c-24 0 -42 18 -42 42c0 27 14 58 80 113l99 83c23 19 29 38 29 57c0 38 -27 62 -74 62c-62 0 -98 -17 -125 -55h-3v31c0 49 38 99 144 99c82 0 142 -58 142 -126c0 -63 -24 -92 -89 -142l-66 -52c-14 -11 -33 -29 -40 -40h199v-31z
" />
    <glyph glyph-name="threesuperior" unicode="&#xb3;" horiz-adv-x="412" 
d="M354 374c0 -83 -58 -138 -172 -138c-69 0 -126 29 -126 89v34h3c27 -29 68 -47 127 -47c58 0 81 26 81 59c0 43 -28 58 -82 59c-39 1 -53 12 -53 34v28c12 2 28 2 47 3c65 3 86 26 86 57c0 39 -27 63 -86 63c-48 0 -94 -16 -117 -47h-3v38c0 35 46 84 135 84
c96 0 157 -49 157 -122c0 -63 -34 -92 -78 -102c38 -8 81 -49 81 -92z" />
    <glyph glyph-name="mu" unicode="&#xb5;" 
d="M323 0c-60 0 -124 21 -152 90v-238h-32c-38 0 -60 21 -60 67v626h49c24 0 43 -27 43 -51v-247c0 -114 61 -171 137 -171c71 0 124 56 124 161v308h42c28 0 50 -23 50 -51v-246c0 -167 -92 -248 -201 -248z" />
    <glyph glyph-name="onesuperior" unicode="&#xb9;" horiz-adv-x="331" 
d="M252 254h-35c-29 0 -52 19 -52 57v289l-42 -15c-12 -5 -23 -7 -33 -7c-24 0 -38 13 -42 32l-4 22l79 35c44 20 59 23 82 23c29 0 47 -24 47 -46v-390z" />
    <glyph glyph-name="onequarter" unicode="&#xbc;" horiz-adv-x="900" 
d="M252 254h-35c-29 0 -52 19 -52 57v289l-42 -15c-12 -5 -23 -7 -33 -7c-24 0 -38 13 -42 32l-4 22l79 35c44 20 59 23 82 23c29 0 47 -24 47 -46v-390zM300 0h-21c-10 0 -31 11 -31 37c0 11 2 25 10 41l281 603h20c19 0 35 -17 35 -34c0 -7 -1 -15 -5 -23zM863 141
c0 -22 -12 -37 -36 -37h-36v-104h-31c-30 0 -51 19 -51 56v48h-148c-29 0 -48 19 -48 39c0 25 5 38 11 48c30 55 125 198 186 247h29c30 0 52 -20 52 -61v-201h72v-35zM709 176v173c-30 -39 -90 -126 -116 -173h116z" />
    <glyph glyph-name="onehalf" unicode="&#xbd;" horiz-adv-x="900" 
d="M832 42c0 -27 -23 -42 -57 -42h-197c-24 0 -43 19 -43 42c1 28 14 60 80 114l100 82c22 18 29 39 29 57c0 39 -27 63 -74 63c-62 0 -98 -18 -125 -55h-3v30c0 50 37 99 144 99c81 0 142 -57 142 -126c0 -63 -25 -91 -89 -142l-66 -51c-14 -11 -33 -29 -40 -40h199v-31z
M252 254h-35c-29 0 -52 19 -52 57v289l-42 -15c-12 -5 -23 -7 -33 -7c-24 0 -38 13 -42 32l-4 22l79 35c44 20 59 23 82 23c29 0 47 -24 47 -46v-390zM300 0h-21c-10 0 -31 11 -31 37c0 11 2 25 10 41l281 603h20c19 0 35 -17 35 -34c0 -7 -1 -15 -5 -23z" />
    <glyph glyph-name="threequarters" unicode="&#xbe;" horiz-adv-x="900" 
d="M863 141c0 -22 -12 -37 -36 -37h-36v-104h-31c-30 0 -51 19 -51 56v48h-148c-29 0 -48 19 -48 39c0 25 5 38 11 48c30 55 125 198 186 247h29c30 0 52 -20 52 -61v-201h72v-35zM340 0h-21c-10 0 -31 11 -31 37c0 11 2 25 10 41l281 603h20c19 0 35 -17 35 -34
c0 -7 -1 -15 -5 -23zM709 176v173c-30 -39 -90 -126 -116 -173h116zM354 374c0 -83 -58 -138 -172 -138c-69 0 -126 29 -126 89v34h3c27 -29 68 -47 127 -47c58 0 81 26 81 59c0 43 -28 58 -82 59c-39 1 -53 12 -53 34v28c12 2 28 2 47 3c65 3 86 26 86 57
c0 39 -27 63 -86 63c-48 0 -94 -16 -117 -47h-3v38c0 35 46 84 135 84c96 0 157 -49 157 -122c0 -63 -34 -92 -78 -102c38 -8 81 -49 81 -92z" />
    <glyph glyph-name="Agrave" unicode="&#xc0;" horiz-adv-x="597" 
d="M582 0h-33c-39 0 -57 17 -63 48c-9 47 -24 99 -32 132h-318c-13 -50 -31 -124 -41 -180h-35c-29 0 -41 13 -41 44c0 94 135 508 240 636h30c38 0 63 -25 92 -76c60 -105 167 -384 201 -604zM431 253c-36 128 -78 238 -137 345c-64 -114 -102 -219 -137 -345h274zM336 754
h-16c-26 0 -56 4 -120 33c-44 20 -64 41 -64 70c0 22 14 40 41 40c23 0 49 -6 84 -41c25 -25 58 -60 75 -96v-6z" />
    <glyph glyph-name="Aacute" unicode="&#xc1;" horiz-adv-x="597" 
d="M582 0h-33c-39 0 -57 17 -63 48c-9 47 -24 99 -32 132h-318c-13 -50 -31 -124 -41 -180h-35c-29 0 -41 13 -41 44c0 94 135 508 240 636h30c38 0 63 -25 92 -76c60 -105 167 -384 201 -604zM431 253c-36 128 -78 238 -137 345c-64 -114 -102 -219 -137 -345h274zM253 752
v6c17 36 50 71 75 96c35 35 61 41 84 41c27 0 41 -18 41 -40c0 -29 -20 -50 -64 -70c-64 -29 -94 -33 -120 -33h-16z" />
    <glyph glyph-name="Acircumflex" unicode="&#xc2;" horiz-adv-x="597" 
d="M582 0h-33c-39 0 -57 17 -63 48c-9 47 -24 99 -32 132h-318c-13 -50 -31 -124 -41 -180h-35c-29 0 -41 13 -41 44c0 94 135 508 240 636h30c38 0 63 -25 92 -76c60 -105 167 -384 201 -604zM431 253c-36 128 -78 238 -137 345c-64 -114 -102 -219 -137 -345h274zM441 715
l-153 78l-150 -78v40c0 27 11 45 32 57l119 69l117 -68c22 -13 35 -30 35 -58v-40z" />
    <glyph glyph-name="Atilde" unicode="&#xc3;" horiz-adv-x="597" 
d="M582 0h-33c-39 0 -57 17 -63 48c-9 47 -24 99 -32 132h-318c-13 -50 -31 -124 -41 -180h-35c-29 0 -41 13 -41 44c0 94 135 508 240 636h30c38 0 63 -25 92 -76c60 -105 167 -384 201 -604zM431 253c-36 128 -78 238 -137 345c-64 -114 -102 -219 -137 -345h274zM356 748
c-22 0 -53 18 -70 36c-18 19 -35 33 -50 33c-28 0 -40 -26 -40 -70h-28c-11 0 -31 13 -31 41c0 70 54 99 97 99c21 0 49 -12 67 -31c22 -23 37 -38 55 -38c29 0 41 22 41 70h29c12 0 31 -14 31 -42c0 -61 -44 -98 -101 -98z" />
    <glyph glyph-name="Adieresis" unicode="&#xc4;" horiz-adv-x="597" 
d="M582 0h-33c-39 0 -57 17 -63 48c-9 47 -24 99 -32 132h-318c-13 -50 -31 -124 -41 -180h-35c-29 0 -41 13 -41 44c0 94 135 508 240 636h30c38 0 63 -25 92 -76c60 -105 167 -384 201 -604zM431 253c-36 128 -78 238 -137 345c-64 -114 -102 -219 -137 -345h274zM126 815
c0 33 28 60 61 60s60 -27 60 -60s-27 -61 -60 -61s-61 28 -61 61zM333 815c0 33 28 60 61 60s60 -27 60 -60s-27 -61 -60 -61s-61 28 -61 61z" />
    <glyph glyph-name="Aring" unicode="&#xc5;" horiz-adv-x="597" 
d="M582 0h-35c-39 0 -59 20 -63 48c-7 46 -22 99 -30 132h-318c-13 -50 -31 -124 -41 -180h-36c-29 0 -41 13 -41 44c0 85 112 429 211 590c-29 19 -44 51 -44 85c0 55 34 104 107 104c71 0 106 -48 106 -104c0 -33 -14 -63 -39 -82c7 -8 14 -19 22 -33
c60 -105 167 -384 201 -604zM292 770c-25 0 -43 -22 -43 -51c0 -27 19 -49 42 -49c25 0 45 19 45 49c0 29 -19 51 -44 51zM431 253c-33 128 -78 238 -137 345c-64 -114 -102 -219 -137 -345h274z" />
    <glyph glyph-name="Ccedilla" unicode="&#xc7;" horiz-adv-x="591" 
d="M566 529h-7c-38 57 -106 76 -167 76c-147 0 -245 -103 -245 -248c0 -187 109 -282 249 -282c72 0 126 25 163 67h5v-28c0 -65 -67 -125 -186 -124h-8l-4 -40c70 0 106 -24 106 -74c0 -69 -61 -89 -123 -89c-35 0 -100 4 -100 58v23c26 -19 64 -24 94 -24c42 0 56 5 56 29
c0 21 -13 28 -53 28c-17 0 -36 -1 -51 -3c7 21 19 68 26 97c-151 27 -266 161 -266 347c0 179 122 348 336 348c112 0 175 -69 175 -126v-35z" />
    <glyph glyph-name="Egrave" unicode="&#xc8;" horiz-adv-x="560" 
d="M523 71c0 -47 -16 -76 -127 -76h-84c-170 0 -247 98 -247 283v123c0 58 11 135 23 184c16 66 41 95 86 95h355v-37c0 -24 -15 -47 -66 -47h-282c-14 -55 -24 -136 -24 -207h295v-29c0 -27 -18 -49 -59 -49h-236v-50c0 -137 51 -183 186 -183h52c51 0 96 10 128 19v-26z
M373 754h-16c-26 0 -56 4 -120 33c-44 20 -64 41 -64 70c0 22 14 40 41 40c23 0 49 -6 84 -41c25 -25 58 -60 75 -96v-6z" />
    <glyph glyph-name="Eacute" unicode="&#xc9;" horiz-adv-x="560" 
d="M523 71c0 -47 -16 -76 -127 -76h-84c-170 0 -247 98 -247 283v123c0 58 11 135 23 184c16 66 41 95 86 95h355v-37c0 -24 -15 -47 -66 -47h-282c-14 -55 -24 -136 -24 -207h295v-29c0 -27 -18 -49 -59 -49h-236v-50c0 -137 51 -183 186 -183h52c51 0 96 10 128 19v-26z
M254 754v6c17 36 50 71 75 96c35 35 61 41 84 41c27 0 41 -18 41 -40c0 -29 -20 -50 -64 -70c-64 -29 -94 -33 -120 -33h-16z" />
    <glyph glyph-name="Ecircumflex" unicode="&#xca;" horiz-adv-x="560" 
d="M523 71c0 -47 -16 -76 -127 -76h-84c-170 0 -247 98 -247 283v123c0 58 11 135 23 184c16 66 41 95 86 95h355v-37c0 -24 -15 -47 -66 -47h-282c-14 -55 -24 -136 -24 -207h295v-29c0 -27 -18 -49 -59 -49h-236v-50c0 -137 51 -183 186 -183h52c51 0 96 10 128 19v-26z
M455 720l-153 78l-150 -78v40c0 27 11 45 32 57l119 69l117 -68c22 -13 35 -30 35 -58v-40z" />
    <glyph glyph-name="Edieresis" unicode="&#xcb;" horiz-adv-x="560" 
d="M523 71c0 -47 -16 -76 -127 -76h-84c-170 0 -247 98 -247 283v123c0 58 11 135 23 184c16 66 41 95 86 95h355v-37c0 -24 -15 -47 -66 -47h-282c-14 -55 -24 -136 -24 -207h295v-29c0 -27 -18 -49 -59 -49h-236v-50c0 -137 51 -183 186 -183h52c51 0 96 10 128 19v-26z
M133 815c0 33 28 60 61 60s60 -27 60 -60s-27 -61 -60 -61s-61 28 -61 61zM340 815c0 33 28 60 61 60s60 -27 60 -60s-27 -61 -60 -61s-61 28 -61 61z" />
    <glyph glyph-name="Igrave" unicode="&#xcc;" horiz-adv-x="263" 
d="M178 0h-33c-35 0 -60 20 -60 67v613h44c24 0 49 -19 49 -46v-634zM187 754h-16c-26 0 -56 4 -120 33c-44 20 -64 41 -64 70c0 22 14 40 41 40c23 0 49 -6 84 -41c25 -25 58 -60 75 -96v-6z" />
    <glyph glyph-name="Iacute" unicode="&#xcd;" horiz-adv-x="263" 
d="M178 0h-33c-35 0 -60 20 -60 67v613h44c24 0 49 -19 49 -46v-634zM72 754v6c17 36 50 71 75 96c35 35 61 41 84 41c27 0 41 -18 41 -40c0 -29 -20 -50 -64 -70c-64 -29 -94 -33 -120 -33h-16z" />
    <glyph glyph-name="Icircumflex" unicode="&#xce;" horiz-adv-x="263" 
d="M178 0h-33c-35 0 -60 20 -60 67v613h44c24 0 49 -19 49 -46v-634zM284 719l-153 78l-150 -78v40c0 27 11 45 32 57l119 69l117 -68c22 -13 35 -30 35 -58v-40z" />
    <glyph glyph-name="Idieresis" unicode="&#xcf;" horiz-adv-x="263" 
d="M178 0h-33c-35 0 -60 20 -60 67v613h44c24 0 49 -19 49 -46v-634zM-47 815c0 33 28 60 61 60s60 -27 60 -60s-27 -61 -60 -61s-61 28 -61 61zM160 815c0 33 28 60 61 60s60 -27 60 -60s-27 -61 -60 -61s-61 28 -61 61z" />
    <glyph glyph-name="Eth" unicode="&#xd0;" horiz-adv-x="670" 
d="M615 347c0 -211 -127 -352 -305 -352h-61c-115 0 -174 58 -174 145v172h-83v35c0 19 17 33 46 33h37v285c38 10 108 20 152 20h85c164 0 303 -133 303 -338zM523 333c0 183 -89 270 -233 270h-39c-22 0 -59 -4 -84 -9v-214h147v-32c0 -20 -17 -36 -48 -36h-99v-147
c0 -62 33 -88 96 -88h37c141 0 223 104 223 256z" />
    <glyph glyph-name="Ntilde" unicode="&#xd1;" horiz-adv-x="685" 
d="M605 0h-28c-62 0 -117 34 -189 179l-144 291c-28 57 -50 89 -75 113v-583h-38c-29 0 -51 22 -51 62v619h44c80 0 134 -55 174 -136l144 -292c26 -52 47 -104 77 -141v568h38c26 0 48 -20 48 -48v-632zM394 749c-22 0 -53 18 -70 36c-18 19 -35 33 -50 33
c-28 0 -40 -26 -40 -70h-28c-11 0 -31 13 -31 41c0 70 54 99 97 99c21 0 49 -12 67 -31c22 -23 37 -38 55 -38c29 0 41 22 41 70h29c12 0 31 -14 31 -42c0 -61 -44 -98 -101 -98z" />
    <glyph glyph-name="Ograve" unicode="&#xd2;" horiz-adv-x="726" 
d="M671 349c0 -208 -113 -359 -313 -359c-164 0 -302 127 -302 342c0 209 113 358 313 358c183 0 302 -140 302 -341zM580 332c0 182 -69 274 -222 274c-129 0 -211 -84 -211 -257c0 -176 75 -275 222 -275c132 0 211 100 211 258zM393 754h-16c-26 0 -56 4 -120 33
c-44 20 -64 41 -64 70c0 22 14 40 41 40c23 0 49 -6 84 -41c25 -25 58 -60 75 -96v-6z" />
    <glyph glyph-name="Oacute" unicode="&#xd3;" horiz-adv-x="726" 
d="M671 349c0 -208 -113 -359 -313 -359c-164 0 -302 127 -302 342c0 209 113 358 313 358c183 0 302 -140 302 -341zM580 332c0 182 -69 274 -222 274c-129 0 -211 -84 -211 -257c0 -176 75 -275 222 -275c132 0 211 100 211 258zM315 753v6c17 36 50 71 75 96
c35 35 61 41 84 41c27 0 41 -18 41 -40c0 -29 -20 -50 -64 -70c-64 -29 -94 -33 -120 -33h-16z" />
    <glyph glyph-name="Ocircumflex" unicode="&#xd4;" horiz-adv-x="726" 
d="M671 349c0 -208 -113 -359 -313 -359c-164 0 -302 127 -302 342c0 209 113 358 313 358c183 0 302 -140 302 -341zM580 332c0 182 -69 274 -222 274c-129 0 -211 -84 -211 -257c0 -176 75 -275 222 -275c132 0 211 100 211 258zM516 720l-153 78l-150 -78v40
c0 27 11 45 32 57l119 69l117 -68c22 -13 35 -30 35 -58v-40z" />
    <glyph glyph-name="Otilde" unicode="&#xd5;" horiz-adv-x="726" 
d="M671 349c0 -208 -113 -359 -313 -359c-164 0 -302 127 -302 342c0 209 113 358 313 358c183 0 302 -140 302 -341zM580 332c0 182 -69 274 -222 274c-129 0 -211 -84 -211 -257c0 -176 75 -275 222 -275c132 0 211 100 211 258zM407 749c-22 0 -53 18 -70 36
c-18 19 -35 33 -50 33c-28 0 -40 -26 -40 -70h-28c-11 0 -31 13 -31 41c0 70 54 99 97 99c21 0 49 -12 67 -31c22 -23 37 -38 55 -38c29 0 41 22 41 70h29c12 0 31 -14 31 -42c0 -61 -44 -98 -101 -98z" />
    <glyph glyph-name="Odieresis" unicode="&#xd6;" horiz-adv-x="726" 
d="M671 349c0 -208 -113 -359 -313 -359c-164 0 -302 127 -302 342c0 209 113 358 313 358c183 0 302 -140 302 -341zM580 332c0 182 -69 274 -222 274c-129 0 -211 -84 -211 -257c0 -176 75 -275 222 -275c132 0 211 100 211 258zM201 815c0 33 28 60 61 60s60 -27 60 -60
s-27 -61 -60 -61s-61 28 -61 61zM408 815c0 33 28 60 61 60s60 -27 60 -60s-27 -61 -60 -61s-61 28 -61 61z" />
    <glyph glyph-name="multiply" unicode="&#xd7;" 
d="M511 84c-9 -9 -19 -13 -29 -13c-12 0 -25 6 -39 20l-151 151l-178 -178l-28 29c-8 9 -13 19 -13 29c0 12 6 25 20 39l140 141l-177 177l27 28c8 9 19 13 30 13c12 0 25 -5 37 -17l142 -142l170 170l27 -28c9 -9 14 -20 14 -32c0 -11 -5 -24 -17 -35l-135 -134l189 -189z
" />
    <glyph glyph-name="Ugrave" unicode="&#xd9;" horiz-adv-x="684" 
d="M70 307v373h32c44 0 60 -18 60 -72v-293c0 -169 56 -240 183 -240c129 0 177 69 177 232v373h35c38 0 57 -22 57 -67v-298c0 -207 -96 -325 -275 -325c-180 0 -269 116 -269 317zM378 753h-16c-26 0 -56 4 -120 33c-44 20 -64 41 -64 70c0 22 14 40 41 40
c23 0 49 -6 84 -41c25 -25 58 -60 75 -96v-6z" />
    <glyph glyph-name="Uacute" unicode="&#xda;" horiz-adv-x="684" 
d="M70 307v373h32c44 0 60 -18 60 -72v-293c0 -169 56 -240 183 -240c129 0 177 69 177 232v373h35c38 0 57 -22 57 -67v-298c0 -207 -96 -325 -275 -325c-180 0 -269 116 -269 317zM265 754v6c17 36 50 71 75 96c35 35 61 41 84 41c27 0 41 -18 41 -40
c0 -29 -20 -50 -64 -70c-64 -29 -94 -33 -120 -33h-16z" />
    <glyph glyph-name="Ucircumflex" unicode="&#xdb;" horiz-adv-x="684" 
d="M70 307v373h32c44 0 60 -18 60 -72v-293c0 -169 56 -240 183 -240c129 0 177 69 177 232v373h35c38 0 57 -22 57 -67v-298c0 -207 -96 -325 -275 -325c-180 0 -269 116 -269 317zM485 720l-153 78l-150 -78v40c0 27 11 45 32 57l119 69l117 -68c22 -13 35 -30 35 -58v-40
z" />
    <glyph glyph-name="Udieresis" unicode="&#xdc;" horiz-adv-x="684" 
d="M70 307v373h32c44 0 60 -18 60 -72v-293c0 -169 56 -240 183 -240c129 0 177 69 177 232v373h35c38 0 57 -22 57 -67v-298c0 -207 -96 -325 -275 -325c-180 0 -269 116 -269 317zM173 815c0 33 28 60 61 60s60 -27 60 -60s-27 -61 -60 -61s-61 28 -61 61zM380 815
c0 33 28 60 61 60s60 -27 60 -60s-27 -61 -60 -61s-61 28 -61 61z" />
    <glyph glyph-name="Yacute" unicode="&#xdd;" horiz-adv-x="553" 
d="M541 643c0 -43 -141 -270 -215 -358v-285h-34c-34 0 -58 17 -58 55v229c-80 107 -174 269 -219 396h47c32 0 55 -15 69 -49c35 -83 90 -181 156 -277c63 90 144 227 180 326h38c26 0 36 -15 36 -37zM236 747v6c17 36 50 71 75 96c35 35 61 41 84 41c27 0 41 -18 41 -40
c0 -29 -20 -50 -64 -70c-64 -29 -94 -33 -120 -33h-16z" />
    <glyph glyph-name="Thorn" unicode="&#xde;" horiz-adv-x="580" 
d="M173 477l-1 -229c37 -20 85 -26 137 -26c93 0 140 50 140 131c0 89 -47 134 -141 134h-52c-23 0 -62 -5 -83 -10zM80 680h44c24 0 49 -19 49 -46v-70c28 5 56 8 80 8h53c136 0 235 -76 235 -209c0 -128 -102 -222 -233 -222c-61 0 -109 11 -136 29v-170h-34
c-34 0 -58 19 -58 60v620z" />
    <glyph glyph-name="agrave" unicode="&#xe0;" horiz-adv-x="535" 
d="M468 176c0 -108 -58 -186 -208 -186c-109 0 -204 63 -204 158c0 115 89 178 249 178h72v25c0 78 -39 110 -126 110c-80 0 -139 -30 -170 -73h-5v44c0 49 64 113 184 113c136 0 208 -71 208 -201v-168zM378 183v67h-73c-107 0 -156 -33 -156 -92c0 -47 46 -84 115 -84
c81 0 114 32 114 109zM323 628h-16c-26 0 -56 4 -120 33c-44 20 -64 41 -64 70c0 22 14 40 41 40c23 0 49 -6 84 -41c25 -25 58 -60 75 -96v-6z" />
    <glyph glyph-name="aacute" unicode="&#xe1;" horiz-adv-x="535" 
d="M468 176c0 -108 -58 -186 -208 -186c-109 0 -204 63 -204 158c0 115 89 178 249 178h72v25c0 78 -39 110 -126 110c-80 0 -139 -30 -170 -73h-5v44c0 49 64 113 184 113c136 0 208 -71 208 -201v-168zM378 183v67h-73c-107 0 -156 -33 -156 -92c0 -47 46 -84 115 -84
c81 0 114 32 114 109zM208 628v6c17 36 50 71 75 96c35 35 61 41 84 41c27 0 41 -18 41 -40c0 -29 -20 -50 -64 -70c-64 -29 -94 -33 -120 -33h-16z" />
    <glyph glyph-name="acircumflex" unicode="&#xe2;" horiz-adv-x="535" 
d="M468 176c0 -108 -58 -186 -208 -186c-109 0 -204 63 -204 158c0 115 89 178 249 178h72v25c0 78 -39 110 -126 110c-80 0 -139 -30 -170 -73h-5v44c0 49 64 113 184 113c136 0 208 -71 208 -201v-168zM378 183v67h-73c-107 0 -156 -33 -156 -92c0 -47 46 -84 115 -84
c81 0 114 32 114 109zM412 594l-153 78l-150 -78v40c0 27 11 45 32 57l119 69l117 -68c22 -13 35 -30 35 -58v-40z" />
    <glyph glyph-name="atilde" unicode="&#xe3;" horiz-adv-x="535" 
d="M468 176c0 -108 -58 -186 -208 -186c-109 0 -204 63 -204 158c0 115 89 178 249 178h72v25c0 78 -39 110 -126 110c-80 0 -139 -30 -170 -73h-5v44c0 49 64 113 184 113c136 0 208 -71 208 -201v-168zM378 183v67h-73c-107 0 -156 -33 -156 -92c0 -47 46 -84 115 -84
c81 0 114 32 114 109zM317 623c-22 0 -53 18 -70 36c-18 19 -35 33 -50 33c-28 0 -40 -26 -40 -70h-28c-11 0 -31 13 -31 41c0 70 54 99 97 99c21 0 49 -12 67 -31c22 -23 37 -38 55 -38c29 0 41 22 41 70h29c12 0 31 -14 31 -42c0 -61 -44 -98 -101 -98z" />
    <glyph glyph-name="adieresis" unicode="&#xe4;" horiz-adv-x="535" 
d="M468 176c0 -108 -58 -186 -208 -186c-109 0 -204 63 -204 158c0 115 89 178 249 178h72v25c0 78 -39 110 -126 110c-80 0 -139 -30 -170 -73h-5v44c0 49 64 113 184 113c136 0 208 -71 208 -201v-168zM378 183v67h-73c-107 0 -156 -33 -156 -92c0 -47 46 -84 115 -84
c81 0 114 32 114 109zM97 680c0 33 28 60 61 60s60 -27 60 -60s-27 -61 -60 -61s-61 28 -61 61zM304 680c0 33 28 60 61 60s60 -27 60 -60s-27 -61 -60 -61s-61 28 -61 61z" />
    <glyph glyph-name="aring" unicode="&#xe5;" horiz-adv-x="535" 
d="M468 176c0 -108 -58 -186 -208 -186c-109 0 -204 63 -204 158c0 115 89 178 249 178h72v25c0 78 -39 110 -126 110c-80 0 -139 -30 -170 -73h-5v44c0 49 64 113 184 113c136 0 208 -71 208 -201v-168zM378 183v67h-73c-107 0 -156 -33 -156 -92c0 -47 46 -84 115 -84
c81 0 114 32 114 109zM267 604c-71 0 -107 50 -107 103c0 55 34 104 107 104c71 0 106 -48 106 -104c0 -55 -38 -103 -106 -103zM267 758c-25 0 -43 -22 -43 -51c0 -27 19 -49 42 -49c25 0 45 19 45 49c0 29 -19 51 -44 51z" />
    <glyph glyph-name="ccedilla" unicode="&#xe7;" horiz-adv-x="521" 
d="M466 389h-4c-19 40 -83 68 -135 68c-99 0 -179 -82 -179 -179c0 -140 101 -202 184 -202c58 0 94 15 121 47h5v-38c0 -33 -26 -91 -132 -94l-4 -43c70 0 106 -23 106 -72c0 -69 -61 -89 -123 -89c-35 0 -100 4 -100 58v27c20 -20 63 -28 94 -28c42 0 56 5 56 29
c0 21 -13 28 -53 28c-17 0 -36 -1 -51 -3c6 19 18 67 26 97c-105 19 -222 109 -222 263c0 152 102 286 263 286c80 0 148 -40 148 -117v-38z" />
    <glyph glyph-name="egrave" unicode="&#xe8;" horiz-adv-x="562" 
d="M507 359c0 -94 -44 -133 -227 -133h-132c9 -89 71 -152 171 -152c82 0 132 26 162 55h5v-40c0 -56 -60 -99 -180 -99c-147 0 -251 113 -251 267c0 173 108 288 250 288c104 0 202 -79 202 -186zM419 354c0 58 -40 109 -124 109c-88 0 -144 -74 -147 -143l-1 -22l121 2
c129 2 151 14 151 54zM343 628h-16c-26 0 -56 4 -120 33c-44 20 -64 41 -64 70c0 22 14 40 41 40c23 0 49 -6 84 -41c25 -25 58 -60 75 -96v-6z" />
    <glyph glyph-name="eacute" unicode="&#xe9;" horiz-adv-x="562" 
d="M507 359c0 -94 -44 -133 -227 -133h-132c9 -89 71 -152 171 -152c82 0 132 26 162 55h5v-40c0 -56 -60 -99 -180 -99c-147 0 -251 113 -251 267c0 173 108 288 250 288c104 0 202 -79 202 -186zM419 354c0 58 -40 109 -124 109c-88 0 -144 -74 -147 -143l-1 -22l121 2
c129 2 151 14 151 54zM235 628v6c17 36 50 71 75 96c35 35 61 41 84 41c27 0 41 -18 41 -40c0 -29 -20 -50 -64 -70c-64 -29 -94 -33 -120 -33h-16z" />
    <glyph glyph-name="ecircumflex" unicode="&#xea;" horiz-adv-x="562" 
d="M507 359c0 -94 -44 -133 -227 -133h-132c9 -89 71 -152 171 -152c82 0 132 26 162 55h5v-40c0 -56 -60 -99 -180 -99c-147 0 -251 113 -251 267c0 173 108 288 250 288c104 0 202 -79 202 -186zM419 354c0 58 -40 109 -124 109c-88 0 -144 -74 -147 -143l-1 -22l121 2
c129 2 151 14 151 54zM451 594l-153 78l-150 -78v40c0 27 11 45 32 57l119 69l117 -68c22 -13 35 -30 35 -58v-40z" />
    <glyph glyph-name="edieresis" unicode="&#xeb;" horiz-adv-x="562" 
d="M507 359c0 -94 -44 -133 -227 -133h-132c9 -89 71 -152 171 -152c82 0 132 26 162 55h5v-40c0 -56 -60 -99 -180 -99c-147 0 -251 113 -251 267c0 173 108 288 250 288c104 0 202 -79 202 -186zM419 354c0 58 -40 109 -124 109c-88 0 -144 -74 -147 -143l-1 -22l121 2
c129 2 151 14 151 54zM123 680c0 33 28 60 61 60s60 -27 60 -60s-27 -61 -60 -61s-61 28 -61 61zM330 680c0 33 28 60 61 60s60 -27 60 -60s-27 -61 -60 -61s-61 28 -61 61z" />
    <glyph glyph-name="igrave" unicode="&#xec;" horiz-adv-x="317" 
d="M302 49c0 -34 -21 -54 -53 -54c-105 0 -160 52 -160 159v381h28c31 0 63 -24 63 -71v-297c0 -67 33 -88 83 -88h39v-30zM180 628h-16c-26 0 -56 4 -120 33c-44 20 -64 41 -64 70c0 22 14 40 41 40c23 0 49 -6 84 -41c25 -25 58 -60 75 -96v-6z" />
    <glyph glyph-name="iacute" unicode="&#xed;" horiz-adv-x="317" 
d="M302 49c0 -34 -21 -54 -53 -54c-105 0 -160 52 -160 159v381h28c31 0 63 -24 63 -71v-297c0 -67 33 -88 83 -88h39v-30zM72 628v6c17 36 50 71 75 96c35 35 61 41 84 41c27 0 41 -18 41 -40c0 -29 -20 -50 -64 -70c-64 -29 -94 -33 -120 -33h-16z" />
    <glyph glyph-name="icircumflex" unicode="&#xee;" horiz-adv-x="317" 
d="M302 49c0 -34 -21 -54 -53 -54c-105 0 -160 52 -160 159v381h28c31 0 63 -24 63 -71v-297c0 -67 33 -88 83 -88h39v-30zM285 594l-153 78l-150 -78v40c0 27 11 45 32 57l119 69l117 -68c22 -13 35 -30 35 -58v-40z" />
    <glyph glyph-name="idieresis" unicode="&#xef;" horiz-adv-x="317" 
d="M302 49c0 -34 -21 -54 -53 -54c-105 0 -160 52 -160 159v381h28c31 0 63 -24 63 -71v-297c0 -67 33 -88 83 -88h39v-30zM179 680c0 33 27 60 60 60s61 -27 61 -60s-28 -61 -61 -61s-60 28 -60 61zM-29 680c0 33 28 60 61 60s60 -27 60 -60s-27 -61 -60 -61s-61 28 -61 61
z" />
    <glyph glyph-name="eth" unicode="&#xf0;" horiz-adv-x="602" 
d="M545 278c0 -162 -88 -290 -250 -290c-151 0 -238 129 -238 272c0 162 82 281 238 281c55 0 121 -18 147 -62c-23 108 -75 155 -128 185l-105 -83c-15 13 -22 20 -18 42c2 7 7 15 16 22l58 47c-19 8 -34 9 -56 14c-20 5 -33 19 -33 29v34l30 -1c41 -2 84 -15 124 -30
l81 65l15 -15c7 -7 6 -14 4 -25c-3 -14 -19 -27 -30 -36c-4 -3 -9 -7 -23 -17c103 -72 168 -213 168 -384v-48zM451 258c0 129 -49 201 -159 201c-96 0 -144 -72 -144 -179c0 -128 48 -205 159 -205c97 0 144 77 144 183z" />
    <glyph glyph-name="ntilde" unicode="&#xf1;" horiz-adv-x="582" 
d="M512 0h-33c-37 0 -57 19 -57 59v246c0 111 -41 154 -136 154c-80 0 -126 -45 -126 -154v-305h-34c-33 0 -56 20 -56 62v245c0 150 90 238 227 238c134 0 215 -77 215 -237v-308zM347 623c-22 0 -53 18 -70 36c-18 19 -35 33 -50 33c-28 0 -40 -26 -40 -70h-28
c-11 0 -31 13 -31 41c0 70 54 99 97 99c21 0 49 -12 67 -31c22 -23 37 -38 55 -38c29 0 41 22 41 70h29c12 0 31 -14 31 -42c0 -61 -44 -98 -101 -98z" />
    <glyph glyph-name="ograve" unicode="&#xf2;" horiz-adv-x="599" 
d="M543 278c0 -180 -95 -288 -240 -288c-142 0 -248 109 -248 268c0 177 97 286 248 286c142 0 240 -107 240 -266zM451 257c0 132 -56 201 -161 201c-86 0 -143 -70 -143 -181c0 -123 60 -201 165 -201c90 0 139 76 139 181zM333 628h-16c-26 0 -56 4 -120 33
c-44 20 -64 41 -64 70c0 22 14 40 41 40c23 0 49 -6 84 -41c25 -25 58 -60 75 -96v-6z" />
    <glyph glyph-name="oacute" unicode="&#xf3;" horiz-adv-x="599" 
d="M543 278c0 -180 -95 -288 -240 -288c-142 0 -248 109 -248 268c0 177 97 286 248 286c142 0 240 -107 240 -266zM451 257c0 132 -56 201 -161 201c-86 0 -143 -70 -143 -181c0 -123 60 -201 165 -201c90 0 139 76 139 181zM245 628v6c17 36 50 71 75 96
c35 35 61 41 84 41c27 0 41 -18 41 -40c0 -29 -20 -50 -64 -70c-64 -29 -94 -33 -120 -33h-16z" />
    <glyph glyph-name="ocircumflex" unicode="&#xf4;" horiz-adv-x="599" 
d="M543 278c0 -180 -95 -288 -240 -288c-142 0 -248 109 -248 268c0 177 97 286 248 286c142 0 240 -107 240 -266zM451 257c0 132 -56 201 -161 201c-86 0 -143 -70 -143 -181c0 -123 60 -201 165 -201c90 0 139 76 139 181zM455 594l-153 78l-150 -78v40c0 27 11 45 32 57
l119 69l117 -68c22 -13 35 -30 35 -58v-40z" />
    <glyph glyph-name="otilde" unicode="&#xf5;" horiz-adv-x="599" 
d="M543 278c0 -180 -95 -288 -240 -288c-142 0 -248 109 -248 268c0 177 97 286 248 286c142 0 240 -107 240 -266zM451 257c0 132 -56 201 -161 201c-86 0 -143 -70 -143 -181c0 -123 60 -201 165 -201c90 0 139 76 139 181zM357 623c-22 0 -53 18 -70 36
c-18 19 -35 33 -50 33c-28 0 -40 -26 -40 -70h-28c-11 0 -31 13 -31 41c0 70 54 99 97 99c21 0 49 -12 67 -31c22 -23 37 -38 55 -38c29 0 41 22 41 70h29c12 0 31 -14 31 -42c0 -61 -44 -98 -101 -98z" />
    <glyph glyph-name="odieresis" unicode="&#xf6;" horiz-adv-x="599" 
d="M543 278c0 -180 -95 -288 -240 -288c-142 0 -248 109 -248 268c0 177 97 286 248 286c142 0 240 -107 240 -266zM451 257c0 132 -56 201 -161 201c-86 0 -143 -70 -143 -181c0 -123 60 -201 165 -201c90 0 139 76 139 181zM133 680c0 33 28 60 61 60s60 -27 60 -60
s-27 -61 -60 -61s-61 28 -61 61zM340 680c0 33 28 60 61 60s60 -27 60 -60s-27 -61 -60 -61s-61 28 -61 61z" />
    <glyph glyph-name="divide" unicode="&#xf7;" 
d="M446 268h-366v24c0 30 15 54 57 54h355v-36c0 -19 -17 -42 -46 -42zM353 110c0 -41 -31 -70 -71 -70s-72 29 -72 70s32 71 72 71s71 -30 71 -71zM353 503c0 -41 -31 -70 -71 -70s-72 29 -72 70s32 71 72 71s71 -30 71 -71z" />
    <glyph glyph-name="ugrave" unicode="&#xf9;" horiz-adv-x="582" 
d="M512 230c0 -157 -81 -240 -224 -240c-131 0 -218 91 -218 248v297h28c41 0 63 -24 63 -71v-221c0 -109 55 -167 133 -167c84 0 127 48 127 163v296h25c44 0 66 -23 66 -71v-234zM333 628h-16c-26 0 -56 4 -120 33c-44 20 -64 41 -64 70c0 22 14 40 41 40
c23 0 49 -6 84 -41c25 -25 58 -60 75 -96v-6z" />
    <glyph glyph-name="uacute" unicode="&#xfa;" horiz-adv-x="582" 
d="M512 230c0 -157 -81 -240 -224 -240c-131 0 -218 91 -218 248v297h28c41 0 63 -24 63 -71v-221c0 -109 55 -167 133 -167c84 0 127 48 127 163v296h25c44 0 66 -23 66 -71v-234zM225 628v6c17 36 50 71 75 96c35 35 61 41 84 41c27 0 41 -18 41 -40
c0 -29 -20 -50 -64 -70c-64 -29 -94 -33 -120 -33h-16z" />
    <glyph glyph-name="ucircumflex" unicode="&#xfb;" horiz-adv-x="582" 
d="M512 230c0 -157 -81 -240 -224 -240c-131 0 -218 91 -218 248v297h28c41 0 63 -24 63 -71v-221c0 -109 55 -167 133 -167c84 0 127 48 127 163v296h25c44 0 66 -23 66 -71v-234zM441 594l-153 78l-150 -78v40c0 27 11 45 32 57l119 69l117 -68c22 -13 35 -30 35 -58v-40z
" />
    <glyph glyph-name="udieresis" unicode="&#xfc;" horiz-adv-x="582" 
d="M512 230c0 -157 -81 -240 -224 -240c-131 0 -218 91 -218 248v297h28c41 0 63 -24 63 -71v-221c0 -109 55 -167 133 -167c84 0 127 48 127 163v296h25c44 0 66 -23 66 -71v-234zM123 680c0 33 28 60 61 60s60 -27 60 -60s-27 -61 -60 -61s-61 28 -61 61zM330 680
c0 33 28 60 61 60s60 -27 60 -60s-27 -61 -60 -61s-61 28 -61 61z" />
    <glyph glyph-name="yacute" unicode="&#xfd;" horiz-adv-x="531" 
d="M498 438c-41 -159 -131 -328 -160 -387c-85 -172 -135 -227 -211 -227c-41 0 -69 23 -69 46v34h43c42 0 69 10 131 127c-84 129 -173 329 -206 504h52c37 0 50 -29 56 -54c24 -107 78 -254 145 -364c57 98 134 301 152 418h36c24 0 42 -9 42 -41c0 -11 -7 -41 -11 -56z
M225 628v6c17 36 50 71 75 96c35 35 61 41 84 41c27 0 41 -18 41 -40c0 -29 -20 -50 -64 -70c-64 -29 -94 -33 -120 -33h-16z" />
    <glyph glyph-name="thorn" unicode="&#xfe;" horiz-adv-x="611" 
d="M70 720h28c37 0 64 -23 64 -70v-166c31 39 96 61 164 61c118 0 230 -107 230 -265c0 -183 -105 -290 -240 -290c-61 0 -119 26 -154 81v-241h-33c-38 0 -59 19 -59 69v821zM162 314v-75c12 -111 75 -164 164 -164c86 0 138 64 138 180c0 145 -65 204 -158 204
c-83 0 -134 -56 -144 -145z" />
    <glyph glyph-name="ydieresis" unicode="&#xff;" horiz-adv-x="531" 
d="M498 438c-41 -159 -131 -328 -160 -387c-85 -172 -135 -227 -211 -227c-41 0 -69 23 -69 46v34h43c42 0 69 10 131 127c-84 129 -173 329 -206 504h52c37 0 50 -29 56 -54c24 -107 78 -254 145 -364c57 98 134 301 152 418h36c24 0 42 -9 42 -41c0 -11 -7 -41 -11 -56z
M113 680c0 33 28 60 61 60s60 -27 60 -60s-27 -61 -60 -61s-61 28 -61 61zM320 680c0 33 28 60 61 60s60 -27 60 -60s-27 -61 -60 -61s-61 28 -61 61z" />
    <glyph glyph-name="acute.lc" horiz-adv-x="599" 
d="M245 628v6c17 36 50 71 75 96c35 35 61 41 84 41c27 0 41 -18 41 -40c0 -29 -20 -50 -64 -70c-64 -29 -94 -33 -120 -33h-16z" />
    <glyph glyph-name="acute.uc" horiz-adv-x="726" 
d="M315 753v6c17 36 50 71 75 96c35 35 61 41 84 41c27 0 41 -18 41 -40c0 -29 -20 -50 -64 -70c-64 -29 -94 -33 -120 -33h-16z" />
    <glyph glyph-name="breve.lc" horiz-adv-x="594" 
d="M297 634c-80 0 -130 32 -130 123v2c33 -31 71 -55 131 -55c56 0 97 25 129 55v-7c0 -85 -51 -118 -130 -118z" />
    <glyph glyph-name="breve.uc" horiz-adv-x="594" 
d="M297 758c-80 0 -130 32 -130 123v2c33 -31 71 -55 131 -55c56 0 97 25 129 55v-7c0 -85 -51 -118 -130 -118z" />
    <glyph glyph-name="caron.lc" horiz-adv-x="502" 
d="M107 784l153 -78l150 78v-40c0 -27 -11 -45 -32 -57l-119 -69l-117 68c-22 13 -35 30 -35 58v40z" />
    <glyph glyph-name="caron.uc" horiz-adv-x="589" 
d="M153 921l153 -78l150 78v-40c0 -27 -11 -45 -32 -57l-119 -69l-117 68c-22 13 -35 30 -35 58v40z" />
    <glyph glyph-name="circumflex.lc" horiz-adv-x="599" 
d="M455 594l-153 78l-150 -78v40c0 27 11 45 32 57l119 69l117 -68c22 -13 35 -30 35 -58v-40z" />
    <glyph glyph-name="circumflex.uc" horiz-adv-x="726" 
d="M516 720l-153 78l-150 -78v40c0 27 11 45 32 57l119 69l117 -68c22 -13 35 -30 35 -58v-40z" />
    <glyph glyph-name="commaaccent" unicode="&#xf6c3;" horiz-adv-x="288" 
d="M218 -86l-37 -129l-31 9c-22 7 -38 19 -38 43c0 5 0 11 2 16l35 122l34 -10c22 -6 37 -20 37 -39c0 -4 -1 -8 -2 -12z" />
    <glyph glyph-name="commaturn" horiz-adv-x="288" 
d="M86 635v142h32c27 0 52 -18 52 -52v-134h-36c-29 0 -48 17 -48 44z" />
    <glyph glyph-name="diedot.lc" horiz-adv-x="599" 
d="M132 680c0 33 28 60 61 60s60 -27 60 -60s-27 -61 -60 -61s-61 28 -61 61z" />
    <glyph glyph-name="diedot.uc" horiz-adv-x="726" 
d="M200 815c0 33 28 60 61 60s60 -27 60 -60s-27 -61 -60 -61s-61 28 -61 61z" />
    <glyph glyph-name="dieresis.lc" horiz-adv-x="599" 
d="M340 680c0 33 27 60 60 60s61 -27 61 -60s-28 -61 -61 -61s-60 28 -60 61zM132 680c0 33 28 60 61 60s60 -27 60 -60s-27 -61 -60 -61s-61 28 -61 61z" />
    <glyph glyph-name="dieresis.uc" horiz-adv-x="726" 
d="M408 815c0 33 27 60 60 60s61 -27 61 -60s-28 -61 -61 -61s-60 28 -60 61zM200 815c0 33 28 60 61 60s60 -27 60 -60s-27 -61 -60 -61s-61 28 -61 61z" />
    <glyph glyph-name="dotaccent.lc" horiz-adv-x="407" 
d="M147 678c0 31 26 56 57 56s56 -25 56 -56s-25 -57 -56 -57s-57 26 -57 57z" />
    <glyph glyph-name="dotaccent.uc" horiz-adv-x="407" 
d="M147 811c0 31 26 56 57 56s56 -25 56 -56s-25 -57 -56 -57s-57 26 -57 57z" />
    <glyph glyph-name="dotmath" unicode="&#x22c5;" horiz-adv-x="250" 
d="M60 287c0 36 29 64 65 64s64 -28 64 -64s-28 -65 -64 -65s-65 29 -65 65z" />
    <glyph glyph-name="grave.lc" horiz-adv-x="599" 
d="M333 628h-16c-26 0 -56 4 -120 33c-44 20 -64 41 -64 70c0 22 14 40 41 40c23 0 49 -6 84 -41c25 -25 58 -60 75 -96v-6z" />
    <glyph glyph-name="grave.uc" horiz-adv-x="726" 
d="M393 754h-16c-26 0 -56 4 -120 33c-44 20 -64 41 -64 70c0 22 14 40 41 40c23 0 49 -6 84 -41c25 -25 58 -60 75 -96v-6z" />
    <glyph glyph-name="hungarumlaut.lc" horiz-adv-x="372" 
d="M308 684c-27 -22 -89 -52 -113 -56h-4c10 29 31 67 48 94c23 36 53 66 80 66c29 0 37 -9 37 -32c0 -24 -23 -52 -48 -72zM138 684c-27 -22 -89 -52 -113 -56h-5c11 29 32 67 49 94c22 36 52 66 80 66c29 0 37 -9 37 -32c0 -24 -24 -52 -48 -72z" />
    <glyph glyph-name="hungarumlaut.uc" horiz-adv-x="372" 
d="M308 809c-27 -22 -89 -52 -113 -56h-4c10 29 31 67 48 94c23 36 53 66 80 66c29 0 37 -9 37 -32c0 -24 -23 -52 -48 -72zM138 809c-27 -22 -89 -52 -113 -56h-5c11 29 32 67 49 94c22 36 52 66 80 66c29 0 37 -9 37 -32c0 -24 -24 -52 -48 -72z" />
    <glyph glyph-name="logicaland" unicode="&#x2227;" horiz-adv-x="250" 
d="M60 287c0 36 29 64 65 64s64 -28 64 -64s-28 -65 -64 -65s-65 29 -65 65z" />
    <glyph glyph-name="macron.lc" horiz-adv-x="330" 
d="M221 619h-166v32c0 27 22 52 62 52h158v-36c0 -29 -20 -48 -54 -48z" />
    <glyph glyph-name="macron.uc" horiz-adv-x="330" 
d="M221 754h-166v32c0 27 22 52 62 52h158v-36c0 -29 -20 -48 -54 -48z" />
    <glyph glyph-name="ring.lc" horiz-adv-x="535" 
d="M267 604c-71 0 -107 50 -107 103c0 55 34 104 107 104c71 0 106 -48 106 -104c0 -55 -38 -103 -106 -103zM267 758c-25 0 -43 -22 -43 -51c0 -27 19 -49 42 -49c25 0 45 19 45 49c0 29 -19 51 -44 51z" />
    <glyph glyph-name="ring.uc" horiz-adv-x="413" 
d="M207 616c-71 0 -107 50 -107 103c0 55 34 104 107 104c71 0 106 -48 106 -104c0 -55 -38 -103 -106 -103zM207 770c-25 0 -43 -22 -43 -51c0 -27 19 -49 42 -49c25 0 45 19 45 49c0 29 -19 51 -44 51z" />
    <glyph glyph-name="tilde.lc" horiz-adv-x="599" 
d="M357 623c-22 0 -53 18 -70 36c-18 19 -35 33 -50 33c-28 0 -40 -26 -40 -70h-28c-11 0 -31 13 -31 41c0 70 54 99 97 99c21 0 49 -12 67 -31c22 -23 37 -38 55 -38c29 0 41 22 41 70h29c12 0 31 -14 31 -42c0 -61 -44 -98 -101 -98z" />
    <glyph glyph-name="tilde.uc" horiz-adv-x="726" 
d="M407 749c-22 0 -53 18 -70 36c-18 19 -35 33 -50 33c-28 0 -40 -26 -40 -70h-28c-11 0 -31 13 -31 41c0 70 54 99 97 99c21 0 49 -12 67 -31c22 -23 37 -38 55 -38c29 0 41 22 41 70h29c12 0 31 -14 31 -42c0 -61 -44 -98 -101 -98z" />
    <glyph glyph-name="undercommaaccent" horiz-adv-x="288" 
d="M218 -86l-37 -129l-31 9c-22 7 -38 19 -38 43c0 5 0 11 2 16l35 122l34 -10c22 -6 37 -20 37 -39c0 -4 -1 -8 -2 -12z" />
    <glyph glyph-name="uni00AD" unicode="&#xad;" horiz-adv-x="353" 
d="M300 325c0 -31 -21 -57 -51 -57h-195v30c0 29 24 54 56 54h190v-27z" />
    <glyph glyph-name="uni2219" unicode="&#x2219;" horiz-adv-x="250" 
d="M60 287c0 36 29 64 65 64s64 -28 64 -64s-28 -65 -64 -65s-65 29 -65 65z" />
    <glyph glyph-name="uni2224" unicode="&#x2224;" horiz-adv-x="250" 
d="M60 287c0 36 29 64 65 64s64 -28 64 -64s-28 -65 -64 -65s-65 29 -65 65z" />
    <glyph glyph-name="afii10017" unicode="&#x410;" horiz-adv-x="597" 
d="M582 0h-33c-39 0 -57 17 -63 48c-9 47 -24 99 -32 132h-318c-13 -50 -31 -124 -41 -180h-35c-29 0 -41 13 -41 44c0 94 135 508 240 636h30c38 0 63 -25 92 -76c60 -105 167 -384 201 -604zM431 253c-36 128 -78 238 -137 345c-64 -114 -102 -219 -137 -345h274z" />
    <glyph glyph-name="afii10018" unicode="&#x411;" horiz-adv-x="589" 
d="M545 208c0 -133 -99 -213 -235 -213h-54c-126 0 -176 60 -176 152v473c0 41 24 60 58 60h366v-39c0 -19 -15 -46 -55 -46h-277v-201c27 18 79 32 140 32c161 0 233 -90 233 -218zM453 218c0 81 -47 127 -140 127c-52 0 -104 -6 -141 -26v-168c0 -49 30 -74 90 -74h50
c94 0 141 52 141 141z" />
    <glyph glyph-name="afii10019" unicode="&#x412;" horiz-adv-x="610" 
d="M555 201c0 -127 -97 -206 -224 -206h-80c-126 0 -176 60 -176 152v510c39 13 117 28 165 28h90c137 0 212 -79 212 -178c0 -65 -24 -123 -121 -151c107 -29 134 -106 134 -155zM166 592v-202h138c95 0 148 27 148 108c0 75 -50 106 -142 106h-56c-23 0 -55 -4 -88 -12z
M310 314h-144v-163c0 -49 30 -74 90 -74h71c83 0 136 39 136 118c0 87 -43 119 -153 119z" />
    <glyph glyph-name="afii10020" unicode="&#x413;" horiz-adv-x="479" 
d="M173 0h-35c-39 0 -58 16 -58 55v541c0 61 24 84 99 84h295v-39c0 -19 -15 -46 -55 -46h-246v-595z" />
    <glyph glyph-name="afii10021" unicode="&#x414;" horiz-adv-x="652" 
d="M165 75c35 4 68 6 92 6h127c23 0 59 -2 97 -6c-27 137 -82 358 -158 494c-65 -126 -125 -326 -158 -494zM644 -170h-39c-33 0 -52 26 -52 61v95c-33 8 -141 14 -174 14h-126c-31 0 -121 -6 -154 -14v-156h-39c-33 0 -52 26 -52 61v160c11 4 39 8 61 11
c32 168 137 477 227 623h23c17 0 40 -13 59 -45c95 -159 163 -383 201 -578c24 -3 54 -7 65 -11v-221z" />
    <glyph glyph-name="afii10022" unicode="&#x415;" horiz-adv-x="560" 
d="M523 71c0 -47 -16 -76 -127 -76h-84c-170 0 -247 98 -247 283v123c0 58 11 135 23 184c16 66 41 95 86 95h355v-37c0 -24 -15 -47 -66 -47h-282c-14 -55 -24 -136 -24 -207h295v-29c0 -27 -18 -49 -59 -49h-236v-50c0 -137 51 -183 186 -183h52c51 0 96 10 128 19v-26z
" />
    <glyph glyph-name="afii10024" unicode="&#x416;" horiz-adv-x="895" 
d="M895 39c-14 -26 -25 -44 -59 -44c-33 0 -66 14 -87 37c-77 85 -205 244 -256 316v-348h-34c-31 0 -57 24 -57 64v284c-51 -72 -179 -231 -256 -316c-21 -23 -54 -37 -87 -37c-34 0 -45 18 -59 44c48 20 69 39 104 77c47 52 159 191 197 243c-79 101 -191 246 -271 316v5
h45c57 0 82 -13 103 -36c83 -89 151 -187 224 -285v321h27c42 0 64 -24 64 -63v-258c73 98 141 196 224 285c21 23 46 36 103 36h45v-5c-80 -70 -192 -215 -271 -316c38 -52 150 -191 197 -243c35 -38 56 -57 104 -77z" />
    <glyph glyph-name="afii10025" unicode="&#x417;" horiz-adv-x="562" 
d="M496 202c0 -126 -74 -212 -246 -212c-108 0 -200 57 -200 134v41h6c47 -61 113 -91 201 -91c93 0 146 38 146 116s-60 120 -181 120h-20c-33 0 -46 17 -46 44v26h70c129 0 170 39 170 113s-52 113 -157 113c-98 0 -157 -43 -184 -91h-6v39c0 55 72 136 206 136
c148 0 233 -79 233 -184c0 -96 -61 -140 -142 -156c84 -15 150 -77 150 -148z" />
    <glyph glyph-name="afii10026" unicode="&#x418;" horiz-adv-x="693" 
d="M613 0h-91v588c-25 -24 -47 -56 -75 -113l-144 -296c-71 -146 -127 -179 -189 -179h-34v680h49c21 0 43 -16 43 -46v-527c30 37 52 89 77 141l144 297c39 81 94 135 174 135h46v-680z" />
    <glyph glyph-name="afii10027" unicode="&#x419;" horiz-adv-x="693" 
d="M347 674c-80 0 -130 32 -130 123v2c33 -31 71 -55 131 -55c56 0 97 25 129 55v-7c0 -85 -51 -118 -130 -118zM613 0h-91v588c-25 -24 -47 -56 -75 -113l-144 -296c-71 -146 -127 -179 -189 -179h-34v680h49c21 0 43 -16 43 -46v-527c30 37 52 89 77 141l144 297
c39 81 94 135 174 135h46v-680z" />
    <glyph glyph-name="afii10028" unicode="&#x41a;" horiz-adv-x="573" 
d="M171 0h-34c-31 0 -57 24 -57 64v616h27c42 0 64 -24 64 -63v-258c73 98 141 196 224 285c21 23 46 36 103 36h45v-5c-80 -70 -192 -215 -271 -316c38 -52 150 -191 197 -243c35 -38 56 -57 104 -77c-14 -26 -25 -44 -59 -44c-33 0 -66 14 -87 37
c-77 85 -205 244 -256 316v-348z" />
    <glyph glyph-name="afii10029" unicode="&#x41b;" horiz-adv-x="602" 
d="M26 65c39 197 170 505 241 620h23c17 0 40 -13 59 -45c111 -186 192 -433 228 -640h-40c-25 0 -59 19 -66 55c-26 135 -97 371 -177 514c-75 -146 -158 -390 -187 -569h-44c-23 0 -40 18 -40 36c0 9 1 19 3 29z" />
    <glyph glyph-name="afii10030" unicode="&#x41c;" horiz-adv-x="901" 
d="M826 0h-34c-41 0 -60 21 -60 73c0 107 -16 379 -37 501c-16 -29 -34 -77 -60 -151l-106 -305c-14 -41 -34 -89 -49 -118h-21c-27 0 -60 21 -112 179l-85 257c-15 47 -39 102 -58 137c-28 -187 -41 -428 -43 -573h-27c-33 0 -63 25 -63 73c0 188 37 462 63 607h34
c88 0 126 -79 151 -152l90 -267c15 -45 33 -101 40 -136c11 40 28 92 45 138l88 245c27 75 68 148 87 172h24c61 0 87 -45 96 -129c19 -172 33 -392 37 -551z" />
    <glyph glyph-name="afii10031" unicode="&#x41d;" horiz-adv-x="686" 
d="M606 0h-32c-28 0 -60 21 -60 67v246h-342v-313h-34c-27 0 -58 20 -58 67v613h49c21 0 43 -16 43 -46v-237h342v283h45c24 0 47 -19 47 -46v-634z" />
    <glyph glyph-name="afii10032" unicode="&#x41e;" horiz-adv-x="726" 
d="M671 349c0 -208 -113 -359 -313 -359c-164 0 -302 127 -302 342c0 209 113 358 313 358c183 0 302 -140 302 -341zM580 332c0 182 -69 274 -222 274c-129 0 -211 -84 -211 -257c0 -176 75 -275 222 -275c132 0 211 100 211 258z" />
    <glyph glyph-name="afii10033" unicode="&#x41f;" horiz-adv-x="679" 
d="M599 0h-32c-28 0 -60 21 -60 67v352c0 137 -51 185 -186 185h-30c-31 0 -86 -6 -119 -14v-590h-34c-27 0 -58 20 -58 67v586c39 13 141 30 205 30h57c170 0 257 -86 257 -271v-412z" />
    <glyph glyph-name="afii10034" unicode="&#x420;" horiz-adv-x="551" 
d="M541 476c0 -128 -102 -222 -233 -222c-61 0 -109 11 -136 29v-283h-34c-34 0 -58 19 -58 60v594c41 16 119 31 173 31h53c136 0 235 -76 235 -209zM449 466c0 89 -47 134 -141 134h-52c-23 0 -63 -5 -84 -10v-229c37 -20 85 -26 137 -26c93 0 140 50 140 131z" />
    <glyph glyph-name="afii10035" unicode="&#x421;" horiz-adv-x="591" 
d="M566 529h-7c-38 57 -106 76 -167 76c-147 0 -245 -103 -245 -248c0 -187 109 -282 249 -282c72 0 126 25 163 67h5v-28c0 -65 -67 -124 -186 -124c-178 0 -323 143 -323 352c0 179 122 348 336 348c112 0 175 -69 175 -126v-35z" />
    <glyph glyph-name="afii10036" unicode="&#x422;" horiz-adv-x="523" 
d="M518 645c0 -19 -22 -49 -53 -49h-160v-596h-34c-39 0 -59 13 -59 58v538h-207v34c0 26 16 50 58 50h455v-35z" />
    <glyph glyph-name="afii10037" unicode="&#x423;" 
d="M293 265c60 100 148 299 172 415h39c23 0 40 -8 40 -37c0 -17 -9 -43 -14 -60c-49 -159 -147 -328 -179 -387c-94 -172 -136 -204 -212 -204c-40 0 -68 22 -69 45l-1 35h46c62 0 104 74 133 115c-89 129 -184 323 -225 493h49c37 0 52 -29 59 -54
c29 -106 90 -251 162 -361z" />
    <glyph glyph-name="afii10038" unicode="&#x424;" horiz-adv-x="773" 
d="M433 541v-368c14 -4 30 -6 48 -6c83 0 164 60 164 200c0 107 -56 185 -162 185c-17 0 -34 -4 -50 -11zM340 541c-16 7 -33 11 -50 11c-106 0 -162 -78 -162 -185c0 -140 81 -200 164 -200c18 0 34 2 48 6v368zM340 92c-18 -6 -39 -10 -64 -10c-112 0 -241 98 -241 271
c0 152 89 284 250 284c20 0 38 -4 55 -11v64h44c24 0 49 -19 49 -46v-18c17 7 35 11 55 11c161 0 250 -132 250 -284c0 -173 -129 -271 -241 -271c-25 0 -46 4 -64 10v-100h-33c-35 0 -60 20 -60 67v33z" />
    <glyph glyph-name="afii10039" unicode="&#x425;" horiz-adv-x="643" 
d="M555 -8c-51 0 -87 28 -158 133l-108 160c-108 -118 -172 -216 -174 -285h-37c-21 0 -37 24 -37 40c-1 26 1 35 10 59c14 36 38 82 106 159l87 98l-99 144c-28 41 -54 77 -74 106s-34 53 -41 74h55c19 0 49 -6 121 -114l104 -156c121 132 167 206 188 270h31
c18 0 36 -17 36 -46c1 -45 -78 -151 -210 -293l115 -169c49 -72 99 -124 143 -164c-15 -11 -29 -16 -58 -16z" />
    <glyph glyph-name="afii10040" unicode="&#x426;" horiz-adv-x="710" 
d="M700 -170h-39c-33 0 -52 26 -52 61v109h-287c-170 0 -247 98 -247 283v397h49c21 0 43 -16 43 -46v-368c0 -137 51 -183 186 -183h146v597h45c24 0 47 -19 47 -46v-551h62c24 0 47 -19 47 -46v-207z" />
    <glyph glyph-name="afii10041" unicode="&#x427;" horiz-adv-x="615" 
d="M535 0h-32c-28 0 -60 21 -60 67v220c-24 -18 -74 -33 -135 -33h-15c-131 0 -233 74 -233 202v224h49c21 0 43 -16 43 -46v-178c0 -81 47 -121 140 -121h15c52 0 99 6 136 26v319h45c24 0 47 -19 47 -46v-634z" />
    <glyph glyph-name="afii10042" unicode="&#x428;" horiz-adv-x="929" 
d="M849 283c0 -185 -77 -283 -247 -283h-280c-170 0 -247 98 -247 283v397h49c21 0 43 -16 43 -46v-368c0 -137 51 -183 186 -183h64v597h45c24 0 47 -19 47 -46v-551h62c135 0 186 46 186 183v414h45c24 0 47 -19 47 -46v-351z" />
    <glyph glyph-name="afii10043" unicode="&#x429;" horiz-adv-x="958" 
d="M958 -170h-39c-33 0 -52 26 -52 61v109h-545c-170 0 -247 98 -247 283v397h49c21 0 43 -16 43 -46v-368c0 -137 51 -183 186 -183h64v597h45c24 0 47 -19 47 -46v-551h248v597h45c24 0 47 -19 47 -46v-550h62c24 0 47 -19 47 -46v-208z" />
    <glyph glyph-name="afii10044" unicode="&#x42a;" horiz-adv-x="657" 
d="M646 208c0 -133 -99 -213 -235 -213h-54c-126 0 -176 60 -176 152v449h-176v34c0 26 16 50 58 50h167c21 0 43 -16 43 -46v-240c27 18 79 32 140 32c131 0 233 -90 233 -218zM554 218c0 81 -47 127 -140 127c-52 0 -104 -6 -141 -26v-168c0 -49 30 -74 90 -74h50
c94 0 141 52 141 141z" />
    <glyph glyph-name="afii10045" unicode="&#x42b;" horiz-adv-x="776" 
d="M605 680h44c24 0 47 -19 47 -46v-634h-31c-28 0 -60 21 -60 67v613zM545 208c0 -133 -99 -213 -235 -213h-54c-126 0 -176 60 -176 152v533h49c21 0 43 -16 43 -46v-240c27 18 79 32 140 32c131 0 233 -90 233 -218zM453 218c0 81 -47 127 -140 127
c-52 0 -104 -6 -141 -26v-168c0 -49 30 -74 90 -74h50c94 0 141 52 141 141z" />
    <glyph glyph-name="afii10046" unicode="&#x42c;" horiz-adv-x="556" 
d="M545 208c0 -133 -99 -213 -235 -213h-54c-126 0 -176 60 -176 152v533h49c21 0 43 -16 43 -46v-240c27 18 79 32 140 32c131 0 233 -90 233 -218zM453 218c0 81 -47 127 -140 127c-52 0 -104 -6 -141 -26v-168c0 -49 30 -74 90 -74h50c94 0 141 52 141 141z" />
    <glyph glyph-name="afii10047" unicode="&#x42d;" horiz-adv-x="591" 
d="M536 342c0 -209 -145 -352 -323 -352c-119 0 -186 59 -186 124v28h5c37 -42 91 -67 163 -67c128 0 230 79 247 236h-256c-41 0 -59 22 -59 49v29h315c-13 128 -107 216 -243 216c-61 0 -129 -19 -167 -76h-7v35c0 57 63 126 175 126c214 0 336 -169 336 -348z" />
    <glyph glyph-name="afii10048" unicode="&#x42e;" horiz-adv-x="946" 
d="M891 349c0 -208 -113 -359 -313 -359c-159 0 -294 120 -302 323h-104v-313h-34c-27 0 -58 20 -58 67v613h49c21 0 43 -16 43 -46v-237h108c21 174 130 293 309 293c183 0 302 -140 302 -341zM800 332c0 182 -69 274 -222 274c-129 0 -211 -84 -211 -257
c0 -176 75 -275 222 -275c132 0 211 100 211 258z" />
    <glyph glyph-name="afii10049" unicode="&#x42f;" horiz-adv-x="598" 
d="M518 0h-32c-28 0 -60 21 -60 67v216c-23 -5 -72 -11 -115 -14c-42 -3 -77 -12 -117 -107l-48 -114c-14 -34 -37 -51 -75 -51c-13 0 -49 5 -49 5v5c9 10 24 36 32 54l59 138c16 37 39 93 109 108c-87 12 -159 76 -159 184c0 117 85 194 222 194h61c54 0 132 -15 172 -31
v-654zM426 360v232c-18 6 -59 13 -83 13h-51c-74 0 -137 -35 -137 -128c0 -87 76 -127 148 -127c39 0 79 3 123 10z" />
    <glyph glyph-name="afii10065" unicode="&#x430;" horiz-adv-x="535" 
d="M468 176c0 -108 -58 -186 -208 -186c-109 0 -204 63 -204 158c0 115 89 178 249 178h72v25c0 78 -39 110 -126 110c-80 0 -139 -30 -170 -73h-5v44c0 49 64 113 184 113c136 0 208 -71 208 -201v-168zM378 183v67h-73c-107 0 -156 -33 -156 -92c0 -47 46 -84 115 -84
c81 0 114 32 114 109z" />
    <glyph glyph-name="afii10066" unicode="&#x431;" horiz-adv-x="600" 
d="M143 640c75 69 205 66 282 66h62v-30c0 -33 -22 -55 -70 -55h-29c-64 0 -139 1 -196 -52c-51 -46 -58 -121 -60 -161h3c18 78 106 124 183 124c128 0 225 -102 225 -259c0 -178 -94 -283 -235 -283c-175 0 -243 149 -243 308c0 92 -8 263 78 342zM295 448
c-83 0 -138 -67 -138 -176c0 -121 58 -196 160 -196c86 0 134 72 134 176c0 130 -55 196 -156 196z" />
    <glyph glyph-name="afii10067" unicode="&#x432;" horiz-adv-x="556" 
d="M496 161c0 -102 -92 -170 -212 -170c-94 0 -214 33 -214 164v343c44 20 123 44 210 44c101 0 205 -28 205 -145c0 -46 -24 -92 -76 -114c65 -27 87 -85 87 -122zM397 391c0 52 -35 72 -111 72h-20c-42 0 -89 -11 -106 -18v-128h129c74 0 108 20 108 74zM405 157
c0 59 -27 85 -111 85h-134v-74c0 -71 75 -97 120 -97c66 0 125 32 125 86z" />
    <glyph glyph-name="afii10068" unicode="&#x433;" horiz-adv-x="487" 
d="M428 397c0 -80 -56 -139 -132 -155c-122 -26 -141 -45 -141 -89c0 -53 45 -78 124 -78c69 0 124 27 154 60h5v-39c0 -64 -77 -106 -167 -106c-117 0 -209 55 -209 152c0 88 57 144 158 166c111 24 116 39 116 75c0 45 -31 79 -122 79c-63 0 -111 -30 -134 -58h-5v40
c0 65 77 101 156 101c133 0 197 -72 197 -148z" />
    <glyph glyph-name="afii10069" unicode="&#x434;" horiz-adv-x="579" 
d="M512 77c0 -166 -113 -243 -253 -243c-85 0 -163 43 -163 107v37h7c37 -35 79 -58 167 -58c87 0 154 49 154 152v96c-22 -50 -67 -97 -148 -97c-125 0 -222 80 -222 213c0 132 81 261 255 261c120 0 203 -75 203 -227v-241zM424 295c0 115 -43 165 -129 165
c-94 0 -149 -76 -149 -157c0 -107 58 -149 141 -149c86 0 137 60 137 141z" />
    <glyph glyph-name="afii10070" unicode="&#x435;" horiz-adv-x="562" 
d="M507 359c0 -94 -44 -133 -227 -133h-132c9 -89 71 -152 171 -152c82 0 132 26 162 55h5v-40c0 -56 -60 -99 -180 -99c-147 0 -251 113 -251 267c0 173 108 288 250 288c104 0 202 -79 202 -186zM419 354c0 58 -40 109 -124 109c-88 0 -144 -74 -147 -143l-1 -22l121 2
c129 2 151 14 151 54z" />
    <glyph glyph-name="afii10072" unicode="&#x436;" horiz-adv-x="760" 
d="M753 530c-50 -40 -94 -76 -243 -243c46 -62 92 -123 146 -179c46 -48 66 -60 95 -67c-7 -27 -13 -44 -61 -44c-30 0 -51 10 -70 30c-70 71 -134 156 -196 234v-261h-29c-40 0 -59 23 -59 72v189c-62 -78 -126 -163 -196 -234c-19 -20 -40 -30 -70 -30
c-48 0 -54 17 -61 44c29 7 49 19 95 67c54 56 100 117 146 179c-149 167 -193 203 -243 243v5h63c35 0 60 -10 70 -20c52 -49 132 -134 196 -215v235h28c39 0 60 -20 60 -60v-175c64 81 144 166 196 215c10 10 35 20 70 20h63v-5z" />
    <glyph glyph-name="afii10073" unicode="&#x437;" horiz-adv-x="466" 
d="M206 -8c-86 0 -176 44 -176 111v40h10c38 -48 85 -69 172 -69c70 0 116 27 116 79s-40 83 -134 83h-26c-31 0 -45 17 -45 42v29h74c100 0 125 28 125 77s-44 77 -125 77c-74 0 -137 -31 -159 -69h-9v39c0 48 73 112 181 112c120 0 202 -63 202 -149
c0 -66 -36 -101 -86 -119c54 -16 93 -63 93 -113c0 -101 -73 -170 -213 -170z" />
    <glyph glyph-name="afii10074" unicode="&#x438;" horiz-adv-x="582" 
d="M70 535h33c37 0 57 -19 57 -59v-240c0 -111 41 -154 136 -154h42c22 0 59 4 84 9v444h34c33 0 56 -20 56 -62v-453c-38 -10 -108 -20 -152 -20h-75c-134 0 -215 73 -215 233v302z" />
    <glyph glyph-name="afii10075" unicode="&#x439;" horiz-adv-x="582" 
d="M287 577c-80 0 -130 32 -130 123v2c33 -31 71 -55 131 -55c56 0 97 25 129 55v-7c0 -85 -51 -118 -130 -118zM70 535h33c37 0 57 -19 57 -59v-240c0 -111 41 -154 136 -154h42c22 0 59 4 84 9v444h34c33 0 56 -20 56 -62v-453c-38 -10 -108 -20 -152 -20h-75
c-134 0 -215 73 -215 233v302z" />
    <glyph glyph-name="afii10076" unicode="&#x43a;" horiz-adv-x="500" 
d="M485 41c-7 -27 -13 -44 -61 -44c-30 0 -51 10 -70 30c-70 71 -134 156 -196 234v-261h-29c-40 0 -59 23 -59 72v463h28c39 0 60 -20 60 -60v-175c64 81 144 166 196 215c10 10 35 20 70 20h63v-5c-50 -40 -94 -76 -243 -243c46 -62 92 -123 146 -179
c46 -48 66 -60 95 -67z" />
    <glyph glyph-name="afii10077" unicode="&#x43b;" horiz-adv-x="520" 
d="M31 112c30 123 116 327 200 423h25c17 0 32 -6 46 -26c102 -151 171 -330 198 -509h-45c-36 0 -50 25 -55 52c-24 122 -68 257 -148 380c-74 -113 -145 -332 -161 -432h-32c-26 0 -39 18 -39 43s7 54 11 69z" />
    <glyph glyph-name="afii10078" unicode="&#x43c;" horiz-adv-x="732" 
d="M636 0c-38 0 -56 21 -56 64c0 74 -10 251 -25 352c-9 -21 -20 -50 -34 -88c-14 -41 -82 -248 -125 -328h-22c-28 0 -55 24 -96 142c-22 65 -61 195 -100 274c-19 -137 -28 -304 -29 -416h-30c-32 0 -59 23 -59 64c0 144 29 353 51 471h34c77 0 109 -67 128 -122l70 -203
c8 -23 17 -50 24 -73c28 85 68 185 96 261c22 58 54 114 72 137h23c56 0 78 -42 85 -106c15 -131 26 -299 29 -429h-36z" />
    <glyph glyph-name="afii10079" unicode="&#x43d;" horiz-adv-x="582" 
d="M160 0h-34c-33 0 -56 20 -56 62v473h33c37 0 57 -19 57 -59v-154h262v213h34c33 0 56 -20 56 -62v-473h-33c-37 0 -57 19 -57 59v180h-262v-239z" />
    <glyph glyph-name="afii10080" unicode="&#x43e;" horiz-adv-x="600" 
d="M544 278c0 -180 -95 -288 -240 -288c-142 0 -248 109 -248 268c0 177 97 286 248 286c142 0 240 -107 240 -266zM452 257c0 132 -56 201 -161 201c-86 0 -143 -70 -143 -181c0 -123 60 -201 165 -201c90 0 139 76 139 181z" />
    <glyph glyph-name="afii10081" unicode="&#x43f;" horiz-adv-x="582" 
d="M512 0h-33c-37 0 -57 19 -57 59v240c0 111 -41 154 -136 154h-42c-22 0 -59 -4 -84 -9v-444h-34c-33 0 -56 20 -56 62v453c38 10 108 20 152 20h75c134 0 215 -73 215 -233v-302z" />
    <glyph glyph-name="afii10082" unicode="&#x440;" horiz-adv-x="611" 
d="M556 280c0 -183 -105 -290 -240 -290c-61 0 -126 38 -154 94v-254h-33c-38 0 -59 19 -59 69v354c0 181 85 292 256 292c118 0 230 -107 230 -265zM464 255c0 145 -65 204 -158 204c-94 0 -146 -71 -146 -181c0 -138 67 -203 166 -203c86 0 138 64 138 180z" />
    <glyph glyph-name="afii10083" unicode="&#x441;" horiz-adv-x="521" 
d="M466 390h-5c-19 40 -84 70 -136 70c-106 0 -177 -78 -177 -185c0 -140 96 -200 179 -200c58 0 107 15 134 47h5v-38c0 -34 -40 -94 -155 -94c-112 0 -256 98 -256 271c0 152 104 284 265 284c80 0 146 -40 146 -117v-38z" />
    <glyph glyph-name="afii10084" unicode="&#x442;" horiz-adv-x="456" 
d="M273 0h-34c-33 0 -56 20 -56 62v390h-178v31c0 31 23 52 55 52h391v-34c0 -29 -25 -49 -63 -49h-115v-452z" />
    <glyph glyph-name="afii10085" unicode="&#x443;" horiz-adv-x="531" 
d="M498 438c-41 -159 -131 -328 -160 -387c-85 -172 -135 -227 -211 -227c-41 0 -69 23 -69 46v34h43c42 0 69 10 131 127c-84 129 -173 329 -206 504h52c37 0 50 -29 56 -54c24 -107 78 -254 145 -364c57 98 134 301 152 418h36c24 0 42 -9 42 -41c0 -11 -7 -41 -11 -56z
" />
    <glyph glyph-name="afii10086" unicode="&#x444;" horiz-adv-x="804" 
d="M748 280c0 -183 -98 -288 -203 -288c-47 0 -85 24 -97 42v-204h-33c-38 0 -59 19 -59 69v135c-12 -18 -50 -42 -97 -42c-105 0 -203 105 -203 288c0 167 102 263 203 263c40 0 82 -20 97 -41v218h28c37 0 64 -23 64 -70v-148c15 21 57 41 97 41c101 0 203 -96 203 -263z
M656 265c0 145 -76 194 -133 194c-38 0 -67 -23 -75 -33v-310c14 -17 40 -41 85 -41c78 0 123 74 123 190zM356 116v310c-8 10 -37 33 -75 33c-57 0 -133 -49 -133 -194c0 -116 45 -190 123 -190c45 0 71 24 85 41z" />
    <glyph glyph-name="afii10087" unicode="&#x445;" horiz-adv-x="511" 
d="M489 30v-7c-8 -9 -18 -28 -45 -28c-43 0 -61 11 -103 62c-38 46 -75 104 -108 153c-53 -58 -116 -127 -122 -210h-42c-19 0 -37 17 -37 43c0 21 7 43 18 67c27 59 85 120 137 174c-39 60 -71 109 -99 152c-22 34 -40 61 -60 91v8h54c37 0 64 -24 78 -48
c21 -37 45 -73 91 -145c32 33 61 66 82 95c27 38 43 72 48 98h24c25 0 43 -20 43 -53c0 -25 -11 -54 -55 -107c-22 -27 -53 -59 -99 -106l101 -141c46 -64 73 -87 94 -98z" />
    <glyph glyph-name="afii10088" unicode="&#x446;" horiz-adv-x="617" 
d="M607 -160h-34c-33 0 -52 26 -52 61v99h-236c-134 0 -215 73 -215 233v302h33c37 0 57 -19 57 -59v-240c0 -111 41 -153 136 -153h116v452h34c33 0 56 -20 56 -62v-390h58c24 0 47 -19 47 -46v-197z" />
    <glyph glyph-name="afii10089" unicode="&#x447;" horiz-adv-x="527" 
d="M423 0c-26 0 -56 20 -56 60v173c-23 -28 -85 -40 -127 -40c-92 0 -190 50 -190 168v174h48c21 0 42 -16 42 -44v-115c0 -56 37 -99 107 -99c54 0 103 17 120 32v226h44c23 0 46 -18 46 -44v-491h-34z" />
    <glyph glyph-name="afii10090" unicode="&#x448;" horiz-adv-x="856" 
d="M786 239c0 -159 -71 -239 -204 -239h-308c-133 0 -204 80 -204 239v296h32c35 0 60 -24 60 -67v-229c0 -112 42 -156 115 -156h105v452h31c44 0 61 -24 61 -67v-385h105c73 0 115 44 115 156v296h29c38 0 63 -22 63 -67v-229z" />
    <glyph glyph-name="afii10091" unicode="&#x449;" horiz-adv-x="900" 
d="M891 -166h-34c-33 0 -52 26 -52 61v105h-531c-133 0 -204 80 -204 239v296h32c35 0 60 -24 60 -67v-229c0 -112 42 -156 115 -156h105v452h31c44 0 61 -24 61 -67v-385h220v452h29c38 0 63 -22 63 -67v-385h58c24 0 47 -19 47 -46v-203z" />
    <glyph glyph-name="afii10092" unicode="&#x44a;" horiz-adv-x="622" 
d="M592 181c0 -107 -89 -190 -213 -190c-94 0 -219 42 -219 194v267h-155v31c0 31 23 52 55 52h133c37 0 57 -19 57 -59v-144c23 16 88 42 133 42c126 0 209 -90 209 -193zM500 181c0 76 -55 118 -124 118c-48 0 -101 -27 -126 -43v-78c0 -77 68 -107 130 -107
c69 0 120 47 120 110z" />
    <glyph glyph-name="afii10093" unicode="&#x44b;" horiz-adv-x="732" 
d="M572 535h34c33 0 56 -20 56 -62v-473h-33c-37 0 -57 19 -57 59v476zM502 181c0 -107 -89 -190 -213 -190c-94 0 -219 42 -219 194v350h33c37 0 57 -19 57 -59v-144c23 16 88 42 133 42c126 0 209 -90 209 -193zM410 181c0 76 -55 118 -124 118c-48 0 -101 -27 -126 -43
v-78c0 -77 68 -107 130 -107c69 0 120 47 120 110z" />
    <glyph glyph-name="afii10094" unicode="&#x44c;" horiz-adv-x="532" 
d="M502 181c0 -107 -89 -190 -213 -190c-94 0 -219 42 -219 194v350h33c37 0 57 -19 57 -59v-144c23 16 88 42 133 42c126 0 209 -90 209 -193zM410 181c0 76 -55 118 -124 118c-48 0 -101 -27 -126 -43v-78c0 -77 68 -107 130 -107c69 0 120 47 120 110z" />
    <glyph glyph-name="afii10095" unicode="&#x44d;" horiz-adv-x="521" 
d="M370 236h-187c-41 0 -59 22 -59 49v29h246c-15 86 -81 146 -174 146c-52 0 -117 -30 -136 -70h-5v38c0 77 66 116 146 116c161 0 265 -131 265 -283c0 -173 -144 -271 -256 -271c-115 0 -155 60 -155 94v38h5c27 -32 76 -47 134 -47c75 0 160 49 176 161z" />
    <glyph glyph-name="afii10096" unicode="&#x44e;" horiz-adv-x="789" 
d="M733 278c0 -180 -95 -288 -240 -288c-136 0 -239 100 -247 249h-86v-239h-34c-33 0 -56 20 -56 62v473h33c37 0 57 -19 57 -59v-154h90c20 139 111 222 243 222c142 0 240 -107 240 -266zM641 257c0 132 -56 201 -161 201c-86 0 -143 -70 -143 -181
c0 -123 60 -201 165 -201c90 0 139 76 139 181z" />
    <glyph glyph-name="afii10097" unicode="&#x44f;" horiz-adv-x="543" 
d="M439 0c-27 0 -56 19 -56 60v154c-21 -4 -77 -7 -106 -9s-67 -7 -97 -76l-38 -87c-13 -29 -34 -44 -67 -44c-11 0 -48 5 -48 5v14c27 30 68 137 72 147c14 31 46 69 81 78c-48 7 -121 60 -121 143c0 94 72 156 184 156h61c53 0 137 -19 169 -33v-508h-34zM383 448
c-11 5 -55 15 -81 15h-54c-55 0 -98 -25 -98 -89c0 -59 66 -90 120 -90c28 0 82 2 113 6v158z" />
    <glyph glyph-name="afii10109" unicode="&#x45c;" horiz-adv-x="500" 
d="M485 41c-7 -27 -13 -44 -61 -44c-30 0 -51 10 -70 30c-70 71 -134 156 -196 234v-261h-29c-40 0 -59 23 -59 72v463h28c39 0 60 -20 60 -60v-175c64 81 144 166 196 215c10 10 35 20 70 20h63v-5c-50 -40 -94 -76 -243 -243c46 -62 92 -123 146 -179
c46 -48 66 -60 95 -67zM150 628v6c17 36 50 71 75 96c35 35 61 41 84 41c27 0 41 -18 41 -40c0 -29 -20 -50 -64 -70c-64 -29 -94 -33 -120 -33h-16z" />
    <glyph glyph-name="afii10061" unicode="&#x40c;" horiz-adv-x="573" 
d="M171 0h-34c-31 0 -57 24 -57 64v616h27c42 0 64 -24 64 -63v-258c73 98 141 196 224 285c21 23 46 36 103 36h45v-5c-80 -70 -192 -215 -271 -316c38 -52 150 -191 197 -243c35 -38 56 -57 104 -77c-14 -26 -25 -44 -59 -44c-33 0 -66 14 -87 37
c-77 85 -205 244 -256 316v-348zM186 773v6c17 36 50 71 75 96c35 35 61 41 84 41c27 0 41 -18 41 -40c0 -29 -20 -50 -64 -70c-64 -29 -94 -33 -120 -33h-16z" />
    <glyph glyph-name="afii10052" unicode="&#x403;" horiz-adv-x="479" 
d="M173 0h-35c-39 0 -58 16 -58 55v541c0 61 24 84 99 84h295v-39c0 -19 -15 -46 -55 -46h-246v-595zM140 773v6c17 36 50 71 75 96c35 35 61 41 84 41c27 0 41 -18 41 -40c0 -29 -20 -50 -64 -70c-64 -29 -94 -33 -120 -33h-16z" />
    <glyph glyph-name="afii10055" unicode="&#x406;" horiz-adv-x="263" 
d="M178 0h-33c-35 0 -60 20 -60 67v613h44c24 0 49 -19 49 -46v-634z" />
    <glyph glyph-name="afii10103" unicode="&#x456;" horiz-adv-x="317" 
d="M198 671c0 -34 -27 -62 -61 -62s-62 28 -62 62s28 63 62 63s61 -29 61 -63zM302 49c0 -34 -21 -54 -53 -54c-105 0 -160 52 -160 159v381h28c31 0 63 -24 63 -71v-297c0 -67 33 -88 83 -88h39v-30z" />
    <glyph glyph-name="afii10100" unicode="&#x453;" horiz-adv-x="487" 
d="M428 397c0 -80 -56 -139 -132 -155c-122 -26 -141 -45 -141 -89c0 -53 45 -78 124 -78c69 0 124 27 154 60h5v-39c0 -64 -77 -106 -167 -106c-117 0 -209 55 -209 152c0 88 57 144 158 166c111 24 116 39 116 75c0 45 -31 79 -122 79c-63 0 -111 -30 -134 -58h-5v40
c0 65 77 101 156 101c133 0 197 -72 197 -148zM144 628v6c17 36 50 71 75 96c35 35 61 41 84 41c27 0 41 -18 41 -40c0 -29 -20 -50 -64 -70c-64 -29 -94 -33 -120 -33h-16z" />
    <glyph glyph-name="afii10104" unicode="&#x457;" horiz-adv-x="317" 
d="M302 49c0 -34 -21 -54 -53 -54c-105 0 -160 52 -160 159v381h28c31 0 63 -24 63 -71v-297c0 -67 33 -88 83 -88h39v-30zM179 680c0 33 27 60 60 60s61 -27 61 -60s-28 -61 -61 -61s-60 28 -60 61zM-29 680c0 33 28 60 61 60s60 -27 60 -60s-27 -61 -60 -61s-61 28 -61 61
z" />
    <glyph glyph-name="afii10105" unicode="&#x458;" horiz-adv-x="315" 
d="M240 671c0 -34 -27 -62 -61 -62s-62 28 -62 62s28 63 62 63s61 -29 61 -63zM222 -10c0 -103 -56 -170 -160 -170c-48 0 -72 24 -72 46v31l56 4c54 4 85 35 85 93v541h28c48 0 63 -20 63 -71v-474z" />
    <glyph glyph-name="afii10054" unicode="&#x405;" horiz-adv-x="579" 
d="M272 -10c-97 0 -204 58 -204 135v44h5c41 -55 119 -93 206 -93c117 0 154 43 154 111c0 71 -37 97 -177 128c-133 29 -198 73 -198 170c0 116 98 205 258 205c126 0 195 -64 195 -126v-41h-5c-43 54 -99 81 -195 81c-100 0 -157 -39 -157 -105c0 -64 30 -85 165 -116
c96 -22 209 -75 209 -186c0 -113 -82 -207 -256 -207z" />
    <glyph glyph-name="afii10102" unicode="&#x455;" horiz-adv-x="488" 
d="M434 162c0 -112 -87 -172 -209 -172c-90 0 -162 42 -162 106v39h5c30 -33 90 -60 159 -60c79 0 114 25 114 78c0 44 -19 63 -141 89c-100 21 -147 55 -147 135c0 87 79 168 212 168c79 0 156 -36 156 -101v-40h-5c-23 28 -81 55 -144 55c-91 0 -127 -31 -127 -76
c0 -36 20 -51 131 -75c106 -23 158 -72 158 -146z" />
    <glyph glyph-name="afii10023" unicode="&#x401;" horiz-adv-x="560" 
d="M523 71c0 -47 -16 -76 -127 -76h-84c-170 0 -247 98 -247 283v123c0 58 11 135 23 184c16 66 41 95 86 95h355v-37c0 -24 -15 -47 -66 -47h-282c-14 -55 -24 -136 -24 -207h295v-29c0 -27 -18 -49 -59 -49h-236v-50c0 -137 51 -183 186 -183h52c51 0 96 10 128 19v-26z
M133 815c0 33 28 60 61 60s60 -27 60 -60s-27 -61 -60 -61s-61 28 -61 61zM340 815c0 33 28 60 61 60s60 -27 60 -60s-27 -61 -60 -61s-61 28 -61 61z" />
    <glyph glyph-name="afii10071" unicode="&#x451;" horiz-adv-x="562" 
d="M507 359c0 -94 -44 -133 -227 -133h-132c9 -89 71 -152 171 -152c82 0 132 26 162 55h5v-40c0 -56 -60 -99 -180 -99c-147 0 -251 113 -251 267c0 173 108 288 250 288c104 0 202 -79 202 -186zM419 354c0 58 -40 109 -124 109c-88 0 -144 -74 -147 -143l-1 -22l121 2
c129 2 151 14 151 54zM123 680c0 33 28 60 61 60s60 -27 60 -60s-27 -61 -60 -61s-61 28 -61 61zM330 680c0 33 28 60 61 60s60 -27 60 -60s-27 -61 -60 -61s-61 28 -61 61z" />
    <glyph glyph-name="afii10101" unicode="&#x454;" horiz-adv-x="521" 
d="M338 236h-187c16 -112 101 -161 176 -161c58 0 107 15 134 47h5v-38c0 -34 -40 -94 -155 -94c-112 0 -256 98 -256 271c0 152 104 283 265 283c80 0 146 -39 146 -116v-38h-5c-19 40 -84 70 -136 70c-93 0 -159 -60 -174 -146h246v-29c0 -27 -18 -49 -59 -49z" />
    <glyph glyph-name="afii10053" unicode="&#x404;" horiz-adv-x="591" 
d="M25 342c0 179 122 348 336 348c112 0 175 -69 175 -126v-35h-7c-38 57 -106 76 -167 76c-136 0 -230 -88 -243 -216h315v-29c0 -27 -18 -49 -59 -49h-256c17 -157 119 -236 247 -236c72 0 126 25 163 67h5v-28c0 -65 -67 -124 -186 -124c-178 0 -323 143 -323 352z" />
    <glyph glyph-name="afii10056" unicode="&#x407;" horiz-adv-x="263" 
d="M178 0h-33c-35 0 -60 20 -60 67v613h44c24 0 49 -19 49 -46v-634zM-47 815c0 33 28 60 61 60s60 -27 60 -60s-27 -61 -60 -61s-61 28 -61 61zM160 815c0 33 28 60 61 60s60 -27 60 -60s-27 -61 -60 -61s-61 28 -61 61z" />
    <glyph glyph-name="afii10110" unicode="&#x45e;" horiz-adv-x="531" 
d="M498 438c-41 -159 -131 -328 -160 -387c-85 -172 -135 -227 -211 -227c-41 0 -69 23 -69 46v34h43c42 0 69 10 131 127c-84 129 -173 329 -206 504h52c37 0 50 -29 56 -54c24 -107 78 -254 145 -364c57 98 134 301 152 418h36c24 0 42 -9 42 -41c0 -11 -7 -41 -11 -56z
M275 577c-80 0 -130 32 -130 123v2c33 -31 71 -55 131 -55c56 0 97 25 129 55v-7c0 -85 -51 -118 -130 -118z" />
    <glyph glyph-name="afii10057" unicode="&#x408;" horiz-adv-x="393" 
d="M318 200c0 -132 -70 -210 -197 -210c-64 0 -116 35 -116 86v37h5c17 -19 62 -37 108 -37c76 0 109 38 109 120v484h32c40 0 59 -24 59 -60v-420z" />
    <glyph glyph-name="afii10062" unicode="&#x40e;" 
d="M293 265c60 100 148 299 172 415h39c23 0 40 -8 40 -37c0 -17 -9 -43 -14 -60c-49 -159 -147 -328 -179 -387c-94 -172 -136 -204 -212 -204c-40 0 -68 22 -69 45l-1 35h46c62 0 104 74 133 115c-89 129 -184 323 -225 493h49c37 0 52 -29 59 -54
c29 -106 90 -251 162 -361zM294 674c-80 0 -130 32 -130 123v2c33 -31 71 -55 131 -55c56 0 97 25 129 55v-7c0 -85 -51 -118 -130 -118z" />
    <glyph glyph-name="afii61352" unicode="&#x2116;" horiz-adv-x="830" 
d="M491 0h-30c-51 0 -97 41 -145 165l-117 302c-22 56 -38 88 -55 110v-577h-32c-23 0 -44 21 -44 55v625h39c64 0 110 -60 141 -140l112 -290c23 -60 36 -102 56 -139v569h31c25 0 44 -18 44 -48v-632zM672 165c-71 0 -107 50 -107 103c0 55 34 104 107 104
c71 0 106 -48 106 -104c0 -55 -38 -103 -106 -103zM672 319c-25 0 -43 -22 -43 -51c0 -27 19 -49 42 -49c25 0 45 19 45 49c0 29 -19 51 -44 51zM778 58c0 -31 -21 -57 -51 -57h-161v30c0 29 24 54 56 54h156v-27z" />
    </font>
</defs>
</svg>
