<?xml version="1.0" standalone="no"?>
<!DOCTYPE svg PUBLIC "-//W3C//DTD SVG 1.1//EN" "http://www.w3.org/Graphics/SVG/1.1/DTD/svg11.dtd" >
<svg xmlns="http://www.w3.org/2000/svg" xmlns:xlink="http://www.w3.org/1999/xlink" version="1.1">
<metadata>
Created by FontForge 20160407 at Wed Oct 26 13:36:15 2016
 By Jimmy Wärting
Copyright \251 2003,  Manfred Klein. All rights reserved.
</metadata>
<defs>
<font id="BorisBlackBloxx" horiz-adv-x="686" >
  <font-face 
    font-family="BorisBlackBloxx"
    font-weight="500"
    font-stretch="normal"
    units-per-em="1000"
    panose-1="2 0 6 5 2 0 0 2 0 4"
    ascent="800"
    descent="-200"
    x-height="574"
    cap-height="784"
    bbox="-80.9231 -430 1684 1148"
    underline-thickness="50"
    underline-position="-125"
    unicode-range="U+0005-E010"
  />
<missing-glyph horiz-adv-x="500" 
 />
    <glyph glyph-name=".notdef" horiz-adv-x="500" 
 />
    <glyph glyph-name="breve" horiz-adv-x="552" 
d="M275 628q96 0 167 52q73 53 87 166q2 12 -6.5 20t-22.5 8h-98q-10 0 -18 -6t-10 -15q-9 -44 -35 -58.5t-64 -14.5q-36 0 -61.5 14.5t-34.5 57.5q-2 9 -10.5 15.5t-18.5 6.5h-98q-13 0 -22 -8t-7 -20q13 -111 87 -165q74 -53 165 -53z" />
    <glyph glyph-name="dotaccent" horiz-adv-x="223" 
d="M47 784q-11 0 -18 -7t-7 -17v-128q0 -10 7.5 -17t17.5 -7h130q10 0 17 7t7 17v128q0 10 -7.5 17t-17.5 7h-129z" />
    <glyph glyph-name="ring" horiz-adv-x="386" 
d="M193 1003q-70 0 -121 -51q-50 -50 -50 -120q0 -71 50 -121t121 -50q68 0 120 50v-1q51 51 51 122t-51 121v-1q-51 51 -120 51zM193 879q20 0 33.5 -13.5t13.5 -33.5t-13.5 -33.5t-33.5 -13.5t-33.5 13.5t-13.5 33.5t13.5 33.5t33.5 13.5z" />
    <glyph glyph-name="hungarumlaut" unicode="&#xa;" horiz-adv-x="677" 
d="M27 667q-9 -14 -0.5 -26.5t26.5 -12.5h125q5 0 12.5 3.5t10.5 6.5l186 194q13 14 5 28t-28 14h-187q-7 0 -15 -4t-12 -9zM289 667q-9 -14 -0.5 -26.5t26.5 -12.5h125q5 0 12.5 3.5t10.5 6.5l184 194q13 14 5.5 28t-27.5 14h-187q-6 0 -14.5 -4t-11.5 -9z" />
    <glyph glyph-name="ogonek" horiz-adv-x="474" 
d="M415 -41q0 14 -11 22t-25 6q-176 -33 -261 -84q-94 -58 -94 -165q0 -69 58 -113q26 -21 57 -31t66 -10q66 0 127 27.5t112 65.5q8 7 9.5 17.5t-4.5 19.5l-32 52q-7 11 -19 13.5t-23 -5.5q-34 -26 -67 -43t-53 -17q-19 0 -32.5 12t-13.5 35q0 43 49 81q28 23 62 41t76 32
q8 2 13.5 10t5.5 16v18z" />
    <glyph glyph-name="caron" horiz-adv-x="563" 
d="M53 874q-19 0 -27 -12.5t2 -26.5l135 -194q3 -5 11 -9t14 -4h188q6 0 13.5 4t11.5 9l134 194q10 14 2 26.5t-27 12.5h-131q-5 0 -13 -3t-11 -7l-73 -90l-75 90q-2 4 -10.5 7t-13.5 3h-130z" />
    <glyph glyph-name="dotlessi" unicode="&#xd;" horiz-adv-x="235" 
d="M189 0q10 0 17 8.5t7 21.5v514q0 13 -7.5 21.5t-17.5 8.5h-141q-11 0 -18 -8.5t-7 -21.5v-514q0 -13 7.5 -21.5t18.5 -8.5h141z" />
    <glyph glyph-name="fraction" horiz-adv-x="889" 
d="M31 39q-14 -16 -6 -33.5t29 -17.5h134q5 0 13 3.5t11 6.5l646 750q14 16 6 33.5t-29 17.5h-135q-4 0 -12 -3.5t-11 -6.5z" />
    <glyph glyph-name="fi" horiz-adv-x="770" 
d="M324 0q12 0 21 9t9 21v380h88q12 0 21 8.5t9 21.5v96q0 12 -9.5 21t-21.5 9h-88v23q0 13 6 18t14 5q23 0 38.5 -4t25.5 -7q2 0 5 -0.5l3 -0.5q14 0 23 9t9 22v108q0 8 -6.5 17t-14.5 11q-42 17 -126 17q-96 0 -154 -45t-58 -131v-42h-66q-12 0 -21 -9t-9 -21v-96
q0 -13 9.5 -21.5t21.5 -8.5h66v-380q0 -12 8.5 -21t21.5 -9h175zM705 0q12 0 21 9t9 21v530q0 12 -9.5 21t-21.5 9h-175q-13 0 -22 -9t-9 -21v-530q0 -12 9.5 -21t22.5 -9h175zM498 689q0 -44 32 -69.5t87 -25.5t86.5 25.5t31.5 69.5t-32 69.5t-87 25.5t-86.5 -25.5
t-31.5 -69.5z" />
    <glyph glyph-name="fl" horiz-adv-x="763" 
d="M323 0q12 0 21 9t9 21v380h88q12 0 21 8.5t9 21.5v96q0 12 -9 21t-21 9h-88v23q0 13 6 18t15 5q20 0 37 -4t27 -7q1 0 3.5 -0.5t3.5 -0.5q13 0 22 9t9 22v108q0 8 -6 17t-14 11q-20 8 -50.5 12.5t-72.5 4.5q-100 0 -157.5 -44.5t-57.5 -131.5v-42h-66q-12 0 -21 -9
t-9 -21v-96q0 -13 9 -21.5t21 -8.5h66v-380q0 -12 8.5 -21t21.5 -9h175zM530 784q-13 0 -22 -9t-9 -21v-724q0 -12 9 -21t22 -9h175q12 0 21 9t9 21v724q0 12 -9 21t-21 9h-175z" />
    <glyph glyph-name="Lslash" horiz-adv-x="825" 
d="M555 554q0 17 -13 26t-29 3l-123 -49v220q0 12 -8.5 21t-21.5 9h-219q-13 0 -22 -9t-9 -21v-332l-69 -27q-8 -3 -13.5 -12t-5.5 -17v-116q0 -17 12.5 -26t28.5 -3l47 19v-210q0 -12 9 -21t22 -9h631q13 0 22 9t9 21v172q0 13 -9 21.5t-22 8.5h-382v119l145 59q8 2 14 11
t6 17v116z" />
    <glyph glyph-name="lslash" horiz-adv-x="437" 
d="M38 422q-6 -3 -11 -11t-5 -15v-105q0 -18 13 -27t29 0l45 25v-259q0 -12 8.5 -21t19.5 -9h163q11 0 19.5 9t8.5 21v377l71 38q6 3 11 11.5t5 15.5v105q0 18 -13.5 27t-29.5 0l-45 -25v175q0 12 -8.5 21t-19.5 9h-163q-11 0 -19.5 -9t-8.5 -21v-293z" />
    <glyph glyph-name="Zcaron" horiz-adv-x="830" 
d="M808 193q0 12 -9 21t-21 9h-363l373 365q3 3 6 11t3 12v143q0 12 -9 21t-21 9h-701q-12 0 -21 -9t-9 -21v-146q0 -13 9 -22t21 -9h343l-378 -374q-2 -3 -5.5 -10.5t-3.5 -10.5v-152q0 -12 9 -21t22 -9h725q12 0 21 9t9 21v163zM195 1049q-19 2 -27 -11.5t2 -27.5
l135 -194q3 -5 11 -9t14 -4h188q6 0 13.5 4t11.5 9l134 194q10 14 2 26.5t-27 12.5h-131q-5 0 -13 -3t-11 -7l-73 -90l-10.5 14t-24 31t-25.5 31t-15 14z" />
    <glyph glyph-name="zcaron" horiz-adv-x="584" 
d="M65 574q-12 0 -20.5 -8.5t-8.5 -21.5v-136q0 -12 8.5 -21t20.5 -9h153l-196 -224v-124q0 -13 8.5 -21.5t20.5 -8.5h464q12 0 21 8.5t9 21.5v136q0 12 -9 21t-21 9h-177l196 218v130q0 13 -8.5 21.5t-20.5 8.5h-440zM74 844q-19 0 -27 -12.5t2 -26.5l135 -194
q4 -5 11.5 -9t13.5 -4h188q6 0 13.5 4t11.5 9l134 194q11 14 2.5 26.5t-27.5 12.5h-131q-5 0 -13 -3t-11 -7l-73 -90l-75 90q-2 4 -10.5 7t-13.5 3h-130z" />
    <glyph glyph-name="space" unicode=" " horiz-adv-x="266" 
 />
    <glyph glyph-name="exclam" unicode="!" horiz-adv-x="228" 
d="M206 754q0 12 -7 21t-17 9h-135q-11 0 -18 -9t-7 -21v-198l31 -277q2 -11 9 -18.5t16 -7.5h73q9 0 15.5 7.5t8.5 18.5l31 279v196zM52 218q-10 0 -17 -9t-7 -22v-157q0 -12 7 -21t17 -9h125q10 0 17 9t7 21v157q0 13 -7 22t-17 9h-125z" />
    <glyph glyph-name="quotedbl" unicode="&#x22;" horiz-adv-x="330" 
d="M308 677q0 11 -6.5 19.5t-14.5 8.5h-70q-9 0 -15 -8.5t-6 -19.5v-265q0 -11 6 -19t15 -8h70q8 0 14.5 8t6.5 19v265zM134 677q0 11 -6.5 19.5t-14.5 8.5h-70q-9 0 -15 -8.5t-6 -19.5v-265q0 -11 6 -19t15 -8h70q8 0 14.5 8t6.5 19v265z" />
    <glyph glyph-name="numbersign" unicode="#" horiz-adv-x="719" 
d="M53 369q-14 0 -22.5 -9t-8.5 -21v-117q0 -12 9 -21t22 -9h67l-19 -158q-2 -14 7.5 -24t23.5 -10h122q11 0 19.5 8t10.5 19l19 165h66l-20 -158q-2 -14 7.5 -24t23.5 -10h123q11 0 19.5 8t10.5 19l19 165h83q13 0 22 9t9 21v117q0 12 -9.5 21t-22.5 9h-62l6 48h88
q13 0 22 9t9 21v117q0 12 -9.5 21t-22.5 9h-67l20 156q2 14 -7.5 24t-23.5 10h-122q-11 0 -19.5 -8t-10.5 -19l-20 -163h-66l21 156q2 14 -8 24t-24 10h-122q-11 0 -19.5 -8t-10.5 -19l-20 -163h-83q-13 0 -22 -9t-9 -21v-117q0 -12 9.5 -21t22.5 -9h62l-6 -48h-87zM329 417
h66l-6 -48h-66z" />
    <glyph glyph-name="dollar" unicode="$" horiz-adv-x="703" 
d="M419 843q0 13 -8.5 22t-21.5 9h-83q-13 0 -21.5 -9t-8.5 -22v-49q-51 -7 -91.5 -20.5t-72.5 -36.5q-90 -65 -90 -189q0 -107 75 -165q26 -21 71 -40t108 -35v-109q-16 2 -32 5.5t-33 8.5q-38 11 -74 24.5t-70 30.5q-17 8 -31 -2t-12 -29l13 -158q1 -7 6 -15t11 -11
q14 -6 43.5 -14.5t74.5 -18.5q28 -6 53.5 -10t50.5 -6v-64q0 -13 8.5 -22t21.5 -9h83q13 0 21.5 9t8.5 22v65q102 12 168 57q94 66 94 192q0 98 -67 161q-56 52 -195 84v103q7 -2 15 -4l16 -4q42 -11 77.5 -23.5t65.5 -26.5q17 -8 31 1.5t12 29.5l-12 148q-1 6 -6.5 14
t-11.5 11q-40 19 -115 34q-19 4 -37 6.5t-35 4.5v50zM458 260q16 -10 16 -22q0 -19 -24 -29h1q-7 -3 -15 -5.5t-17 -4.5v76q14 -4 24 -8t15 -7zM253 542h1q-28 12 -28 32q0 19 16 28q11 7 34 10v-78q-13 3 -23 8z" />
    <glyph glyph-name="percent" unicode="%" horiz-adv-x="1248" 
d="M286 805q-117 0 -190 -62q-74 -64 -74 -173q0 -55 18.5 -99t53 -74.5t84 -47t110.5 -16.5q116 0 190 63q75 66 75 174q0 55 -19 98.5t-53.5 74t-84 46.5t-110.5 16zM290 690q36 0 51 -30t15 -93q0 -60 -15.5 -89.5t-54.5 -29.5q-38 0 -52.5 29.5t-14.5 91.5q0 63 14.5 92
t56.5 29zM959 374q-116 0 -190 -63q-74 -65 -74 -173q0 -110 74 -173t191 -63q60 0 107.5 16.5t83.5 47.5q75 64 75 172q0 57 -19 99t-56 74q-74 63 -192 63zM962 259q38 0 52.5 -30.5t14.5 -93.5q0 -60 -15 -88.5t-55 -28.5q-38 0 -52.5 28.5t-14.5 90.5q0 63 14.5 92.5
t55.5 29.5zM922 806q-5 0 -12.5 -3.5t-10.5 -7.5l-721 -846q-14 -17 -5.5 -34t29.5 -17h115q5 0 13 4t10 8l722 845q14 17 6 33.5t-30 16.5z" />
    <glyph glyph-name="ampersand" unicode="&#x26;" horiz-adv-x="986" 
d="M921 459h-186q-7 0 -15.5 -5.5t-12.5 -10.5q-25 -44 -49 -72l-72 78q10 9 19.5 18.5t18.5 20.5q50 62 50 121q0 94 -82 144q-77 46 -183 46q-57 0 -104 -12t-80 -36t-51 -59.5t-18 -82.5q0 -66 47 -124q3 -3 4.5 -6t4.5 -6q-52 -25 -86.5 -48.5t-52.5 -48.5
q-51 -72 -51 -158q0 -99 80 -165q79 -65 232 -65q57 0 109 11t100 31q14 6 30 14t34 19l49 -53q3 -3 10.5 -6.5t11.5 -3.5h254q10 0 18 5t11 12.5t1.5 16.5t-8.5 17l-147 159q14 15 29.5 31.5t29.5 34.5q30 36 50 71t34 70zM443 203h1q-55 -26 -95 -26q-28 0 -49 15.5
t-21 40.5q0 27 28 55h-1q12 10 26 20t32 19l102 -112q-11 -7 -23 -12zM384 621q0 10 9 15t22 5q14 0 23 -6t9 -19q0 -32 -18 -48q-6 -6 -9 -8q-36 33 -36 61z" />
    <glyph glyph-name="quotesingle" unicode="'" horiz-adv-x="156" 
d="M134 677q0 11 -6.5 19.5t-14.5 8.5h-70q-9 0 -15 -8.5t-6 -19.5v-265q0 -11 6 -19t15 -8h70q8 0 14.5 8t6.5 19v265z" />
    <glyph glyph-name="parenleft" unicode="(" horiz-adv-x="347" 
d="M200 340q0 60 6 111t20 93q22 70 77 83q8 2 15 10.5t7 19.5v119q0 16 -10 24.5t-24 5.5q-67 -16 -118.5 -57t-85.5 -108q-65 -127 -65 -301t66 -301q68 -133 204 -164q13 -3 23 5.5t10 24.5v119q0 11 -6.5 19.5t-16.5 10.5q-53 12 -77 82q-14 42 -20 93t-6 111h1z" />
    <glyph glyph-name="parenright" unicode=")" horiz-adv-x="346" 
d="M147 340q0 -120 -27 -204q-22 -70 -76 -82q-9 -2 -15.5 -10.5t-6.5 -19.5v-119q0 -16 9.5 -24.5t23.5 -5.5q135 31 203 163h-1q67 128 67 302t-67 302l1 -1q-67 133 -203 165q-14 3 -23.5 -5.5t-9.5 -24.5v-119q0 -11 6.5 -19.5t15.5 -10.5q53 -12 76 -83q27 -84 27 -204
z" />
    <glyph glyph-name="asterisk" unicode="*" horiz-adv-x="598" 
d="M504 645q10 11 7.5 24t-15.5 21l-117 67q-13 8 -25 3t-17 -19l-38 -105l-37 105q-5 14 -17 19t-25 -3l-117 -67q-13 -8 -15.5 -21t7.5 -24l73 -87l-111 20q-14 2 -24.5 -6t-10.5 -22v-134q0 -14 10.5 -22.5t24.5 -6.5l111 20q-2 -4 -5 -6.5t-6 -6.5q-16 -18 -24.5 -28.5
t-14.5 -17.5t-11 -13t-12 -15q-9 -11 -6.5 -24.5t14.5 -20.5l117 -67q13 -8 25 -3t17 19l37 105l38 -105q5 -14 17 -19t25 3l117 67q12 7 14.5 20.5t-6.5 24.5q-8 9 -12.5 15t-10.5 13t-14.5 17.5t-24.5 28.5q-4 4 -7 6.5t-5 6.5l112 -20q14 -2 24 6.5t10 22.5v134
q0 14 -10 22t-24 6l-111 -20z" />
    <glyph glyph-name="plus" unicode="+" horiz-adv-x="620" 
d="M23 358v-138q0 -12 9 -21t21 -9h160v-160q0 -13 8.5 -21.5t20.5 -8.5h138q13 0 21.5 8.5t8.5 21.5v160h159q12 0 20.5 9t8.5 21v138q0 12 -9 21t-21 9h-159v157q0 13 -8.5 21.5t-21.5 8.5h-138q-12 0 -20.5 -8.5t-8.5 -21.5v-157h-160q-12 0 -21 -9t-9 -21h1z" />
    <glyph glyph-name="comma" unicode="," horiz-adv-x="214" 
d="M46 198q-10 0 -17 -8t-7 -19v-141q0 -11 7 -19t17 -8h26l-30 -87q-5 -14 2 -25.5t21 -11.5h61q6 0 13 5t9 12l44 127v148q0 11 -7 19t-17 8h-122z" />
    <glyph glyph-name="hyphen" unicode="-" horiz-adv-x="402" 
d="M50 429q-11 0 -19.5 -6.5t-8.5 -15.5v-98q0 -10 8.5 -16.5t19.5 -6.5h302q12 0 20 6.5t8 16.5v98q0 9 -8 15.5t-20 6.5h-302z" />
    <glyph glyph-name="period" unicode="." horiz-adv-x="251" 
d="M46 196q-10 0 -17 -7t-7 -18v-146q0 -11 7 -18t17 -7h122q10 0 17 7t7 18v146q0 11 -7 18t-17 7h-122z" />
    <glyph glyph-name="slash" unicode="/" horiz-adv-x="612" 
d="M26 32q-8 -17 0 -30.5t26 -13.5h136q7 0 15 5t11 12l372 750q8 17 0 30.5t-26 13.5h-137q-7 0 -14.5 -5t-11.5 -12z" />
    <glyph glyph-name="zero" unicode="0" horiz-adv-x="714" 
d="M692 393q0 207 -77 304v-1q-79 103 -258 103t-258 -102q-77 -98 -77 -304q0 -103 19.5 -178.5t57.5 -124.5q80 -102 258 -102q180 0 258 102v-1q77 98 77 304zM436 393q0 -122 -14 -166q-9 -27 -65 -27t-65 27q-6 21 -9.5 63t-3.5 103q0 124 13 166q7 27 65 27
q56 0 65 -27q14 -45 14 -166z" />
    <glyph glyph-name="one" unicode="1" horiz-adv-x="436" 
d="M386 0q12 0 20 9t8 21v724q0 12 -8 21t-20 9h-151q-23 -23 -42.5 -39.5t-36.5 -24.5q-19 -9 -46.5 -17.5t-64.5 -16.5q-9 -2 -16 -10t-7 -19v-157q0 -16 11 -25.5t25 -4.5q34 10 62.5 21t57.5 28v-489q0 -12 8.5 -21t19.5 -9h180z" />
    <glyph glyph-name="two" unicode="2" horiz-adv-x="676" 
d="M22 30q0 -12 9 -21t21 -9h572q12 0 21 9t9 21v161q0 13 -9 22t-21 9h-205q11 11 22.5 21.5t23.5 23.5v-1q20 20 47.5 50.5t62.5 72.5q73 87 73 185q0 107 -84 167q-77 57 -205 57q-95 0 -186 -37q-45 -19 -74 -34.5t-43 -29.5q-3 -2 -6 -9.5t-3 -12.5v-185q0 -11 6 -18.5
t14 -10.5t17.5 -0.5t15.5 11.5q23 30 86 73q60 41 119 41q36 0 56.5 -18t20.5 -50q0 -26 -20 -52q-29 -38 -52 -61h1l-279 -259q-3 -3 -6.5 -10.5t-3.5 -11.5v-94z" />
    <glyph glyph-name="three" unicode="3" horiz-adv-x="687" 
d="M56 603q0 -13 9 -21.5t21 -8.5h265l-122 -94q-3 -2 -6 -9.5t-3 -11.5v-102q0 -13 8.5 -22t21.5 -9q108 -3 137 -25q26 -20 26 -44q0 -23 -19.5 -35t-51.5 -12q-75 0 -132 28q-32 17 -53 27.5t-32 17.5q-11 8 -24 4t-19 -18l-59 -142q-3 -8 -1.5 -18.5t8.5 -16.5
q11 -11 40 -27t73 -36q89 -40 201 -40q156 0 238 63.5t82 196.5q0 91 -50.5 148t-148.5 78l145 136q2 2 5.5 9.5t3.5 12.5v123q0 12 -9.5 21t-21.5 9h-503q-12 0 -21 -9t-9 -21z" />
    <glyph glyph-name="four" unicode="4" horiz-adv-x="741" 
d="M398 784q-5 0 -13 -3.5t-11 -7.5l-352 -439v-184q0 -12 9 -21t21 -9h310v-90q0 -12 9 -21t21 -9h194q12 0 21 9t9 21v90l73 1q13 0 21.5 9t8.5 21v151q0 12 -8.5 21t-21.5 9h-73v422q0 12 -9 21t-21 9h-188zM211 332l151 186v-186h-151z" />
    <glyph glyph-name="five" unicode="5" horiz-adv-x="718" 
d="M657 755q0 12 -9.5 21t-21.5 9h-475q-11 0 -20 -8t-10 -19l-36 -330q-1 -8 4 -16.5t12 -13.5l128 -81q4 -3 12.5 -4t13.5 1q40 15 96 15q41 0 66 -18t25 -47q0 -32 -30.5 -50t-78.5 -18q-35 0 -68 5.5t-67 18.5q-33 13 -52.5 20.5t-24.5 9.5q-12 8 -24.5 3.5t-17.5 -18.5
l-55 -147q-4 -11 0.5 -22.5t15.5 -16.5q15 -8 43.5 -18t70.5 -21q81 -22 191 -22q168 0 259.5 66t91.5 199q0 66 -22.5 116.5t-65 85.5t-103.5 53t-138 18q-22 0 -44.5 -1.5t-42.5 -6.5l8 64h339q12 0 21 9t9 21v143z" />
    <glyph glyph-name="six" unicode="6" horiz-adv-x="707" 
d="M685 252q0 128 -76.5 197t-216.5 69q-70 0 -124 -18q3 16 6.5 29.5t8.5 26.5q24 56 95 56q78 0 122 -16q23 -8 46 -17t46 -20q17 -8 29.5 0.5t12.5 26.5v145q0 7 -5 15t-10 11q-32 17 -96 29.5t-144 12.5q-161 0 -259 -92t-98 -321q0 -215 83 -307q84 -91 249 -91
q160 0 245.5 66t85.5 198zM286 325h-1q28 19 68 19q90 0 90 -87q0 -39 -23.5 -61t-65.5 -22q-61 0 -76 29h1q-9 17 -16 82q4 15 9.5 24.5t13.5 15.5z" />
    <glyph glyph-name="seven" unicode="7" horiz-adv-x="696" 
d="M674 754q0 12 -9 21t-21 9h-592q-12 0 -21 -9t-9 -21v-165q0 -12 9 -21t21 -9h350q-42 -57 -78.5 -112.5t-68.5 -111.5q-80 -138 -142 -293q-7 -17 2 -29.5t26 -12.5h225q9 0 18 6.5t11 15.5q26 89 56 171.5t67 159.5q37 78 76 143t80 117v141z" />
    <glyph glyph-name="eight" unicode="8" horiz-adv-x="719" 
d="M22 240q0 -61 23 -108t66.5 -79t106 -48.5t141.5 -16.5q160 0 249 65.5t89 193.5q0 85 -53 140h1q-25 26 -56 45q38 27 57.5 65.5t19.5 81.5q0 102 -92 164q-86 56 -215 56q-134 0 -217 -56q-90 -59 -90 -163q0 -42 17 -80.5t58 -67.5q-56 -33 -80.5 -79.5t-24.5 -112.5z
M359 333q45 0 68.5 -19.5t23.5 -57.5t-23.5 -57.5t-67.5 -19.5q-94 0 -94 77t93 77zM359 607q32 0 51 -12.5t19 -35.5t-19 -35t-51 -12q-33 0 -52 12t-19 35q0 24 19.5 36t51.5 12z" />
    <glyph glyph-name="nine" unicode="9" horiz-adv-x="707" 
d="M22 534q0 -128 77 -197t217 -69q34 0 64 4t56 12q-2 -13 -4.5 -24.5t-6.5 -23.5q-16 -61 -95 -61q-38 0 -68.5 3.5t-53.5 11.5h1q-23 8 -46 17.5t-46 20.5q-17 8 -30 -0.5t-13 -26.5v-145q0 -6 5.5 -14.5t10.5 -11.5q31 -18 94.5 -29.5t144.5 -11.5q162 0 259 91
q50 47 73.5 126.5t23.5 194.5q0 214 -83 306q-84 92 -248 92q-160 0 -246 -66.5t-86 -198.5zM416 460q-30 -18 -62 -18q-89 0 -89 87q0 39 23.5 61t65.5 22q60 0 74 -29q5 -9 8 -26.5t7 -46.5q-5 -19 -11.5 -32t-15.5 -18z" />
    <glyph glyph-name="colon" unicode=":" horiz-adv-x="214" 
d="M46 566q-10 0 -17 -7t-7 -18v-146q0 -11 7 -18t17 -7h122q10 0 17 7t7 18v146q0 11 -7 18t-17 7h-122zM46 196q-10 0 -17 -7t-7 -18v-146q0 -11 7 -18t17 -7h122q10 0 17 7t7 18v146q0 11 -7 18t-17 7h-122z" />
    <glyph glyph-name="semicolon" unicode=";" horiz-adv-x="214" 
d="M46 566q-10 0 -17 -7t-7 -18v-146q0 -11 7 -18t17 -7h122q10 0 17 7t7 18v146q0 11 -7 18t-17 7h-122zM46 217q-10 0 -17 -8t-7 -19v-141q0 -11 7 -19t17 -8h26l-30 -87q-5 -14 2 -25.5t21 -11.5h61q6 0 13 5t9 12l44 127v148q0 11 -7 19t-17 8h-122z" />
    <glyph glyph-name="less" unicode="&#x3c;" horiz-adv-x="617" 
d="M576 380q8 2 13.5 11t5.5 17v147q0 17 -12 25.5t-28 2.5l-514 -207q-8 -2 -13.5 -11t-5.5 -17v-120q0 -8 5.5 -17t13.5 -11l514 -206q16 -6 28 2.5t12 25.5v146q0 8 -5.5 17t-13.5 11l-226 92z" />
    <glyph glyph-name="equal" unicode="=" horiz-adv-x="620" 
d="M23 300q0 -9 9 -16t21 -7h516q12 0 20.5 7t8.5 16v108q0 10 -9 16.5t-21 6.5h-516q-12 0 -21 -6.5t-9 -16.5zM22 40q0 -9 9.5 -16t21.5 -7h516q12 0 20.5 7t8.5 16v108q0 10 -9 16.5t-21 6.5h-516q-12 0 -21 -6.5t-9 -16.5v-108z" />
    <glyph glyph-name="greater" unicode="&#x3e;" horiz-adv-x="620" 
d="M42 196q-8 -2 -14 -11t-6 -17v-146q0 -17 13 -25.5t29 -2.5l516 206q6 2 12 11t6 17v120q0 8 -6 16.5t-13 11.5l-516 207q-15 6 -28 -2.5t-13 -25.5v-147q0 -8 6 -17t14 -11l228 -92z" />
    <glyph glyph-name="question" unicode="?" horiz-adv-x="583" 
d="M290 788q-28 0 -60.5 -7t-71.5 -20q-37 -12 -67.5 -24.5t-53.5 -24.5q-8 -5 -12.5 -16t-1.5 -21l37 -114q5 -15 18 -19.5t26 3.5q35 23 91 46q27 11 49 16.5t40 5.5q23 0 37 -18q17 -19 17 -40q0 -12 -7 -23t-18 -21q-24 -22 -66 -51q-43 -36 -62.5 -69.5t-19.5 -71.5
v-37q0 -12 9.5 -21t21.5 -9h139q11 0 19.5 9t8.5 20l2 22q1 9 4 17t11 17.5t22 20.5t35 26l-2 -2q23 14 43 32t40 40q42 49 42 122q0 87 -74 150q-35 30 -83 46t-112 16h-1zM189 218q-12 0 -21 -9t-9 -22v-157q0 -12 9.5 -21t21.5 -9h151q12 0 20.5 9t8.5 21v157q0 13 -9 22
t-21 9h-151z" />
    <glyph glyph-name="at" unicode="@" horiz-adv-x="930" 
d="M483 688q-174 0 -295 -123t-121 -281q0 -163 119 -287q120 -123 306 -123q108 0 199 56q90 55 120 113h-97q-26 -29 -90 -53q-66 -23 -145 -23q-116 0 -207 88q-93 88 -93 224q0 132 90 224t214 92q122 0 204 -71q82 -70 82 -166q0 -86 -37 -148q-36 -62 -71 -62l-11 9
q-7 9 -7 20q0 3 0.5 6t1.5 8l61 282h-101l-12 -48q-15 34 -55 51t-78 17q-108 0 -165 -79q-58 -79 -58 -177q0 -95 54 -144q55 -50 125 -50q36 0 64 19q30 20 43 38q9 -34 25 -47q18 -12 34 -12q100 0 190 93t90 219q0 134 -107 234q-107 101 -272 101zM479 381q39 0 61 -25
q22 -23 22 -59q0 -40 -32 -90q-33 -49 -84 -49q-34 0 -60 26q-26 28 -26 90q0 36 36 71q34 36 83 36z" />
    <glyph glyph-name="A" unicode="A" horiz-adv-x="1054" 
d="M1028 0q20 0 28 13.5t0 30.5l-387 723q-4 7 -12 12t-15 5h-177q-6 0 -15 -5t-12 -11l-411 -723q-10 -17 -1 -31t29 -14h207q8 0 16 5t12 12l51 98h375l51 -98q3 -7 11.5 -12t15.5 -5h234zM535 465l90 -174h-186z" />
    <glyph glyph-name="B" unicode="B" horiz-adv-x="751" 
d="M462 0q117 0 190 59q77 63 77 164q0 91 -50 149q-27 31 -79 52q51 26 75 68t24 97q0 45 -18.5 79.5t-53.5 62.5q-34 26 -76.5 39.5t-94.5 13.5h-404q-12 0 -21 -9t-9 -21v-724q0 -12 9 -21t21 -9h410zM361 328q42 0 68 -20.5t26 -55.5q0 -33 -27.5 -53t-69.5 -20h-69v149
h72zM351 605q39 0 61.5 -19t22.5 -45q0 -23 -23.5 -42t-61.5 -19h-61v125h62z" />
    <glyph glyph-name="C" unicode="C" horiz-adv-x="871" 
d="M299 386q0 105 62.5 162t174.5 57q34 0 67.5 -5t67.5 -14q69 -18 113 -34q16 -6 29 3.5t11 27.5l-11 147q-1 8 -7 16t-14 10q-54 18 -130 30.5t-173 12.5q-111 0 -198 -27.5t-147 -80.5t-91 -131t-31 -180q0 -190 131 -292q125 -100 346 -100q95 0 176.5 12t150.5 37
q8 3 14 11.5t6 16.5l3 150q0 17 -13 26t-29 3q-24 -10 -54.5 -19t-68.5 -20h2q-72 -18 -149 -18q-112 0 -176 54q-30 26 -46.5 62.5t-16.5 82.5h1z" />
    <glyph glyph-name="D" unicode="D" horiz-adv-x="913" 
d="M53 784q-13 0 -22 -9t-9 -21v-724q0 -12 9 -21t22 -9h440q175 0 286 110q112 111 112 282q0 175 -111 283q-112 109 -291 109h-436zM619 391q0 -76 -37 -114.5t-109 -38.5h-168v308h176q68 0 103 -39t35 -116z" />
    <glyph glyph-name="E" unicode="E" horiz-adv-x="714" 
d="M662 0q13 0 21.5 9t8.5 21v146q0 13 -8.5 22t-21.5 9h-363v84l287 1q12 0 21 9t9 22v144q0 12 -9 21t-21 9h-287v80h336q12 0 21 9t9 22v146q0 12 -9 21t-21 9h-583q-12 0 -21 -9t-9 -21v-724q0 -12 9 -21t21 -9h610z" />
    <glyph glyph-name="F" unicode="F" horiz-adv-x="719" 
d="M269 0q13 0 21.5 9t8.5 21v247h271q12 0 21 9t9 21l1 145q0 13 -9 21.5t-21 8.5h-272v95h368q13 0 21.5 9t8.5 22v146q0 12 -8.5 21t-21.5 9h-614q-13 0 -22 -9t-9 -21v-724q0 -12 9 -21t22 -9h216z" />
    <glyph glyph-name="G" unicode="G" horiz-adv-x="944" 
d="M299 387q0 98 69 158q72 60 190 60q38 0 75.5 -4t74.5 -11q76 -15 130 -31q17 -5 29 5.5t10 27.5l-17 139q-1 8 -7.5 15.5t-14.5 9.5q-52 16 -137 29.5t-191 13.5q-218 0 -353 -112q-135 -114 -135 -309q0 -199 131 -294.5t378 -95.5q109 0 202.5 14t166.5 37
q9 3 15.5 11.5t6.5 17.5v351q0 13 -9 21.5t-22 8.5h-320q-13 0 -22 -8.5t-9 -21.5v-133q0 -13 9 -22t22 -9h105v-50q-47 -18 -137 -18q-113 0 -177 54q-63 54 -63 146z" />
    <glyph glyph-name="H" unicode="H" horiz-adv-x="862" 
d="M52 784q-12 0 -21 -9t-9 -21v-724q0 -12 9 -21t21 -9h220q13 0 22 9t9 21v267h255v-267q0 -12 9 -21t22 -9h220q13 0 22 9t9 21v724q0 12 -9 21t-22 9h-220q-13 0 -22 -9t-9 -21v-251h-255v251q0 12 -9 21t-22 9h-220z" />
    <glyph glyph-name="I" unicode="I" horiz-adv-x="282" 
d="M234 0q11 0 18.5 9t7.5 21v724q0 12 -7.5 21t-18.5 9h-186q-11 0 -18.5 -9t-7.5 -21v-724q0 -12 7.5 -21t18.5 -9h186z" />
    <glyph glyph-name="J" unicode="J" horiz-adv-x="623" 
d="M358 792q-12 0 -21 -9t-9 -22v-442q0 -86 -94 -86q-51 0 -95 25q-48 27 -64 46q-8 9 -17.5 10.5t-18 -2.5t-13.5 -12.5t-3 -20.5l29 -228q1 -5 5.5 -12.5t9.5 -10.5q10 -6 32.5 -14t59.5 -20q75 -24 145 -24q131 0 213 76q84 79 84 201v514q0 13 -8.5 22t-20.5 9h-214z
" />
    <glyph glyph-name="K" unicode="K" horiz-adv-x="947" 
d="M269 0q12 0 21 9t9 21v273l303 -295q3 -2 10.5 -5t11.5 -3h269q11 0 18.5 5t11 13t1.5 17t-10 17l-381 372l281 309q7 7 8 16t-2.5 17t-11.5 13t-18 5h-232q-4 0 -12 -3.5t-11 -6.5l-236 -269v249q0 12 -9 21t-21 9h-217q-12 0 -21 -9t-9 -21v-724q0 -12 9 -21t21 -9h217
z" />
    <glyph glyph-name="L" unicode="L" horiz-adv-x="730" 
d="M300 754q0 12 -9.5 21t-21.5 9h-217q-13 0 -21.5 -9t-8.5 -21v-724q0 -12 9 -21t22 -9h625q12 0 21 9t9 21v172q0 13 -9.5 21.5t-21.5 8.5h-378z" />
    <glyph glyph-name="M" unicode="M" horiz-adv-x="1149" 
d="M861 784q-7 0 -15 -4.5t-12 -10.5l-259 -425l-262 425q-3 6 -11.5 10.5t-14.5 4.5h-234q-13 0 -22 -9t-9 -21v-724q0 -12 9 -21t22 -9h200q13 0 22 9t9 21v390l216 -403q4 -7 12 -12t15 -5h94q7 0 15 5t12 12l217 404v-391q0 -12 9 -21t22 -9h200q13 0 22 9t9 21v724
q0 12 -9 21t-22 9h-235z" />
    <glyph glyph-name="N" unicode="N" horiz-adv-x="862" 
d="M469 541q-43 57 -84.5 113.5t-85.5 116.5q-2 5 -10.5 9t-14.5 4h-222q-12 0 -21 -9t-9 -21v-724q0 -12 9 -21t21 -9h195q13 0 22 9t9 21v362l282 -380q4 -5 12 -8.5t13 -3.5h224q13 0 22 9t9 21v724q0 12 -9 21t-22 9h-195q-13 0 -22 -9t-9 -21v-368q-29 40 -57 78.5
t-57 76.5z" />
    <glyph glyph-name="O" unicode="O" horiz-adv-x="984" 
d="M962 393q0 205 -119 305.5t-351 100.5t-351 -100.5t-119 -305.5t119 -305t351 -100t351 100t119 305zM685 393q0 -86 -49.5 -129.5t-143.5 -43.5t-143 43.5t-49 129.5t49 129.5t143 43.5t143.5 -43.5t49.5 -129.5z" />
    <glyph glyph-name="P" unicode="P" horiz-adv-x="753" 
d="M399 279q164 -2 248 60.5t84 195.5q0 67 -24.5 114.5t-72.5 77.5t-120 43.5t-167 13.5h-295q-12 0 -21 -9t-9 -21v-724q0 -12 9.5 -21t21.5 -9h212q13 0 22 9t9 21v250zM353 605q54 4 84 -16.5t30 -58.5q0 -78 -121 -73l-51 2v142z" />
    <glyph glyph-name="Q" unicode="Q" horiz-adv-x="991" 
d="M968 41q4 19 -8.5 30.5t-30.5 5.5q-6 -2 -13.5 -3t-27.5 -1q-17 0 -31 2t-27 5l9 9q124 104 124 307q0 206 -120 308t-351 102q-230 0 -350 -102t-120 -308t120 -307t350 -101q23 0 41.5 0.5t32.5 1.5q5 -4 8.5 -7t6.5 -6q97 -89 256 -89q12 0 24.5 1t24.5 2.5t22 3
t15 3.5q7 2 13 9t8 14zM685 396q0 -86 -49 -130t-144 -44q-94 0 -143 44t-49 130q0 87 49 131t143 44q95 0 144 -44t49 -131z" />
    <glyph glyph-name="R" unicode="R" horiz-adv-x="943" 
d="M402 277q54 0 62 -6q5 -3 9.5 -8t8.5 -10l-1 2l128 -238q4 -7 11.5 -12t15.5 -5h254q19 0 27.5 14.5t-1.5 31.5l-137 231q-15 20 -37.5 40t-54.5 37q27 9 49.5 20.5t39.5 24.5q69 51 69 165q0 101 -84 163q-78 57 -207 57h-502q-12 0 -21 -9t-9 -21v-724q0 -12 9 -21
t21 -9h222q13 0 22 9t9 21v247h97zM455 605q55 0 84 -17t29 -54q0 -44 -38 -61t-111 -17h-120v149h156z" />
    <glyph glyph-name="S" unicode="S" horiz-adv-x="730" 
d="M708 254q0 100 -67 164q-60 60 -222 92q-45 8 -78 17.5t-56 17.5q-25 9 -25 25q0 17 24.5 24t69.5 7q59 0 133 -21q37 -11 71 -24t65 -28q17 -9 31 1.5t12 29.5l-20 175q-1 8 -7.5 16t-14.5 10q-19 6 -47.5 12t-66.5 13q-79 14 -149 14q-160 0 -249.5 -65t-89.5 -191
q0 -108 73 -168q67 -56 240 -91q92 -18 118 -34q16 -11 16 -22q0 -21 -27.5 -32t-72.5 -11q-73 0 -163 30q-87 31 -136 55q-17 8 -31 -1.5t-12 -28.5l16 -190q1 -9 8 -17t16 -10q11 -2 31.5 -6.5t49.5 -9.5v1q8 -2 15.5 -3t17.5 -3q43 -7 86.5 -10.5t87.5 -3.5
q82 0 147.5 17.5t111 51t70 83t24.5 114.5z" />
    <glyph glyph-name="T" unicode="T" horiz-adv-x="797" 
d="M515 0q13 0 21.5 9t8.5 21v557h206q13 0 22 9t9 22v136q0 12 -9 21t-22 9h-692q-13 0 -21.5 -9t-8.5 -21v-136q0 -13 8.5 -22t21.5 -9h207v-557q0 -12 9 -21t21 -9h219z" />
    <glyph glyph-name="U" unicode="U" horiz-adv-x="855" 
d="M566 346q0 -69 -32 -99.5t-104 -30.5q-76 0 -108.5 29t-32.5 98v412q0 12 -9 21t-22 9h-205q-13 0 -22 -9t-9 -21v-498q0 -155 107 -215q97 -54 297 -54q194 0 296 54q111 60 111 205v508q0 12 -9 21t-21 9h-206q-13 0 -22 -9t-9 -21v-409z" />
    <glyph glyph-name="V" unicode="V" horiz-adv-x="964" 
d="M692 785q-8 0 -16.5 -5.5t-11.5 -12.5l-174 -388l-181 388q-4 8 -12 13t-16 5h-227q-18 0 -27 -13t-1 -30l361 -736q3 -7 12 -12.5t16 -5.5h131q7 0 15.5 5t12.5 12l364 736q8 17 -0.5 30.5t-27.5 13.5h-218z" />
    <glyph glyph-name="W" unicode="W" horiz-adv-x="1341" 
d="M1074 785q-9 0 -18 -6t-12 -14l-120 -330l-157 332q-2 8 -11 13t-17 5h-136q-8 0 -17 -5.5t-12 -12.5l-162 -333l-117 331q-3 8 -12.5 14t-17.5 6h-210q-17 0 -26.5 -12t-3.5 -29l268 -736q3 -8 12 -14t17 -6h114q8 0 17 5.5t12 12.5l201 438l210 -438q4 -8 12 -13t16 -5
h115q8 0 17 6t12 14l268 736q6 17 -3 29t-26 12h-213z" />
    <glyph glyph-name="X" unicode="X" horiz-adv-x="1036" 
d="M740 784q-5 0 -13 -3.5t-10 -6.5l-176 -198l-182 198q-2 3 -9.5 6.5t-12.5 3.5h-263q-11 0 -18.5 -5t-11 -12.5t-2 -16.5t8.5 -17l293 -323l-313 -360q-7 -8 -8 -16.5t2.5 -16t11 -12.5t18.5 -5h236q5 0 13 3.5t10 7.5l204 234l186 -233q3 -4 11.5 -8t13.5 -4h253
q21 0 28.5 16.5t-4.5 32.5l-290 361l281 323q14 16 6 33.5t-30 17.5h-233z" />
    <glyph glyph-name="Y" unicode="Y" horiz-adv-x="1043" 
d="M751 784q-5 0 -14 -4t-11 -9l-185 -249l-203 251q-3 4 -11 7.5t-13 3.5h-259q-21 0 -29.5 -17t5.5 -33l349 -420v-284q0 -12 9 -21t21 -9h224q13 0 22 9t9 21v284l348 420q13 16 4.5 33t-29.5 17h-237z" />
    <glyph glyph-name="Z" unicode="Z" horiz-adv-x="830" 
d="M808 193q0 12 -9 21t-21 9h-363l373 365q3 3 6 11t3 12v143q0 12 -9 21t-21 9h-701q-12 0 -21 -9t-9 -21v-146q0 -13 9 -22t21 -9h343l-378 -374q-2 -3 -5.5 -10.5t-3.5 -10.5v-152q0 -12 9 -21t22 -9h725q12 0 21 9t9 21v163z" />
    <glyph glyph-name="bracketleft" unicode="[" horiz-adv-x="329" 
d="M281 657q11 0 18.5 9t7.5 22v88q0 13 -7.5 22t-18.5 9h-232q-11 0 -19 -9t-8 -22v-871q0 -13 8 -22t19 -9h232q11 0 18.5 9t7.5 22v88q0 12 -7.5 21t-18.5 9h-93v634h93z" />
    <glyph glyph-name="backslash" unicode="\" horiz-adv-x="558" 
d="M343 6q3 -7 11 -12.5t16 -5.5h135q17 0 26 13t1 30l-319 749q-3 8 -11 13.5t-16 5.5h-134q-17 0 -25.5 -13t-1.5 -30z" />
    <glyph glyph-name="bracketright" unicode="]" horiz-adv-x="329" 
d="M22 -7v-88q0 -13 8 -22t19 -9h231q11 0 19 9t8 22v871q0 13 -8 22t-19 9h-231q-11 0 -19 -9t-8 -22v-88q0 -13 8 -22t19 -9h92v-634h-92q-11 0 -19 -9t-8 -21z" />
    <glyph glyph-name="asciicircum" unicode="^" horiz-adv-x="600" 
d="M201 310q8 0 16 5.5t11 11.5l72 158l72 -158q3 -6 11 -11.5t16 -5.5h148q18 0 26.5 12.5t0.5 28.5l-182 369q-3 5 -11.5 10.5t-15.5 5.5h-130q-7 0 -16 -5.5t-11 -10.5l-182 -369q-8 -16 0.5 -28.5t25.5 -12.5h149z" />
    <glyph glyph-name="underscore" unicode="_" horiz-adv-x="456" 
d="M443 -143q12 0 20.5 4t8.5 10v21q0 6 -8.5 10.5t-20.5 4.5h-442q-12 0 -20.5 -4.5t-8.5 -10.5v-21q0 -6 8.5 -10t20.5 -4h442z" />
    <glyph glyph-name="grave" unicode="`" horiz-adv-x="415" 
d="M363 528q18 0 26 13t-2 27l-129 194q-3 4 -10.5 8t-13.5 4h-183q-19 0 -26.5 -14.5t5.5 -28.5l187 -194q3 -2 10 -5.5t12 -3.5h124z" />
    <glyph glyph-name="a" unicode="a" 
d="M467 19q36 -30 88 -30l106 88q9 7 11 16t-1 17t-10.5 13.5t-18.5 5.5l-7 5l-7 6v205q0 66 -17 112.5t-52 75.5t-89 42.5t-128 13.5q-46 0 -87 -8t-79 -22q-38 -15 -61.5 -27.5t-34.5 -22.5q-5 -5 -7.5 -15t0.5 -18l38 -87q5 -12 17.5 -16.5t23.5 1.5q17 8 36 16t42 17
q25 10 49 14t50 4q35 0 55 -15t21 -46l-84 4q-63 3 -114.5 -11.5t-92.5 -41.5q-83 -57 -83 -146q0 -83 54.5 -132t158.5 -49q53 0 104 15t96 38q5 -6 10.5 -11t12.5 -11zM375 157q-33 -13 -72 -13q-51 0 -51 25q0 49 153 49h3v-47q-7 -3 -15 -6.5t-18 -7.5z" />
    <glyph glyph-name="b" unicode="b" 
d="M255 755q0 12 -9 21t-21 9h-173q-12 0 -21 -9t-9 -21v-725q0 -12 9 -21t21 -9h92q7 0 14.5 5t11.5 11l28 51q13 -10 26 -19t28 -20q58 -40 147 -40q121 0 195 87q70 83 70 221t-68 221q-35 44 -82 65.5t-109 21.5q-60 0 -118 -26v1q-9 -4 -16.5 -7.5t-15.5 -7.5v191z
M278 417q27 15 55 15q54 0 82 -38t28 -110q0 -57 -23.5 -93t-62.5 -36q-35 0 -67 20h1q-12 8 -21 14.5t-15 11.5v204q3 2 9 4.5t14 7.5z" />
    <glyph glyph-name="c" unicode="c" horiz-adv-x="545" 
d="M520 179q2 14 -6.5 24t-22.5 10q-7 0 -11 -1.5t-9 -4.5h2q-6 -2 -16.5 -6t-26.5 -10q-41 -16 -75 -16q-62 0 -91 26t-29 81q0 62 27 97t75 35q39 0 79 -16q23 -9 38 -16t23 -13q17 -11 32 -1.5t13 29.5l-13 132q0 6 -6 14t-11 10q-26 12 -65.5 24t-101.5 12
q-139 0 -221 -83q-41 -42 -61.5 -97.5t-20.5 -127.5q0 -134 81 -214q82 -79 215 -79q52 0 103 13q52 14 66 22q4 2 9.5 9.5t5.5 12.5z" />
    <glyph glyph-name="d" unicode="d" 
d="M515 16q3 -6 11 -11t16 -5h92q12 0 21 9t9 21v725q0 12 -9 21t-21 9h-172q-13 0 -21.5 -9t-8.5 -21v-191q-9 5 -18 8.5t-19 8.5q-53 23 -107 23q-125 0 -197 -86q-69 -83 -69 -222t71 -222q74 -86 196 -86q87 0 141 36q16 11 30 21.5t28 21.5zM397 176q-33 -21 -60 -21
q-45 0 -69.5 34.5t-24.5 94.5q0 69 28 108.5t82 39.5q31 0 53 -14q8 -4 14.5 -7.5t11.5 -5.5v-206q-5 -4 -13.5 -9.5t-21.5 -13.5z" />
    <glyph glyph-name="e" unicode="e" horiz-adv-x="591" 
d="M563 74l-37 94q-5 11 -16.5 16t-22.5 0q-4 -2 -14 -5t-28 -8q-33 -9 -69 -9q-73 0 -103 30q-10 9 -18 26h285q12 0 20.5 9t8.5 21v44q0 132 -72 213q-75 84 -196 84t-200 -83q-79 -82 -79 -208q0 -146 88 -228t235 -82q29 0 58 3.5t56 10t50.5 15.5t41.5 21zM260 398
q13 27 40 27q20 0 33 -19.5t17 -54.5h-104q4 28 14 47z" />
    <glyph glyph-name="f" unicode="f" horiz-adv-x="506" 
d="M326 0q12 0 20.5 9t8.5 21v380h100q12 0 20.5 8.5t8.5 21.5v96q0 12 -8.5 21t-20.5 9h-100v23q0 23 19 23q20 0 36 -4t25 -7q1 0 4 -0.5t4 -0.5q12 0 20.5 9t8.5 22v108q0 8 -6 17t-12 11q-21 8 -50 12.5t-69 4.5q-94 0 -149 -44.5t-55 -131.5v-42h-80q-12 0 -20.5 -9
t-8.5 -21v-96q0 -13 8.5 -21.5t20.5 -8.5h80v-380q0 -12 8.5 -21t20.5 -9h166z" />
    <glyph glyph-name="g" unicode="g" horiz-adv-x="643" 
d="M621 81v485q0 13 -9 21.5t-21 8.5h-103q-7 0 -15.5 -5.5t-11.5 -11.5l-18 -38q-12 11 -30 21.5t-29.5 16t-13.5 6.5q-48 15 -100 15q-113 0 -182 -82q-66 -81 -66 -208q0 -57 16 -104t51 -87q69 -79 174 -79q38 0 70.5 10t64.5 29v-5q0 -29 -29.5 -44t-83.5 -15
q-32 0 -61.5 5t-58.5 16q-30 11 -48.5 18.5t-26.5 10.5q-8 4 -17 4q-8 0 -14 -4t-10 -11.5t-3 -16.5l7 -102q0 -5 5.5 -13.5t10.5 -11.5q8 -5 30.5 -12t57.5 -15q35 -9 74.5 -18.5t82.5 -9.5q71 0 128 15t96.5 43.5t61 70.5t21.5 97zM367 217q-28 -17 -42 -17
q-38 0 -60.5 30t-22.5 79q0 57 18.5 84t63.5 27q24 0 53 -19q20 -14 23 -8v-154q-8 -5 -16 -11t-17 -11z" />
    <glyph glyph-name="h" unicode="h" horiz-adv-x="637" 
d="M585 0q12 0 21 9t9 21v353q0 107 -48.5 163.5t-147.5 56.5q-46 0 -88 -12.5t-79 -35.5v199q0 12 -9 21t-21 9h-171q-12 0 -20.5 -9t-8.5 -21v-724q0 -12 8.5 -21t20.5 -9h171q12 0 21 9t9 21v353l14 7t19 9h-1q33 16 66 16q17 0 25.5 -18.5t8.5 -47.5v-319q0 -12 9 -21
t21 -9h171z" />
    <glyph glyph-name="i" unicode="i" horiz-adv-x="258" 
d="M210 0q10 0 17 9t7 21v530q0 6 -5 11.5t-12 9.5t-14.5 6.5t-12.5 2.5h-141q-11 0 -18 -9t-7 -21v-530q0 -12 7 -21t18 -9h161zM34 719q0 -44 25.5 -69.5t69.5 -25.5q45 0 70 25.5t25 69.5t-25 69.5t-70 25.5q-44 0 -69.5 -25.5t-25.5 -69.5z" />
    <glyph glyph-name="j" unicode="j" horiz-adv-x="298" 
d="M75 597q-11 0 -19 -9t-8 -22v-505q0 -33 -11.5 -48t-43.5 -22l-45 -9q-16 -3 -24 -13.5t-3 -27.5l35 -105q3 -8 10.5 -14.5t15.5 -6.5h65q215 0 215 223v528q0 13 -8 22t-19 9h-160zM48 719q0 -44 28.5 -70t78.5 -26t78.5 26t28.5 70q0 45 -28.5 70.5t-78.5 25.5
t-78.5 -25.5t-28.5 -70.5z" />
    <glyph glyph-name="k" unicode="k" horiz-adv-x="698" 
d="M53 784q-13 0 -22 -9t-9 -21v-724q0 -12 9.5 -21t21.5 -9h173q12 0 21 9t9 21v186l183 -206q3 -3 10.5 -6.5t11.5 -3.5h184q21 0 28.5 17t-6.5 33l-230 273l227 215q8 7 9.5 16.5t-1.5 17t-10.5 13t-18.5 5.5h-206l-182 -181v345q0 12 -9 21t-21 9h-172z" />
    <glyph glyph-name="l" unicode="l" horiz-adv-x="268" 
d="M47 784q-11 0 -18 -9t-7 -21v-724q0 -12 7 -21t18 -9h161q10 0 17 9t7 21v724q0 12 -7 21t-17 9h-161z" />
    <glyph glyph-name="m" unicode="m" horiz-adv-x="1009" 
d="M956 0q13 0 22 8.5t9 21.5v343q0 215 -203 215q-38 0 -73.5 -9t-70.5 -26q-19 -10 -34.5 -18.5t-29.5 -16.5q-21 31 -58.5 50.5t-87.5 19.5q-57 0 -107 -17t-93 -47l-24 38q-4 5 -12.5 9t-14.5 4h-126q-13 0 -22 -8.5t-9 -20.5v-516q0 -13 9 -21.5t22 -8.5h178
q13 0 22 8.5t9 21.5v343q5 4 13 8t19 9h-1q33 15 64 15q14 0 21 -18t7 -47v-310q0 -13 9 -21.5t22 -8.5h178q13 0 22 8.5t9 21.5v344q5 3 13.5 6.5t19.5 8.5q16 8 31 12t30 4q14 0 21 -18t7 -47v-310q0 -13 9 -21.5t22 -8.5h178z" />
    <glyph glyph-name="n" unicode="n" horiz-adv-x="637" 
d="M585 0q12 0 21 8.5t9 21.5v343q0 105 -48.5 160t-147.5 55q-55 0 -105.5 -17t-92.5 -47l-23 38q-4 5 -12 9t-13 4h-122q-12 0 -20.5 -8.5t-8.5 -20.5v-516q0 -13 8.5 -21.5t20.5 -8.5h171q12 0 21 8.5t9 21.5v343q6 4 14 7.5t19 8.5h-1q17 8 33 12t33 4t25.5 -18t8.5 -47
v-310q0 -13 9 -21.5t21 -8.5h171z" />
    <glyph glyph-name="o" unicode="o" horiz-adv-x="681" 
d="M659 288q0 140 -87 221q-88 80 -232 80q-143 0 -231 -80q-87 -81 -87 -221q0 -139 87 -220q86 -80 231 -80q146 0 232 80q87 81 87 220zM447 288q0 -56 -28 -87.5t-79 -31.5q-50 0 -78 31.5t-28 87.5t28 87.5t78 31.5q51 0 79 -31.5t28 -87.5z" />
    <glyph glyph-name="p" unicode="p" 
d="M399 22q116 0 191 80q74 80 74 204q0 129 -77 209v-1q-77 84 -198 84q-50 0 -95 -15t-87 -50l-23 38q-4 5 -11.5 10t-14.5 5h-106q-12 0 -21 -9t-9 -22v-637q0 -13 9 -22t21 -9h173q12 0 21 9t9 22v138q33 -18 68.5 -26t75.5 -8zM344 428q45 0 72.5 -37t27.5 -96
q0 -53 -24 -83.5t-67 -30.5q-30 0 -62 16q-24 12 -37 22v170q15 15 38 27t52 12z" />
    <glyph glyph-name="q" unicode="q" horiz-adv-x="687" 
d="M463 -113h172q12 0 21 9t9 22v647q0 12 -9 21t-21 9h-103q-7 0 -15 -5t-11 -10l-28 -47q-41 35 -85.5 50t-92.5 15q-122 0 -201 -85v1q-77 -83 -77 -212q0 -121 74 -200q77 -80 192 -80q40 0 75 8t70 27v-139q0 -13 8.5 -22t21.5 -9zM397 198q-31 -17 -62 -17
q-43 0 -67.5 30t-24.5 82q0 60 27 97.5t72 37.5q27 0 49.5 -12t39.5 -28v-170q-6 -5 -14.5 -9.5t-19.5 -10.5z" />
    <glyph glyph-name="r" unicode="r" horiz-adv-x="480" 
d="M215 0q12 0 20.5 8.5t8.5 21.5v292q9 13 33 37q22 22 40 22q22 0 48 -34q12 -16 29 -12t22 23l42 162q-4 9 -12.5 20.5t-21 22t-28.5 18t-34 7.5q-41 0 -77.5 -26.5t-70.5 -75.5l-21 69q-2 8 -10 14t-16 6h-117q-11 0 -19.5 -8.5t-8.5 -20.5v-516q0 -13 8.5 -21.5
t19.5 -8.5h165z" />
    <glyph glyph-name="s" unicode="s" horiz-adv-x="529" 
d="M507 173q0 66 -40 108.5t-112 69.5q-62 23 -88.5 36.5t-26.5 27.5q0 7 9 12.5t24 5.5q40 0 84 -22q23 -11 36.5 -18.5t17.5 -9.5q15 -11 30 -3.5t15 27.5v118q0 8 -5 17t-12 11q-14 6 -33 12.5t-41.5 11.5t-47 8.5t-48.5 3.5q-51 0 -94 -11.5t-75 -34.5q-37 -26 -54 -62
t-17 -84q0 -94 67 -137q60 -38 98 -50v1q47 -17 74.5 -28t27.5 -24q0 -8 -11 -11.5t-30 -3.5q-59 0 -115 22q-30 11 -49 18.5t-28 11.5q-17 8 -29.5 -2t-10.5 -28l13 -123q1 -8 7 -15t13 -9q45 -15 98.5 -23.5t114.5 -8.5q112 0 175 48t63 138z" />
    <glyph glyph-name="t" unicode="t" horiz-adv-x="520" 
d="M378 196v212h112q12 0 20.5 9t8.5 22v107q0 13 -8.5 21.5t-20.5 8.5h-112l1 153q0 14 -10 23.5t-24 6.5l-167 -29q-10 -1 -17.5 -10t-7.5 -20v-124h-81q-11 0 -20 -8.5t-9 -21.5v-107q0 -13 9 -22t20 -9h81v-255q0 -97 48.5 -138t155.5 -41q20 0 40 3t43 8q21 5 36.5 9
t25.5 9q7 2 12 10.5t5 16.5v119q0 17 -12.5 26t-27.5 2q-11 -5 -31 -12t-45 -7q-11 0 -18 9.5t-7 28.5z" />
    <glyph glyph-name="u" unicode="u" horiz-adv-x="637" 
d="M615 546q0 12 -8.5 20.5t-20.5 8.5h-171q-12 0 -21 -8.5t-9 -20.5v-344q-10 -5 -21.5 -9.5t-24.5 -10.5h1q-16 -6 -28.5 -8.5t-20.5 -2.5q-38 0 -38 66v309q0 12 -9 20.5t-21 8.5h-171q-12 0 -21 -8.5t-9 -20.5v-353q0 -100 48.5 -152.5t145.5 -52.5q57 0 103.5 16
t91.5 45l16 -32q2 -7 10.5 -12t16.5 -5h132q12 0 20.5 8.5t8.5 21.5v516z" />
    <glyph glyph-name="v" unicode="v" 
d="M661 534q7 16 -1.5 28.5t-25.5 12.5h-159q-8 0 -16.5 -5.5t-11.5 -13.5l-98 -251l-91 251q-2 7 -11 13t-17 6h-178q-17 0 -25.5 -12.5t-1.5 -28.5l231 -528q3 -7 11 -12.5t16 -5.5h119q8 0 16.5 5.5t10.5 12.5z" />
    <glyph glyph-name="w" unicode="w" horiz-adv-x="1147" 
d="M675 559q-4 6 -12.5 11t-15.5 5h-111q-8 0 -16.5 -5t-11.5 -11l-135 -243l-89 240q-3 7 -12 13t-18 6h-193q-18 0 -27 -12.5t-1 -28.5l233 -528q2 -7 11 -12.5t17 -5.5h93q8 0 16 5t12 11l164 294l163 -294q3 -6 11.5 -11t16.5 -5h93q8 0 16 5.5t12 12.5l238 528
q7 16 -2 28.5t-26 12.5h-178q-8 0 -17.5 -5.5t-11.5 -13.5l-93 -238z" />
    <glyph glyph-name="x" unicode="x" horiz-adv-x="683" 
d="M652 527q12 16 4 31.5t-28 15.5h-174q-5 0 -13.5 -4t-10.5 -9l-80 -113l-77 113q-3 5 -11 9t-14 4h-189q-20 0 -27.5 -15.5t3.5 -31.5l170 -243l-176 -237q-11 -16 -3 -31.5t28 -15.5h171q5 0 13.5 4t10.5 9l86 119l81 -119q3 -5 11 -9t13 -4h190q20 0 27.5 15t-3.5 32
l-172 247z" />
    <glyph glyph-name="y" unicode="y" horiz-adv-x="723" 
d="M523 578q-8 0 -16.5 -5.5t-11.5 -13.5l-97 -231l-106 232q-2 7 -10.5 12.5t-16.5 5.5h-198q-19 0 -27 -13.5t1 -30.5l238 -458l-67 -153q-8 -16 1 -29t26 -13h164q8 0 16.5 5.5t11.5 12.5l281 637q7 16 -1 29t-26 13h-162z" />
    <glyph glyph-name="z" unicode="z" horiz-adv-x="567" 
d="M65 574q-12 0 -20.5 -8.5t-8.5 -21.5v-136q0 -12 8.5 -21t20.5 -9h153l-196 -224v-124q0 -13 8.5 -21.5t20.5 -8.5h464q12 0 21 8.5t9 21.5v136q0 12 -9 21t-21 9h-177l196 218v130q0 13 -8.5 21.5t-20.5 8.5h-440z" />
    <glyph glyph-name="braceleft" unicode="{" horiz-adv-x="378" 
d="M22 296q0 -13 8 -22t19 -9q20 -1 31.5 -11t11.5 -25v-201q0 -60 36 -106q37 -48 122 -48h79q11 0 19 9t8 22v88q0 12 -8 21t-19 9h-47q-19 0 -19 29v181q0 73 -43 107q43 34 43 107v181q0 17 5.5 23t13.5 6h47q11 0 19 9t8 22v88q0 13 -8 22t-19 9h-79q-84 0 -122 -49
q-36 -47 -36 -105v-202q0 -15 -11.5 -25t-31.5 -11q-11 0 -19 -9t-8 -22v-88z" />
    <glyph glyph-name="bar" unicode="|" horiz-adv-x="199" 
d="M22 18q0 -12 7 -21t17 -9h108q9 0 16 9t7 21v737q0 12 -7.5 21t-16.5 9h-108q-10 0 -16.5 -9t-6.5 -21v-737z" />
    <glyph glyph-name="braceright" unicode="}" horiz-adv-x="377" 
d="M355 384q0 13 -8 22t-19 9q-20 1 -31.5 11t-11.5 25v202q0 59 -36 104q-38 50 -121 50h-78q-11 0 -19.5 -9t-8.5 -22v-88q0 -13 8.5 -22t19.5 -9h46q8 0 13.5 -6t5.5 -23v-181q0 -74 42 -107q-42 -33 -42 -107v-181q0 -29 -19 -29h-46q-11 0 -19.5 -9t-8.5 -21v-88
q0 -13 8.5 -22t19.5 -9h78q83 0 121 49q36 46 36 105v201q0 15 11.5 25t31.5 11q11 0 19 9t8 22v88z" />
    <glyph glyph-name="asciitilde" unicode="~" horiz-adv-x="593" 
d="M190 193q19 0 84 -28q38 -17 72.5 -25t63.5 -8q55 0 102 36q38 31 56 55q2 4 2.5 11.5t-1.5 10.5l-47 110q-7 17 -23.5 19t-27.5 -12q-17 -22 -33 -37.5t-34 -15.5q-20 0 -85 28q-77 33 -136 33q-57 0 -101 -35q-20 -16 -33 -29.5t-23 -25.5q-2 -4 -3 -11.5t1 -12.5
l48 -110q7 -16 24 -17t28 13q16 22 32 36.5t34 14.5z" />
    <glyph glyph-name="quotesinglbase" unicode="&#x201a;" horiz-adv-x="214" 
d="M192 89q0 11 -7 19.5t-17 8.5h-122q-10 0 -17 -8.5t-7 -19.5v-141q0 -11 7 -19t17 -8h26l-30 -87q-5 -14 2 -25.5t21 -11.5h61q6 0 13 5t9 12l44 129v146z" />
    <glyph glyph-name="florin" unicode="&#x192;" horiz-adv-x="658" 
d="M493 805q-56 0 -92.5 -13t-67.5 -46q-57 -57 -85 -191h-76q-12 0 -21 -9t-9 -22v-103q0 -12 9 -21t21 -9h37l-39 -216v2q-8 -32 -16 -44t-19 -12q-9 0 -17.5 3.5t-11.5 6.5q-6 9 -14.5 12t-16.5 1.5t-14.5 -8.5t-8.5 -17l-29 -169q-2 -11 4 -21t17 -14q10 -3 22 -5.5
t28 -5.5q34 -6 68 -6q107 0 161 54q25 25 48 73.5t38 122.5l49 243h80q13 0 21.5 9t8.5 21v103q0 13 -8.5 22t-21.5 9h-48q5 14 11 22t14 8q11 0 24.5 -3.5t24.5 -10.5q14 -8 28 -1.5t17 23.5l26 159q2 11 -4.5 22t-17.5 14q-6 1 -35 7l-14 3q-20 5 -37 6t-34 1z" />
    <glyph glyph-name="quotedblbase" unicode="&#x201e;" horiz-adv-x="429" 
d="M412 89q0 11 -7 19.5t-17 8.5h-122q-10 0 -17 -8.5t-7 -19.5v-141q0 -11 7 -19t17 -8h26l-30 -87q-5 -14 2 -25.5t21 -11.5h61q6 0 13 5t9 12l44 129v146zM192 89q0 11 -7 19.5t-17 8.5h-122q-10 0 -17 -8.5t-7 -19.5v-141q0 -11 7 -19t17 -8h26l-30 -87q-5 -14 2 -25.5
t21 -11.5h61q6 0 13 5t9 12l44 129v146z" />
    <glyph glyph-name="ellipsis" unicode="&#x2026;" horiz-adv-x="884" 
d="M381 196q-11 0 -18 -7t-7 -18v-146q0 -11 7.5 -18t17.5 -7h122q10 0 17 7t7 18v146q0 11 -7.5 18t-17.5 7h-121zM716 196q-11 0 -18 -7t-7 -18v-146q0 -11 7.5 -18t17.5 -7h122q10 0 17 7t7 18v146q0 11 -7.5 18t-17.5 7h-121zM46 196q-10 0 -17 -7t-7 -18v-146
q0 -11 7.5 -18t17.5 -7h122q10 0 17 7t7 18v146q0 11 -7.5 18t-17.5 7h-122z" />
    <glyph glyph-name="dagger" unicode="&#x2020;" horiz-adv-x="482" 
d="M327 755q3 15 -5.5 26t-22.5 11h-117q-14 0 -21.5 -11t-5.5 -26l28 -165l-127 31q-14 4 -24 -5t-10 -25v-123q0 -15 10 -23.5t24 -5.5l124 28l-29 -118l40 -423q1 -11 9.5 -19t19.5 -8h41q11 0 19.5 8t9.5 19l40 423l-29 118l124 -28q14 -3 24.5 5.5t10.5 23.5v123
q0 16 -10.5 25t-24.5 5l-128 -31z" />
    <glyph glyph-name="daggerdbl" unicode="&#x2021;" horiz-adv-x="482" 
d="M325 755q2 15 -6 26t-22 11h-113q-14 0 -22 -11t-6 -26l28 -166l-128 31q-14 4 -24 -5t-10 -25v-123q0 -15 10 -23.5t24 -5.5l125 29l-29 -119l29 -126l-125 29q-14 3 -24 -5.5t-10 -23.5v-123q0 -16 10 -25t24 -5l127 30l-28 -164q-2 -15 5.5 -25.5t21.5 -10.5h117
q14 0 22.5 10.5t5.5 25.5l-30 164l128 -30q14 -3 24.5 5.5t10.5 24.5v123q0 15 -10.5 23.5t-24.5 5.5l-125 -29l29 126l-28 119l124 -29q14 -3 24.5 5.5t10.5 23.5v123q0 16 -10.5 25t-24.5 5l-128 -31z" />
    <glyph glyph-name="circumflex" unicode="&#x2c6;" horiz-adv-x="561" 
d="M28 668q-10 -14 -2 -27t27 -13h130q5 0 13.5 3.5t10.5 7.5l74 89l72 -89q3 -3 11 -7t13 -4h131q19 0 27 13t-2 27l-134 194q-3 4 -10.5 8t-13.5 4h-188q-6 0 -14 -4t-11 -8z" />
    <glyph glyph-name="perthousand" unicode="&#x2030;" horiz-adv-x="1706" 
d="M292 806q-62 0 -110 -16t-85 -47q-75 -65 -75 -173q0 -55 19 -99t54.5 -74.5t86 -47t112.5 -16.5q119 0 193 63q76 65 76 174q0 55 -19 99t-54.5 74.5t-85.5 46.5t-111 16h-1zM296 690q38 0 52.5 -30.5t14.5 -92.5q0 -60 -15.5 -89t-55.5 -29t-55 29t-15 91q0 63 15.5 92
t57.5 29h1zM850 366q-122 0 -196 -62q-75 -65 -75 -173q0 -56 19.5 -99.5t55 -74t86 -46.5t112.5 -16q118 0 193 63q37 32 56.5 75t19.5 98t-19 98.5t-54.5 74t-85.5 46.5t-111 16h-1zM854 252q38 0 52.5 -31t14.5 -93q0 -60 -15.5 -89t-55.5 -29t-55.5 29t-15.5 91
q0 63 16 92.5t58 29.5h1zM1412 366q-121 0 -195 -62q-75 -65 -75 -173q0 -56 19.5 -99.5t55 -74t85.5 -46.5t112 -16q119 0 194 63q37 32 56.5 75t19.5 98t-19 98.5t-54.5 74t-85.5 46.5t-112 16h-1zM1416 252q38 0 52.5 -30.5t14.5 -93.5q0 -60 -15.5 -89t-55.5 -29t-55 29
t-15 91q0 63 15.5 92.5t58.5 29.5zM871 807q-5 0 -12.5 -4t-11.5 -8l-731 -846q-14 -17 -5.5 -34t30.5 -17h116q5 0 12.5 4t11.5 8l732 845q13 16 5 33.5t-30 17.5z" />
    <glyph glyph-name="Scaron" unicode="&#x160;" horiz-adv-x="730" 
d="M708 254q0 100 -67 164q-60 60 -222 92q-45 8 -78 17.5t-56 17.5q-25 9 -25 25q0 17 24.5 24t69.5 7q59 0 133 -21q37 -11 71 -24t65 -28q17 -9 31 1.5t12 29.5l-20 175q-1 8 -7.5 16t-14.5 10q-19 6 -47.5 12t-66.5 13q-79 14 -149 14q-160 0 -249.5 -65t-89.5 -191
q0 -108 73 -168q67 -56 240 -91q92 -18 118 -34q16 -11 16 -22q0 -21 -27.5 -32t-72.5 -11q-73 0 -163 30q-87 31 -136 55q-17 8 -31 -1.5t-12 -28.5l16 -190q1 -9 8 -17t16 -10q11 -2 31.5 -6.5t49.5 -9.5v1q8 -2 15.5 -3t17.5 -3q43 -7 86.5 -10.5t87.5 -3.5
q82 0 147.5 17.5t111 51t70 83t24.5 114.5zM141 1049q-19 0 -26.5 -12.5t2.5 -26.5l135 -194q3 -5 11 -9t14 -4h188q6 0 13.5 4t11.5 9l134 194q10 14 1.5 26.5t-27.5 12.5h-131q-5 0 -12.5 -3t-11.5 -7l-73 -90l-75 90q-2 4 -10.5 7t-13.5 3h-130z" />
    <glyph glyph-name="guilsinglleft" unicode="&#x2039;" horiz-adv-x="398" 
d="M368 479q12 15 5 31.5t-26 16.5h-130q-5 0 -12 -3.5t-10 -7.5l-167 -215q-5 -8 -5 -19q0 -10 5 -18l167 -215q3 -3 10 -6.5t12 -3.5h130q19 0 26 16t-5 31l-158 197z" />
    <glyph glyph-name="OE" unicode="&#x152;" horiz-adv-x="1351" 
d="M686 31q0 -13 9 -22t23 -9h579q13 0 22.5 9t9.5 22v146q0 12 -9.5 21t-22.5 9h-322v85l242 1q13 0 22.5 9t9.5 22v144q0 13 -9.5 21.5t-22.5 8.5h-242v81h294q13 0 22 9t9 21v147q0 12 -9 21t-22 9h-551q-14 0 -23 -9t-9 -21v-24q-48 31 -109 49t-134 18
q-190 0 -306 -110q-115 -111 -115 -296q0 -184 115 -295q114 -110 305 -110q125 0 189 32v-1l28 16t27 18v-22zM480 567q74 0 127 -45q51 -45 51 -121v-9q0 -83 -50 -127q-52 -44 -130 -44q-79 0 -125 46q-47 47 -47 128q0 77 49 125q47 47 125 47z" />
    <glyph glyph-name="quoteleft" unicode="&#x2018;" horiz-adv-x="214" 
d="M22 512q0 -11 7 -19t17 -8h122q10 0 17 8t7 19v141q0 11 -7 19t-17 8h-27l31 87q5 14 -2 26t-21 12h-61q-7 0 -13.5 -5.5t-8.5 -12.5l-44 -129v-146z" />
    <glyph glyph-name="quoteright" unicode="&#x2019;" horiz-adv-x="214" 
d="M192 777q0 11 -7 19.5t-17 8.5h-122q-10 0 -17 -8.5t-7 -19.5v-141q0 -11 7 -19t17 -8h26l-30 -87q-5 -14 2 -25.5t21 -11.5h61q6 0 13 5t9 12l44 129v146z" />
    <glyph glyph-name="quotedblleft" unicode="&#x201c;" horiz-adv-x="436" 
d="M242 512q0 -11 7 -19t17 -8h122q10 0 17 8t7 19v141q0 11 -7 19t-17 8h-27l31 87q5 14 -2 26t-21 12h-61q-7 0 -13.5 -5.5t-8.5 -12.5l-44 -129v-146zM22 512q0 -11 7 -19t17 -8h122q10 0 17 8t7 19v141q0 11 -7 19t-17 8h-27l31 87q5 14 -2 26t-21 12h-61
q-7 0 -13.5 -5.5t-8.5 -12.5l-44 -129v-146z" />
    <glyph glyph-name="quotedblright" unicode="&#x201d;" horiz-adv-x="436" 
d="M412 777q0 11 -7 19.5t-17 8.5h-122q-10 0 -17 -8.5t-7 -19.5v-141q0 -11 7 -19t17 -8h26l-30 -87q-5 -14 2 -25.5t21 -11.5h61q6 0 13 5t9 12l44 129v146zM192 777q0 11 -7 19.5t-17 8.5h-122q-10 0 -17 -8.5t-7 -19.5v-141q0 -11 7 -19t17 -8h26l-30 -87
q-5 -14 2 -25.5t21 -11.5h61q6 0 13 5t9 12l44 129v146z" />
    <glyph glyph-name="bullet" unicode="&#x2022;" horiz-adv-x="439" 
d="M219 536q-37 0 -67 -12t-56 -39q-50 -50 -50 -122q0 -71 51 -122q50 -51 123 -51q72 0 122 51q51 50 51 122q0 73 -52 123q-50 50 -121 50h-1z" />
    <glyph glyph-name="endash" unicode="&#x2013;" horiz-adv-x="544" 
d="M51 364q-12 0 -20.5 -6.5t-8.5 -15.5v-98q0 -10 8.5 -16.5t20.5 -6.5h442q12 0 20.5 6.5t8.5 16.5v98q0 9 -8.5 15.5t-20.5 6.5h-442z" />
    <glyph glyph-name="emdash" unicode="&#x2014;" horiz-adv-x="1044" 
d="M53 392q-13 0 -22 -6.5t-9 -15.5v-98q0 -10 9 -16.5t22 -6.5h938q13 0 22 6.5t9 16.5v98q0 9 -9 15.5t-22 6.5h-938z" />
    <glyph glyph-name="tilde" unicode="&#x2dc;" horiz-adv-x="596" 
d="M545 835h-94q-10 0 -18 -6t-10 -14q-8 -34 -29 -34q-38 0 -80 21q-57 27 -108 27q-68 0 -117 -41.5t-66 -137.5q-2 -12 7 -20.5t23 -8.5h92q10 0 18 6t10 15q6 34 30 34q35 0 79 -22q57 -27 109 -27q67 0 116.5 42t66.5 137z" />
    <glyph glyph-name="trademark" unicode="&#x2122;" horiz-adv-x="956" 
d="M934 704q0 12 -9.5 20.5t-22.5 8.5h-142q-8 0 -17 -6t-12 -13l-57 -143l-57 144q-2 7 -11.5 12.5t-17.5 5.5h-145q-13 0 -22 -8.5t-9 -20.5v-355q0 -11 9.5 -19.5t22.5 -8.5h99q13 0 22 8.5t9 19.5v77l33 -86q3 -8 12 -13.5t17 -5.5h77q8 0 17 5.5t12 13.5l26 73v-64
q0 -11 9 -19.5t21 -8.5h105q13 0 22 8.5t9 19.5v355zM370 602q14 0 23 8.5t9 20.5v73q0 12 -9.5 20.5t-22.5 8.5h-318q-12 0 -21 -8.5t-9 -20.5v-73q0 -12 9.5 -20.5t21.5 -8.5h76v-253q0 -11 9 -19.5t22 -8.5h104q13 0 22 8.5t9 19.5v253h75z" />
    <glyph glyph-name="scaron" unicode="&#x161;" horiz-adv-x="563" 
d="M516 173q0 66 -40 108.5t-112 69.5q-61 23 -88 36.5t-27 27.5q0 7 9 12.5t24 5.5q40 0 84 -22q23 -11 36.5 -18.5t17.5 -9.5q15 -11 30 -3.5t15 27.5v118q0 8 -5 17t-12 11q-14 6 -33 12.5t-41.5 11.5t-47 8.5t-48.5 3.5q-104 0 -169 -46q-71 -52 -71 -146t67 -137
q60 -38 98 -50v1q47 -17 74.5 -28t27.5 -24q0 -8 -11 -11.5t-30 -3.5q-58 0 -115 22q-29 11 -48.5 18.5t-28.5 11.5q-17 8 -29.5 -2t-10.5 -28l13 -123q1 -8 7 -15t13 -9q45 -15 98.5 -23.5t114.5 -8.5q112 0 175 48t63 138zM53 874q-19 0 -27 -12.5t2 -26.5l135 -194
q3 -5 11 -9t14 -4h188q6 0 13.5 4t11.5 9l134 194q10 14 2 26.5t-27 12.5h-131q-5 0 -13 -3t-11 -7l-73 -90l-75 90q-2 4 -10.5 7t-13.5 3h-130z" />
    <glyph glyph-name="guilsinglright" unicode="&#x203a;" horiz-adv-x="395" 
d="M54 39h128q5 0 12.5 3.5t9.5 6.5l166 215q5 8 5 19t-5 18l-166 215q-2 4 -9.5 7.5t-12.5 3.5h-128q-19 0 -26 -16.5t5 -31.5l154 -196l-154 -197q-12 -15 -5 -31t26 -16z" />
    <glyph glyph-name="oe" unicode="&#x153;" horiz-adv-x="1077" 
d="M806 -12q31 0 63.5 3.5t62.5 10t56 15.5t46 21q9 5 13.5 15.5t-0.5 20.5l-38 94q-5 11 -17.5 16t-24.5 0q-4 -2 -15.5 -5t-31.5 -8q-38 -9 -81 -9q-84 0 -122 31q-11 8 -19 25h322q12 0 21 8.5t10 19.5l3 45q5 66 -17.5 119t-63.5 95q-82 84 -215 84q-71 0 -116 -18
t-77 -47q-31 25 -74 41l1 -1q-32 13 -66 19t-69 6q-153 0 -244 -80q-91 -82 -91 -221q0 -138 91 -220q89 -80 244 -80q62 0 118 18t94 49q45 -36 103 -51.5t134 -15.5zM464 288q0 -56 -29 -87.5t-82 -31.5t-82 31.5t-29 87.5t29 87.5t82 31.5t82 -31.5t29 -87.5zM705 396
q17 29 53 29q26 0 42.5 -19.5t21.5 -54.5h-134q6 28 17 45z" />
    <glyph glyph-name="Ydieresis" unicode="&#x178;" horiz-adv-x="1043" 
d="M751 784q-5 0 -14 -4t-11 -9l-185 -249l-203 251q-3 4 -11 7.5t-13 3.5h-259q-21 0 -29.5 -17t5.5 -33l349 -420v-284q0 -12 9 -21t21 -9h224q13 0 22 9t9 21v284l348 420q13 16 4.5 33t-29.5 17h-237zM595 987q-11 0 -20 -7t-9 -17v-128q0 -10 9 -17t20 -7h158
q12 0 20.5 7t8.5 17v128q0 10 -8.5 17t-20.5 7h-158zM304 987q-12 0 -20.5 -7t-8.5 -17v-128q0 -10 8.5 -17t20.5 -7h157q12 0 20.5 7t8.5 17v128q0 10 -8.5 17t-20.5 7h-157z" />
    <glyph glyph-name="exclamdown" unicode="&#xa1;" horiz-adv-x="228" 
d="M22 -84q0 -13 7 -21.5t17 -8.5h135q11 0 18 8.5t7 21.5v197l-31 277q-2 11 -9 18.5t-16 7.5h-73q-9 0 -15.5 -7.5t-8.5 -18.5l-31 -279v-195zM176 451q10 0 17 9t7 21v157q0 13 -7 22t-17 9h-125q-10 0 -17 -9t-7 -22v-157q0 -12 7 -21t17 -9h125z" />
    <glyph glyph-name="cent" unicode="&#xa2;" horiz-adv-x="568" 
d="M227 -167q8 0 16.5 6t11.5 14l48 147h18q49 0 103 14q26 7 42 12.5t24 9.5q5 3 9.5 11t5.5 13l18 139q2 14 -6.5 24.5t-22.5 10.5q-7 0 -11 -1.5t-9 -4.5h2q-6 -3 -16.5 -6.5t-27.5 -10.5q-38 -14 -64 -17l73 223q14 -6 23.5 -11t15.5 -9q17 -11 32 -1t13 30l-13 136
q0 6 -5 13t-10 11l47 143q5 16 -3 28.5t-24 12.5h-86q-8 0 -16.5 -6.5t-11.5 -14.5l-42 -125q-8 1 -16 1h-17q-141 0 -223 -87q-42 -44 -62.5 -101t-20.5 -132q0 -70 20.5 -125t61.5 -98q13 -13 28 -24.5t35 -22.5l-53 -161q-5 -17 3 -29t24 -12h86zM237 306q0 50 16.5 83.5
t46.5 45.5l-58 -174q-3 10 -4 21t-1 24zM415 429q1 -1 7 -3q-6 0 -7 3z" />
    <glyph glyph-name="sterling" unicode="&#xa3;" horiz-adv-x="772" 
d="M22 97q0 -48 25.5 -76.5t88.5 -28.5q45 0 89.5 16t82.5 54q45 -32 100 -53t120 -21q100 0 159 50q32 26 46 74.5t16 120.5l1 46q0 14 -8.5 23t-22.5 9h-107q-11 0 -19.5 -8.5t-10.5 -19.5l-5 -43q-9 -33 -41 -33q-15 0 -34.5 3.5t-42.5 8.5q-17 5 -33.5 8.5t-32.5 7.5
q3 13 4 27t1 31q0 9 -0.5 16.5t-1.5 15.5h112q12 0 21 8.5t9 21.5v102q0 12 -9 21t-21 9h-141q-4 17 -7 36.5t-3 38.5q1 35 20.5 50t54.5 15q31 0 68.5 -10.5t96.5 -38.5q12 -6 24 -1.5t17 17.5l47 112q4 10 0.5 21.5t-13.5 16.5q-23 14 -52.5 23t-66.5 17q-35 7 -69.5 11
t-66.5 4q-139 0 -220 -57q-45 -30 -66 -69t-21 -85q0 -30 1.5 -55.5t6.5 -45.5h-64q-13 0 -21.5 -9t-8.5 -21v-102q0 -13 8.5 -21.5t21.5 -8.5h115l22 -74q-40 -3 -71.5 -16t-53 -33.5t-33 -47.5t-11.5 -57z" />
    <glyph glyph-name="currency" unicode="&#x20ac;" horiz-adv-x="974" 
d="M903 347q11 0 11 11t-11 11h-501q-1 5 -1 8v9h1q0 38 9 71h492q11 0 11 11t-11 11h-485q24 61 80.5 93.5t140.5 32.5q34 0 67.5 -5t67.5 -14q69 -18 113 -34q16 -6 29 3.5t11 27.5l-11 147q-1 8 -7 16t-14 10q-54 18 -130 30.5t-173 12.5q-195 0 -312.5 -81.5
t-145.5 -238.5h-101q-11 0 -11 -11t11 -11h97q-2 -18 -3.5 -37.5t-1.5 -39.5v-11h-92q-11 0 -11 -11t11 -11h93q10 -165 130 -259q125 -100 346 -100q95 0 176.5 12t150.5 37q8 3 14 11.5t6 16.5l3 150q1 17 -12.5 26t-29.5 3q-24 -10 -54.5 -19t-68.5 -20h2
q-72 -18 -149 -18q-112 0 -176 54q-48 42 -60 106h499z" />
    <glyph glyph-name="yen" unicode="&#xa5;" horiz-adv-x="865" 
d="M107 338q-12 0 -21 -9t-9 -22v-101q0 -13 9 -22t21 -9h209v-145q0 -12 8.5 -21t21.5 -9h172q13 0 22 9t9 21v145h208q13 0 22 9t9 22v101q0 13 -9 22t-22 9h-190l10 12h180q13 0 22 9t9 22v101q0 13 -9 22t-22 9h-70l126 186l24 38q11 17 2.5 32t-27.5 15h-176
q-6 0 -14.5 -4t-10.5 -9l-179 -247l-166 246q-2 5 -10.5 9.5t-13.5 4.5h-188q-20 0 -28 -15t3 -32l151 -224h-73q-12 0 -21 -9t-9 -22v-101q0 -13 9 -22t21 -9h182l8 -12h-190z" />
    <glyph glyph-name="brokenbar" unicode="&#xa6;" horiz-adv-x="199" 
d="M22 483q0 -13 7 -21.5t17 -8.5h108q9 0 16 8.5t7 21.5v272q0 12 -7.5 21t-16.5 9h-108q-10 0 -16.5 -9t-6.5 -21v-272zM22 18q0 -12 7 -21t17 -9h108q9 0 16 9t7 21v271q0 13 -7.5 22t-16.5 9h-108q-10 0 -16.5 -9t-6.5 -22v-271z" />
    <glyph glyph-name="section" unicode="&#xa7;" horiz-adv-x="507" 
d="M464 206q21 39 21 73q0 18 -5.5 39.5t-15.5 43t-24.5 42t-33.5 36.5l3 -1l-131 132v-1q-17 18 -28.5 33t-11.5 26q0 4 7 8q11 8 16 8q16 0 31.5 -10.5t34.5 -39.5q7 -11 18.5 -13.5t22.5 5.5l74 56q8 8 9.5 19.5t-3.5 21.5q-12 22 -31.5 40t-45.5 35q-53 33 -118 33
q-75 0 -123 -44h2q-56 -46 -56 -121q0 -26 6 -48.5t20 -44.5q-41 -20 -59 -52q-21 -39 -21 -72q0 -18 5.5 -39.5t15.5 -43.5t24.5 -42t33.5 -36l-3 1l131 -132v1q17 -18 29 -33t12 -26q0 -1 -6 -7q-11 -8 -18 -8q-16 0 -32 10t-33 39q-7 11 -18.5 13.5t-22.5 -5.5l-75 -55
q-9 -7 -11.5 -19t4.5 -23q23 -40 77 -74q26 -17 56.5 -24.5t62.5 -7.5q75 0 124 43h-2q56 46 56 120q0 51 -27 94q43 19 59 50zM212 414q5 -2 7.5 -5.5t5.5 -6.5v2q8 -8 15 -15.5t15 -15.5q33 -36 55.5 -59.5t22.5 -43.5q0 -6 -4.5 -9.5t-9.5 -3.5t-11.5 5t-13.5 13v-1
q-4 4 -7 7.5t-6 5.5l-14 15q-20 21 -37 37.5t-31 31.5q-24 26 -24 47q0 6 4.5 9.5t10.5 4.5q5 -2 10.5 -6.5t12.5 -11.5h-1z" />
    <glyph glyph-name="dieresis" unicode="&#xa8;" horiz-adv-x="552" 
d="M343 842q-12 0 -21 -7t-9 -17v-128q0 -10 9.5 -17t20.5 -7h158q12 0 20.5 7t8.5 17v128q0 10 -9 17t-21 7h-157zM51 842q-12 0 -20.5 -7t-8.5 -17v-128q0 -10 9 -17t21 -7h157q12 0 20.5 7t8.5 17v128q0 10 -9 17t-21 7h-157z" />
    <glyph glyph-name="copyright" unicode="&#xa9;" horiz-adv-x="800" 
d="M400 810q-173 0 -296 -123q-123 -122 -123 -295t123 -296q124 -122 297 -122q172 0 295 123q123 121 123 295q0 173 -123 296q-124 122 -297 122h1zM401 700q126 0 217 -91q90 -92 90 -217t-91 -218q-89 -90 -218 -90q-127 0 -217 91q-90 90 -90 217q0 125 91 218
q88 90 218 90zM607 465q-4 85 -61 126q-57 40 -137 40q-103 0 -161 -66q-59 -67 -59 -169q0 -107 66 -171q65 -65 164 -65q67 0 126 43t62 126h-93q-3 -36 -30 -56q-26 -19 -68 -19q-53 0 -82 41t-29 102q0 59 29 102q27 41 80 41q52 0 73 -22q22 -22 28 -53h92z" />
    <glyph glyph-name="ordfeminine" unicode="&#xaa;" horiz-adv-x="461" 
d="M359 368l68 51q8 6 10.5 14.5t0 16t-9 13.5t-16.5 6v111q0 81 -45 115t-142 34q-61 0 -108 -19q-23 -9 -37.5 -15.5t-22.5 -12.5q-8 -5 -10.5 -15.5t1.5 -18.5l24 -49q4 -8 11.5 -12t15.5 -4q-37 -15 -57 -41t-20 -61q0 -51 36.5 -82t104.5 -31q33 0 65 8t60 21
q14 -12 32.5 -20.5t38.5 -8.5zM200 478q-21 0 -21 3q0 15 77 16v-7q-11 -5 -25 -8.5t-31 -3.5zM217 614q24 0 33 -12l-38 2q-25 2 -47 -2t-41 -9q19 7 43 14t50 7z" />
    <glyph glyph-name="guillemotleft" unicode="&#xab;" horiz-adv-x="684" 
d="M654 479q12 15 5 31.5t-26 16.5h-130q-5 0 -12 -3.5t-10 -7.5l-167 -215q-5 -8 -5 -19q0 -10 5 -18l167 -215q3 -3 10 -6.5t12 -3.5h130q19 0 26 16t-5 31l-158 197zM368 479q12 15 5 31.5t-26 16.5h-130q-5 0 -12 -3.5t-10 -7.5l-167 -215q-5 -8 -5 -19q0 -10 5 -18
l167 -215q3 -3 10 -6.5t12 -3.5h130q19 0 26 16t-5 31l-158 197z" />
    <glyph glyph-name="logicalnot" unicode="&#xac;" horiz-adv-x="620" 
d="M399 98q0 -11 9 -19.5t21 -8.5h140q12 0 20.5 8.5t8.5 19.5v358q0 12 -9 20.5t-21 8.5h-516q-12 0 -21 -8.5t-9 -20.5v-134q0 -12 9.5 -20.5t21.5 -8.5h346v-195z" />
    <glyph glyph-name="registered" unicode="&#xae;" horiz-adv-x="800" 
d="M400 810q-173 0 -296 -123q-123 -122 -123 -295t123 -296q124 -122 297 -122q172 0 295 123q123 121 123 295q0 173 -123 296q-124 122 -297 122h1zM401 700q126 0 217 -91q90 -92 90 -217t-91 -218q-89 -90 -218 -90q-127 0 -217 91q-90 90 -90 217q0 125 91 218
q88 90 218 90zM335 432v110h86q31 0 48 -12q17 -11 17 -42q0 -26 -15 -41t-55 -15h-81zM335 170v188h43l103 -188h98l-118 194q62 0 94 32q31 33 31 94q0 56 -42 92q-42 34 -147 34h-162v-446h100z" />
    <glyph glyph-name="macron" unicode="&#xaf;" horiz-adv-x="651" 
d="M614 383q0 40 -9.5 74.5t-26.5 65.5l42 42q9 9 9 21t-9 21l-70 70q-9 9 -20.5 8.5t-20.5 -8.5l-43 -42q-60 36 -140 36q-39 0 -74 -9.5t-65 -26.5l-44 43q-9 8 -21 8q-11 0 -20 -9l-71 -70q-9 -8 -9 -21t9 -21l43 -42q-35 -60 -35 -140q0 -79 35 -139l-43 -42
q-9 -8 -8.5 -21t8.5 -21l72 -71q8 -8 20 -8.5t21 8.5l42 42q58 -35 140 -35q80 0 140 36l43 -43q8 -8 20 -8.5t21 8.5l70 71q8 9 8.5 20.5t-8.5 20.5l-42 42q36 60 36 140zM326 494q47 0 79 -32q32 -34 32 -79q0 -46 -32 -78q-33 -33 -79 -33q-45 0 -78 33q-33 31 -33 78
q0 46 33 79q34 32 78 32z" />
    <glyph glyph-name="degree" unicode="&#xb0;" horiz-adv-x="359" 
d="M179 816q-65 0 -111 -46t-46 -111q0 -64 47 -111q46 -46 111 -46q64 0 110 46q47 46 47 111q0 63 -48 111q-46 46 -109 46h-1zM180 698q17 0 27.5 -11.5t10.5 -27.5q0 -17 -11.5 -28t-27.5 -11q-17 0 -28 11t-11 28q0 16 11 27.5t28 11.5h1z" />
    <glyph glyph-name="plusminus" unicode="&#xb1;" horiz-adv-x="620" 
d="M23 30q0 -13 9 -21.5t21 -8.5h516q12 0 20.5 8.5t8.5 21.5v136q0 12 -9 20.5t-21 8.5h-160v4v74h161q12 0 20.5 9t8.5 21v136q0 13 -9 21.5t-21 8.5h-160v74q0 13 -8.5 21.5t-20.5 8.5h-137q-12 0 -20.5 -8.5t-8.5 -21.5v-74h-161q-12 0 -21 -8.5t-9 -21.5v-136
q0 -12 9.5 -21t21.5 -9h161v-74v-4h-162q-12 0 -21 -8.5t-9 -20.5z" />
    <glyph glyph-name="twosuperior" unicode="&#xb2;" horiz-adv-x="455" 
d="M22 308q0 -12 8.5 -20.5t19.5 -8.5h355q11 0 19.5 8.5t8.5 20.5v91q0 12 -8.5 20.5t-19.5 8.5h-99l6 5q15 12 32 30t37 41q49 54 49 114q0 66 -51 103t-138 37q-31 0 -60 -5.5t-58 -16.5q-57 -22 -76 -39q-2 -3 -5.5 -10t-3.5 -11v-106q0 -11 5.5 -18t13 -10t16.5 -0.5
t15 10.5q7 8 19 18t31 21q38 22 69 22q38 0 38 -27q0 -12 -13 -27t-28 -28h1l-173 -148q-3 -2 -6.5 -9.5t-3.5 -12.5v-53z" />
    <glyph glyph-name="threesuperior" unicode="&#xb3;" horiz-adv-x="463" 
d="M44 634q0 -11 8.5 -20t20.5 -9h110l-29 -27q-3 -2 -6.5 -9.5t-3.5 -11.5v-64q0 -12 8.5 -20.5t20.5 -8.5q32 -1 52.5 -3.5t28.5 -8.5q10 -8 10 -16t-9.5 -11.5t-24.5 -3.5q-45 0 -79 15h2q-21 9 -33 15l-20 10q-11 6 -22.5 2.5t-17.5 -15.5l-37 -81q-3 -8 -1 -18.5
t10 -16.5q7 -7 25 -15.5t48 -21.5q28 -12 60 -17.5t66 -5.5q102 0 155.5 39t53.5 120q0 52 -28 86.5t-81 49.5l71 62q3 3 6.5 10.5t3.5 11.5v70q0 11 -9 20t-21 9h-310q-12 0 -20.5 -9t-8.5 -20z" />
    <glyph glyph-name="acute" unicode="&#xb4;" horiz-adv-x="410" 
d="M27 568q-9 -14 -1.5 -27t25.5 -13h123q4 0 11.5 3t10.5 6l184 194q13 14 5.5 28.5t-26.5 14.5h-182q-6 0 -13.5 -3.5t-10.5 -8.5z" />
    <glyph glyph-name="mu" unicode="&#xb5;" horiz-adv-x="638" 
d="M616 556q0 13 -9 21.5t-21 8.5h-171q-12 0 -21 -8.5t-9 -21.5v-350q-21 -10 -46 -20h2q-33 -12 -50 -12q-38 0 -38 68v314q0 13 -9 21.5t-21 8.5h-171q-12 0 -21 -8.5t-9 -21.5v-662q0 -13 9.5 -22t21.5 -9h171q12 0 21 9t9 22v96q44 5 83 19t76 40l15 -32q2 -7 10.5 -12
t16.5 -5h132q12 0 20.5 9t8.5 21v526z" />
    <glyph glyph-name="paragraph" unicode="&#xb6;" horiz-adv-x="598" 
d="M547 -101q12 0 20.5 8.5t8.5 21.5v832q0 13 -9 22t-21 9h-290q-101 0 -168 -67q-32 -32 -49 -74.5t-17 -95.5q0 -123 48.5 -181t157.5 -64v-381q0 -13 8.5 -21.5t20.5 -8.5h101q13 0 21.5 8.5t8.5 21.5v719h29v-719q0 -13 8.5 -21.5t20.5 -8.5h101z" />
    <glyph glyph-name="periodcentered" unicode="&#xb7;" horiz-adv-x="215" 
d="M47 387q-11 0 -18 -7t-7 -18v-146q0 -11 7.5 -18t17.5 -7h122q10 0 17 7t7 18v146q0 11 -7.5 18t-17.5 7h-121z" />
    <glyph glyph-name="periodcentered" unicode="&#x2219;" horiz-adv-x="215" 
d="M47 387q-11 0 -18 -7t-7 -18v-146q0 -11 7.5 -18t17.5 -7h122q10 0 17 7t7 18v146q0 11 -7.5 18t-17.5 7h-121z" />
    <glyph glyph-name="cedilla" unicode="&#xb8;" horiz-adv-x="441" 
d="M23 -353q-2 -6 -0.5 -15.5t6.5 -14.5q8 -8 26 -15.5t46 -15.5q27 -8 54 -12t53 -4q87 0 146 46q64 48 64 120q0 60 -46 101q-42 38 -103 38l30 44q10 15 2.5 29.5t-26.5 14.5h-77q-5 0 -13 -3.5t-11 -8.5l-89 -136q-5 -8 -4 -18t8 -17l30 -30q5 -5 13.5 -7.5t14.5 -0.5
q23 7 33 9.5t25 2.5q12 0 20.5 -6t8.5 -14q0 -15 -12 -24t-32 -9q-41 0 -66 9l-42 14q-11 2 -20.5 -2.5t-13.5 -14.5z" />
    <glyph glyph-name="onesuperior" unicode="&#xb9;" horiz-adv-x="299" 
d="M251 278q11 0 18.5 8.5t7.5 20.5v412q0 12 -8 20.5t-19 8.5h-95q-14 -14 -25.5 -23.5t-21.5 -14.5l3 1q-24 -10 -67 -19q-9 -2 -15.5 -10t-6.5 -18v-90q0 -15 10.5 -23.5t24.5 -4.5q16 5 31 10t29 12v-261q0 -12 7.5 -20.5t18.5 -8.5h108z" />
    <glyph glyph-name="ordmasculine" unicode="&#xba;" horiz-adv-x="458" 
d="M436 548q0 85 -55 133t-152 48t-152 -48t-55 -133t55 -132.5t152 -47.5t152 47.5t55 132.5zM285 548q0 -26 -15 -41t-41 -15t-41 15t-15 41t15 41t41 15t41 -15t15 -41z" />
    <glyph glyph-name="guillemotright" unicode="&#xbb;" horiz-adv-x="681" 
d="M340 39h128q5 0 12.5 3.5t9.5 6.5l166 215q5 8 5 19t-5 18l-166 215q-2 4 -9.5 7.5t-12.5 3.5h-128q-19 0 -26 -16.5t5 -31.5l154 -196l-154 -197q-12 -15 -5 -31t26 -16zM54 39h128q5 0 12.5 3.5t9.5 6.5l166 215q5 8 5 19t-5 18l-166 215q-2 4 -9.5 7.5t-12.5 3.5h-128
q-19 0 -26 -16.5t5 -31.5l154 -196l-154 -197q-12 -15 -5 -31t26 -16z" />
    <glyph glyph-name="onequarter" unicode="&#xbc;" horiz-adv-x="1135" 
d="M142 39q-14 -16 -6 -33.5t30 -17.5h136q5 0 13 3.5t11 6.5l658 750q14 16 6 33.5t-30 17.5h-136q-5 0 -13 -3.5t-11 -6.5zM887 496q-5 0 -13 -3.5t-11 -7.5l-239 -267v-115q0 -13 9 -22t22 -9h197v-41q0 -13 9 -22t22 -9h130q13 0 22 9t9 22v41l38 1q13 0 22 9t9 22v89
q0 13 -9 22t-22 9h-38v241q0 13 -9 22t-22 9h-126zM788 224l64 71v-71h-64zM293 293q13 0 22 9t9 22v434q0 13 -9 22t-22 9h-113q-17 -16 -31 -25.5t-25 -14.5l2 1q-31 -11 -78 -20q-11 -2 -18.5 -10.5t-7.5 -19.5v-94q0 -17 12 -25.5t28 -4.5q19 5 36.5 10.5t34.5 12.5
v-275q0 -13 9.5 -22t22.5 -9h128z" />
    <glyph glyph-name="onehalf" unicode="&#xbd;" horiz-adv-x="1126" 
d="M655 31q0 -13 9 -22t22 -9h387q13 0 22 9t9 22v96q0 12 -9 21t-22 9h-107l6 6q14 14 33.5 32t42.5 42q26 28 39 57.5t13 62.5q0 69 -56 108t-150 39q-66 0 -129 -23q-17 -6 -31.5 -12t-25.5 -11l256 290q7 8 8 17t-2.5 16.5t-11.5 12.5t-18 5h-136q-5 0 -13 -3.5
t-11 -6.5l-658 -750q-14 -16 -6 -33.5t30 -17.5h136q5 0 13 3.5t11 6.5l366 417v-108q0 -11 6 -19t14.5 -11t18 -0.5t16.5 11.5q14 17 54 40t76 23q20 0 31 -7t11 -20t-14.5 -29t-31.5 -30h1l-188 -155q-4 -3 -7.5 -11t-3.5 -12v-56zM293 293q13 0 22 9t9 22v434q0 13 -9 22
t-22 9h-113q-17 -16 -31 -25.5t-25 -14.5l2 1q-14 -5 -33.5 -10.5t-44.5 -9.5q-11 -2 -18.5 -10.5t-7.5 -19.5v-94q0 -17 12 -25.5t28 -4.5q19 5 36.5 10.5t34.5 12.5v-275q0 -13 9.5 -22t21.5 -9h129z" />
    <glyph glyph-name="threequarters" unicode="&#xbe;" horiz-adv-x="1172" 
d="M197 39q-7 -8 -8 -17t2.5 -16.5t11 -12.5t18.5 -5h137q5 0 13 3.5t11 6.5l659 750q13 16 5 33.5t-30 17.5h-137q-4 0 -12 -3.5t-11 -6.5zM45 668q0 -13 9.5 -22t22.5 -9h121l-32 -29q-3 -2 -6.5 -9.5t-3.5 -12.5v-67q0 -13 9 -22t22 -9q35 -1 57.5 -3.5t31.5 -9.5
q11 -6 11 -16q0 -8 -10 -12t-27 -4q-25 0 -46 4t-41 12h2q-23 10 -36 16t-21 10q-13 7 -25.5 3t-18.5 -16l-41 -85q-4 -9 -1 -20t11 -17q13 -13 79 -39q62 -25 139 -25q112 0 170 41t58 127q0 54 -30.5 90t-88.5 52l78 66q3 3 7 11t4 12v73q0 13 -10 22t-23 9h-340
q-13 0 -22 -9t-9 -22v-90zM922 496q-5 0 -13 -3.5t-12 -7.5l-240 -267v-115q0 -13 10 -22t23 -9h197v-41q0 -13 9 -22t22 -9h130q13 0 22.5 9t9.5 22v41l37 1q12 0 22 9t10 22v89q0 13 -10 22t-23 9h-37v241q0 13 -9.5 22t-22.5 9h-125zM822 224l65 71v-71h-65z" />
    <glyph glyph-name="questiondown" unicode="&#xbf;" horiz-adv-x="583" 
d="M148 287l1 1l-3 -2zM293 -117q57 0 132 27h-2q40 12 70 24.5t53 23.5q10 5 14 16t0 22l-37 113q-5 14 -18 19t-26 -3q-18 -12 -40 -24t-51 -23q-52 -20 -88 -20q-23 0 -38.5 17.5t-15.5 39.5q0 23 24 44v-1q17 14 33.5 27.5t32.5 25.5q43 35 63 68.5t20 71.5v37
q0 12 -9 21t-22 9h-138q-12 0 -20.5 -9t-8.5 -21l-2 -20q-1 -9 -4 -17.5t-11 -17.5t-21.5 -20t-34.5 -26q-22 -14 -43.5 -31.5t-40.5 -39.5q-41 -49 -41 -122q0 -87 74 -149q71 -62 196 -62zM396 452q12 0 20.5 9t8.5 22v156q0 13 -9 22t-21 9h-152q-12 0 -20.5 -9t-8.5 -22
v-156q0 -13 9 -22t21 -9h152z" />
    <glyph glyph-name="Agrave" unicode="&#xc0;" horiz-adv-x="1083" 
d="M1028 0q20 0 28.5 13.5t-0.5 30.5l-387 723q-4 7 -12 12t-15 5h-177q-6 0 -14.5 -5t-12.5 -11l-411 -723q-9 -17 -0.5 -31t28.5 -14h207q8 0 16 5t12 12l51 98h375l51 -98q4 -7 12 -12t15 -5h234zM535 465l90 -174h-186zM652 803q18 0 26 13t-2 27l-129 194q-3 4 -10.5 8
t-13.5 4h-183q-19 0 -26.5 -14.5t5.5 -28.5l187 -194q3 -2 10 -5.5t12 -3.5h124z" />
    <glyph glyph-name="Aacute" unicode="&#xc1;" horiz-adv-x="1083" 
d="M1028 0q20 0 28.5 13.5t-0.5 30.5l-387 723q-4 7 -12 12t-15 5h-177q-6 0 -14.5 -5t-12.5 -11l-411 -723q-9 -17 -0.5 -31t28.5 -14h207q8 0 16 5t12 12l51 98h375l51 -98q4 -7 12 -12t15 -5h234zM535 465l90 -174h-186zM406 843q-9 -14 -1.5 -27t25.5 -13h123
q4 0 11.5 3t10.5 6l184 194q13 14 5.5 28.5t-26.5 14.5h-182q-6 0 -13.5 -3.5t-10.5 -8.5z" />
    <glyph glyph-name="Acircumflex" unicode="&#xc2;" horiz-adv-x="1083" 
d="M1028 0q20 0 28.5 13.5t-0.5 30.5l-387 723q-4 7 -12 12t-15 5h-177q-6 0 -14.5 -5t-12.5 -11l-411 -723q-9 -17 -0.5 -31t28.5 -14h207q8 0 16 5t12 12l51 98h375l51 -98q4 -7 12 -12t15 -5h234zM535 465l90 -174h-186zM297 843q-10 -14 -2 -27t27 -13h130q5 0 13.5 3.5
t10.5 7.5l74 89l72 -89q3 -3 11 -7t13 -4h131q19 0 27 13t-2 27l-134 194q-2 4 -10 8t-14 4h-188q-6 0 -14 -4t-11 -8z" />
    <glyph glyph-name="Atilde" unicode="&#xc3;" horiz-adv-x="1083" 
d="M1028 0q20 0 28.5 13.5t-0.5 30.5l-387 723q-4 7 -12 12t-15 5h-177q-6 0 -14.5 -5t-12.5 -11l-411 -723q-9 -17 -0.5 -31t28.5 -14h207q8 0 16 5t12 12l51 98h375l51 -98q4 -7 12 -12t15 -5h234zM535 465l90 -174h-186zM801 1010h-94q-10 0 -18 -6t-10 -14
q-6 -34 -29 -34q-38 0 -80 21q-57 27 -108 27q-68 0 -117 -41.5t-66 -137.5q-2 -12 7 -20.5t23 -8.5h92q10 0 18 6t10 15q8 34 30 34q35 0 79 -22q57 -27 109 -27q67 0 116.5 42t66.5 137z" />
    <glyph glyph-name="Adieresis" unicode="&#xc4;" horiz-adv-x="1083" 
d="M1028 0q20 0 28.5 13.5t-0.5 30.5l-387 723q-4 7 -12 12t-15 5h-177q-6 0 -14.5 -5t-12.5 -11l-411 -723q-9 -17 -0.5 -31t28.5 -14h207q8 0 16 5t12 12l51 98h375l51 -98q4 -7 12 -12t15 -5h234zM535 465l90 -174h-186zM616 972q-11 0 -20 -7t-9 -17v-128q0 -10 9 -17
t20 -7h158q12 0 20.5 7t8.5 17v128q0 10 -8.5 17t-20.5 7h-158zM339 976q-12 0 -20.5 -7t-8.5 -17v-128q0 -10 8.5 -17t20.5 -7h157q12 0 20.5 7t8.5 17v128q0 10 -8.5 17t-20.5 7h-157z" />
    <glyph glyph-name="Aring" unicode="&#xc5;" horiz-adv-x="1083" 
d="M1028 0q20 0 28.5 13.5t-0.5 30.5l-387 723q-4 7 -12 12t-15 5h-177q-6 0 -14.5 -5t-12.5 -11l-411 -723q-9 -17 -0.5 -31t28.5 -14h207q8 0 16 5t12 12l51 98h375l51 -98q4 -7 12 -12t15 -5h234zM535 465l90 -174h-186zM545 1148q-70 0 -121 -51q-50 -50 -50 -120
q0 -69 50 -121q50 -50 121 -50q68 0 120 50v-1q51 51 51 122t-51 121v-1q-51 51 -120 51zM545 1024q20 0 33.5 -13.5t13.5 -33.5t-13.5 -33.5t-33.5 -13.5t-33.5 13.5t-13.5 33.5t13.5 33.5t33.5 13.5z" />
    <glyph glyph-name="AE" unicode="&#xc6;" horiz-adv-x="1387" 
d="M723 0h611q13 0 22 9t9 21v146q0 13 -9 22t-22 9h-353v84l273 1q13 0 22 9t9 22v144q0 12 -9 21t-22 9h-273v80h324q13 0 22.5 9t9.5 22v146q0 12 -9.5 21t-22.5 9h-747q-6 0 -14.5 -4.5t-11.5 -9.5l-493 -708v1l-10 -15q-11 -17 -3 -32.5t29 -15.5h226q7 0 15 5t12 10
l87 135h296v-120q0 -12 9.5 -21t22.5 -9zM688 598h3v-255h-169z" />
    <glyph glyph-name="Ccedilla" unicode="&#xc7;" horiz-adv-x="871" 
d="M265 -303q-2 -6 -0.5 -15.5t6.5 -14.5q17 -16 72 -31q54 -16 107 -16q87 0 146 46q64 48 64 120q0 61 -46 101q-41 38 -103 38l30 44q8 9 6 20q160 5 278 48q8 3 14.5 11.5t6.5 16.5l2 150q1 17 -12 26t-29 3q-24 -10 -54.5 -19t-68.5 -20h1q-71 -18 -148 -18
q-112 0 -176 54q-30 26 -46.5 62.5t-16.5 82.5q0 105 62.5 162t174.5 57q34 0 67.5 -5t67.5 -14t62 -17.5t51 -16.5q17 -6 30 3.5t11 27.5l-11 147q0 8 -6.5 16t-14.5 10q-54 18 -130 30.5t-173 12.5q-111 0 -198 -27.5t-147 -80.5t-91 -131t-31 -180q0 -96 33 -168.5
t97 -123.5q102 -80 259 -96l-84 -127q-5 -8 -3.5 -18t7.5 -17l30 -30q5 -5 14 -7.5t14 -0.5q24 7 33.5 9.5t24.5 2.5q12 0 20.5 -6t8.5 -14q0 -15 -12 -24t-32 -9q-39 0 -66 9l-42 14q-11 2 -20 -2.5t-14 -14.5z" />
    <glyph glyph-name="Egrave" unicode="&#xc8;" horiz-adv-x="714" 
d="M662 0q13 0 21.5 9t8.5 21v146q0 13 -8.5 22t-21.5 9h-363v84l287 1q12 0 21 9t9 22v144q0 12 -9 21t-21 9h-287v80h336q12 0 21 9t9 22v146q0 12 -9 21t-21 9h-583q-12 0 -21 -9t-9 -21v-724q0 -12 9 -21t21 -9h610zM455 803q18 0 26 13t-2 27l-129 194q-3 4 -10.5 8
t-13.5 4h-183q-19 0 -26.5 -14.5t5.5 -28.5l187 -194q3 -2 10 -5.5t12 -3.5h124z" />
    <glyph glyph-name="Eacute" unicode="&#xc9;" horiz-adv-x="714" 
d="M662 0q13 0 21.5 9t8.5 21v146q0 13 -8.5 22t-21.5 9h-363v84l287 1q12 0 21 9t9 22v144q0 12 -9 21t-21 9h-287v80h336q12 0 21 9t9 22v146q0 12 -9 21t-21 9h-583q-12 0 -21 -9t-9 -21v-724q0 -12 9 -21t21 -9h610zM209 863q-9 -14 -1.5 -27t25.5 -13h123q4 0 11.5 3
t10.5 6l184 194q13 14 5.5 28.5t-26.5 14.5h-182q-6 0 -13.5 -3.5t-10.5 -8.5z" />
    <glyph glyph-name="Ecircumflex" unicode="&#xca;" horiz-adv-x="714" 
d="M662 0q13 0 21.5 9t8.5 21v146q0 13 -8.5 22t-21.5 9h-363v84l287 1q12 0 21 9t9 22v144q0 12 -9 21t-21 9h-287v80h336q12 0 21 9t9 22v146q0 12 -9 21t-21 9h-583q-12 0 -21 -9t-9 -21v-724q0 -12 9 -21t21 -9h610zM100 843q-10 -14 -2 -27t27 -13h130q5 0 13.5 3.5
t10.5 7.5l74 89l72 -89q3 -3 11 -7t13 -4h131q19 0 27 13t-2 27l-134 194q-3 4 -10.5 8t-13.5 4h-188q-6 0 -14 -4t-11 -8z" />
    <glyph glyph-name="Edieresis" unicode="&#xcb;" horiz-adv-x="714" 
d="M662 0q13 0 21.5 9t8.5 21v146q0 13 -8.5 22t-21.5 9h-363v84l287 1q12 0 21 9t9 22v144q0 12 -9 21t-21 9h-287v80h336q12 0 21 9t9 22v146q0 12 -9 21t-21 9h-583q-12 0 -21 -9t-9 -21v-724q0 -12 9 -21t21 -9h610zM419 1057q-11 0 -20 -7t-9 -17v-128q0 -10 9 -17
t20 -7h158q12 0 20.5 7t8.5 17v128q0 10 -8.5 17t-20.5 7h-158zM128 1057q-12 0 -20.5 -7t-8.5 -17v-128q0 -10 8.5 -17t20.5 -7h157q12 0 20.5 7t8.5 17v128q0 10 -8.5 17t-20.5 7h-157z" />
    <glyph glyph-name="Igrave" unicode="&#xcc;" horiz-adv-x="415" 
d="M318 0q11 0 18.5 9t7.5 21v724q0 12 -7.5 21t-18.5 9h-186q-11 0 -18.5 -9t-7.5 -21v-724q0 -12 7.5 -21t18.5 -9h186zM363 803q18 0 26 13t-2 27l-129 194q-3 4 -10.5 8t-13.5 4h-183q-19 0 -26.5 -14.5t5.5 -28.5l187 -194q3 -2 10 -5.5t12 -3.5h124z" />
    <glyph glyph-name="Iacute" unicode="&#xcd;" horiz-adv-x="416" 
d="M234 0q11 0 18.5 9t7.5 21v724q0 12 -7.5 21t-18.5 9h-186q-11 0 -18.5 -9t-7.5 -21v-724q0 -12 7.5 -21t18.5 -9h186zM33 843q-9 -14 -1.5 -27t25.5 -13h123q4 0 11.5 3t10.5 6l184 194q13 14 5.5 28.5t-26.5 14.5h-182q-6 0 -13.5 -3.5t-10.5 -8.5z" />
    <glyph glyph-name="Icircumflex" unicode="&#xce;" horiz-adv-x="561" 
d="M368 0q11 0 18.5 9t7.5 21v724q0 12 -7.5 21t-18.5 9h-186q-11 0 -18.5 -9t-7.5 -21v-724q0 -12 7.5 -21t18.5 -9h186zM28 843q-10 -14 -2 -27t27 -13h130q5 0 13.5 3.5t10.5 7.5l74 89l72 -89q3 -3 11 -7t13 -4h131q19 0 27 13t-2 27l-134 194q-3 4 -10.5 8t-13.5 4
h-188q-6 0 -14.5 -4t-10.5 -8z" />
    <glyph glyph-name="Idieresis" unicode="&#xcf;" horiz-adv-x="552" 
d="M354 0q11 0 18.5 9t7.5 21v724q0 12 -8 21t-19 9h-186q-11 0 -18.5 -9t-7.5 -21v-724q0 -12 8 -21t19 -9h186zM343 1037q-12 0 -21 -7t-9 -17v-128q0 -10 9.5 -17t20.5 -7h158q12 0 20.5 7t8.5 17v128q0 10 -9 17t-21 7h-157zM51 1037q-12 0 -20.5 -7t-8.5 -17v-128
q0 -10 9 -17t21 -7h157q12 0 20.5 7t8.5 17v128q0 10 -9 17t-21 7h-157z" />
    <glyph glyph-name="Eth" unicode="&#xd0;" horiz-adv-x="1024" 
d="M54 504q-14 0 -23 -9t-9 -22v-145q0 -12 9.5 -21t22.5 -9h70v-268q0 -12 9 -21t22 -9h444q177 0 290 110t113 282q0 174 -114 284v-1q-114 110 -294 109l-440 -3q-13 0 -22 -9t-9 -21v-247h-69zM587 546q69 0 105 -39t36 -116q0 -76 -38.5 -114.5t-111.5 -38.5h-170v60
h167q13 0 22 9t9 21v145q0 13 -9.5 22t-22.5 9h-166v42h179z" />
    <glyph glyph-name="Ntilde" unicode="&#xd1;" horiz-adv-x="863" 
d="M470 541q-44 57 -85.5 113.5t-85.5 116.5q-2 5 -10.5 9t-14.5 4h-222q-12 0 -21 -9t-9 -21v-724q0 -12 9.5 -21t21.5 -9h195q13 0 22 9t9 21v362l282 -380q3 -5 11.5 -8.5t13.5 -3.5h224q13 0 22 9t9 21v724q0 12 -9.5 21t-22.5 9h-195q-13 0 -22 -9t-9 -21v-368
q-29 40 -57 78.5t-57 76.5h1zM699 1010h-95q-10 0 -18 -6t-10 -14q-8 -34 -29 -34q-37 0 -80 21q-56 27 -108 27q-68 0 -117 -41.5t-66 -137.5q-2 -12 7.5 -20.5t23.5 -8.5h92q10 0 18 6t10 15q6 34 30 34q18 0 37.5 -5.5t41.5 -16.5q55 -27 109 -27q67 0 116.5 42t66.5 137
z" />
    <glyph glyph-name="Ograve" unicode="&#xd2;" horiz-adv-x="985" 
d="M963 393q0 205 -119.5 305.5t-351.5 100.5t-351 -100.5t-119 -305.5q0 -204 120.5 -304.5t350.5 -100.5q232 0 351 100t119 305zM685 393q0 -86 -49.5 -129.5t-143.5 -43.5t-143 43.5t-49 129.5t49.5 129.5t143.5 43.5t143.5 -43.5t49.5 -129.5h-1zM604 813q19 0 26.5 13
t-2.5 27l-129 194q-3 4 -10.5 8t-13.5 4h-183q-19 0 -26.5 -14.5t6.5 -28.5l187 -194q3 -2 10 -5.5t12 -3.5h123z" />
    <glyph glyph-name="Oacute" unicode="&#xd3;" horiz-adv-x="985" 
d="M963 393q0 205 -119.5 305.5t-351.5 100.5t-351 -100.5t-119 -305.5q0 -204 120.5 -304.5t350.5 -100.5q232 0 351 100t119 305zM685 393q0 -86 -49.5 -129.5t-143.5 -43.5t-143 43.5t-49 129.5t49.5 129.5t143.5 43.5t143.5 -43.5t49.5 -129.5h-1zM358 853
q-9 -14 -1 -27t26 -13h123q4 0 11.5 3t10.5 6l184 194q13 14 5 28.5t-27 14.5h-182q-6 0 -13.5 -3.5t-10.5 -8.5z" />
    <glyph glyph-name="Ocircumflex" unicode="&#xd4;" horiz-adv-x="985" 
d="M963 393q0 205 -119.5 305.5t-351.5 100.5t-351 -100.5t-119 -305.5q0 -204 120.5 -304.5t350.5 -100.5q232 0 351 100t119 305zM685 393q0 -86 -49.5 -129.5t-143.5 -43.5t-143 43.5t-49 129.5t49.5 129.5t143.5 43.5t143.5 -43.5t49.5 -129.5h-1zM253 857
q-10 -14 -2 -27t27 -13h130q5 0 13.5 3.5t10.5 7.5l74 89l72 -89q3 -3 11 -7t13 -4h131q19 0 27 13t-2 27l-134 194q-3 4 -10.5 8t-13.5 4h-188q-6 0 -14.5 -4t-10.5 -8z" />
    <glyph glyph-name="Otilde" unicode="&#xd5;" horiz-adv-x="985" 
d="M963 393q0 205 -119.5 305.5t-351.5 100.5t-351 -100.5t-119 -305.5q0 -204 120.5 -304.5t350.5 -100.5q232 0 351 100t119 305zM685 393q0 -86 -49.5 -129.5t-143.5 -43.5t-143 43.5t-49 129.5t49.5 129.5t143.5 43.5t143.5 -43.5t49.5 -129.5h-1zM754 1010h-95
q-10 0 -18 -6t-10 -14q-8 -34 -29 -34q-37 0 -80 21q-56 27 -108 27q-68 0 -117 -41.5t-66 -137.5q-2 -12 7.5 -20.5t23.5 -8.5h92q10 0 18 6t10 15q6 34 30 34q18 0 37.5 -5.5t41.5 -16.5q55 -27 109 -27q67 0 116.5 42t66.5 137z" />
    <glyph glyph-name="Odieresis" unicode="&#xd6;" horiz-adv-x="985" 
d="M963 393q0 205 -119.5 305.5t-351.5 100.5t-351 -100.5t-119 -305.5q0 -204 120.5 -304.5t350.5 -100.5q232 0 351 100t119 305zM685 393q0 -86 -49.5 -129.5t-143.5 -43.5t-143 43.5t-49 129.5t49.5 129.5t143.5 43.5t143.5 -43.5t49.5 -129.5h-1zM568 997q-11 0 -20 -7
t-9 -17v-128q0 -10 9.5 -17t20.5 -7h158q12 0 20.5 7t8.5 17v128q0 10 -9 17t-21 7h-158zM277 997q-12 0 -20.5 -7t-8.5 -17v-128q0 -10 9 -17t21 -7h157q12 0 20.5 7t8.5 17v128q0 10 -9 17t-21 7h-157z" />
    <glyph glyph-name="multiply" unicode="&#xd7;" horiz-adv-x="616" 
d="M31 106l96 -96q9 -9 20 -9q12 0 21 9l140 140l140 -140q9 -9 20 -9q12 0 21 9l96 96q9 9 9 20q0 12 -9 21l-140 140l140 140q9 9 9 20q0 12 -9 21l-96 96q-9 9 -21 9q-11 0 -20 -9l-140 -140l-140 140q-9 9 -21 9q-11 0 -20 -9l-96 -96q-9 -9 -8.5 -21t8.5 -20l140 -140
l-140 -140q-9 -9 -8.5 -21t8.5 -20z" />
    <glyph glyph-name="Oslash" unicode="&#xd8;" horiz-adv-x="1069" 
d="M850 834q-5 0 -12.5 -3.5t-10.5 -5.5l-54 -57q-89 36 -236 36q-234 0 -354 -101t-120 -307q0 -174 87 -273l-118 -122q-15 -16 -7.5 -34t29.5 -18h164q5 0 12.5 3t10.5 6l61 63q87 -33 235 -33q232 0 353 101t121 307q0 171 -87 269l113 117q7 7 8.5 16.5t-2 17t-11 13
t-18.5 5.5h-164zM342 396q0 86 49.5 130t145.5 44h21q11 0 21 -2l-230 -239q-5 14 -6 30.5t-1 36.5zM732 396q0 -87 -49.5 -131t-145.5 -44h-21t-19 1l228 238q3 -14 5 -29.5t2 -34.5z" />
    <glyph glyph-name="Ugrave" unicode="&#xd9;" horiz-adv-x="855" 
d="M566 346q0 -69 -32 -99.5t-104 -30.5q-76 0 -108.5 29t-32.5 98v412q0 12 -9 21t-22 9h-205q-13 0 -22 -9t-9 -21v-498q0 -155 107 -215q97 -54 297 -54q194 0 296 54q111 60 111 205v508q0 12 -9 21t-21 9h-206q-13 0 -22 -9t-9 -21v-409zM543 803q18 0 26 13t-2 27
l-129 194q-3 4 -10.5 8t-13.5 4h-183q-19 0 -26.5 -14.5t5.5 -28.5l187 -194q3 -2 10 -5.5t12 -3.5h124z" />
    <glyph glyph-name="Uacute" unicode="&#xda;" horiz-adv-x="855" 
d="M566 346q0 -69 -32 -99.5t-104 -30.5q-76 0 -108.5 29t-32.5 98v412q0 12 -9 21t-22 9h-205q-13 0 -22 -9t-9 -21v-498q0 -155 107 -215q97 -54 297 -54q194 0 296 54q111 60 111 205v508q0 12 -9 21t-21 9h-206q-13 0 -22 -9t-9 -21v-409zM297 843q-9 -14 -1.5 -27
t25.5 -13h123q4 0 11.5 3t10.5 6l184 194q13 14 5.5 28.5t-26.5 14.5h-182q-6 0 -13.5 -3.5t-10.5 -8.5z" />
    <glyph glyph-name="Ucircumflex" unicode="&#xdb;" horiz-adv-x="855" 
d="M566 346q0 -69 -32 -99.5t-104 -30.5q-76 0 -108.5 29t-32.5 98v412q0 12 -9 21t-22 9h-205q-13 0 -22 -9t-9 -21v-498q0 -155 107 -215q97 -54 297 -54q194 0 296 54q111 60 111 205v508q0 12 -9 21t-21 9h-206q-13 0 -22 -9t-9 -21v-409zM188 843q-10 -14 -2 -27
t27 -13h130q5 0 13.5 3.5t10.5 7.5l74 89l72 -89q3 -3 11 -7t13 -4h131q19 0 27 13t-2 27l-134 194q-3 4 -10.5 8t-13.5 4h-188q-6 0 -14 -4t-11 -8z" />
    <glyph glyph-name="Udieresis" unicode="&#xdc;" horiz-adv-x="855" 
d="M566 346q0 -69 -32 -99.5t-104 -30.5q-76 0 -108.5 29t-32.5 98v412q0 12 -9 21t-22 9h-205q-13 0 -22 -9t-9 -21v-498q0 -155 107 -215q97 -54 297 -54q194 0 296 54q111 60 111 205v508q0 12 -9 21t-21 9h-206q-13 0 -22 -9t-9 -21v-409zM507 987q-11 0 -20 -7t-9 -17
v-128q0 -10 9 -17t20 -7h158q12 0 20.5 7t8.5 17v128q0 10 -8.5 17t-20.5 7h-158zM216 987q-12 0 -20.5 -7t-8.5 -17v-128q0 -10 8.5 -17t20.5 -7h157q12 0 20.5 7t8.5 17v128q0 10 -8.5 17t-20.5 7h-157z" />
    <glyph glyph-name="Yacute" unicode="&#xdd;" horiz-adv-x="1043" 
d="M751 784q-5 0 -14 -4t-11 -9l-185 -249l-203 251q-3 4 -11 7.5t-13 3.5h-259q-21 0 -29.5 -17t5.5 -33l349 -420v-284q0 -12 9 -21t21 -9h224q13 0 22 9t9 21v284l348 420q13 16 4.5 33t-29.5 17h-237zM415 743q-10 -14 -2 -27t26 -13h123q4 0 11.5 3t10.5 6l184 194
q13 14 5.5 28.5t-26.5 14.5h-182q-6 0 -13.5 -3.5t-10.5 -8.5z" />
    <glyph glyph-name="Thorn" unicode="&#xde;" horiz-adv-x="752" 
d="M52 784q-12 0 -21 -9t-9 -21v-724q0 -12 9 -21t21 -9h218q12 0 21 9t9 21v114l102 -2q162 -3 245 60t83 196q0 134 -86 191t-261 57h-83v108q0 12 -9 21t-21 9h-218zM355 467q53 4 82 -16.5t29 -57.5q0 -77 -118 -72l-48 2v140z" />
    <glyph glyph-name="germandbls" unicode="&#xdf;" horiz-adv-x="649" 
d="M224 0q12 0 21 9t9 21v533q0 30 13.5 40t32.5 10q20 0 37.5 -11.5t17.5 -34.5t-14 -38.5t-35 -15.5q-12 0 -21 -8.5t-9 -21.5v-104q0 -13 9.5 -22t21.5 -9q52 0 70.5 -25.5t18.5 -74.5q0 -42 -16.5 -65t-52.5 -23h-16q-12 0 -21 -9t-9 -22v-111q0 -12 9.5 -21t21.5 -9h69
q118 0 183 72q63 72 63 180q0 73 -34 124.5t-92 78.5q12 9 20.5 19t16.5 21q14 23 22.5 46t8.5 45q0 105 -72 158t-206 53q-118 0 -191 -54q-78 -59 -78 -179v-522q0 -12 9 -21t22 -9h171z" />
    <glyph glyph-name="agrave" unicode="&#xe0;" 
d="M458 19q18 -16 40 -23t48 -7l106 88q9 7 11 16t-1 17t-10.5 13.5t-18.5 5.5q-2 0 -7 5q-7 5 -7 6v205q0 66 -17 112.5t-52 75.5t-89 42.5t-128 13.5q-46 0 -87.5 -8t-78.5 -22q-38 -15 -61.5 -27.5t-34.5 -22.5q-6 -5 -8 -15t1 -18l38 -87q5 -12 17 -16.5t24 1.5
q16 8 35.5 16t42.5 17q24 10 48.5 14t50.5 4q35 0 55 -15t21 -46l-84 4q-64 3 -115.5 -11.5t-91.5 -41.5q-83 -56 -83 -146q0 -83 54.5 -132t158.5 -49q53 0 104 15t96 38q5 -6 10 -11t13 -11zM366 157q-33 -13 -72 -13q-51 0 -51 25q0 49 153 49h3v-47q-7 -3 -15 -6.5
t-18 -7.5zM452 628q18 0 26 13t-2 27l-129 194q-3 4 -10.5 8t-13.5 4h-183q-19 0 -27 -14.5t6 -28.5l187 -194q3 -2 10 -5.5t12 -3.5h124z" />
    <glyph glyph-name="aacute" unicode="&#xe1;" 
d="M458 19q18 -16 40 -23t48 -7l106 88q9 7 11 16t-1 17t-10.5 13.5t-18.5 5.5q-2 0 -7 5q-7 5 -7 6v205q0 66 -17 112.5t-52 75.5t-89 42.5t-128 13.5q-46 0 -87.5 -8t-78.5 -22q-38 -15 -61.5 -27.5t-34.5 -22.5q-6 -5 -8 -15t1 -18l38 -87q5 -12 17 -16.5t24 1.5
q16 8 35.5 16t42.5 17q24 10 48.5 14t50.5 4q35 0 55 -15t21 -46l-84 4q-64 3 -115.5 -11.5t-91.5 -41.5q-83 -56 -83 -146q0 -83 54.5 -132t158.5 -49q53 0 104 15t96 38q5 -6 10 -11t13 -11zM366 157q-33 -13 -72 -13q-51 0 -51 25q0 49 153 49h3v-47q-7 -3 -15 -6.5
t-18 -7.5zM216 658q-9 -14 -1.5 -27t25.5 -13h123q4 0 11.5 3t10.5 6l184 194q13 14 5.5 28.5t-26.5 14.5h-182q-6 0 -13.5 -3.5t-10.5 -8.5z" />
    <glyph glyph-name="acircumflex" unicode="&#xe2;" 
d="M458 19q18 -16 40 -23t48 -7l106 88q9 7 11 16t-1 17t-10.5 13.5t-18.5 5.5q-2 0 -7 5q-7 5 -7 6v205q0 66 -17 112.5t-52 75.5t-89 42.5t-128 13.5q-46 0 -87.5 -8t-78.5 -22q-38 -15 -61.5 -27.5t-34.5 -22.5q-6 -5 -8 -15t1 -18l38 -87q5 -12 17 -16.5t24 1.5
q16 8 35.5 16t42.5 17q24 10 48.5 14t50.5 4q35 0 55 -15t21 -46l-84 4q-64 3 -115.5 -11.5t-91.5 -41.5q-83 -56 -83 -146q0 -83 54.5 -132t158.5 -49q53 0 104 15t96 38q5 -6 10 -11t13 -11zM366 157q-33 -13 -72 -13q-51 0 -51 25q0 49 153 49h3v-47q-7 -3 -15 -6.5
t-18 -7.5zM97 648q-10 -14 -2 -27t27 -13h130q5 0 13.5 3.5t10.5 7.5l74 89l72 -89q3 -3 11 -7t13 -4h131q19 0 27 13t-2 27l-134 194q-3 4 -10.5 8t-13.5 4h-188q-6 0 -14.5 -4t-10.5 -8z" />
    <glyph glyph-name="atilde" unicode="&#xe3;" 
d="M458 19q18 -16 40 -23t48 -7l106 88q9 7 11 16t-1 17t-10.5 13.5t-18.5 5.5q-2 0 -7 5q-7 5 -7 6v205q0 66 -17 112.5t-52 75.5t-89 42.5t-128 13.5q-46 0 -87.5 -8t-78.5 -22q-38 -15 -61.5 -27.5t-34.5 -22.5q-6 -5 -8 -15t1 -18l38 -87q5 -12 17 -16.5t24 1.5
q16 8 35.5 16t42.5 17q24 10 48.5 14t50.5 4q35 0 55 -15t21 -46l-84 4q-64 3 -115.5 -11.5t-91.5 -41.5q-83 -56 -83 -146q0 -83 54.5 -132t158.5 -49q53 0 104 15t96 38q5 -6 10 -11t13 -11zM366 157q-33 -13 -72 -13q-51 0 -51 25q0 49 153 49h3v-47q-7 -3 -15 -6.5
t-18 -7.5zM601 835h-94q-10 0 -18 -6t-10 -14q-6 -34 -29 -34q-38 0 -80 21q-57 27 -108 27q-68 0 -117 -41.5t-66 -137.5q-2 -12 7 -20.5t23 -8.5h92q10 0 18 6t10 15q8 34 30 34q18 0 37.5 -5.5t41.5 -16.5q55 -27 109 -27q67 0 116.5 42t66.5 137z" />
    <glyph glyph-name="adieresis" unicode="&#xe4;" 
d="M458 19q18 -16 40 -23t48 -7l106 88q9 7 11 16t-1 17t-10.5 13.5t-18.5 5.5q-2 0 -7 5q-7 5 -7 6v205q0 66 -17 112.5t-52 75.5t-89 42.5t-128 13.5q-46 0 -87.5 -8t-78.5 -22q-38 -15 -61.5 -27.5t-34.5 -22.5q-6 -5 -8 -15t1 -18l38 -87q5 -12 17 -16.5t24 1.5
q16 8 35.5 16t42.5 17q24 10 48.5 14t50.5 4q35 0 55 -15t21 -46l-84 4q-64 3 -115.5 -11.5t-91.5 -41.5q-83 -56 -83 -146q0 -83 54.5 -132t158.5 -49q53 0 104 15t96 38q5 -6 10 -11t13 -11zM366 157q-33 -13 -72 -13q-51 0 -51 25q0 49 153 49h3v-47q-7 -3 -15 -6.5
t-18 -7.5zM416 802q-11 0 -20 -7t-9 -17v-128q0 -10 9 -17t20 -7h158q12 0 20.5 7t8.5 17v128q0 10 -8.5 17t-20.5 7h-158zM125 802q-12 0 -20.5 -7t-8.5 -17v-128q0 -10 8.5 -17t20.5 -7h157q12 0 20.5 7t8.5 17v128q0 10 -8.5 17t-20.5 7h-157z" />
    <glyph glyph-name="aring" unicode="&#xe5;" 
d="M458 19q18 -16 40 -23t48 -7l106 88q9 7 11 16t-1 17t-10.5 13.5t-18.5 5.5q-2 0 -7 5q-7 5 -7 6v205q0 66 -17 112.5t-52 75.5t-89 42.5t-128 13.5q-46 0 -87.5 -8t-78.5 -22q-38 -15 -61.5 -27.5t-34.5 -22.5q-6 -5 -8 -15t1 -18l38 -87q5 -12 17 -16.5t24 1.5
q16 8 35.5 16t42.5 17q24 10 48.5 14t50.5 4q35 0 55 -15t21 -46l-84 4q-64 3 -115.5 -11.5t-91.5 -41.5q-83 -56 -83 -146q0 -83 54.5 -132t158.5 -49q53 0 104 15t96 38q5 -6 10 -11t13 -11zM366 157q-33 -13 -72 -13q-51 0 -51 25q0 49 153 49h3v-47q-7 -3 -15 -6.5
t-18 -7.5zM334 943q-70 0 -121 -51q-50 -50 -50 -120q0 -71 50 -121q49 -50 121 -50q68 0 120 50v-1q51 51 51 122t-51 121v-1q-51 51 -120 51zM334 819q20 0 33.5 -13.5t13.5 -33.5t-13.5 -33.5t-33.5 -13.5t-33.5 13.5t-13.5 33.5t13.5 33.5t33.5 13.5z" />
    <glyph glyph-name="ae" unicode="&#xe6;" horiz-adv-x="1123" 
d="M461 18q2 -7 11 -12.5t17 -5.5h106q13 0 22 9t9 21v13q42 -23 97.5 -39t126.5 -16q66 0 128 13.5t102 36.5q9 5 13.5 15.5t-0.5 20.5l-39 94q-5 11 -16.5 16t-23.5 1q-6 -2 -19 -6t-30 -8q-39 -9 -82 -9q-82 0 -122 31q-5 4 -10 10.5t-10 14.5h326q12 0 21.5 9t9.5 20
l2 45q1 33 -11.5 70t-28 69t-29 53l-13.5 21q-84 84 -216 84q-55 0 -98.5 -13.5t-77.5 -36.5v16q0 12 -9 21t-22 9h-144q-13 0 -22 -9t-9 -21v-13q-33 20 -71.5 33t-86.5 13q-115 0 -180 -86q-60 -81 -60 -214q0 -69 16.5 -124.5t47.5 -94.5t76.5 -60t104.5 -21
q30 0 55.5 5.5t48.5 18.5q30 17 70 49zM365 178h2q-2 -2 -5.5 -5t-8.5 -7l1 2q-20 -18 -40 -18q-29 0 -45.5 34.5t-16.5 91.5q0 70 20.5 107.5t64.5 37.5q11 0 28 -11q5 -4 10.5 -7.5t9.5 -6.5v-202q-4 -4 -9 -7.5t-11 -8.5zM749 396q16 29 53 29q26 0 42.5 -20t22.5 -54
h-135q3 14 7 25.5t10 19.5z" />
    <glyph glyph-name="ccedilla" unicode="&#xe7;" horiz-adv-x="545" 
d="M92 -293q-2 -6 -0.5 -15.5t6.5 -14.5q17 -16 72 -31q54 -16 107 -16q87 0 146 46q64 48 64 120q0 60 -46 101q-42 38 -103 38l30 44q5 6 6 13q24 3 47 9q52 14 66 22q4 2 9.5 9.5t5.5 12.5l18 134q2 14 -6.5 24t-22.5 10q-7 0 -11 -1.5t-9 -4.5h2q-6 -2 -16.5 -6
t-26.5 -10q-41 -16 -75 -16q-62 0 -91 26t-29 81q0 62 27 97t75 35q39 0 79 -16q23 -9 38 -16t23 -13q17 -11 32 -1.5t13 29.5l-13 132q0 6 -6 14t-11 10q-26 12 -65.5 24t-101.5 12q-139 0 -221 -83q-41 -42 -61.5 -97.5t-20.5 -127.5q0 -134 81 -214q57 -54 131 -70
l-80 -122q-5 -8 -3.5 -18t7.5 -17l30 -30q5 -5 13.5 -7.5t14.5 -0.5q23 7 33 9.5t25 2.5q12 0 20.5 -6t8.5 -14q0 -15 -12 -24t-32 -9q-39 0 -66 9l-42 14q-11 2 -20 -2.5t-14 -14.5z" />
    <glyph glyph-name="egrave" unicode="&#xe8;" horiz-adv-x="591" 
d="M563 74l-37 94q-5 11 -16.5 16t-22.5 0q-3 -2 -13.5 -5t-28.5 -8q-33 -9 -69 -9q-73 0 -103 30q-10 9 -18 26h285q12 0 20.5 9t8.5 21v44q0 132 -72 213q-75 84 -196 84t-200 -83q-79 -82 -79 -208q0 -146 88 -228t235 -82q29 0 58 3.5t56 10t50.5 15.5t41.5 21zM260 398
q13 27 40 27q20 0 33 -19.5t17 -54.5h-104q4 28 14 47zM406 608q18 0 26 13t-2 27l-129 194q-3 4 -10.5 8t-13.5 4h-183q-19 0 -26.5 -14.5t5.5 -28.5l187 -194q3 -2 10 -5.5t12 -3.5h124z" />
    <glyph glyph-name="eacute" unicode="&#xe9;" horiz-adv-x="591" 
d="M563 74l-37 94q-5 11 -16.5 16t-22.5 0q-3 -2 -13.5 -5t-28.5 -8q-33 -9 -69 -9q-73 0 -103 30q-10 9 -18 26h285q12 0 20.5 9t8.5 21v44q0 132 -72 213q-75 84 -196 84t-200 -83q-79 -82 -79 -208q0 -146 88 -228t235 -82q29 0 58 3.5t56 10t50.5 15.5t41.5 21zM260 398
q13 27 40 27q20 0 33 -19.5t17 -54.5h-104q4 28 14 47zM160 638q-9 -14 -1.5 -27t25.5 -13h123q4 0 11.5 3t10.5 6l184 194q13 14 5.5 28.5t-26.5 14.5h-182q-6 0 -13.5 -3.5t-10.5 -8.5z" />
    <glyph glyph-name="ecircumflex" unicode="&#xea;" horiz-adv-x="591" 
d="M563 74l-37 94q-5 11 -16.5 16t-22.5 0q-3 -2 -13.5 -5t-28.5 -8q-33 -9 -69 -9q-73 0 -103 30q-10 9 -18 26h285q12 0 20.5 9t8.5 21v44q0 132 -72 213q-75 84 -196 84t-200 -83q-79 -82 -79 -208q0 -146 88 -228t235 -82q29 0 58 3.5t56 10t50.5 15.5t41.5 21zM260 398
q13 27 40 27q20 0 33 -19.5t17 -54.5h-104q4 28 14 47zM51 628q-10 -14 -2 -27t27 -13h130q5 0 13.5 3.5t10.5 7.5l74 89l72 -89q3 -3 11 -7t13 -4h131q19 0 27 13t-2 27l-134 194q-3 4 -10.5 8t-13.5 4h-188q-6 0 -14 -4t-11 -8z" />
    <glyph glyph-name="edieresis" unicode="&#xeb;" horiz-adv-x="591" 
d="M563 74l-37 94q-5 11 -16.5 16t-22.5 0q-3 -2 -13.5 -5t-28.5 -8q-33 -9 -69 -9q-73 0 -103 30q-10 9 -18 26h285q12 0 20.5 9t8.5 21v44q0 132 -72 213q-75 84 -196 84t-200 -83q-79 -82 -79 -208q0 -146 88 -228t235 -82q29 0 58 3.5t56 10t50.5 15.5t41.5 21zM260 398
q13 27 40 27q20 0 33 -19.5t17 -54.5h-104q4 28 14 47zM370 782q-11 0 -20 -7t-9 -17v-128q0 -10 9 -17t20 -7h158q12 0 20.5 7t8.5 17v128q0 10 -8.5 17t-20.5 7h-158zM79 782q-12 0 -20.5 -7t-8.5 -17v-128q0 -10 8.5 -17t20.5 -7h157q12 0 20.5 7t8.5 17v128
q0 10 -8.5 17t-20.5 7h-157z" />
    <glyph glyph-name="igrave" unicode="&#xec;" horiz-adv-x="415" 
d="M364 0q10 0 17 8.5t7 21.5v514q0 13 -7 21.5t-17 8.5h-141q-11 0 -18 -8.5t-7 -21.5v-514q0 -13 7 -21.5t18 -8.5h141zM363 598q18 0 26 13t-2 27l-129 194q-3 4 -10.5 8t-13.5 4h-183q-19 0 -26.5 -14.5t5.5 -28.5l187 -194q3 -2 10 -5.5t12 -3.5h124z" />
    <glyph glyph-name="iacute" unicode="&#xed;" horiz-adv-x="414" 
d="M188 0q10 0 17 8.5t7 21.5v514q0 13 -7 21.5t-17 8.5h-141q-11 0 -18 -8.5t-7 -21.5v-514q0 -13 7 -21.5t18 -8.5h141zM31 638q-9 -14 -1.5 -27t25.5 -13h123q4 0 11.5 3t10.5 6l184 194q13 14 5.5 28.5t-26.5 14.5h-182q-6 0 -13.5 -3.5t-10.5 -8.5z" />
    <glyph glyph-name="icircumflex" unicode="&#xee;" horiz-adv-x="561" 
d="M354 0q10 0 17 8.5t7 21.5v514q0 13 -7 21.5t-17 8.5h-141q-11 0 -18 -8.5t-7 -21.5v-514q0 -13 7 -21.5t18 -8.5h141zM28 618q-10 -14 -2 -27t27 -13h130q5 0 13.5 3.5t10.5 7.5l74 89l72 -89q3 -3 11 -7t13 -4h131q19 0 27 13t-2 27l-134 194q-3 4 -10.5 8t-13.5 4
h-188q-6 0 -14.5 -4t-10.5 -8z" />
    <glyph glyph-name="idieresis" unicode="&#xef;" horiz-adv-x="552" 
d="M332 0q10 0 17 8.5t7 21.5v514q0 13 -7.5 21.5t-17.5 8.5h-141q-11 0 -18 -8.5t-7 -21.5v-514q0 -13 7.5 -21.5t18.5 -8.5h141zM343 782q-13 0 -21.5 -7t-8.5 -17v-128q0 -10 9.5 -17t20.5 -7h158q12 0 20.5 7t8.5 17v128q0 10 -9 17t-21 7h-157zM51 782q-12 0 -20.5 -7
t-8.5 -17v-128q0 -10 9 -17t21 -7h157q12 0 20.5 7t8.5 17v128q0 10 -9 17t-21 7h-157z" />
    <glyph glyph-name="eth" unicode="&#xf0;" horiz-adv-x="683" 
d="M661 283q0 188 -132 325q-6 7 -13.5 13.5t-15.5 14.5l46 26q12 7 14 21t-8 25l-55 66q-7 8 -18 10t-20 -3l-85 -54q-32 20 -71 34t-84 25q-8 2 -17.5 -2t-14.5 -11l-47 -75q-8 -12 -3.5 -25.5t18.5 -19.5q17 -8 32 -14t28 -13l-37 -23q-11 -8 -13.5 -21.5t7.5 -24.5
l37 -44q-55 -17 -99 -54q-88 -76 -88 -192q0 -67 22 -119t63 -88t100.5 -54.5t134.5 -18.5q160 0 239.5 71.5t79.5 224.5zM343 361q49 0 77 -27t28 -74q0 -48 -29.5 -75.5t-77.5 -27.5q-51 0 -78.5 26t-27.5 75q0 48 28 75.5t79 27.5h1zM350 529l-17 2h-7l14 8q3 -2 5 -5
t5 -5z" />
    <glyph glyph-name="ntilde" unicode="&#xf1;" horiz-adv-x="638" 
d="M586 0q12 0 21 8.5t9 21.5v343q0 105 -49 160t-148 55q-55 0 -105.5 -17t-92.5 -47l-23 38q-4 5 -12 9t-13 4h-122q-12 0 -20.5 -8.5t-8.5 -20.5v-516q0 -13 9 -21.5t21 -8.5h171q12 0 21 8.5t9 21.5v343q6 4 14 7.5t19 8.5h-2q18 8 34 12t33 4t25.5 -18t8.5 -47v-310
q0 -13 9 -21.5t21 -8.5h171zM583 845h-95q-10 0 -18 -6t-10 -14q-8 -34 -29 -34q-37 0 -80 21q-56 27 -108 27q-68 0 -117 -41.5t-66 -137.5q-2 -12 7.5 -20.5t23.5 -8.5h92q10 0 18 6t10 15q6 34 30 34q18 0 37.5 -5.5t41.5 -16.5q55 -27 109 -27q67 0 116.5 42t66.5 137z
" />
    <glyph glyph-name="ograve" unicode="&#xf2;" horiz-adv-x="681" 
d="M659 288q0 140 -87 221q-88 80 -232 80q-143 0 -231 -80q-87 -81 -87 -221q0 -139 87 -220q86 -80 231 -80q146 0 232 80q87 81 87 220zM447 288q0 -56 -28 -87.5t-79 -31.5q-50 0 -78 31.5t-28 87.5t28 87.5t78 31.5q51 0 79 -31.5t28 -87.5zM449 628q18 0 26 13t-2 27
l-129 194q-3 4 -10.5 8t-13.5 4h-183q-19 0 -26.5 -14.5t5.5 -28.5l187 -194q3 -2 10 -5.5t12 -3.5h124z" />
    <glyph glyph-name="oacute" unicode="&#xf3;" horiz-adv-x="681" 
d="M659 288q0 140 -87 221q-88 80 -232 80q-143 0 -231 -80q-87 -81 -87 -221q0 -139 87 -220q86 -80 231 -80q146 0 232 80q87 81 87 220zM447 288q0 -56 -28 -87.5t-79 -31.5q-50 0 -78 31.5t-28 87.5t28 87.5t78 31.5q51 0 79 -31.5t28 -87.5zM203 668q-9 -14 -1.5 -27
t25.5 -13h123q4 0 11.5 3t10.5 6l184 194q13 14 5.5 28.5t-26.5 14.5h-182q-6 0 -13.5 -3.5t-10.5 -8.5z" />
    <glyph glyph-name="ocircumflex" unicode="&#xf4;" horiz-adv-x="681" 
d="M659 288q0 140 -87 221q-88 80 -232 80q-143 0 -231 -80q-87 -81 -87 -221q0 -139 87 -220q86 -80 231 -80q146 0 232 80q87 81 87 220zM447 288q0 -56 -28 -87.5t-79 -31.5q-50 0 -78 31.5t-28 87.5t28 87.5t78 31.5q51 0 79 -31.5t28 -87.5zM94 668q-10 -14 -2 -27
t27 -13h130q5 0 13.5 3.5t10.5 7.5l74 89l72 -89q3 -3 11 -7t13 -4h131q19 0 27 13t-2 27l-134 194q-3 4 -10.5 8t-13.5 4h-188q-6 0 -14 -4t-11 -8z" />
    <glyph glyph-name="otilde" unicode="&#xf5;" horiz-adv-x="681" 
d="M659 288q0 140 -87 221q-88 80 -232 80q-143 0 -231 -80q-87 -81 -87 -221q0 -139 87 -220q86 -80 231 -80q146 0 232 80q87 81 87 220zM447 288q0 -56 -28 -87.5t-79 -31.5q-50 0 -78 31.5t-28 87.5t28 87.5t78 31.5q51 0 79 -31.5t28 -87.5zM598 835h-94q-10 0 -18 -6
t-10 -14q-8 -34 -29 -34q-38 0 -80 21q-57 27 -108 27q-68 0 -117 -41.5t-66 -137.5q-2 -12 7 -20.5t23 -8.5h92q10 0 18 6t10 15q6 34 30 34q35 0 79 -22q57 -27 109 -27q67 0 116.5 42t66.5 137z" />
    <glyph glyph-name="odieresis" unicode="&#xf6;" horiz-adv-x="681" 
d="M659 288q0 140 -87 221q-88 80 -232 80q-143 0 -231 -80q-87 -81 -87 -221q0 -139 87 -220q86 -80 231 -80q146 0 232 80q87 81 87 220zM447 288q0 -56 -28 -87.5t-79 -31.5q-50 0 -78 31.5t-28 87.5t28 87.5t78 31.5q51 0 79 -31.5t28 -87.5zM413 782q-11 0 -20 -7
t-9 -17v-128q0 -10 9 -17t20 -7h158q12 0 20.5 7t8.5 17v128q0 10 -8.5 17t-20.5 7h-158zM122 782q-12 0 -20.5 -7t-8.5 -17v-128q0 -10 8.5 -17t20.5 -7h157q12 0 20.5 7t8.5 17v128q0 10 -8.5 17t-20.5 7h-157z" />
    <glyph glyph-name="divide" unicode="&#xf7;" horiz-adv-x="620" 
d="M228 625q-11 0 -18 -7t-7 -18v-146q0 -11 7.5 -18t17.5 -7h122q10 0 17 7t7 18v146q0 11 -7.5 18t-17.5 7h-121zM22 230q0 -9 9.5 -16t21.5 -7h516q12 0 20.5 7t8.5 16v108q0 10 -9 16.5t-21 6.5h-516q-12 0 -21 -6.5t-9 -16.5v-108zM228 143q-11 0 -18 -7t-7 -18v-146
q0 -11 7.5 -18t17.5 -7h122q10 0 17 7t7 18v146q0 11 -7.5 18t-17.5 7h-121z" />
    <glyph glyph-name="oslash" unicode="&#xf8;" horiz-adv-x="791" 
d="M621 625q-5 0 -12.5 -3.5t-9.5 -6.5l-46 -50q-32 15 -72 23t-89 8q-148 0 -236 -81t-88 -224q0 -116 57 -191l-93 -100q-15 -16 -7.5 -33t29.5 -17l116 1q5 0 12.5 3.5t10.5 6.5l48 53q58 -26 151 -26q148 0 235 80q89 81 89 223q0 109 -51 181l94 103q14 16 7 33t-29 17
h-116zM283 291q0 57 29 89t80 32q5 0 9.5 -0.5t8.5 -0.5l-127 -140v20zM392 171h-5l114 123v-3q0 -56 -28.5 -88t-80.5 -32z" />
    <glyph glyph-name="ugrave" unicode="&#xf9;" horiz-adv-x="638" 
d="M616 546q0 12 -9 20.5t-21 8.5h-171q-12 0 -21 -8.5t-9 -20.5v-344q-10 -5 -21.5 -9.5t-24.5 -10.5h2q-17 -6 -29.5 -8.5t-20.5 -2.5q-38 0 -38 66v309q0 12 -9 20.5t-21 8.5h-171q-12 0 -21 -8.5t-9 -20.5v-353q0 -100 49 -152.5t146 -52.5q57 0 103.5 16t91.5 45
l16 -32q2 -7 10.5 -12t16.5 -5h132q12 0 20.5 8.5t8.5 21.5v516zM436 628q19 0 26.5 13t-2.5 27l-129 194q-3 4 -10.5 8t-13.5 4h-183q-19 0 -26.5 -14.5t6.5 -28.5l187 -194q3 -2 10 -5.5t12 -3.5h123z" />
    <glyph glyph-name="uacute" unicode="&#xfa;" horiz-adv-x="638" 
d="M616 546q0 12 -9 20.5t-21 8.5h-171q-12 0 -21 -8.5t-9 -20.5v-344q-10 -5 -21.5 -9.5t-24.5 -10.5h2q-17 -6 -29.5 -8.5t-20.5 -2.5q-38 0 -38 66v309q0 12 -9 20.5t-21 8.5h-171q-12 0 -21 -8.5t-9 -20.5v-353q0 -100 49 -152.5t146 -52.5q57 0 103.5 16t91.5 45
l16 -32q2 -7 10.5 -12t16.5 -5h132q12 0 20.5 8.5t8.5 21.5v516zM190 668q-9 -14 -1 -27t26 -13h123q4 0 11.5 3t10.5 6l184 194q13 14 5 28.5t-27 14.5h-182q-6 0 -13.5 -3.5t-10.5 -8.5z" />
    <glyph glyph-name="ucircumflex" unicode="&#xfb;" horiz-adv-x="638" 
d="M616 546q0 12 -9 20.5t-21 8.5h-171q-12 0 -21 -8.5t-9 -20.5v-344q-10 -5 -21.5 -9.5t-24.5 -10.5h2q-17 -6 -29.5 -8.5t-20.5 -2.5q-38 0 -38 66v309q0 12 -9 20.5t-21 8.5h-171q-12 0 -21 -8.5t-9 -20.5v-353q0 -100 49 -152.5t146 -52.5q57 0 103.5 16t91.5 45
l16 -32q2 -7 10.5 -12t16.5 -5h132q12 0 20.5 8.5t8.5 21.5v516zM81 668q-10 -14 -1.5 -27t27.5 -13h130q5 0 13.5 3.5t10.5 7.5l74 89l72 -89q3 -3 11 -7t13 -4h131q19 0 26.5 13t-2.5 27l-134 194q-2 4 -10 8t-14 4h-188q-6 0 -14 -4t-11 -8z" />
    <glyph glyph-name="udieresis" unicode="&#xfc;" horiz-adv-x="638" 
d="M616 546q0 12 -9 20.5t-21 8.5h-171q-12 0 -21 -8.5t-9 -20.5v-344q-10 -5 -21.5 -9.5t-24.5 -10.5h2q-17 -6 -29.5 -8.5t-20.5 -2.5q-38 0 -38 66v309q0 12 -9 20.5t-21 8.5h-171q-12 0 -21 -8.5t-9 -20.5v-353q0 -100 49 -152.5t146 -52.5q57 0 103.5 16t91.5 45
l16 -32q2 -7 10.5 -12t16.5 -5h132q12 0 20.5 8.5t8.5 21.5v516zM390 782q-11 0 -20 -7t-9 -17v-128q0 -10 9.5 -17t20.5 -7h158q12 0 20.5 7t8.5 17v128q0 10 -9 17t-21 7h-158zM99 782q-12 0 -20.5 -7t-8.5 -17v-128q0 -10 9 -17t21 -7h157q12 0 20.5 7t8.5 17v128
q0 10 -9 17t-21 7h-157z" />
    <glyph glyph-name="yacute" unicode="&#xfd;" horiz-adv-x="723" 
d="M509 585q-8 0 -16.5 -5.5t-11.5 -13.5l-97 -231l-106 232q-2 7 -10.5 12.5t-16.5 5.5h-198q-19 0 -27 -13.5t1 -30.5l238 -458l-67 -153q-8 -16 1 -29t26 -13h164q8 0 16.5 5.5t11.5 12.5l281 637q7 16 -1 29t-26 13h-162zM262 638q-10 -14 -2 -27t26 -13h123q4 0 11.5 3
t10.5 6l184 194q13 14 5.5 28.5t-26.5 14.5h-182q-6 0 -13.5 -3.5t-10.5 -8.5z" />
    <glyph glyph-name="thorn" unicode="&#xfe;" 
d="M399 -12q116 0 192 94q38 47 55.5 103.5t17.5 125.5q0 133 -77 214v-1q-77 86 -198 86q-35 0 -69 -11t-65 -34v197q0 12 -9 21t-21 9h-173q-12 0 -21 -9t-9 -21v-846q0 -13 9 -22t21 -9h173q12 0 21 9t9 22v122q32 -26 68 -38t76 -12zM344 436q45 0 72.5 -38t27.5 -98
q0 -68 -24 -109.5t-67 -41.5q-15 0 -29.5 6t-28.5 17t-24 22t-17 22v180q15 16 38 28t52 12z" />
    <glyph glyph-name="ydieresis" unicode="&#xff;" horiz-adv-x="723" 
d="M509 585q-8 0 -16.5 -5.5t-11.5 -13.5l-97 -231l-106 232q-2 7 -10.5 12.5t-16.5 5.5h-198q-19 0 -27 -13.5t1 -30.5l238 -458l-67 -153q-8 -16 1 -29t26 -13h164q8 0 16.5 5.5t11.5 12.5l281 637q7 16 -1 29t-26 13h-162zM432 782q-11 0 -20 -7t-9 -17v-128q0 -10 9 -17
t20 -7h158q12 0 20.5 7t8.5 17v128q0 10 -8.5 17t-20.5 7h-158zM141 782q-12 0 -20.5 -7t-8.5 -17v-128q0 -10 8.5 -17t20.5 -7h157q12 0 20.5 7t8.5 17v128q0 10 -8.5 17t-20.5 7h-157z" />
    <glyph glyph-name="minus" unicode="&#xe000;" horiz-adv-x="620" 
d="M23 170q0 -9 9 -16t21 -7h516q12 0 20.5 7t8.5 16v108q0 10 -9 16.5t-21 6.5h-516q-12 0 -21 -6.5t-9 -16.5z" />
    <glyph glyph-name="notequal" unicode="&#xe001;" horiz-adv-x="620" 
d="M23 101q0 -12 9 -21t21 -9h75l-8 -19q-7 -15 2.5 -27.5t26.5 -12.5h138q8 0 17 5.5t11 12.5l15 41h239q12 0 20.5 9t8.5 21v137q0 12 -9 21t-21 9h-163l14 35h150q12 0 20.5 9t8.5 21v137q0 12 -9 21t-21 9h-75l8 19q7 15 -2 28t-26 13h-138q-8 0 -16.5 -5.5t-11.5 -13.5
l-16 -41h-239q-12 0 -21 -9t-9 -21v-137q0 -12 9.5 -21t21.5 -9h164l-14 -35h-151q-12 0 -21 -9t-9 -21z" />
    <glyph glyph-name="infinity" unicode="&#xe002;" horiz-adv-x="709" 
d="M448 302q45 -17 80 -17q61 0 108 38q51 42 51 102q0 32 -13.5 57t-38.5 45v-1q-50 39 -108 39q-23 0 -45 -3.5t-43 -13.5q-31 -13 -85 -58q-54 42 -87 58v-1q-20 10 -41.5 14t-44.5 4q-61 0 -109 -38q-50 -39 -50 -102q0 -59 51 -101q48 -39 109 -39q34 0 80 17
q37 15 93 59q53 -44 93 -59zM128 425q0 14 16 32v-1q13 15 38 15q26 0 49.5 -13t46.5 -33q-23 -20 -47 -32.5t-50 -12.5q-25 0 -39 12t-14 33zM580 425q0 -21 -14.5 -33t-38.5 -12q-27 0 -51 12.5t-47 32.5q23 20 47 33t52 13q23 0 37 -14q15 -17 15 -32z" />
    <glyph glyph-name="lessequal" unicode="&#xe003;" horiz-adv-x="617" 
d="M52 194q-12 0 -21 -9t-9 -22v-133q0 -12 9 -21t21 -9h514q12 0 20.5 9t8.5 21v125v4v150q0 8 -5.5 17t-13.5 12l-226 93l226 94q8 2 13.5 11t5.5 17v151q0 17 -12 26t-28 2l-514 -211q-8 -3 -13.5 -11.5t-5.5 -16.5v-123q0 -8 5.5 -17t13.5 -12l360 -147h-349z" />
    <glyph glyph-name="greaterequal" unicode="&#xe004;" horiz-adv-x="620" 
d="M42 338q-8 -3 -14 -12t-6 -17v-150v-4v-125q0 -12 9.5 -21t21.5 -9h516q12 0 20.5 9t8.5 21v133q0 13 -9 22t-21 9h-351l363 147q7 3 12.5 12t5.5 17v123q0 8 -5.5 16.5t-13.5 11.5l-516 211q-15 6 -28 -2.5t-13 -25.5v-151q0 -8 6 -17t14 -11l228 -94z" />
    <glyph glyph-name="partialdiff" unicode="&#xe005;" horiz-adv-x="1126" 
d="M655 31q0 -13 9 -22t22 -9h387q13 0 22 9t9 22v96q0 12 -9 21t-22 9h-107l6 6q14 14 33.5 32t42.5 42q26 28 39 57.5t13 62.5q0 69 -56 108t-150 39q-66 0 -129 -23q-17 -6 -31.5 -12t-25.5 -11l256 290q7 8 8 17t-2.5 16.5t-11.5 12.5t-18 5h-136q-5 0 -13 -3.5
t-11 -6.5l-658 -750q-14 -16 -6 -33.5t30 -17.5h136q5 0 13 3.5t11 6.5l366 417v-108q0 -11 6 -19t14.5 -11t18 -0.5t16.5 11.5q14 17 54 40t76 23q20 0 31 -7t11 -20t-14.5 -29t-31.5 -30h1l-188 -155q-4 -3 -7.5 -11t-3.5 -12v-56zM293 293q13 0 22 9t9 22v434q0 13 -9 22
t-22 9h-113q-17 -16 -31 -25.5t-25 -14.5l2 1q-14 -5 -33.5 -10.5t-44.5 -9.5q-11 -2 -18.5 -10.5t-7.5 -19.5v-94q0 -17 12 -25.5t28 -4.5q19 5 36.5 10.5t34.5 12.5v-275q0 -13 9.5 -22t21.5 -9h129z" />
    <glyph glyph-name="summation" unicode="&#xe006;" horiz-adv-x="1135" 
d="M142 39q-14 -16 -6 -33.5t30 -17.5h136q5 0 13 3.5t11 6.5l658 750q14 16 6 33.5t-30 17.5h-136q-5 0 -13 -3.5t-11 -6.5zM887 496q-5 0 -13 -3.5t-11 -7.5l-239 -267v-115q0 -13 9 -22t22 -9h197v-41q0 -13 9 -22t22 -9h130q13 0 22 9t9 22v41l38 1q13 0 22 9t9 22v89
q0 13 -9 22t-22 9h-38v241q0 13 -9 22t-22 9h-126zM788 224l64 71v-71h-64zM293 293q13 0 22 9t9 22v434q0 13 -9 22t-22 9h-113q-17 -16 -31 -25.5t-25 -14.5l2 1q-31 -11 -78 -20q-11 -2 -18.5 -10.5t-7.5 -19.5v-94q0 -17 12 -25.5t28 -4.5q19 5 36.5 10.5t34.5 12.5
v-275q0 -13 9.5 -22t22.5 -9h128z" />
    <glyph glyph-name="product" unicode="&#xe007;" horiz-adv-x="1172" 
d="M197 39q-7 -8 -8 -17t2.5 -16.5t11 -12.5t18.5 -5h137q5 0 13 3.5t11 6.5l659 750q13 16 5 33.5t-30 17.5h-137q-4 0 -12 -3.5t-11 -6.5zM45 668q0 -13 9.5 -22t22.5 -9h121l-32 -29q-3 -2 -6.5 -9.5t-3.5 -12.5v-67q0 -13 8.5 -22t22.5 -9q35 -1 57.5 -3.5t31.5 -9.5
q11 -6 11 -16q0 -8 -10 -12t-27 -4q-25 0 -46 4t-41 12h2q-23 10 -36 16t-21 10q-13 7 -25.5 3t-18.5 -16l-41 -85q-4 -9 -1 -20t11 -17q13 -13 79 -39q62 -25 139 -25q112 0 170 41t58 127q0 54 -30.5 90t-88.5 52l78 66q3 3 7 11t4 12v73q0 13 -10 22t-23 9h-340
q-13 0 -22 -9t-9 -22v-90zM922 496q-5 0 -13 -3.5t-12 -7.5l-240 -267v-115q0 -13 10 -22t23 -9h197v-41q0 -13 9 -22t22 -9h130q13 0 22.5 9t9.5 22v41l37 1q12 0 22 9t10 22v89q0 13 -10 22t-23 9h-37v241q0 13 -9.5 22t-22.5 9h-125zM822 224l65 71v-71h-65z" />
    <glyph glyph-name="pi" unicode="&#xe008;" horiz-adv-x="565" 
d="M293 164q0 -86 33 -131.5t81 -45.5q27 0 51 12t42 34.5t29 55t13 73.5q1 13 -8 21.5t-21 8.5h-20q-12 0 -20.5 -8.5t-8.5 -20.5q0 -17 -7 -27t-16 -10q-10 0 -19.5 11.5t-9.5 38.5q0 17 1 41t2 56q2 23 2.5 43.5t1.5 38.5h86q12 0 21 8.5t9 20.5v76q0 12 -9 20.5t-21 8.5
h-330q-64 0 -103 -51q-15 -21 -26.5 -46t-21.5 -55q-5 -15 3 -26.5t24 -11.5h15q6 0 14.5 5t11.5 10q14 23 26 32t25 9h8l-21 -170q-2 -14 -11.5 -28.5t-24.5 -30.5q-12 -13 -21 -29t-9 -37q0 -30 22.5 -53t54.5 -23q19 0 33.5 7.5t25 20t17.5 28.5t11 33l37 282h42
q-4 -32 -6.5 -58.5t-4 -49.5t-2.5 -43t-1 -40z" />
    <glyph glyph-name="integral" unicode="&#xe009;" horiz-adv-x="333" 
d="M230 406q0 135 -9 249q-3 41 -4.5 71t-3.5 50q10 -9 29 -9q16 0 29 6.5t22 17t13.5 23.5t4.5 25q0 21 -7.5 36.5t-19 26t-26 15.5t-28.5 5q-80 0 -98 -129q-8 -52 -11 -128.5t-3 -179.5q0 -119 0.5 -193.5t1.5 -103.5q3 -59 3 -87v-38q0 -14 1 -22q-16 19 -40 19
q-11 0 -22 -6t-20 -15.5t-14.5 -22.5t-5.5 -28q0 -20 7.5 -36t18.5 -27.5t24 -18t25 -6.5q85 0 111 138q11 59 16.5 151t5.5 217z" />
    <glyph glyph-name="Omega" unicode="&#xe00a;" horiz-adv-x="746" 
d="M337 172q0 8 -7 16t-15 10q-45 13 -76 61t-31 138q0 101 45 151.5t120 50.5q77 0 121.5 -51.5t44.5 -150.5q0 -93 -34 -140q-35 -48 -75 -60q-7 -2 -13.5 -9.5t-7.5 -15.5l-15 -139q-2 -14 7 -23.5t23 -9.5h270q12 0 21 9t9 21v148q0 12 -9 21t-21 9h-14q-10 0 -18.5 -7
t-10.5 -16q-5 -19 -10 -26t-21 -7h-49q23 14 41.5 31t35.5 40q58 79 58 171q0 138 -103 218q-48 38 -106 57t-124 19q-133 0 -231 -77q-102 -80 -102 -217q0 -82 36 -143.5t99 -98.5h-49q-15 0 -20.5 6.5t-10.5 26.5q-2 9 -10.5 16t-18.5 7h-14q-12 0 -21 -9t-9 -21v-148
q0 -12 9 -21t21 -9h270q14 0 23 9.5t7 23.5z" />
    <glyph glyph-name="radical" unicode="&#xe00b;" horiz-adv-x="551" 
d="M40 408q6 -11 17 -16t22 1l59 30l201 -440q5 -11 13.5 -15t17.5 -2.5t16 8t9 18.5l133 887q2 13 -5.5 23.5t-19.5 12.5l-31 4q-12 2 -21.5 -5.5t-11.5 -20.5l-99 -649l-132 288q-5 11 -17 15.5t-23 -0.5l-129 -67q-11 -6 -15 -18t1 -23z" />
    <glyph glyph-name="approxequal" unicode="&#xe00c;" horiz-adv-x="546" 
d="M455 272q-11 17 -27.5 15.5t-24.5 -18.5q-6 -15 -15 -23t-18 -8q-6 0 -27 5.5t-56 16.5q-75 24 -111 24q-12 0 -23.5 -1.5t-22.5 -3.5q8 3 11 11q11 20 18 28.5t15 8.5q17 0 88 -23q41 -14 69 -19.5t43 -5.5q20 0 41.5 5.5t41 16t36 26t28.5 36.5q2 5 2 14q0 10 -4 15
l-65 107q-10 17 -26.5 16t-24.5 -18q-6 -15 -15 -23t-18 -8q-6 0 -27 5.5t-56 16.5q-75 24 -111 24q-43 0 -79.5 -18.5t-69.5 -62.5q-5 -6 -5.5 -16t4.5 -16l64 -111q4 -8 10.5 -11.5t13.5 -4.5q-46 -16 -87 -69q-5 -6 -5.5 -15.5t4.5 -16.5l64 -111q9 -16 25.5 -15.5
t25.5 17.5q11 20 18 28.5t15 8.5q16 0 88 -23q40 -13 68.5 -19t43.5 -6q20 0 41.5 5.5t41 16t36 26.5t28.5 36q2 5 2 14q0 10 -4 15z" />
    <glyph glyph-name="Delta" unicode="&#xe00d;" horiz-adv-x="701" 
d="M236 0q11 0 18.5 9.5t7.5 20.5v724q0 11 -7.5 20.5t-18.5 9.5h-186q-12 0 -19 -9.5t-7 -20.5v-724q0 -11 7 -20.5t19 -9.5h186zM512 373l158 196q7 10 7 20q0 12 -8.5 20t-19.5 8h-170q-5 0 -12 -3.5t-10 -7.5l-167 -215q-6 -8 -6 -18q0 -12 6 -19l167 -215
q2 -3 9.5 -6.5t12.5 -3.5h170q11 0 19.5 8t8.5 19q0 7 -10.5 23.5t-27 38t-36 45.5t-38 46t-33 39t-20.5 25z" />
    <glyph glyph-name="nonbreakingspace" unicode="&#xe00e;" horiz-adv-x="842" 
 />
    <glyph glyph-name="lozenge" unicode="&#xe00f;" horiz-adv-x="491" 
d="M273 0q7 0 14 5t11 12l169 346q3 5 3 13q0 9 -5 14l-169 338q-3 7 -10.5 12t-14.5 5h-52q-7 0 -14.5 -5t-11.5 -12l-169 -338q-2 -5 -1 -13.5t3 -13.5l169 -346q3 -7 11 -12t15 -5h52zM133 377l114 223l110 -223l-112 -231z" />
    <glyph glyph-name="apple" unicode="&#xe010;" horiz-adv-x="556" 
d="M534 630v128q0 10 -9 17t-21 7h-158q-12 0 -20.5 -7t-8.5 -17v-128q0 -10 9.5 -17t20.5 -7h158q12 0 20.5 7t8.5 17zM460 701q0 -8 -9 -8h-53q-9 0 -9 8v42q0 8 9 8h53q9 0 9 -8v-42zM423 714q0 -11 11 -11t11 11t-11 11t-11 -11zM241 630v128q0 10 -8.5 17t-20.5 7h-157
q-12 0 -20.5 -7t-8.5 -17v-128q0 -10 9 -17t21 -7h157q12 0 20.5 7t8.5 17h-1zM170 701q0 -8 -9 -8h-53q-9 0 -9 8v42q0 8 9 8h53q9 0 9 -8v-42zM133 717q0 -11 11 -11t11 11t-11 11t-11 -11zM492 32l-117 113l61 61q4 4 3.5 8.5t-3.5 7.5t-7.5 3.5t-8.5 -3.5l-61 -61v383
q0 13 -7 21.5t-17 8.5h-141q-11 0 -18 -8.5t-7 -21.5v-335q-4 0 -8 -3l-59 -57l-50 51q-4 2 -5 3v26q0 11 -11 11t-11 -11l-3 -206q0 -11 11 -11t11 11l2 151l43 -43q2 -8 10 -10q7 -7 13.5 -1.5t4.5 13.5l53 50v-153q0 -13 7 -21.5t18 -8.5h141q10 0 17 8.5t7 21.5v99
l116 -113q4 -4 8.5 -3.5t7.5 3.5t3.5 7.5t-3.5 8.5z" />
    </font>
</defs>
</svg>
