<?xml version="1.0" standalone="no"?>
<!DOCTYPE svg PUBLIC "-//W3C//DTD SVG 1.1//EN" "http://www.w3.org/Graphics/SVG/1.1/DTD/svg11.dtd" >
<svg xmlns="http://www.w3.org/2000/svg" xmlns:xlink="http://www.w3.org/1999/xlink" version="1.1">
<metadata>
Created by FontForge 20161116 at Fri Jan  1 01:00:00 1904
 By Jimmy Wärting
Copyright (c) 1992 Corel Corporation. All Rights Reserved.
</metadata>
<defs>
<font id="CancunPlain" horiz-adv-x="2953" >
  <font-face 
    font-family="Cancun"
    font-weight="400"
    font-stretch="normal"
    units-per-em="4096"
    panose-1="3 2 9 2 4 3 2 2 2 1"
    ascent="3276"
    descent="-820"
    x-height="2937"
    cap-height="3265"
    bbox="-352 -1081 4727 4616"
    underline-thickness="50"
    underline-position="-125"
    unicode-range="U+0020-2122"
  />
<missing-glyph horiz-adv-x="3072" 
d="M512 0v2560h2048v-2560h-2048zM2494 66v2428h-1916v-2428h1916z" />
    <glyph glyph-name=".notdef" horiz-adv-x="3072" 
d="M512 0v2560h2048v-2560h-2048zM2494 66v2428h-1916v-2428h1916z" />
    <glyph glyph-name=".null" horiz-adv-x="0" 
 />
    <glyph glyph-name="nonmarkingreturn" horiz-adv-x="0" 
 />
    <glyph glyph-name="brokenbar" unicode="&#xa6;" horiz-adv-x="446" 
d="M430 1368h-229v1888h229v-1888zM201 1024h229v-1888h-229v1888z" />
    <glyph glyph-name="Yacute" unicode="&#xdd;" horiz-adv-x="2646" 
d="M111 2970q363 58 712 245q117 -299 238 -562t258 -503q57 78 131 240.5t153.5 360t125.5 313.5q231 0 404 36t394 115q-74 -215 -171.5 -425.5t-249.5 -508t-265.5 -529t-218.5 -486.5q-34 -511 -111 -865q-685 -314 -917 -409q14 63 86.5 311t81.5 410q11 227 61 757
q-99 188 -192.5 365t-195 383.5t-177.5 380t-147 371.5zM1319 3232q-208 230 -389 385q144 108 304 231t358.5 279t279.5 219q200 -290 344 -402q-471 -308 -897 -712z" />
    <glyph glyph-name="yacute" unicode="&#xfd;" horiz-adv-x="2646" 
d="M111 2970q363 58 712 245q117 -299 238 -562t258 -503q57 78 131 240.5t153.5 360t125.5 313.5q231 0 404 36t394 115q-74 -215 -171.5 -425.5t-249.5 -508t-265.5 -529t-218.5 -486.5q-34 -511 -111 -865q-685 -314 -917 -409q14 63 86.5 311t81.5 410q11 227 61 757
q-99 188 -192.5 365t-195 383.5t-177.5 380t-147 371.5zM1319 3232q-208 230 -389 385q144 108 304 231t358.5 279t279.5 219q200 -290 344 -402q-471 -308 -897 -712z" />
    <glyph glyph-name="space" unicode=" " horiz-adv-x="1319" 
 />
    <glyph glyph-name="exclam" unicode="!" horiz-adv-x="1696" 
d="M1335 2384q-17 -143 -48 -319t-55.5 -312t-45.5 -276.5t-35 -292.5q-464 -60 -758 -144q12 233 36.5 508.5t50.5 562.5t41.5 534t15.5 484q41 0 61 -8q66 5 148.5 16.5t125.5 16.5l623 160q-87 -332 -160 -930zM655 938q211 0 334 -131.5t129 -343.5q0 -135 -63.5 -240.5
t-170 -164t-229.5 -58.5q-196 0 -329 127t-133 336q0 221 123 345t339 130z" />
    <glyph glyph-name="quotedbl" unicode="&#x22;" horiz-adv-x="1921" 
d="M864 2544q0 -402 25 -840q-141 33 -266 33q-203 0 -422 -49q7 201 14 396.5t13.5 361.5t14 360.5t15.5 458.5q180 -50 320 -50q53 0 77 -8q113 10 242 33q-33 -483 -33 -696zM1696 2519l24 -807q-129 33 -266 33q-212 0 -414 -49q5 128 12.5 360t15.5 461t13 360.5
t17 395.5q163 -49 311 -49q53 0 78 -9q120 12 250 33q-27 -279 -41 -729z" />
    <glyph glyph-name="numbersign" unicode="#" horiz-adv-x="3166" 
d="M1176 -16q-342 -54 -623 -209q108 557 168 1081h-512q86 237 86 438v99q58 0 178 4t174 4h135q59 314 82 545q-124 0 -332.5 -12.5t-314.5 -12.5q86 260 86 487q55 0 149.5 4.5t161.5 4.5h58h65h103q32 8 82 8q14 69 23 188t22 197q32 219 41 336q336 0 585 188
q-68 -396 -106 -868h401q11 315 86 688q263 67 570 229q-93 -511 -136 -950h226h344q-107 -231 -107 -512q-159 -8 -487 -8q-6 -58 -20.5 -174.5t-23.5 -200t-13 -162.5q163 6 296.5 11.5t354.5 13.5q-107 -231 -107 -496q-143 -16 -438 -16q-123 0 -176 -8
q-66 -456 -66 -873q-135 -6 -294.5 -50.5t-286.5 -109.5q117 761 143 1033q-176 -9 -496 -9q-62 -440 -81 -888zM1409 1946q-18 -204 -66 -562h426q59 435 70 570q-98 0 -231 -4t-199 -4z" />
    <glyph glyph-name="dollar" unicode="$" horiz-adv-x="2290" 
d="M2097 2167q-243 121 -495 131q-109 0 -167 -44.5t-92 -139.5q10 -101 185 -193q186 -109 285 -181.5t167 -186.5t68 -279q-6 -235 -153.5 -400t-415.5 -296q-37 -309 -37 -652q-107 0 -324 17q-270 -17 -430 -17q57 171 57 353q-216 0 -483 -78q59 280 74 815
q220 9 339.5 22.5t236 72.5t120.5 183q0 66 -52.5 108.5t-213.5 114.5t-221 101q-328 138 -328 414q4 174 99.5 315t230.5 245t334 230q16 230 16 352v140q146 0 320 -17q83 3 189 14t216 11q-10 -39 -29 -242q9 -41 9 -102h127q161 0 278 -41q0 -296 90 -770z" />
    <glyph glyph-name="percent" unicode="%" horiz-adv-x="4919" 
d="M2335 2449q-3 -158 -74.5 -312.5t-207 -282t-337 -205t-450.5 -80.5q-268 0 -507.5 84.5t-391 257.5t-158.5 424q0 270 144 468t395.5 301t562.5 103q258 0 491.5 -77.5t383 -248.5t149.5 -432zM991 2376q8 -164 82 -309.5t221 -145.5q144 5 217.5 140.5t73.5 314.5
q0 187 -77.5 333t-225.5 146q-150 -5 -220.5 -157.5t-70.5 -321.5zM4727 999q0 -260 -148 -459t-390.5 -306t-510.5 -107q-256 0 -494.5 83t-390 256.5t-151.5 430.5q10 255 154.5 454t394.5 308.5t561 109.5q246 0 467.5 -88t362.5 -263t145 -419zM3703 1401
q-144 -6 -219.5 -147t-75.5 -324q0 -235 80 -355.5t198 -128.5q155 0 235.5 151t80.5 341q0 177 -79 320t-220 143zM2695 1544q-78 -120 -235.5 -396t-321.5 -582t-233 -455q-100 16 -193 16q-181 0 -385.5 -40t-359.5 -103q159 256 312.5 467.5t360 477.5t321 418
t247.5 357q124 194 224.5 367.5t187 336t187.5 352t208 378.5q244 0 393.5 17t330.5 59t230 51q-132 -175 -276 -358.5t-338 -434.5t-362.5 -486t-297.5 -442z" />
    <glyph glyph-name="ampersand" unicode="&#x26;" horiz-adv-x="3711" 
d="M2585 -66l-209 218q-277 -82 -429.5 -117t-328.5 -35q-322 0 -644 80t-547.5 277.5t-225.5 523.5q4 190 96.5 338t230 257t344.5 236q-121 141 -179.5 233t-86.5 201.5t-28 278.5q4 264 171 456t440 292t580 100q418 -13 680.5 -181.5t262.5 -490.5q-16 -286 -268 -518.5
t-605 -386.5q212 -309 528 -537q16 82 26.5 158t14.5 139.5t5.5 135t3.5 120.5h209q123 0 270 -8t242 -8q80 0 278 33v-218q0 -143 -16 -479q-60 0 -171 8.5t-182 8.5q-29 -153 -54 -225.5t-97 -209.5q275 -303 639 -581q-521 0 -950 -99zM1442 2114q364 251 364 557
q0 192 -135 192q-92 0 -168 -65.5t-118 -169t-42 -211.5q0 -167 99 -303zM1249 545q136 -155 353 -168q208 12 360 176q-68 73 -160 157t-183 168.5t-167.5 170t-148.5 192.5q-73 -50 -126 -160.5t-59 -232.5q14 -192 131 -303z" />
    <glyph glyph-name="quotesingle" unicode="'" horiz-adv-x="1655" 
d="M770 3240q236 -97 709 -193q-463 -1100 -607 -1470q-254 155 -655 246q104 189 209 436.5t191.5 496.5t152.5 484z" />
    <glyph glyph-name="parenleft" unicode="(" horiz-adv-x="1966" 
d="M1769 2945q-130 -191 -246.5 -363t-210 -344t-156.5 -364t-83 -412q-4 -37 -4 -119q0 -178 46 -407t124.5 -474t169.5 -470q-193 -8 -528 -94q-291 336 -485.5 778.5t-194.5 810.5q17 555 348 1005.5t885 780.5q114 -191 335 -328z" />
    <glyph glyph-name="parenright" unicode=")" horiz-adv-x="2167" 
d="M528 3080l529 234q30 -39 268 -334.5t361.5 -484t204 -411.5t83.5 -474q0 -271 -87 -506t-233 -432t-301 -351t-448 -423h-123q-247 0 -573 94q305 308 507 614t295 565t99 467q0 97 -35.5 260.5t-105.5 359t-183.5 412.5t-257.5 410z" />
    <glyph glyph-name="asterisk" unicode="*" horiz-adv-x="3023" 
d="M1929 2105q256 92 441.5 187.5t431.5 251.5q-52 -346 -66 -824q17 -287 17 -401q-101 35 -258.5 94t-267 97t-245.5 75q82 -408 267 -672q-154 -18 -327 -44t-364.5 -58t-349.5 -57q114 348 155.5 483t78.5 307q-363 -240 -705 -622q-55 221 -119 377t-125 259t-223 355
q54 0 154 -4t154 -4q416 16 630 32q-448 253 -1015 414q505 288 933 619q107 -315 291 -603q62 288 62 586q0 69 -4.5 159t-4.5 136q314 -118 514 -171t490 -71q-374 -471 -545 -901z" />
    <glyph glyph-name="plus" unicode="+" horiz-adv-x="2703" 
d="M1225 1319v1024h270v-1032h1024v-287h-1032v-1024h-262v1024h-1024v295h1024z" />
    <glyph glyph-name="comma" unicode="," horiz-adv-x="1528" 
d="M881 -193q-185 39 -672 185q81 164 155 328t157.5 360.5t158.5 376.5q285 -135 672 -201q-156 -254 -262 -493t-209 -556z" />
    <glyph glyph-name="hyphen" unicode="-" horiz-adv-x="1929" 
d="M336 1167v74q0 97 -15.5 165t-53.5 173t-58 182q175 -38 342.5 -51.5t430.5 -20t345 -10.5q74 9 201 9q61 -324 209 -648q-241 26 -1401 127z" />
    <glyph glyph-name="period" unicode="." horiz-adv-x="1352" 
d="M688 938q144 0 251 -64.5t163.5 -174.5t56.5 -244q0 -130 -57 -237t-164 -170.5t-250 -63.5t-250 63.5t-164 170.5t-57 237q0 134 56.5 244t163.5 174.5t251 64.5z" />
    <glyph glyph-name="slash" unicode="/" horiz-adv-x="3432" 
d="M2265 3158q111 0 160 -4q101 5 327 53.5t353 48.5h127q-309 -341 -602.5 -722t-547 -768.5t-485 -799.5t-446.5 -855q-120 41 -193 41q-271 0 -757 -168q140 219 292 432t384 519t371.5 493.5t279.5 394.5q109 163 202.5 318.5t165.5 290t183.5 357t185.5 369.5z" />
    <glyph glyph-name="zero" unicode="0" horiz-adv-x="3457" 
d="M1806 2626q-338 0 -518.5 -305t-197.5 -752q0 -268 88.5 -472t233 -314.5t308.5 -118.5q232 0 395.5 138t244.5 365.5t81 487.5q0 217 -64 435t-206.5 369.5t-364.5 166.5zM1786 3158q299 -8 567 -103t471.5 -273t323 -443t125.5 -594q0 -321 -116.5 -620.5t-326 -532
t-492.5 -368t-601 -138.5q0 5 -3 6.5t-5 1.5q-302 3 -576 97t-488 280t-335 461t-121 629q13 338 133.5 628.5t332 509t496 339t615.5 120.5z" />
    <glyph glyph-name="one" unicode="1" horiz-adv-x="1454" 
d="M438 3031q166 0 302.5 21.5t260.5 66t256 113.5q-68 -511 -92.5 -707.5t-55 -511.5t-47.5 -613t-22 -646q17 -295 17 -475q-366 -85 -856 -254q79 723 138 1477t99 1529z" />
    <glyph glyph-name="two" unicode="2" horiz-adv-x="2654" 
d="M209 2142q70 486 110 836q252 126 417 173.5t431 47.5q264 -8 496 -118t372 -306.5t140 -447.5q-7 -291 -115 -550t-269 -506t-349 -534q168 0 283.5 28t369.5 99.5t383 85.5q-161 -242 -258.5 -431t-163.5 -417h-233q-141 0 -393 -8t-381 -8q-345 0 -807 49
q151 174 338.5 443t360 563.5t279.5 549t107 406.5q-6 170 -135 257t-328 87q-111 -3 -198 -26.5t-153 -59t-149.5 -98t-154.5 -115.5z" />
    <glyph glyph-name="three" unicode="3" horiz-adv-x="2486" 
d="M479 2425q28 71 62 188t63 231t60 236q523 54 622 58q277 0 505 -94.5t359 -268.5t131 -399q0 -258 -139.5 -446.5t-380.5 -282.5q137 -58 246.5 -126t204 -213t94.5 -366q-17 -257 -142 -456.5t-348.5 -309.5t-521.5 -110q-276 0 -577 87t-447 183q0 128 -28 340.5
t-33 273.5q16 82 16 115q27 -19 157.5 -116.5t207 -142.5t170.5 -78.5t231 -55.5q30 0 90 -17q156 7 234 96t78 216q0 166 -145 240.5t-359 74.5q-95 0 -209 -16q34 162 57.5 275.5t43.5 234.5t26 223q75 -38 217 -53q33 8 74 8q131 0 200.5 90t69.5 221q0 155 -116.5 233
t-284.5 78q-140 0 -278.5 -45t-209.5 -106z" />
    <glyph glyph-name="four" unicode="4" horiz-adv-x="3191" 
d="M2568 1511q211 55 438 66q-173 -647 -204 -778l-258 -37l-17 -475q-418 0 -839 -205q0 50 -17 180q46 285 66 475q-369 -8 -1123 -24q-135 8 -405 8q80 150 159 314.5t169.5 351.5t176.5 347t191 330q174 290 320.5 503t392.5 546q70 0 102 -8q154 14 254 41
q107 24 194 66.5t196 97t188 73.5q0 -100 -17 -278q0 -96 11 -378t16.5 -446.5t5.5 -408.5v-361zM1769 2593q-214 -265 -368 -524.5t-311 -606.5q454 0 679 -8q0 85 -16 283q4 109 16 298t17 332q0 86 -17 226z" />
    <glyph glyph-name="five" unicode="5" horiz-adv-x="2392" 
d="M1208 2417q-14 57 -57 57q-51 0 -80 -63.5t-39 -129.5q16 -64 41 -81q21 0 80 4t88 4q180 0 345 -41.5t302 -141t224 -275t96 -431.5q0 -336 -195 -626.5t-526 -465t-713 -178.5q-4 8 -20 8q-339 15 -553 86q48 116 92 309.5t51 309.5q227 -41 426 -41q253 6 409 114
t156 300q0 220 -161 327t-392 107q-46 0 -100 -7t-133.5 -21.5t-130.5 -20.5q75 421 125.5 820t70.5 789q257 0 574.5 29.5t601 76t434.5 95.5q-186 -658 -250 -864q-168 -13 -422.5 -28t-343.5 -21z" />
    <glyph glyph-name="six" unicode="6" horiz-adv-x="2777" 
d="M1376 2134q188 90 361 90q174 0 328.5 -75t269.5 -205.5t178 -293t63 -339.5q-6 -262 -111 -496t-283.5 -407t-411.5 -270t-484 -97q-285 5 -534.5 157t-400 413t-150.5 573q16 317 127 599t279 527.5t369.5 481t432.5 505.5q54 -4 157 -8t154 -8q51 3 181.5 11t212.5 13
q-490 -560 -738 -1171zM1511 1806q-127 0 -225.5 -92t-156.5 -223t-72 -250q0 -90 -8 -143q6 -214 83.5 -337.5t219.5 -129.5q126 0 221.5 97t147.5 252t57 314q0 467 -267 512z" />
    <glyph glyph-name="seven" unicode="7" horiz-adv-x="2671" 
d="M201 2281q140 441 385 943q64 -6 141.5 -9.5t120.5 -7.5q204 9 439 19.5t425 16t361 5.5h421q-728 -1601 -1261 -3162q-412 -8 -688 -61q83 179 121 263.5t160 355.5t187.5 417t84.5 188q63 144 137 334.5t149.5 389.5t135.5 333q-287 45 -615 45q-374 0 -704 -70z" />
    <glyph glyph-name="eight" unicode="8" horiz-adv-x="2822" 
d="M782 1745q-172 129 -254 267.5t-82 346.5q4 270 147 461.5t374 286.5t503 100q262 0 498.5 -77.5t385.5 -243.5t149 -412q0 -477 -414 -696q251 -156 389.5 -333t138.5 -421q0 -270 -175 -494.5t-457.5 -352.5t-583.5 -128q-296 0 -569.5 94.5t-446 286.5t-176.5 467
q0 280 157.5 500.5t415.5 347.5zM1520 2847q-136 0 -224 -136.5t-88 -310.5q0 -209 62.5 -338t183.5 -141q105 0 172 74t97 185.5t30 227.5q0 409 -233 439zM1417 1495q-106 0 -180.5 -94.5t-112 -223t-43.5 -235.5q6 -2 7.5 -6t1.5 -6q12 -246 103 -383t232 -137
q169 5 252.5 173t83.5 384q0 205 -89 363.5t-255 164.5z" />
    <glyph glyph-name="nine" unicode="9" horiz-adv-x="2879" 
d="M1520 -41l-422 234q135 183 202 285.5t129 249.5t99 345q-140 -58 -369 -74q-255 5 -476 139.5t-351.5 370.5t-130.5 531q6 238 122 450t311 372.5t435 248.5t483 88q313 -8 573 -149t411 -406.5t151 -628.5q-7 -300 -162 -679.5t-420.5 -745t-584.5 -631.5zM1040 2134
q0 -230 50.5 -384t220.5 -206q35 -9 200 -33q66 9 160 9q3 14 42 187.5t56 284.5t17 224q-7 227 -89.5 377.5t-254.5 167.5q-138 0 -229 -98.5t-132 -243t-41 -285.5z" />
    <glyph glyph-name="colon" unicode=":" horiz-adv-x="1376" 
d="M680 2142q217 -6 348 -139.5t131 -331.5q0 -133 -57.5 -242t-167 -173t-254.5 -64q-221 6 -350 141t-129 338q0 128 60.5 236.5t169.5 171.5t249 63zM713 930q222 -6 342.5 -143.5t120.5 -331.5q-7 -194 -128 -332.5t-335 -138.5q-221 6 -350.5 137.5t-129.5 333.5
q0 130 55.5 238.5t165.5 172.5t259 64z" />
    <glyph glyph-name="semicolon" unicode=";" horiz-adv-x="1696" 
d="M1032 2175q213 -6 346 -140t133 -331q0 -133 -57.5 -242t-167 -173t-254.5 -64q-221 6 -350 141t-129 338q0 128 60.5 236.5t169.5 171.5t249 63zM815 -209q-101 24 -614 193q300 739 405 1056q364 -164 643 -192q-102 -213 -174 -373.5t-138 -330.5t-122 -353z" />
    <glyph glyph-name="less" unicode="&#x3c;" horiz-adv-x="1872" 
d="M1630 2097q-369 -403 -799 -594q571 -398 832 -631q-82 -247 -94 -520q8 -49 8 -143q-201 222 -429.5 445.5t-464.5 423.5t-499 392q256 161 481 347t427.5 401.5t394.5 468.5q0 -165 33.5 -296t109.5 -294z" />
    <glyph glyph-name="equal" unicode="=" horiz-adv-x="2056" 
d="M311 1905q0 127 -8 200q-13 100 -44.5 143.5t-57.5 127.5q24 0 144.5 -30.5t268.5 -35.5q151 0 515.5 -14.5t500.5 -14.5q11 -55 44.5 -117.5t37.5 -74.5q11 -26 50.5 -135.5t68.5 -175.5q-66 5 -391.5 33t-515.5 44t-613 50zM377 1208q0 66 -8 95q0 66 -15 118.5
t-46 126.5t-46 123q56 -6 164.5 -31t237.5 -30q164 0 468 -18.5t445 -22.5q45 8 119 8q42 -184 168 -471q-430 44 -1487 102z" />
    <glyph glyph-name="greater" unicode="&#x3e;" horiz-adv-x="1864" 
d="M410 2703q197 -280 408.5 -499t418 -383t467.5 -342q-221 -154 -470.5 -365t-488 -443t-434.5 -454v102q0 318 -86 562q283 248 832 630q-226 104 -424 253t-375 341q127 272 152 598z" />
    <glyph glyph-name="question" unicode="?" horiz-adv-x="2159" 
d="M209 1962q0 107 15.5 247t30.5 280t15 247q269 109 461.5 156t485.5 53q201 0 371 -75.5t275 -236.5t111 -401q0 -208 -124.5 -425.5t-282.5 -370t-224 -154.5l-8 -233h-807q2 19 8.5 93t16.5 124q10 43 58 98.5t101.5 103t94.5 84.5q36 39 106.5 115t109.5 127t69.5 115
t42.5 139q0 98 -58.5 157.5t-163.5 59.5q-40 0 -106 -16q-135 -41 -323 -134t-275 -153zM975 922q217 0 343 -129t132 -330q0 -195 -130 -337t-345 -142q-142 0 -247 63t-160.5 171.5t-55.5 236.5q0 204 126 335.5t337 131.5z" />
    <glyph glyph-name="at" unicode="@" horiz-adv-x="3600" 
d="M2089 2327q-94 57 -201 57q-185 0 -351 -184.5t-251 -376.5q-125 -277 -135 -496q6 -184 105 -299.5t280 -146.5q178 5 326.5 179t251.5 419q135 352 135 512q0 231 -160 336zM2433 2343l53 201h324l-504 -1471q-4 -16 -11 -42t-14 -56q9 -8 9 -33q11 -96 118 -111
q117 8 265 112.5t223 240.5q233 435 233 762q0 240 -103.5 448.5t-280.5 363.5t-403.5 244t-461.5 95q-297 0 -556.5 -117t-452 -325.5t-299 -478.5t-109.5 -566q5 0 6.5 -3t1.5 -5q3 -284 108.5 -548t294 -467.5t440 -319t533.5 -115.5q770 0 1192 610h283
q-492 -844 -1475 -844q-453 4 -833 238.5t-600.5 627.5t-220.5 846q0 339 126.5 647.5t355.5 546t537.5 372t659.5 134.5q296 -9 574.5 -116.5t495 -296.5t341.5 -447.5t125 -564.5q0 -212 -66.5 -401.5t-187.5 -413.5q-66 -124 -194 -242.5t-286 -196.5t-307 -82
q-282 27 -393 254q-213 -213 -512 -225q-146 12 -295 74q-330 137 -344 602q12 325 152 639q132 296 398.5 512.5t539.5 216.5q152 0 291 -83.5t229 -215.5z" />
    <glyph glyph-name="A" unicode="A" 
d="M664 -16q-83 102 -238.5 179.5t-323.5 98.5q118 209 242 475l-176 496l336 -74q125 263 229 501.5t195 468t183 484t175 516.5q113 15 243.5 31.5t225 35t207.5 52.5q58 -289 137.5 -559t169 -527t164.5 -474q73 -216 129 -401.5t106.5 -366.5t100 -355.5t102.5 -347.5
q-532 -100 -790 -242q-64 361 -127 529q-441 41 -729 41h-250q-67 -112 -115 -192t-95 -165t-101 -204zM1528 2007q-229 -535 -336 -897q40 -1 256 -10.5t338 -9.5q-31 117 -123.5 428.5t-134.5 488.5z" />
    <glyph glyph-name="B" unicode="B" horiz-adv-x="3158" 
d="M209 2224q181 385 287 721q77 29 240.5 90.5t324 108.5t329.5 75.5t347 28.5q264 0 539 -104.5t455.5 -277.5t180.5 -363q-18 -215 -153.5 -366t-358.5 -224q258 -66 406.5 -267.5t154.5 -461.5q0 -342 -218 -616t-556 -425t-676 -151q-591 0 -942 176q23 313 44 699
t35 760.5t24 789.5q-311 -119 -463 -193zM1384 578q422 19 606.5 151t184.5 279q0 180 -214.5 275.5t-506.5 125.5q46 61 92 139t99.5 178.5t83.5 153.5q169 0 291 137.5t122 288.5q0 108 -71 187t-178.5 120t-213.5 41q-87 0 -217 -28q-79 -1255 -86 -1745q8 -107 8 -303z
" />
    <glyph glyph-name="C" unicode="C" horiz-adv-x="2769" 
d="M1806 2425q-137 -13 -300.5 -119t-279.5 -300.5t-116 -453.5q5 -247 88 -442.5t264 -314.5t459 -123q112 0 211.5 9.5t158.5 21t134 31t151 40.5q-42 -126 -92 -345t-67 -343q-123 -47 -316.5 -67t-470.5 -27q-368 0 -696 196.5t-528.5 531t-212.5 722.5q0 442 213.5 820
t578.5 600t793 226h135q289 0 504 -57q0 -361 102 -799q-334 197 -631 197q-53 0 -82 -4z" />
    <glyph glyph-name="D" unicode="D" horiz-adv-x="3457" 
d="M745 2384l-593 -111q386 331 630 623q245 43 418.5 64t478.5 26q343 0 626 -61t505 -207t351.5 -401t135.5 -629q0 -480 -255.5 -868.5t-693 -608t-955.5 -219.5q-282 0 -521.5 20t-461.5 70q146 221 219 530t94.5 646.5t21.5 764.5v361zM1487 578q288 0 492.5 114.5
t315 337t122.5 531.5q0 244 -92.5 437t-271.5 301.5t-423 108.5h-37z" />
    <glyph glyph-name="E" unicode="E" horiz-adv-x="2818" 
d="M586 2474l-410 -57q124 182 393 528q325 70 566 70q103 0 244 -13.5t206 -15.5q119 0 176 -8q422 8 942 127q-321 -438 -430 -672q-319 -40 -528 -49q-162 13 -344 24l-74 -593q585 60 705 81q-70 -150 -122 -261.5t-94.5 -210.5t-86.5 -216l-435 -8q0 -311 -37 -430
q9 -41 9 -106q110 8 278 8q87 0 222 -4t208 -4q114 0 293 20.5t293 20.5q-39 -72 -151.5 -197.5t-159.5 -196.5q-92 -131 -152 -278q-129 -4 -327.5 -22.5t-335.5 -18.5q-198 0 -403 15t-428.5 40t-418.5 47q86 220 312 594q0 86 -9 119q6 35 21 112.5t22 126.5t7 89
q0 21 -4.5 45.5t-4.5 36.5l-295 32q45 85 92 157t104.5 144.5t123.5 153.5q3 80 22 284.5t19 321.5q0 115 -8 164z" />
    <glyph glyph-name="F" unicode="F" horiz-adv-x="2662" 
d="M352 3015q511 54 930 159l12 -118q662 98 1172 98q-210 -458 -316 -746h-168q-91 0 -263 -14.5t-224 -17.5q-140 16 -238 16l-40 -594q543 14 1048 49q-131 -278 -143 -598q-125 -62 -713 -82q-185 17 -233 17l-144 -1016l-713 -193q0 14 -2 44t-2 47q0 167 46 580
t57 587l-217 184q59 78 165.5 189.5t145.5 154.5q-87 821 -160 1254z" />
    <glyph glyph-name="G" unicode="G" horiz-adv-x="3256" 
d="M1737 2494q-212 0 -365.5 -137t-230 -349.5t-76.5 -438.5q0 -233 64 -432.5t207 -334.5t368 -171q33 0 49 -8q27 4 73 12t70 12v361q-58 0 -158 -23t-136 -27q10 108 60 325t58 335q135 0 193 -8q169 4 313 24.5t223 20.5q117 0 321 -24.5t302 -28.5q-34 -106 -75 -307.5
t-52 -245.5l-176 -9q-14 -72 -29.5 -189t-26.5 -225.5t-26 -248.5q-250 -185 -550.5 -281t-526.5 -96q-421 4 -738 194.5t-487.5 520t-175.5 735.5q0 449 196 828t543 603.5t772 231.5q173 0 358.5 -42.5t334 -109.5t229.5 -139q0 -74 -16 -246q14 -295 45 -503
q-52 22 -241.5 143t-353 196t-339.5 82z" />
    <glyph glyph-name="H" unicode="H" horiz-adv-x="3174" 
d="M594 2871q109 9 337 48.5t316.5 52.5t206.5 18q-46 -254 -58 -513t-12 -654q336 16 512 16h218q0 212 2.5 345t12 290.5t30.5 347.5q185 20 200 25q119 33 335.5 119t303.5 106q-10 -338 -34 -744t-52 -673q-21 -197 -29 -357.5t-11 -369.5t-7 -369.5t-18 -349.5
q-186 -62 -815 -250q0 169 8 384.5t24.5 486t24.5 411.5l-737 8q0 -160 -8.5 -265.5t-33 -348t-28.5 -356.5q-281 -87 -872 -295q110 584 110 1241q-111 48 -319 86q50 94 87.5 144t128 165t120.5 166q41 381 57 1085z" />
    <glyph glyph-name="I" unicode="I" horiz-adv-x="1544" 
d="M471 3080q178 0 301 25.5t295.5 86.5t214.5 73q-41 -199 -66.5 -472t-37 -538t-11.5 -416v-1569q-385 -69 -856 -278q7 192 29 454.5t39 441t32 406t15 418.5v270q5 481 10 662.5t35 435.5z" />
    <glyph glyph-name="J" unicode="J" horiz-adv-x="1839" 
d="M745 2998q111 43 466 171.5t452 164.5q-57 -100 -76.5 -271.5t-24 -497.5t-15.5 -578.5t-52 -524.5q-57 -384 -177.5 -707t-333.5 -533.5t-521 -221.5q-38 0 -76 6t-77.5 17.5t-92.5 25.5l-24 598q157 9 242 58.5t129 140.5t83 260q32 116 42.5 364t24 782.5t31.5 745.5z
" />
    <glyph glyph-name="K" unicode="K" horiz-adv-x="3166" 
d="M455 3158q110 0 209 -12q127 4 202 15.5t215.5 37.5t200.5 33q-53 -311 -65 -705q16 -270 24 -397q393 516 799 860q199 -33 336 -45q8 1 148.5 22t227.5 30t168 9h152q-363 -359 -1151 -1167q103 -159 270 -415.5t322.5 -502t283.5 -463t250 -450.5q-107 17 -311.5 74.5
t-285 79t-193.5 31.5q-511 458 -1032 1093q-83 -311 -99 -774q9 -82 9 -233q-117 -45 -333.5 -95t-341 -87.5t-251.5 -112.5q74 325 106 585.5t52.5 661t25.5 473.5q3 49 24.5 380t29.5 504t8 365v205z" />
    <glyph glyph-name="L" unicode="L" horiz-adv-x="2593" 
d="M631 2945q121 27 334 52t344 48.5t260 75.5q-87 -337 -129 -610t-56 -606q-5 -133 -8.5 -392.5t-9 -430t-23.5 -386.5q686 0 1135 78q-208 -361 -278 -680q-165 -9 -533.5 -59.5t-556.5 -50.5q-153 0 -353 8t-319 8h-262q120 475 184 672l111 16q14 246 25.5 438
t18.5 356.5t13 405.5q5 104 21 329t37 420.5t45 307.5z" />
    <glyph glyph-name="M" unicode="M" horiz-adv-x="3834" 
d="M770 -8q-277 153 -577 201q44 202 101.5 484t103 485.5t106.5 430.5q53 208 146 491t165 503.5t123 435.5q236 0 549 123q110 -229 196.5 -453t154.5 -453t124 -479q343 618 598 1229q391 38 705 176q-6 -79 -9.5 -158t-7.5 -129q4 -172 23 -298.5t67.5 -382t77.5 -453.5
q34 -216 64 -406t49 -310.5t45.5 -287.5t66.5 -430q-450 -128 -770 -311q-79 405 -117 628.5t-64.5 498.5t-35.5 659q-68 -108 -205 -368t-237 -437t-251 -392.5t-343 -420.5q-45 302 -94 510t-132.5 509.5t-125.5 483.5q-33 -96 -108.5 -344t-125.5 -385
q-106 -315 -174 -546.5t-88 -403.5z" />
    <glyph glyph-name="N" unicode="N" horiz-adv-x="2769" 
d="M393 2568l-135 295q385 112 664 352q60 -108 268.5 -498t280 -524t191.5 -360.5t251 -472.5q0 69 4 197t4 188q0 278 -19.5 632.5t-21.5 452.5q8 74 8 217q408 83 697 209q-4 -141 -8.5 -384t-7 -453.5t-4 -384t-5.5 -449.5q-4 -260 -7 -440.5t-15.5 -369t-43.5 -390.5
q-210 -251 -548 -401q-42 77 -137 216.5t-246.5 368t-293 476t-286.5 557.5q-9 -109 -20.5 -398t-26 -478.5t-47.5 -365.5q-95 -51 -208 -100t-288 -115.5t-184 -70.5q70 446 70 1024q8 135 8 430q6 206 40.5 526.5t65.5 513.5z" />
    <glyph glyph-name="O" unicode="O" horiz-adv-x="3314" 
d="M1057 1561q0 -239 63 -466.5t200.5 -374.5t342.5 -151q9 6 16 7.5t9 1.5q243 4 371 181t167 413.5t39 498.5q0 434 -168 688q-116 160 -495 160h-177q-351 -327 -368 -958zM881 2736l-58 143q440 201 881 201q374 0 645.5 -119.5t442 -329t252.5 -480t85 -582.5
q0 -306 -110 -592.5t-311.5 -509.5t-469 -349t-567.5 -126q-351 3 -627.5 115.5t-462.5 311.5t-281.5 465.5t-98.5 569.5q0 331 159 693t521 589z" />
    <glyph glyph-name="P" unicode="P" horiz-adv-x="2970" 
d="M1208 270q-518 -220 -864 -336q63 301 100.5 620.5t58.5 648t38.5 775t19.5 500.5q-180 -102 -360 -197q18 85 61 330t74 395q746 250 1302 250q323 0 569.5 -99t392.5 -291.5t169 -457.5q4 -32 4 -98q0 -262 -123 -476.5t-334.5 -365t-470 -231t-526.5 -86.5
q-88 -477 -111 -881zM1286 1655q140 17 292 79t260 187t108 315q0 74 -9 115q-26 146 -136.5 245t-297.5 99q-52 0 -168 -16q0 -350 -49 -1024z" />
    <glyph glyph-name="Q" unicode="Q" horiz-adv-x="3449" 
d="M2642 -250q-78 102 -266 393q-178 -75 -331.5 -107t-373.5 -44q-406 0 -742 192.5t-530 520t-198 712.5q5 5 6.5 10t1.5 7q6 349 135.5 648.5t355.5 517.5t524 337t631 119q304 0 566.5 -118t451 -323t293 -472.5t107.5 -565.5q0 -216 -40.5 -394t-128.5 -335.5
t-233 -319.5l320 -401q-76 -49 -161 -108.5t-190.5 -133t-197.5 -135.5zM1982 598q-76 153 -167 250q294 115 585 295q33 221 33 393q0 253 -63.5 469.5t-214 352.5t-394.5 136q-228 0 -389 -142t-242 -369t-81 -472q0 -492 192 -725.5t471 -240.5q163 13 270 53z" />
    <glyph glyph-name="R" unicode="R" horiz-adv-x="3166" 
d="M8 2257q226 309 393 733q219 10 435 38.5t401.5 54.5t355.5 30q507 0 770 -222t291 -618q0 -327 -155.5 -546t-434.5 -318q117 -244 265.5 -507t309 -510t331.5 -486q-239 10 -487.5 46.5t-459.5 104.5q-114 196 -246 415.5t-264.5 439t-246.5 415.5q-112 -420 -123 -831
q8 -50 8 -144q-205 -173 -394.5 -261t-453.5 -99q124 407 162.5 657t38.5 617l-8 1101q-98 -4 -169 -20t-160.5 -44.5t-158.5 -45.5zM1233 1495q145 12 301 106.5t259 248.5t103 333q-6 201 -127.5 305.5t-298.5 104.5q-107 0 -213 -41q0 -705 -24 -1057z" />
    <glyph glyph-name="S" unicode="S" horiz-adv-x="2359" 
d="M1409 2466q-103 0 -169.5 -48.5t-88.5 -119.5q-8 -25 -8 -74q0 -125 101 -238t255.5 -217.5t261.5 -175.5q150 -106 224.5 -172.5t119.5 -160t54 -244.5q0 -313 -190 -541t-494 -349t-635 -134q-372 0 -647 151q40 287 40 807q23 -13 146.5 -116t243 -167.5t258.5 -68.5
q136 0 244 47.5t108 145.5q0 122 -68.5 189.5t-242.5 186.5q-23 16 -170.5 114.5t-220.5 170t-119.5 170.5t-59.5 242q-4 32 -4 94q0 304 157.5 556.5t420.5 397t561 144.5q351 0 672 -287q-8 -109 -25 -352q13 -229 25 -402q-112 100 -226.5 201.5t-244 173.5t-279.5 76z
" />
    <glyph glyph-name="T" unicode="T" horiz-adv-x="2744" 
d="M2400 2458l-606 -9q-20 -861 -176 -2154q-445 -148 -770 -303q41 316 62.5 627.5t30.5 623.5t9 662v512h-102q-254 0 -754 -66q18 54 74 218t89 267t62 203q440 135 799 135q152 0 415 -39.5t372 -46.5q117 4 217 18t302.5 50t246.5 43q-160 -278 -271 -741z" />
    <glyph glyph-name="U" unicode="U" horiz-adv-x="2888" 
d="M279 2847q222 32 847 192v-221q0 -243 -10 -464t-36 -680.5t-31 -657.5q5 -163 30 -251.5t89.5 -131.5t183.5 -47q528 0 528 1220q0 211 -28.5 593.5t-28.5 578.5q113 37 275.5 98.5t296.5 108t259 80.5q3 -110 18 -457.5t15 -558.5q0 -1195 -406 -1651
q-199 -226 -376 -356t-371.5 -187.5t-460.5 -62.5q-320 0 -503 126t-260.5 332.5t-92 397.5t-24.5 594q0 75 14.5 232t31.5 324.5t28.5 328t11.5 319.5v201z" />
    <glyph glyph-name="V" unicode="V" 
d="M111 2830q170 0 406.5 32.5t440.5 107.5q11 -184 45 -293.5t102.5 -245.5t102.5 -231q86 -231 129.5 -397.5t124.5 -520.5q56 183 131 409t157.5 456t151 406.5t171.5 424.5q226 47 774 196q-85 -155 -151.5 -339t-154.5 -467.5t-133 -414t-133.5 -360.5t-204.5 -504
t-229 -513.5t-211 -407.5q-87 -30 -197 -59.5t-240.5 -60t-234.5 -56.5q-84 322 -226 750.5t-249.5 751.5t-206 660.5t-165.5 675.5z" />
    <glyph glyph-name="W" unicode="W" horiz-adv-x="3785" 
d="M3686 3146q-61 -285 -132.5 -541.5t-141 -461t-167.5 -482t-173 -502.5q-60 -187 -141.5 -457.5t-108.5 -357.5q-207 -144 -463 -344q-55 204 -141 450.5t-172 492.5t-141 450q-125 -212 -199 -349t-137 -298t-90 -320q-376 -314 -504 -442q-82 235 -157.5 465.5
t-115 349.5t-104.5 299q-69 196 -127 398.5t-109 402t-118.5 462.5t-124.5 457q137 26 264.5 59.5t338.5 92.5t220 61q89 -582 434 -1577q174 327 312 643q-29 82 -82.5 250t-94 281t-94.5 235q430 61 791 152q60 -184 114 -395t103 -401t99 -348t118 -310q73 289 134.5 523
t118.5 442.5t128 459.5q338 58 663 160z" />
    <glyph glyph-name="X" unicode="X" horiz-adv-x="2761" 
d="M135 3031q74 0 107 -8q405 13 680 176q128 -241 253 -471t209 -393q336 423 504 786q74 0 103 -8q102 3 185.5 11.5t180 24t164.5 28.5t166 30q-144 -194 -284 -417.5t-326 -527.5t-324 -501q81 -128 156.5 -270t186.5 -360.5t192 -363.5t178 -288q-142 -83 -236 -145.5
t-187 -146.5t-188 -203q-59 139 -126.5 261t-158.5 268.5t-149 251t-102 218.5q-262 -384 -463 -799q-282 0 -745 -118q119 258 202 429t172 341t192 351t220 374q-185 300 -401 798q-47 110 -107 221t-135.5 240t-118.5 211z" />
    <glyph glyph-name="Y" unicode="Y" horiz-adv-x="2626" 
d="M111 2970q363 58 712 245q117 -299 238 -562t258 -503q57 78 131 240.5t153.5 360t125.5 313.5q231 0 404 36t394 115q-74 -215 -171.5 -425.5t-249.5 -508t-265.5 -529t-218.5 -486.5q-34 -511 -111 -865q-685 -314 -917 -409q14 63 86.5 311t81.5 410q11 227 61 757
q-99 188 -192.5 365t-195 383.5t-177.5 380t-147 371.5z" />
    <glyph glyph-name="Z" unicode="Z" horiz-adv-x="2617" 
d="M102 2089q164 287 308 807q36 3 152.5 15.5t198.5 19t152 6.5q149 0 262 -12t371 -42t383 -36q149 5 317 14.5t306 17.5q-181 -263 -316.5 -512t-312 -624t-255.5 -536t-226 -408q133 -7 221.5 -12.5t200.5 -12.5q350 13 671 98q-307 -602 -401 -839q-98 -12 -180 -17
t-202.5 -9t-223.5 -7h-561q-549 0 -791 49q133 179 251.5 380.5t236.5 428t305 584t342 631.5q-51 8 -163.5 33.5t-209 39t-225.5 13.5q-270 0 -611 -70z" />
    <glyph glyph-name="bracketleft" unicode="[" horiz-adv-x="1241" 
d="M1057 3256v-225h-529v-3670h553v-225h-880v4088v32h856z" />
    <glyph glyph-name="backslash" unicode="\" horiz-adv-x="3670" 
d="M2089 1655q140 -212 322 -469.5t413 -583t403 -576.5t324 -497q-531 153 -721 168q-12 0 -37 8q-40 -5 -192 -57q-218 443 -486.5 913.5t-579.5 946.5t-649 921t-685 827h86q96 0 166 -14t137 -35.5t82 -23.5q188 -29 327 -29q66 4 168 4q98 -193 204 -375.5t200.5 -334
t247 -383.5t270.5 -410z" />
    <glyph glyph-name="bracketright" unicode="]" horiz-adv-x="1241" 
d="M209 3256h856v-4087v-33h-881v225h553v3670h-528v225z" />
    <glyph glyph-name="asciicircum" unicode="^" horiz-adv-x="2306" 
d="M864 3256q141 -24 312 -24q174 0 327 24q75 -123 147.5 -224.5t155 -203t164.5 -193t160 -177.5q-132 16 -250 16q-169 0 -377 -33q-55 113 -106.5 191.5t-128 175.5t-117.5 153q-149 -175 -352 -528q-194 33 -406 33q-143 0 -192 -8q325 348 663 798z" />
    <glyph glyph-name="underscore" unicode="_" horiz-adv-x="2830" 
d="M25 -680v66h2920v-66h-2920z" />
    <glyph glyph-name="grave" unicode="`" horiz-adv-x="1679" 
d="M193 2847q159 127 344 409q233 -187 423 -331t543 -406q-156 -130 -225.5 -198.5t-171.5 -198.5q-291 273 -480.5 427.5t-432.5 297.5z" />
    <glyph glyph-name="a" unicode="a" 
d="M664 -16q-83 102 -238.5 179.5t-323.5 98.5q118 209 242 475l-176 496l336 -74q125 263 229 501.5t195 468t183 484t175 516.5q113 15 243.5 31.5t225 35t207.5 52.5q58 -289 137.5 -559t169 -527t164.5 -474q73 -216 129 -401.5t106.5 -366.5t100 -355.5t102.5 -347.5
q-532 -100 -790 -242q-64 361 -127 529q-441 41 -729 41h-250q-67 -112 -115 -192t-95 -165t-101 -204zM1528 2007q-229 -535 -336 -897q40 -1 256 -10.5t338 -9.5q-31 117 -123.5 428.5t-134.5 488.5z" />
    <glyph glyph-name="b" unicode="b" horiz-adv-x="3158" 
d="M209 2224q181 385 287 721q77 29 240.5 90.5t324 108.5t329.5 75.5t347 28.5q264 0 539 -104.5t455.5 -277.5t180.5 -363q-18 -215 -153.5 -366t-358.5 -224q258 -66 406.5 -267.5t154.5 -461.5q0 -342 -218 -616t-556 -425t-676 -151q-591 0 -942 176q23 313 44 699
t35 760.5t24 789.5q-311 -119 -463 -193zM1384 578q422 19 606.5 151t184.5 279q0 180 -214.5 275.5t-506.5 125.5q46 61 92 139t99.5 178.5t83.5 153.5q169 0 291 137.5t122 288.5q0 108 -71 187t-178.5 120t-213.5 41q-87 0 -217 -28q-79 -1255 -86 -1745q8 -107 8 -303z
" />
    <glyph glyph-name="c" unicode="c" horiz-adv-x="2769" 
d="M1806 2425q-137 -13 -300.5 -119t-279.5 -300.5t-116 -453.5q5 -247 88 -442.5t264 -314.5t459 -123q112 0 211.5 9.5t158.5 21t134 31t151 40.5q-42 -126 -92 -345t-67 -343q-123 -47 -316.5 -67t-470.5 -27q-368 0 -696 196.5t-528.5 531t-212.5 722.5q0 442 213.5 820
t578.5 600t793 226h135q289 0 504 -57q0 -361 102 -799q-334 197 -631 197q-53 0 -82 -4z" />
    <glyph glyph-name="d" unicode="d" horiz-adv-x="3457" 
d="M745 2384l-593 -111q386 331 630 623q245 43 418.5 64t478.5 26q343 0 626 -61t505 -207t351.5 -401t135.5 -629q0 -480 -255.5 -868.5t-693 -608t-955.5 -219.5q-282 0 -521.5 20t-461.5 70q146 221 219 530t94.5 646.5t21.5 764.5v361zM1487 578q288 0 492.5 114.5
t315 337t122.5 531.5q0 244 -92.5 437t-271.5 301.5t-423 108.5h-37z" />
    <glyph glyph-name="e" unicode="e" horiz-adv-x="2818" 
d="M586 2474l-410 -57q124 182 393 528q325 70 566 70q103 0 244 -13.5t206 -15.5q119 0 176 -8q422 8 942 127q-321 -438 -430 -672q-319 -40 -528 -49q-162 13 -344 24l-74 -593q585 60 705 81q-70 -150 -122 -261.5t-94.5 -210.5t-86.5 -216l-435 -8q0 -311 -37 -430
q9 -41 9 -106q110 8 278 8q87 0 222 -4t208 -4q114 0 293 20.5t293 20.5q-39 -72 -151.5 -197.5t-159.5 -196.5q-92 -131 -152 -278q-129 -4 -327.5 -22.5t-335.5 -18.5q-198 0 -403 15t-428.5 40t-418.5 47q86 220 312 594q0 86 -9 119q6 35 21 112.5t22 126.5t7 89
q0 21 -4.5 45.5t-4.5 36.5l-295 32q45 85 92 157t104.5 144.5t123.5 153.5q3 80 22 284.5t19 321.5q0 115 -8 164z" />
    <glyph glyph-name="f" unicode="f" horiz-adv-x="2662" 
d="M352 3015q511 54 930 159l12 -118q662 98 1172 98q-210 -458 -316 -746h-168q-91 0 -263 -14.5t-224 -17.5q-140 16 -238 16l-40 -594q543 14 1048 49q-131 -278 -143 -598q-125 -62 -713 -82q-185 17 -233 17l-144 -1016l-713 -193q0 14 -2 44t-2 47q0 167 46 580
t57 587l-217 184q59 78 165.5 189.5t145.5 154.5q-87 821 -160 1254z" />
    <glyph glyph-name="g" unicode="g" horiz-adv-x="3256" 
d="M1737 2494q-212 0 -365.5 -137t-230 -349.5t-76.5 -438.5q0 -233 64 -432.5t207 -334.5t368 -171q33 0 49 -8q27 4 73 12t70 12v361q-58 0 -158 -23t-136 -27q10 108 60 325t58 335q135 0 193 -8q169 4 313 24.5t223 20.5q117 0 321 -24.5t302 -28.5q-34 -106 -75 -307.5
t-52 -245.5l-176 -9q-14 -72 -29.5 -189t-26.5 -225.5t-26 -248.5q-250 -185 -550.5 -281t-526.5 -96q-421 4 -738 194.5t-487.5 520t-175.5 735.5q0 449 196 828t543 603.5t772 231.5q173 0 358.5 -42.5t334 -109.5t229.5 -139q0 -74 -16 -246q14 -295 45 -503
q-52 22 -241.5 143t-353 196t-339.5 82z" />
    <glyph glyph-name="h" unicode="h" horiz-adv-x="3174" 
d="M594 2871q109 9 337 48.5t316.5 52.5t206.5 18q-46 -254 -58 -513t-12 -654q336 16 512 16h218q0 212 2.5 345t12 290.5t30.5 347.5q185 20 200 25q119 33 335.5 119t303.5 106q-10 -338 -34 -744t-52 -673q-21 -197 -29 -357.5t-11 -369.5t-7 -369.5t-18 -349.5
q-186 -62 -815 -250q0 169 8 384.5t24.5 486t24.5 411.5l-737 8q0 -160 -8.5 -265.5t-33 -348t-28.5 -356.5q-281 -87 -872 -295q110 584 110 1241q-111 48 -319 86q50 94 87.5 144t128 165t120.5 166q41 381 57 1085z" />
    <glyph glyph-name="i" unicode="i" horiz-adv-x="1544" 
d="M471 3080q178 0 301 25.5t295.5 86.5t214.5 73q-41 -199 -66.5 -472t-37 -538t-11.5 -416v-1569q-385 -69 -856 -278q7 192 29 454.5t39 441t32 406t15 418.5v270q5 481 10 662.5t35 435.5z" />
    <glyph glyph-name="j" unicode="j" horiz-adv-x="1839" 
d="M745 2998q111 43 466 171.5t452 164.5q-57 -100 -76.5 -271.5t-24 -497.5t-15.5 -578.5t-52 -524.5q-57 -384 -177.5 -707t-333.5 -533.5t-521 -221.5q-38 0 -76 6t-77.5 17.5t-92.5 25.5l-24 598q157 9 242 58.5t129 140.5t83 260q32 116 42.5 364t24 782.5t31.5 745.5z
" />
    <glyph glyph-name="k" unicode="k" horiz-adv-x="3166" 
d="M455 3158q110 0 209 -12q127 4 202 15.5t215.5 37.5t200.5 33q-53 -311 -65 -705q16 -270 24 -397q393 516 799 860q199 -33 336 -45q8 1 148.5 22t227.5 30t168 9h152q-363 -359 -1151 -1167q103 -159 270 -415.5t322.5 -502t283.5 -463t250 -450.5q-107 17 -311.5 74.5
t-285 79t-193.5 31.5q-511 458 -1032 1093q-83 -311 -99 -774q9 -82 9 -233q-117 -45 -333.5 -95t-341 -87.5t-251.5 -112.5q74 325 106 585.5t52.5 661t25.5 473.5q3 49 24.5 380t29.5 504t8 365v205z" />
    <glyph glyph-name="l" unicode="l" horiz-adv-x="2626" 
d="M631 2945q121 27 334 52t344 48.5t260 75.5q-87 -337 -129 -610t-56 -606q-5 -133 -8.5 -392.5t-9 -430t-23.5 -386.5q686 0 1135 78q-208 -361 -278 -680q-165 -9 -533.5 -59.5t-556.5 -50.5q-153 0 -353 8t-319 8h-262q120 475 184 672l111 16q14 246 25.5 438
t18.5 356.5t13 405.5q5 104 21 329t37 420.5t45 307.5z" />
    <glyph glyph-name="m" unicode="m" horiz-adv-x="3826" 
d="M770 -8q-277 153 -577 201q44 202 101.5 484t103 485.5t106.5 430.5q53 208 146 491t165 503.5t123 435.5q236 0 549 123q110 -229 196.5 -453t154.5 -453t124 -479q343 618 598 1229q391 38 705 176q-6 -79 -9.5 -158t-7.5 -129q4 -172 23 -298.5t67.5 -382t77.5 -453.5
q34 -216 64 -406t49 -310.5t45.5 -287.5t66.5 -430q-450 -128 -770 -311q-79 405 -117 628.5t-64.5 498.5t-35.5 659q-68 -108 -205 -368t-237 -437t-251 -392.5t-343 -420.5q-45 302 -94 510t-132.5 509.5t-125.5 483.5q-33 -96 -108.5 -344t-125.5 -385
q-106 -315 -174 -546.5t-88 -403.5z" />
    <glyph glyph-name="n" unicode="n" horiz-adv-x="2761" 
d="M393 2568l-135 295q385 112 664 352q60 -108 268.5 -498t280 -524t191.5 -360.5t251 -472.5q0 69 4 197t4 188q0 278 -19.5 632.5t-21.5 452.5q8 74 8 217q408 83 697 209q-4 -141 -8.5 -384t-7 -453.5t-4 -384t-5.5 -449.5q-4 -260 -7 -440.5t-15.5 -369t-43.5 -390.5
q-210 -251 -548 -401q-42 77 -137 216.5t-246.5 368t-293 476t-286.5 557.5q-9 -109 -20.5 -398t-26 -478.5t-47.5 -365.5q-95 -51 -208 -100t-288 -115.5t-184 -70.5q70 446 70 1024q8 135 8 430q6 206 40.5 526.5t65.5 513.5z" />
    <glyph glyph-name="o" unicode="o" horiz-adv-x="3305" 
d="M1057 1561q0 -239 63 -466.5t200.5 -374.5t342.5 -151q9 6 16 7.5t9 1.5q243 4 371 181t167 413.5t39 498.5q0 434 -168 688q-116 160 -495 160h-177q-351 -327 -368 -958zM881 2736l-58 143q440 201 881 201q374 0 645.5 -119.5t442 -329t252.5 -480t85 -582.5
q0 -306 -110 -592.5t-311.5 -509.5t-469 -349t-567.5 -126q-351 3 -627.5 115.5t-462.5 311.5t-281.5 465.5t-98.5 569.5q0 331 159 693t521 589z" />
    <glyph glyph-name="p" unicode="p" horiz-adv-x="2970" 
d="M1208 270q-518 -220 -864 -336q63 301 100.5 620.5t58.5 648t38.5 775t19.5 500.5q-180 -102 -360 -197q18 85 61 330t74 395q746 250 1302 250q323 0 569.5 -99t392.5 -291.5t169 -457.5q4 -32 4 -98q0 -262 -123 -476.5t-334.5 -365t-470 -231t-526.5 -86.5
q-88 -477 -111 -881zM1286 1655q140 17 292 79t260 187t108 315q0 74 -9 115q-26 146 -136.5 245t-297.5 99q-52 0 -168 -16q0 -350 -49 -1024z" />
    <glyph glyph-name="q" unicode="q" horiz-adv-x="3449" 
d="M2642 -250q-78 102 -266 393q-178 -75 -331.5 -107t-373.5 -44q-406 0 -742 192.5t-530 520t-198 712.5q5 5 6.5 10t1.5 7q6 349 135.5 648.5t355.5 517.5t524 337t631 119q304 0 566.5 -118t451 -323t293 -472.5t107.5 -565.5q0 -216 -40.5 -394t-128.5 -335.5
t-233 -319.5l320 -401q-76 -49 -161 -108.5t-190.5 -133t-197.5 -135.5zM1982 598q-76 153 -167 250q294 115 585 295q33 221 33 393q0 253 -63.5 469.5t-214 352.5t-394.5 136q-228 0 -389 -142t-242 -369t-81 -472q0 -492 192 -725.5t471 -240.5q163 13 270 53z" />
    <glyph glyph-name="r" unicode="r" horiz-adv-x="3174" 
d="M8 2257q226 309 393 733q219 10 435 38.5t401.5 54.5t355.5 30q507 0 770 -222t291 -618q0 -327 -155.5 -546t-434.5 -318q117 -244 265.5 -507t309 -510t331.5 -486q-239 10 -487.5 46.5t-459.5 104.5q-114 196 -246 415.5t-264.5 439t-246.5 415.5q-112 -420 -123 -831
q8 -50 8 -144q-205 -173 -394.5 -261t-453.5 -99q124 407 162.5 657t38.5 617l-8 1101q-98 -4 -169 -20t-160.5 -44.5t-158.5 -45.5zM1233 1495q145 12 301 106.5t259 248.5t103 333q-6 201 -127.5 305.5t-298.5 104.5q-107 0 -213 -41q0 -705 -24 -1057z" />
    <glyph glyph-name="s" unicode="s" horiz-adv-x="2359" 
d="M1409 2466q-103 0 -169.5 -48.5t-88.5 -119.5q-8 -25 -8 -74q0 -125 101 -238t255.5 -217.5t261.5 -175.5q150 -106 224.5 -172.5t119.5 -160t54 -244.5q0 -313 -190 -541t-494 -349t-635 -134q-372 0 -647 151q40 287 40 807q23 -13 146.5 -116t243 -167.5t258.5 -68.5
q136 0 244 47.5t108 145.5q0 122 -68.5 189.5t-242.5 186.5q-23 16 -170.5 114.5t-220.5 170t-119.5 170.5t-59.5 242q-4 32 -4 94q0 304 157.5 556.5t420.5 397t561 144.5q351 0 672 -287q-8 -109 -25 -352q13 -229 25 -402q-112 100 -226.5 201.5t-244 173.5t-279.5 76z
" />
    <glyph glyph-name="t" unicode="t" horiz-adv-x="2744" 
d="M2400 2458l-606 -9q-20 -861 -176 -2154q-445 -148 -770 -303q41 316 62.5 627.5t30.5 623.5t9 662v512h-102q-254 0 -754 -66q18 54 74 218t89 267t62 203q440 135 799 135q152 0 415 -39.5t372 -46.5q117 4 217 18t302.5 50t246.5 43q-160 -278 -271 -741z" />
    <glyph glyph-name="u" unicode="u" horiz-adv-x="2888" 
d="M279 2847q222 32 847 192v-221q0 -243 -10 -464t-36 -680.5t-31 -657.5q5 -163 30 -251.5t89.5 -131.5t183.5 -47q528 0 528 1220q0 211 -28.5 593.5t-28.5 578.5q113 37 275.5 98.5t296.5 108t259 80.5q3 -110 18 -457.5t15 -558.5q0 -1195 -406 -1651
q-199 -226 -376 -356t-371.5 -187.5t-460.5 -62.5q-320 0 -503 126t-260.5 332.5t-92 397.5t-24.5 594q0 75 14.5 232t31.5 324.5t28.5 328t11.5 319.5v201z" />
    <glyph glyph-name="v" unicode="v" 
d="M111 2830q170 0 406.5 32.5t440.5 107.5q11 -184 45 -293.5t102.5 -245.5t102.5 -231q86 -231 129.5 -397.5t124.5 -520.5q56 183 131 409t157.5 456t151 406.5t171.5 424.5q226 47 774 196q-85 -155 -151.5 -339t-154.5 -467.5t-133 -414t-133.5 -360.5t-204.5 -504
t-229 -513.5t-211 -407.5q-87 -30 -197 -59.5t-240.5 -60t-234.5 -56.5q-84 322 -226 750.5t-249.5 751.5t-206 660.5t-165.5 675.5z" />
    <glyph glyph-name="w" unicode="w" horiz-adv-x="3785" 
d="M3686 3146q-61 -285 -132.5 -541.5t-141 -461t-167.5 -482t-173 -502.5q-60 -187 -141.5 -457.5t-108.5 -357.5q-207 -144 -463 -344q-55 204 -141 450.5t-172 492.5t-141 450q-125 -212 -199 -349t-137 -298t-90 -320q-376 -314 -504 -442q-82 235 -157.5 465.5
t-115 349.5t-104.5 299q-69 196 -127 398.5t-109 402t-118.5 462.5t-124.5 457q137 26 264.5 59.5t338.5 92.5t220 61q89 -582 434 -1577q174 327 312 643q-29 82 -82.5 250t-94 281t-94.5 235q430 61 791 152q60 -184 114 -395t103 -401t99 -348t118 -310q73 289 134.5 523
t118.5 442.5t128 459.5q338 58 663 160z" />
    <glyph glyph-name="x" unicode="x" horiz-adv-x="2761" 
d="M135 3031q74 0 107 -8q405 13 680 176q128 -241 253 -471t209 -393q336 423 504 786q74 0 103 -8q102 3 185.5 11.5t180 24t164.5 28.5t166 30q-144 -194 -284 -417.5t-326 -527.5t-324 -501q81 -128 156.5 -270t186.5 -360.5t192 -363.5t178 -288q-142 -83 -236 -145.5
t-187 -146.5t-188 -203q-59 139 -126.5 261t-158.5 268.5t-149 251t-102 218.5q-262 -384 -463 -799q-282 0 -745 -118q119 258 202 429t172 341t192 351t220 374q-185 300 -401 798q-47 110 -107 221t-135.5 240t-118.5 211z" />
    <glyph glyph-name="y" unicode="y" horiz-adv-x="2626" 
d="M111 2970q363 58 712 245q117 -299 238 -562t258 -503q57 78 131 240.5t153.5 360t125.5 313.5q231 0 404 36t394 115q-74 -215 -171.5 -425.5t-249.5 -508t-265.5 -529t-218.5 -486.5q-34 -511 -111 -865q-685 -314 -917 -409q14 63 86.5 311t81.5 410q11 227 61 757
q-99 188 -192.5 365t-195 383.5t-177.5 380t-147 371.5z" />
    <glyph glyph-name="z" unicode="z" horiz-adv-x="2617" 
d="M102 2089q164 287 308 807q36 3 152.5 15.5t198.5 19t152 6.5q149 0 262 -12t371 -42t383 -36q149 5 317 14.5t306 17.5q-181 -263 -316.5 -512t-312 -624t-255.5 -536t-226 -408q133 -7 221.5 -12.5t200.5 -12.5q350 13 671 98q-307 -602 -401 -839q-98 -12 -180 -17
t-202.5 -9t-223.5 -7h-561q-549 0 -791 49q133 179 251.5 380.5t236.5 428t305 584t342 631.5q-51 8 -163.5 33.5t-209 39t-225.5 13.5q-270 0 -611 -70z" />
    <glyph glyph-name="braceleft" unicode="{" horiz-adv-x="1409" 
d="M864 2679v-910q0 -206 -97 -358t-288 -194q198 -40 287.5 -201t89.5 -385v-991q0 -187 104 -329.5t289 -166.5q-20 0 -63 -4t-68 -4q-186 0 -336 89t-176 206q-6 40 -15.5 89t-15.5 95t-6 90v1024q0 115 -41 226.5t-125.5 182t-209.5 70.5q186 37 281 169.5t95 326.5v74
v876q0 162 33.5 274.5t126.5 209.5q60 60 146 84.5t178.5 28t187.5 5.5q-143 -40 -225.5 -115.5t-117 -187t-34.5 -274.5z" />
    <glyph glyph-name="bar" unicode="|" horiz-adv-x="614" 
d="M201 -864v4088v32h229v-4087v-33h-229z" />
    <glyph glyph-name="braceright" unicode="}" horiz-adv-x="1409" 
d="M184 3248q198 0 318.5 -22t193.5 -97q95 -91 127.5 -203t32.5 -280v-868q0 -41 -8 -74q30 -453 385 -496q-193 -11 -285 -147t-92 -332v-1032q0 -232 -129 -400.5t-424 -168.5q-37 0 -127 8q204 52 298.5 177.5t94.5 293.5v1016q0 536 369 585q-377 111 -377 561v1008
q0 91 -45.5 195.5t-130.5 182t-201 93.5z" />
    <glyph glyph-name="asciitilde" unicode="~" horiz-adv-x="2023" 
d="M1778 2646q-86 -101 -258 -177.5t-328 -109.5q-69 0 -116 22t-106 66t-103.5 66t-104.5 22q-92 0 -177.5 -30t-210 -94.5t-165.5 -83.5q61 147 61 520v57q121 100 207 152t203 73q104 0 180.5 -38.5t154.5 -100.5t111 -70q42 -8 66 -8q105 0 230.5 60.5t237 145
t171.5 147.5q-49 -202 -62 -418q9 -62 9 -201z" />
    <glyph glyph-name="Adieresis" unicode="&#xc4;" 
d="M664 -16q-83 102 -238.5 179.5t-323.5 98.5q118 209 242 475l-176 496l336 -74q125 263 229 501.5t195 468t183 484t175 516.5q113 15 243.5 31.5t225 35t207.5 52.5q58 -289 137.5 -559t169 -527t164.5 -474q73 -216 129 -401.5t106.5 -366.5t100 -355.5t102.5 -347.5
q-532 -100 -790 -242q-64 361 -127 529q-441 41 -729 41h-250q-67 -112 -115 -192t-95 -165t-101 -204zM1528 2007q-229 -535 -336 -897q40 -1 256 -10.5t338 -9.5q-31 117 -123.5 428.5t-134.5 488.5zM1208 4145q162 0 261.5 -100.5t99.5 -259.5q0 -155 -104 -254t-257 -99
q-144 0 -248 104t-104 249q0 152 99 256t253 104zM2142 4145q155 0 255 -99t106 -253q0 -154 -106.5 -257.5t-254.5 -103.5t-252 105t-104 256q0 147 100 249.5t256 102.5z" />
    <glyph glyph-name="Aring" unicode="&#xc5;" 
d="M664 -16q-83 102 -238.5 179.5t-323.5 98.5q118 209 242 475l-176 496l336 -74q125 263 229 501.5t195 468t183 484t175 516.5q113 15 243.5 31.5t225 35t207.5 52.5q58 -289 137.5 -559t169 -527t164.5 -474q73 -216 129 -401.5t106.5 -366.5t100 -355.5t102.5 -347.5
q-532 -100 -790 -242q-64 361 -127 529q-441 41 -729 41h-250q-67 -112 -115 -192t-95 -165t-101 -204zM1528 2007q-229 -535 -336 -897q40 -1 256 -10.5t338 -9.5q-31 117 -123.5 428.5t-134.5 488.5zM1688 4616q179 0 312 -78.5t203 -214t70 -301.5q0 -159 -73.5 -292.5
t-207 -211t-304.5 -77.5q-175 0 -309.5 77.5t-207.5 210t-73 293.5q0 169 70 303.5t203.5 212.5t316.5 78zM1712 4215q-81 0 -128.5 -50.5t-47.5 -125.5q0 -74 47.5 -129.5t120.5 -55.5q80 0 132 55t52 130q0 76 -47 126t-129 50z" />
    <glyph glyph-name="Ccedilla" unicode="&#xc7;" horiz-adv-x="2785" 
d="M1663 0l-135 -242q11 3 110 25q105 -5 199.5 -54.5t152.5 -131t58 -175.5q0 -160 -120.5 -272t-275.5 -168.5t-259 -62.5q-29 49 -95 134t-98 140q17 -8 82 -8q87 0 190 33t175.5 93.5t72.5 135.5q-20 136 -258 152q-178 -17 -245 -62l286 447q-386 50 -694.5 247
t-489 514t-192.5 705q0 446 212.5 823t577.5 598.5t795 225.5h135q286 0 504 -58q0 -86 -8 -143q4 -128 19 -227.5t39 -198.5t57 -229q-187 99 -320.5 145.5t-306.5 46.5q-209 0 -389.5 -124t-286.5 -329t-106 -428q0 -241 83.5 -439.5t264.5 -317.5t458 -123q112 0 211 9.5
t159 21t135 31t151 40.5q-108 -327 -160 -688q-219 -86 -582 -86h-106z" />
    <glyph glyph-name="Eacute" unicode="&#xc9;" horiz-adv-x="2904" 
d="M586 2474l-410 -57q124 182 393 528q325 70 566 70q103 0 244 -13.5t206 -15.5q119 0 176 -8q422 8 942 127q-321 -438 -430 -672q-319 -40 -528 -49q-162 13 -344 24l-74 -593q585 60 705 81q-70 -150 -122 -261.5t-94.5 -210.5t-86.5 -216l-435 -8q0 -311 -37 -430
q9 -41 9 -106q110 8 278 8q87 0 222 -4t208 -4q114 0 293 20.5t293 20.5q-39 -72 -151.5 -197.5t-159.5 -196.5q-92 -131 -152 -278q-129 -4 -327.5 -22.5t-335.5 -18.5q-198 0 -403 15t-428.5 40t-418.5 47q86 220 312 594q0 86 -9 119q6 35 21 112.5t22 126.5t7 89
q0 21 -4.5 45.5t-4.5 36.5l-295 32q45 85 92 157t104.5 144.5t123.5 153.5q3 80 22 284.5t19 321.5q0 115 -8 164zM1487 3432q-194 214 -389 385q144 108 290.5 221t307.5 238.5t344 265.5q208 -291 344 -397q-251 -164 -452.5 -322.5t-444.5 -390.5z" />
    <glyph glyph-name="Ntilde" unicode="&#xd1;" horiz-adv-x="2753" 
d="M393 2568l-135 295q385 112 664 352q60 -108 268.5 -498t280 -524t191.5 -360.5t251 -472.5q0 69 4 197t4 188q0 278 -19.5 632.5t-21.5 452.5q8 74 8 217q408 83 697 209q-4 -141 -8.5 -384t-7 -453.5t-4 -384t-5.5 -449.5q-4 -260 -7 -440.5t-15.5 -369t-43.5 -390.5
q-210 -251 -548 -401q-42 77 -137 216.5t-246.5 368t-293 476t-286.5 557.5q-9 -109 -20.5 -398t-26 -478.5t-47.5 -365.5q-95 -51 -208 -100t-288 -115.5t-184 -70.5q70 446 70 1024q8 135 8 430q6 206 40.5 526.5t65.5 513.5zM2392 3744q-236 -225 -598 -279
q-66 0 -108 21.5t-98 66t-100.5 66.5t-111.5 22q-91 0 -178.5 -33.5t-207.5 -98t-167 -85.5q24 67 45 240t21 297v49q198 184 405 213q98 0 168 -36t160.5 -99t130.5 -66q188 0 380 108.5t308 235.5q-67 -305 -74 -430q13 -82 25 -192z" />
    <glyph glyph-name="Odieresis" unicode="&#xd6;" horiz-adv-x="3305" 
d="M1057 1561q0 -239 63 -466.5t200.5 -374.5t342.5 -151q9 6 16 7.5t9 1.5q243 4 371 181t167 413.5t39 498.5q0 434 -168 688q-116 160 -495 160h-177q-351 -327 -368 -958zM881 2736l-58 143q440 201 881 201q374 0 645.5 -119.5t442 -329t252.5 -480t85 -582.5
q0 -306 -110 -592.5t-311.5 -509.5t-469 -349t-567.5 -126q-351 3 -627.5 115.5t-462.5 311.5t-281.5 465.5t-98.5 569.5q0 331 159 693t521 589zM1257 4145q103 0 186.5 -46.5t129 -128.5t45.5 -185q0 -154 -105 -253.5t-256 -99.5q-144 0 -248 104t-104 249q0 152 99 256
t253 104zM2191 4145q155 0 255 -99t106 -253q0 -154 -106.5 -257.5t-254.5 -103.5q-150 0 -255 105t-105 256q0 147 100.5 249.5t259.5 102.5z" />
    <glyph glyph-name="Udieresis" unicode="&#xdc;" horiz-adv-x="2871" 
d="M279 2847q222 32 847 192v-221q0 -243 -10 -464t-36 -680.5t-31 -657.5q5 -163 30 -251.5t89.5 -131.5t183.5 -47q528 0 528 1220q0 211 -28.5 593.5t-28.5 578.5q113 37 275.5 98.5t296.5 108t259 80.5q3 -110 18 -457.5t15 -558.5q0 -1195 -406 -1651
q-199 -226 -376 -356t-371.5 -187.5t-460.5 -62.5q-320 0 -503 126t-260.5 332.5t-92 397.5t-24.5 594q0 75 14.5 232t31.5 324.5t28.5 328t11.5 319.5v201zM1176 4137q162 0 261 -101.5t99 -258.5q0 -155 -104 -254t-256 -99q-145 0 -249 104t-104 249q0 152 99 256
t254 104zM2114 4137q151 0 252.5 -100.5t107.5 -251.5q0 -154 -106.5 -257.5t-253.5 -103.5q-151 0 -256 105t-105 256q0 147 100.5 249.5t260.5 102.5z" />
    <glyph glyph-name="aacute" unicode="&#xe1;" horiz-adv-x="2978" 
d="M664 -16q-83 102 -238.5 179.5t-323.5 98.5q118 209 242 475l-176 496l336 -74q125 263 229 501.5t195 468t183 484t175 516.5q113 15 243.5 31.5t225 35t207.5 52.5q58 -289 137.5 -559t169 -527t164.5 -474q73 -216 129 -401.5t106.5 -366.5t100 -355.5t102.5 -347.5
q-532 -100 -790 -242q-64 361 -127 529q-441 41 -729 41h-250q-67 -112 -115 -192t-95 -165t-101 -204zM1528 2007q-229 -535 -336 -897q40 -1 256 -10.5t338 -9.5q-31 117 -123.5 428.5t-134.5 488.5zM1409 3416q-199 220 -393 385q144 108 237 179.5t348.5 269
t360.5 276.5q124 -173 186.5 -249t157.5 -148q-472 -310 -897 -713z" />
    <glyph glyph-name="agrave" unicode="&#xe0;" 
d="M664 -16q-83 102 -238.5 179.5t-323.5 98.5q118 209 242 475l-176 496l336 -74q125 263 229 501.5t195 468t183 484t175 516.5q113 15 243.5 31.5t225 35t207.5 52.5q58 -289 137.5 -559t169 -527t164.5 -474q73 -216 129 -401.5t106.5 -366.5t100 -355.5t102.5 -347.5
q-532 -100 -790 -242q-64 361 -127 529q-441 41 -729 41h-250q-67 -112 -115 -192t-95 -165t-101 -204zM1528 2007q-229 -535 -336 -897q40 -1 256 -10.5t338 -9.5q-31 117 -123.5 428.5t-134.5 488.5zM1073 4162q163 125 344 405q482 -382 967 -733q-165 -141 -232 -207
t-170 -195q-278 266 -467 422t-442 308z" />
    <glyph glyph-name="acircumflex" unicode="&#xe2;" 
d="M664 -16q-83 102 -238.5 179.5t-323.5 98.5q118 209 242 475l-176 496l336 -74q125 263 229 501.5t195 468t183 484t175 516.5q113 15 243.5 31.5t225 35t207.5 52.5q58 -289 137.5 -559t169 -527t164.5 -474q73 -216 129 -401.5t106.5 -366.5t100 -355.5t102.5 -347.5
q-532 -100 -790 -242q-64 361 -127 529q-441 41 -729 41h-250q-67 -112 -115 -192t-95 -165t-101 -204zM1528 2007q-229 -535 -336 -897q40 -1 256 -10.5t338 -9.5q-31 117 -123.5 428.5t-134.5 488.5zM1376 4264q78 -6 185.5 -13.5t150.5 -11.5q226 17 311 25
q265 -410 631 -799q-183 17 -246 17q-104 0 -385 -33q-68 146 -138.5 241t-221.5 279q-160 -209 -344 -528q-159 32 -369 32q-40 0 -117 -4t-112 -4q257 267 376 407.5t279 391.5z" />
    <glyph glyph-name="adieresis" unicode="&#xe4;" horiz-adv-x="2961" 
d="M664 -16q-83 102 -238.5 179.5t-323.5 98.5q118 209 242 475l-176 496l336 -74q125 263 229 501.5t195 468t183 484t175 516.5q113 15 243.5 31.5t225 35t207.5 52.5q58 -289 137.5 -559t169 -527t164.5 -474q73 -216 129 -401.5t106.5 -366.5t100 -355.5t102.5 -347.5
q-532 -100 -790 -242q-64 361 -127 529q-441 41 -729 41h-250q-67 -112 -115 -192t-95 -165t-101 -204zM1528 2007q-229 -535 -336 -897q40 -1 256 -10.5t338 -9.5q-31 117 -123.5 428.5t-134.5 488.5zM1208 4145q162 0 261.5 -100.5t99.5 -259.5q0 -155 -104 -254t-257 -99
q-144 0 -248 104t-104 249q0 152 99 256t253 104zM2142 4145q155 0 255 -99t106 -253q0 -154 -106.5 -257.5t-254.5 -103.5t-252 105t-104 256q0 147 100 249.5t256 102.5z" />
    <glyph glyph-name="atilde" unicode="&#xe3;" horiz-adv-x="2945" 
d="M664 -16q-83 102 -238.5 179.5t-323.5 98.5q118 209 242 475l-176 496l336 -74q125 263 229 501.5t195 468t183 484t175 516.5q113 15 243.5 31.5t225 35t207.5 52.5q58 -289 137.5 -559t169 -527t164.5 -474q73 -216 129 -401.5t106.5 -366.5t100 -355.5t102.5 -347.5
q-532 -100 -790 -242q-64 361 -127 529q-441 41 -729 41h-250q-67 -112 -115 -192t-95 -165t-101 -204zM1528 2007q-229 -535 -336 -897q40 -1 256 -10.5t338 -9.5q-31 117 -123.5 428.5t-134.5 488.5zM2503 3744q-236 -224 -598 -279q-66 0 -108 21.5t-98 66t-100.5 66.5
t-111.5 22q-92 0 -178.5 -33t-205 -98t-165.5 -86q22 70 41.5 244.5t19.5 292.5v49q199 183 410 213q99 0 168.5 -36.5t159 -99t127.5 -65.5q189 0 380 108t308 236q-15 -66 -32.5 -147.5t-27.5 -145t-14 -137.5q11 -78 25 -192z" />
    <glyph glyph-name="aring" unicode="&#xe5;" 
d="M664 -16q-83 102 -238.5 179.5t-323.5 98.5q118 209 242 475l-176 496l336 -74q125 263 229 501.5t195 468t183 484t175 516.5q113 15 243.5 31.5t225 35t207.5 52.5q58 -289 137.5 -559t169 -527t164.5 -474q73 -216 129 -401.5t106.5 -366.5t100 -355.5t102.5 -347.5
q-532 -100 -790 -242q-64 361 -127 529q-441 41 -729 41h-250q-67 -112 -115 -192t-95 -165t-101 -204zM1528 2007q-229 -535 -336 -897q40 -1 256 -10.5t338 -9.5q-31 117 -123.5 428.5t-134.5 488.5zM1688 4616q179 0 312 -78.5t203 -214t70 -301.5q0 -159 -73.5 -292.5
t-207 -211t-304.5 -77.5q-175 0 -309.5 77.5t-207.5 210t-73 293.5q0 169 70 303.5t203.5 212.5t316.5 78zM1712 4215q-81 0 -128.5 -50.5t-47.5 -125.5q0 -74 47.5 -129.5t120.5 -55.5q80 0 132 55t52 130q0 76 -47 126t-129 50z" />
    <glyph glyph-name="ccedilla" unicode="&#xe7;" horiz-adv-x="2769" 
d="M1663 0l-135 -242q11 3 110 25q105 -5 199.5 -54.5t152.5 -131t58 -175.5q0 -160 -120.5 -272t-275.5 -168.5t-259 -62.5q-29 49 -95 134t-98 140q17 -8 82 -8q87 0 190 33t175.5 93.5t72.5 135.5q-20 136 -258 152q-178 -17 -245 -62l286 447q-386 50 -694.5 247
t-489 514t-192.5 705q0 446 212.5 823t577.5 598.5t795 225.5h135q286 0 504 -58q0 -86 -8 -143q4 -128 19 -227.5t39 -198.5t57 -229q-187 99 -320.5 145.5t-306.5 46.5q-209 0 -389.5 -124t-286.5 -329t-106 -428q0 -241 83.5 -439.5t264.5 -317.5t458 -123q112 0 211 9.5
t159 21t135 31t151 40.5q-108 -327 -160 -688q-219 -86 -582 -86h-106z" />
    <glyph glyph-name="eacute" unicode="&#xe9;" horiz-adv-x="2879" 
d="M586 2474l-410 -57q124 182 393 528q325 70 566 70q103 0 244 -13.5t206 -15.5q119 0 176 -8q422 8 942 127q-321 -438 -430 -672q-319 -40 -528 -49q-162 13 -344 24l-74 -593q585 60 705 81q-70 -150 -122 -261.5t-94.5 -210.5t-86.5 -216l-435 -8q0 -311 -37 -430
q9 -41 9 -106q110 8 278 8q87 0 222 -4t208 -4q114 0 293 20.5t293 20.5q-39 -72 -151.5 -197.5t-159.5 -196.5q-92 -131 -152 -278q-129 -4 -327.5 -22.5t-335.5 -18.5q-198 0 -403 15t-428.5 40t-418.5 47q86 220 312 594q0 86 -9 119q6 35 21 112.5t22 126.5t7 89
q0 21 -4.5 45.5t-4.5 36.5l-295 32q45 85 92 157t104.5 144.5t123.5 153.5q3 80 22 284.5t19 321.5q0 115 -8 164zM1487 3432q-194 214 -389 385q144 108 290.5 221t307.5 238.5t344 265.5q208 -291 344 -397q-251 -164 -452.5 -322.5t-444.5 -390.5z" />
    <glyph glyph-name="egrave" unicode="&#xe8;" horiz-adv-x="2929" 
d="M586 2474l-410 -57q124 182 393 528q325 70 566 70q103 0 244 -13.5t206 -15.5q119 0 176 -8q422 8 942 127q-321 -438 -430 -672q-319 -40 -528 -49q-162 13 -344 24l-74 -593q585 60 705 81q-70 -150 -122 -261.5t-94.5 -210.5t-86.5 -216l-435 -8q0 -311 -37 -430
q9 -41 9 -106q110 8 278 8q87 0 222 -4t208 -4q114 0 293 20.5t293 20.5q-39 -72 -151.5 -197.5t-159.5 -196.5q-92 -131 -152 -278q-129 -4 -327.5 -22.5t-335.5 -18.5q-198 0 -403 15t-428.5 40t-418.5 47q86 220 312 594q0 86 -9 119q6 35 21 112.5t22 126.5t7 89
q0 21 -4.5 45.5t-4.5 36.5l-295 32q45 85 92 157t104.5 144.5t123.5 153.5q3 80 22 284.5t19 321.5q0 115 -8 164zM950 4137q172 129 344 405q515 -402 971 -733q-144 -118 -219.5 -192t-181.5 -209q-279 265 -473.5 423.5t-440.5 305.5z" />
    <glyph glyph-name="ecircumflex" unicode="&#xea;" horiz-adv-x="2912" 
d="M586 2474l-410 -57q124 182 393 528q325 70 566 70q103 0 244 -13.5t206 -15.5q119 0 176 -8q422 8 942 127q-321 -438 -430 -672q-319 -40 -528 -49q-162 13 -344 24l-74 -593q585 60 705 81q-70 -150 -122 -261.5t-94.5 -210.5t-86.5 -216l-435 -8q0 -311 -37 -430
q9 -41 9 -106q110 8 278 8q87 0 222 -4t208 -4q114 0 293 20.5t293 20.5q-39 -72 -151.5 -197.5t-159.5 -196.5q-92 -131 -152 -278q-129 -4 -327.5 -22.5t-335.5 -18.5q-198 0 -403 15t-428.5 40t-418.5 47q86 220 312 594q0 86 -9 119q6 35 21 112.5t22 126.5t7 89
q0 21 -4.5 45.5t-4.5 36.5l-295 32q45 85 92 157t104.5 144.5t123.5 153.5q3 80 22 284.5t19 321.5q0 115 -8 164zM1257 4239q170 -13 336 -24q172 12 312 24q150 -232 290.5 -409.5t339.5 -388.5q-172 16 -245 16q-123 0 -385 -33q-69 143 -140.5 240.5t-220.5 279.5
q-179 -234 -344 -528q-157 33 -369 33q-38 0 -117 -4t-116 -4q245 249 372 398t287 400z" />
    <glyph glyph-name="edieresis" unicode="&#xeb;" horiz-adv-x="2904" 
d="M586 2474l-410 -57q124 182 393 528q325 70 566 70q103 0 244 -13.5t206 -15.5q119 0 176 -8q422 8 942 127q-321 -438 -430 -672q-319 -40 -528 -49q-162 13 -344 24l-74 -593q585 60 705 81q-70 -150 -122 -261.5t-94.5 -210.5t-86.5 -216l-435 -8q0 -311 -37 -430
q9 -41 9 -106q110 8 278 8q87 0 222 -4t208 -4q114 0 293 20.5t293 20.5q-39 -72 -151.5 -197.5t-159.5 -196.5q-92 -131 -152 -278q-129 -4 -327.5 -22.5t-335.5 -18.5q-198 0 -403 15t-428.5 40t-418.5 47q86 220 312 594q0 86 -9 119q6 35 21 112.5t22 126.5t7 89
q0 21 -4.5 45.5t-4.5 36.5l-295 32q45 85 92 157t104.5 144.5t123.5 153.5q3 80 22 284.5t19 321.5q0 115 -8 164zM1143 4121q162 0 261 -101.5t99 -259.5q0 -154 -104 -253t-256 -99q-144 0 -248 104t-104 248q0 152 100.5 256.5t251.5 104.5zM2081 4121q156 0 255 -100
t105 -253q0 -153 -106.5 -256.5t-253.5 -103.5q-151 0 -256 105t-105 255q0 148 100.5 250.5t260.5 102.5z" />
    <glyph glyph-name="iacute" unicode="&#xed;" horiz-adv-x="1544" 
d="M471 3080q178 0 301 25.5t295.5 86.5t214.5 73q-41 -199 -66.5 -472t-37 -538t-11.5 -416v-1569q-385 -69 -856 -278q7 192 29 454.5t39 441t32 406t15 418.5v270q5 481 10 662.5t35 435.5zM631 3400q-208 230 -389 385q80 60 238 181t255.5 197.5t214.5 168.5t234 182
q201 -292 344 -402q-251 -164 -455.5 -325t-441.5 -387z" />
    <glyph glyph-name="igrave" unicode="&#xec;" horiz-adv-x="1544" 
d="M471 3080q178 0 301 25.5t295.5 86.5t214.5 73q-41 -199 -66.5 -472t-37 -538t-11.5 -416v-1569q-385 -69 -856 -278q7 192 29 454.5t39 441t32 406t15 418.5v270q5 481 10 662.5t35 435.5zM152 4153q175 136 344 406q460 -366 966 -733q-154 -131 -225 -201.5
t-172 -200.5q-279 265 -473 423.5t-440 305.5z" />
    <glyph glyph-name="icircumflex" unicode="&#xee;" horiz-adv-x="1536" 
d="M471 3080q178 0 301 25.5t295.5 86.5t214.5 73q-41 -199 -66.5 -472t-37 -538t-11.5 -416v-1569q-385 -69 -856 -278q7 192 29 454.5t39 441t32 406t15 418.5v270q5 481 10 662.5t35 435.5zM594 4256q235 -18 336 -25q122 8 311 25q262 -407 631 -799q-172 16 -250 16
q-111 0 -381 -32q-71 147 -144.5 247t-215.5 273q-183 -236 -344 -529q-157 33 -369 33q-42 0 -120 -4t-114 -4q245 249 369 394t291 405z" />
    <glyph glyph-name="idieresis" unicode="&#xef;" horiz-adv-x="1536" 
d="M471 3080q178 0 301 25.5t295.5 86.5t214.5 73q-41 -199 -66.5 -472t-37 -538t-11.5 -416v-1569q-385 -69 -856 -278q7 192 29 454.5t39 441t32 406t15 418.5v270q5 481 10 662.5t35 435.5zM319 4137q162 0 261.5 -101.5t99.5 -258.5q0 -155 -104 -254t-257 -99
q-144 0 -248 104t-104 249q0 152 99 256t253 104zM1257 4137q153 0 254 -100t107 -252q0 -154 -106.5 -257.5t-254.5 -103.5q-150 0 -255 105t-105 256q0 147 100.5 249.5t259.5 102.5z" />
    <glyph glyph-name="ntilde" unicode="&#xf1;" horiz-adv-x="2761" 
d="M393 2568l-135 295q385 112 664 352q60 -108 268.5 -498t280 -524t191.5 -360.5t251 -472.5q0 69 4 197t4 188q0 278 -19.5 632.5t-21.5 452.5q8 74 8 217q408 83 697 209q-4 -141 -8.5 -384t-7 -453.5t-4 -384t-5.5 -449.5q-4 -260 -7 -440.5t-15.5 -369t-43.5 -390.5
q-210 -251 -548 -401q-42 77 -137 216.5t-246.5 368t-293 476t-286.5 557.5q-9 -109 -20.5 -398t-26 -478.5t-47.5 -365.5q-95 -51 -208 -100t-288 -115.5t-184 -70.5q70 446 70 1024q8 135 8 430q6 206 40.5 526.5t65.5 513.5zM2392 3744q-236 -225 -598 -279
q-66 0 -108 21.5t-98 66t-100.5 66.5t-111.5 22q-91 0 -178.5 -33.5t-207.5 -98t-167 -85.5q24 67 45 240t21 297v49q198 184 405 213q98 0 168 -36t160.5 -99t130.5 -66q188 0 380 108.5t308 235.5q-67 -305 -74 -430q13 -82 25 -192z" />
    <glyph glyph-name="oacute" unicode="&#xf3;" horiz-adv-x="3305" 
d="M1057 1561q0 -239 63 -466.5t200.5 -374.5t342.5 -151q9 6 16 7.5t9 1.5q243 4 371 181t167 413.5t39 498.5q0 434 -168 688q-116 160 -495 160h-177q-351 -327 -368 -958zM881 2736l-58 143q440 201 881 201q374 0 645.5 -119.5t442 -329t252.5 -480t85 -582.5
q0 -306 -110 -592.5t-311.5 -509.5t-469 -349t-567.5 -126q-351 3 -627.5 115.5t-462.5 311.5t-281.5 465.5t-98.5 569.5q0 331 159 693t521 589zM1454 3441q-183 203 -389 385q106 79 271.5 206t320.5 248t350 271q48 -64 109 -146.5t112.5 -139t122.5 -112.5
q-454 -297 -897 -712z" />
    <glyph glyph-name="ograve" unicode="&#xf2;" horiz-adv-x="3330" 
d="M1057 1561q0 -239 63 -466.5t200.5 -374.5t342.5 -151q9 6 16 7.5t9 1.5q243 4 371 181t167 413.5t39 498.5q0 434 -168 688q-116 160 -495 160h-177q-351 -327 -368 -958zM881 2736l-58 143q440 201 881 201q374 0 645.5 -119.5t442 -329t252.5 -480t85 -582.5
q0 -306 -110 -592.5t-311.5 -509.5t-469 -349t-567.5 -126q-351 3 -627.5 115.5t-462.5 311.5t-281.5 465.5t-98.5 569.5q0 331 159 693t521 589zM1090 4145q161 125 344 406q452 -360 966 -734q-144 -118 -219.5 -192t-181.5 -209q-284 270 -474.5 426t-434.5 303z" />
    <glyph glyph-name="ocircumflex" unicode="&#xf4;" horiz-adv-x="3322" 
d="M1057 1561q0 -239 63 -466.5t200.5 -374.5t342.5 -151q9 6 16 7.5t9 1.5q243 4 371 181t167 413.5t39 498.5q0 434 -168 688q-116 160 -495 160h-177q-351 -327 -368 -958zM881 2736l-58 143q440 201 881 201q374 0 645.5 -119.5t442 -329t252.5 -480t85 -582.5
q0 -306 -110 -592.5t-311.5 -509.5t-469 -349t-567.5 -126q-351 3 -627.5 115.5t-462.5 311.5t-281.5 465.5t-98.5 569.5q0 331 159 693t521 589zM1487 4239q171 -13 336 -24q176 11 311 24q101 -156 191 -279t196 -247t248 -272q-180 16 -250 16q-115 0 -385 -33
q-69 148 -142 248t-214 272q-169 -213 -344 -528q-162 33 -369 33q-42 0 -120 -4t-114 -4q234 236 363 387.5t293 410.5z" />
    <glyph glyph-name="odieresis" unicode="&#xf6;" horiz-adv-x="3305" 
d="M1057 1561q0 -239 63 -466.5t200.5 -374.5t342.5 -151q9 6 16 7.5t9 1.5q243 4 371 181t167 413.5t39 498.5q0 434 -168 688q-116 160 -495 160h-177q-351 -327 -368 -958zM881 2736l-58 143q440 201 881 201q374 0 645.5 -119.5t442 -329t252.5 -480t85 -582.5
q0 -306 -110 -592.5t-311.5 -509.5t-469 -349t-567.5 -126q-351 3 -627.5 115.5t-462.5 311.5t-281.5 465.5t-98.5 569.5q0 331 159 693t521 589zM1257 4145q103 0 186.5 -46.5t129 -128.5t45.5 -185q0 -154 -105 -253.5t-256 -99.5q-144 0 -248 104t-104 249q0 152 99 256
t253 104zM2191 4145q155 0 255 -99t106 -253q0 -154 -106.5 -257.5t-254.5 -103.5q-150 0 -255 105t-105 256q0 147 100.5 249.5t259.5 102.5z" />
    <glyph glyph-name="otilde" unicode="&#xf5;" horiz-adv-x="3322" 
d="M1057 1561q0 -239 63 -466.5t200.5 -374.5t342.5 -151q9 6 16 7.5t9 1.5q243 4 371 181t167 413.5t39 498.5q0 434 -168 688q-116 160 -495 160h-177q-351 -327 -368 -958zM881 2736l-58 143q440 201 881 201q374 0 645.5 -119.5t442 -329t252.5 -480t85 -582.5
q0 -306 -110 -592.5t-311.5 -509.5t-469 -349t-567.5 -126q-351 3 -627.5 115.5t-462.5 311.5t-281.5 465.5t-98.5 569.5q0 331 159 693t521 589zM2511 3744q-236 -225 -598 -279q-66 0 -108 21.5t-98 66t-100.5 66.5t-111.5 22q-92 0 -178 -33t-207 -98t-168 -86
q24 67 45 240t21 297v49q197 183 409 213q99 0 168.5 -36.5t159 -99t127.5 -65.5q189 0 380 108t308 236q-15 -66 -32.5 -147.5t-27.5 -145t-14 -137.5q18 -129 25 -192z" />
    <glyph glyph-name="uacute" unicode="&#xfa;" horiz-adv-x="2888" 
d="M279 2847q222 32 847 192v-221q0 -243 -10 -464t-36 -680.5t-31 -657.5q5 -163 30 -251.5t89.5 -131.5t183.5 -47q528 0 528 1220q0 211 -28.5 593.5t-28.5 578.5q113 37 275.5 98.5t296.5 108t259 80.5q3 -110 18 -457.5t15 -558.5q0 -1195 -406 -1651
q-199 -226 -376 -356t-371.5 -187.5t-460.5 -62.5q-320 0 -503 126t-260.5 332.5t-92 397.5t-24.5 594q0 75 14.5 232t31.5 324.5t28.5 328t11.5 319.5v201zM1233 3432q-179 197 -393 385q144 108 290.5 221t388.5 299t267 205q122 -169 184.5 -246t159.5 -151
q-251 -164 -452.5 -322.5t-444.5 -390.5z" />
    <glyph glyph-name="ugrave" unicode="&#xf9;" horiz-adv-x="2904" 
d="M279 2847q222 32 847 192v-221q0 -243 -10 -464t-36 -680.5t-31 -657.5q5 -163 30 -251.5t89.5 -131.5t183.5 -47q528 0 528 1220q0 211 -28.5 593.5t-28.5 578.5q113 37 275.5 98.5t296.5 108t259 80.5q3 -110 18 -457.5t15 -558.5q0 -1195 -406 -1651
q-199 -226 -376 -356t-371.5 -187.5t-460.5 -62.5q-320 0 -503 126t-260.5 332.5t-92 397.5t-24.5 594q0 75 14.5 232t31.5 324.5t28.5 328t11.5 319.5v201zM922 4178q160 124 344 405q160 -126 280 -219t271 -207t222 -167t193 -144q-163 -135 -232 -202t-169 -195
q-284 270 -474.5 426t-434.5 303z" />
    <glyph glyph-name="ucircumflex" unicode="&#xfb;" horiz-adv-x="2904" 
d="M279 2847q222 32 847 192v-221q0 -243 -10 -464t-36 -680.5t-31 -657.5q5 -163 30 -251.5t89.5 -131.5t183.5 -47q528 0 528 1220q0 211 -28.5 593.5t-28.5 578.5q113 37 275.5 98.5t296.5 108t259 80.5q3 -110 18 -457.5t15 -558.5q0 -1195 -406 -1651
q-199 -226 -376 -356t-371.5 -187.5t-460.5 -62.5q-320 0 -503 126t-260.5 332.5t-92 397.5t-24.5 594q0 75 14.5 232t31.5 324.5t28.5 328t11.5 319.5v201zM1208 4256q231 -18 336 -25q152 10 311 25q262 -407 631 -799q-172 16 -245 16q-114 0 -386 -32
q-68 146 -138.5 241t-221.5 279q-162 -211 -344 -529q-157 33 -369 33q-39 0 -117 -4t-112 -4q257 267 376 407.5t279 391.5z" />
    <glyph glyph-name="udieresis" unicode="&#xfc;" horiz-adv-x="2888" 
d="M279 2847q222 32 847 192v-221q0 -243 -10 -464t-36 -680.5t-31 -657.5q5 -163 30 -251.5t89.5 -131.5t183.5 -47q528 0 528 1220q0 211 -28.5 593.5t-28.5 578.5q113 37 275.5 98.5t296.5 108t259 80.5q3 -110 18 -457.5t15 -558.5q0 -1195 -406 -1651
q-199 -226 -376 -356t-371.5 -187.5t-460.5 -62.5q-320 0 -503 126t-260.5 332.5t-92 397.5t-24.5 594q0 75 14.5 232t31.5 324.5t28.5 328t11.5 319.5v201zM1176 4137q162 0 261 -101.5t99 -258.5q0 -155 -104 -254t-256 -99q-145 0 -249 104t-104 249q0 152 99 256
t254 104zM2114 4137q151 0 252.5 -100.5t107.5 -251.5q0 -154 -106.5 -257.5t-253.5 -103.5q-151 0 -256 105t-105 256q0 147 100.5 249.5t260.5 102.5z" />
    <glyph glyph-name="dagger" unicode="&#x2020;" horiz-adv-x="2601" 
d="M1167 2273v983h267v-991h966v-274h-975v-2863h-258v2863h-966v282h966z" />
    <glyph glyph-name="cent" unicode="&#xa2;" horiz-adv-x="2007" 
d="M1470 2769q148 0 267 -33q4 -58 13 -191.5t24 -232t41 -190.5q-161 28 -353 28q-121 0 -237.5 -31.5t-203.5 -105t-108 -190.5q0 -163 111 -250t258 -94q8 5 13.5 6.5t7.5 1.5q118 4 189 30.5t157 79t157 82.5q0 -101 -7 -202.5t-17.5 -216.5t-20.5 -228
q-142 -44 -319 -57q-48 -139 -61.5 -240.5t-20.5 -308.5h-737q20 288 82 680q-472 210 -496 709q0 198 96 379.5t234 308t260 176.5q0 29 4 90t4 86q0 164 -33 442q194 -61 402 -73q137 10 278 41q0 -127 -4 -201q4 -110 20 -295z" />
    <glyph glyph-name="sterling" unicode="&#xa3;" horiz-adv-x="2945" 
d="M1864 2626q-207 -63 -291 -229.5t-94 -323.5q0 -25 -9 -41q11 -136 99 -279h631q0 -106 -9 -160q14 -224 33 -393h-561q-15 -117 -44.5 -194.5t-67.5 -129t-88 -101.5l-128 -128q235 -46 611 -61q420 12 798 110q-21 -80 -82 -282.5t-94 -339.5q-312 -115 -569 -115
q-224 0 -623 107l-393 110q-103 33 -213 33q-92 0 -132 -46.5t-40 -154.5h-373q0 302 164 482t442 198q152 137 152 369q0 102 -16 151h-111q-97 0 -275 -8t-294 -8q16 180 16 278q0 56 -4 152t-4 139h418q-24 100 -46.5 194.5t-27.5 194.5q8 25 8 66q22 312 157 545.5
t394 364t633 130.5q158 0 328.5 -36t303.5 -92.5t183 -112.5q-5 -79 -20 -230q12 -200 36 -377q-186 128 -322 183t-276 55q-109 0 -200 -20z" />
    <glyph glyph-name="section" unicode="&#xa7;" horiz-adv-x="2486" 
d="M2056 2474l-270 4v74q0 147 -71.5 262t-192.5 178.5t-265 63.5q-186 0 -336.5 -86t-183.5 -242q0 -38 -16 -94q11 -290 344 -484l664 -405q263 -165 403.5 -327.5t140.5 -393.5q-6 -244 -125 -392t-387 -321q258 -188 271 -520q0 -203 -105.5 -362.5t-287.5 -248
t-406 -93.5q-237 0 -428.5 110.5t-299 300t-112.5 420.5q8 8 8 25h279q0 -54 -8 -86q12 -228 176 -366t401 -138q127 0 237.5 53.5t176.5 151.5t66 225q0 267 -250 442l-934 623q-173 117 -258.5 262.5t-85.5 339.5q0 239 118 388t361 292q-225 201 -225 516
q4 190 114.5 343t290.5 239t381 86q241 0 426.5 -107.5t287 -300t101.5 -432.5zM823 1982q-181 -92 -283 -199.5t-102 -271.5q0 -146 71.5 -249.5t211.5 -196.5l897 -594q209 135 303 231.5t94 264.5q-11 264 -246 409z" />
    <glyph glyph-name="paragraph" unicode="&#xb6;" horiz-adv-x="2441" 
d="M1384 2945v-3809h-303v2351q-237 4 -437.5 121.5t-317.5 316.5t-117 434q0 241 118 448t324 328t455 121h1135v-4087v-33h-304v3809h-553z" />
    <glyph glyph-name="germandbls" unicode="&#xdf;" horiz-adv-x="2785" 
d="M1737 102q-53 18 -205 93.5t-236.5 115t-169.5 58.5q253 59 468 234.5t221 387.5q0 197 -221 295.5t-496 122.5q33 61 126.5 222t135.5 257q113 0 210 66t152.5 164t55.5 188q0 116 -71 197t-182 120t-231 39q-125 0 -188 -28q-30 -282 -57 -787q-17 -258 -47.5 -620
t-45 -587.5t-14.5 -438.5q-46 -40 -113.5 -67.5t-259.5 -93.5t-360 -134q35 455 50 856.5t20 727t10.5 583.5t21.5 344q44 251 199.5 442.5t384 294t481.5 102.5q196 0 405.5 -60t385.5 -166t280.5 -240t104.5 -279q-17 -214 -154 -366t-358 -224q172 -44 297.5 -152
t192.5 -258.5t71 -318.5q0 -353 -118 -585.5t-311 -350.5t-435 -154z" />
    <glyph glyph-name="registered" unicode="&#xae;" horiz-adv-x="3576" 
d="M1806 3215q479 -4 837.5 -216.5t549 -575.5t190.5 -801q0 -435 -194 -801.5t-552.5 -581t-830.5 -214.5q-355 0 -654.5 122.5t-515 343t-329.5 511.5t-114 620q0 440 199.5 805t567 576.5t846.5 211.5zM1806 3047q-431 0 -759.5 -191.5t-507.5 -521t-179 -724.5
q0 -289 102 -547t294 -452.5t457 -304.5t581 -113q314 0 577.5 109.5t453 304t290 451t100.5 544.5q0 296 -104 560t-294 463t-448.5 310.5t-562.5 111.5zM2224 1368q-51 70 -96 100t-101.5 36.5t-179.5 6.5h-504v-872h-192v1921h704q304 0 493.5 -105.5t211.5 -398.5
q0 -326 -319 -479q237 -111 237 -467q2 -95 4.5 -179t18 -156.5t59.5 -135.5h-217q-39 63 -45.5 217.5t-14.5 296.5t-59 215zM1880 2392h-545v-729l537 8q495 0 495 361q-10 360 -487 360z" />
    <glyph glyph-name="copyright" unicode="&#xa9;" horiz-adv-x="3600" 
d="M1806 3224q480 -4 842.5 -219t558.5 -580t201 -803q0 -324 -111.5 -613t-325 -513t-511 -347.5t-654.5 -123.5q-357 3 -652.5 126t-508.5 344.5t-324.5 510t-111.5 616.5q0 329 111.5 621t320 512.5t507.5 344.5t658 124zM1798 3047q-431 -12 -754 -201t-495 -510.5
t-172 -713.5q0 -291 100.5 -548.5t289.5 -453.5t452 -306t579 -113q420 0 746 187t503 509t177 705q0 300 -102.5 565t-292 462t-454 307.5t-577.5 110.5zM2568 2023l-184 -8q-41 211 -196 327t-373 116q-231 -9 -380.5 -127t-216.5 -305t-67 -408q0 -227 47.5 -400.5
t182.5 -293t380 -150.5q156 0 292 69.5t224 188t115 262.5h193q-35 -196 -145.5 -348t-286.5 -237.5t-400 -85.5q-422 29 -608.5 303t-186.5 692q0 262 96.5 498t291.5 381t469 145q240 -7 410 -100.5t254 -233t89 -285.5z" />
    <glyph glyph-name="trademark" unicode="&#x2122;" horiz-adv-x="3138" 
d="M201 3256h1151v-127h-496v-1474h-160v1474h-495v127zM2134 1671l-504 1409v-1417h-160v1593h242l504 -1401l512 1393h233v-1585h-159v1417l-529 -1409h-139z" />
    <glyph glyph-name="acute" unicode="&#xb4;" horiz-adv-x="1655" 
d="M586 2142q-220 237 -393 385q138 104 300 229.5t324.5 252.5t317.5 247q11 -15 63 -86t99 -128.5t89.5 -102t92.5 -84.5q-249 -159 -448 -317.5t-445 -395.5z" />
    <glyph glyph-name="dieresis" unicode="&#xa8;" horiz-adv-x="2015" 
d="M545 3256q162 0 261 -100.5t99 -259.5q0 -154 -104 -253t-256 -99q-144 0 -248 104t-104 248q0 154 99 257t253 103zM1479 3256q156 0 255 -99t105 -253q0 -153 -106.5 -256.5t-253.5 -103.5q-149 0 -255 105t-106 255q0 149 101.5 250.5t259.5 101.5z" />
    <glyph glyph-name="AE" unicode="&#xc6;" horiz-adv-x="4424" 
d="M1434 1110q29 0 279 -6t310 -6q-10 88 -37 315.5t-42 366t-23 235.5q-394 -711 -487 -905zM3023 2986q115 0 176 -8q587 14 1024 135q-337 -474 -422 -672q-276 -38 -561 -49q-249 20 -311 25l-74 -594q114 4 225.5 15.5t266 31.5t212.5 26q-51 -116 -153 -332.5
t-158 -355.5h-426q0 -91 -17 -241.5t-20 -212.5q8 -33 8 -82q144 8 304 8q76 0 164 -8t163 -8q49 0 74 -9q93 5 284.5 27.5t297.5 22.5q-44 -62 -157.5 -207.5t-180.5 -244.5t-117 -212q-180 -24 -368.5 -35t-408 -15.5t-404 -7.5t-302.5 -8v91q0 158 -28 438
q-483 41 -738 41h-241q-79 -107 -152.5 -205.5t-134.5 -182.5t-119 -173q-76 100 -234.5 187.5t-285.5 90.5q44 71 146 219t165 256l-90 504l332 -74q145 210 291 440.5t272.5 446t246 436.5t251.5 488q443 20 671 20q81 0 252 -5t277 -7z" />
    <glyph glyph-name="Oslash" unicode="&#xd8;" horiz-adv-x="3490" 
d="M1872 2486q-103 33 -287 33h-201q-129 -120 -209 -283.5t-117 -346.5t-42 -378q15 -259 41 -376q219 301 445 677t370 674zM2216 1954q-168 -259 -318.5 -514.5t-264.5 -466t-183 -359.5q114 -34 197 -45q154 5 284.5 103t213.5 336.5t83 633.5q0 145 -12 312zM2130 3023
q5 14 42 89.5t52 111.5l17 16q77 0 126 -8q311 16 386 41q207 78 352 78h143q-54 -63 -130 -151.5t-188 -227t-227 -293.5q133 -139 219.5 -315t126 -375.5t39.5 -419.5q0 -312 -107.5 -597.5t-309 -508.5t-475 -347t-594.5 -124q-186 0 -435 57q-17 -39 -37.5 -88
t-34 -80.5t-30.5 -64.5q-31 4 -89 24t-104 25q-16 -8 -41 -8q-145 -17 -368.5 -75.5t-388.5 -117.5q182 309 463 754q-173 182 -272 454t-105 570q3 185 45 369.5t126 355.5t212 316.5t297 252.5l-58 143q472 193 922 193q220 0 426 -49z" />
    <glyph glyph-name="plusminus" unicode="&#xb1;" horiz-adv-x="2183" 
d="M1024 1536v782h209v-782h782v-225h-782v-783h-209v783h-774v225h774zM217 -8v176h1782v-176h-1782z" />
    <glyph glyph-name="yen" unicode="&#xa5;" horiz-adv-x="2822" 
d="M1815 1511l-136 -262q83 -7 282 -19t280 -22q0 -86 9.5 -156.5t30.5 -151t40.5 -139l54.5 -163.5q-178 57 -328 57q-127 9 -418 9q-32 -126 -45 -263q-123 -56 -232.5 -106t-224 -102t-247.5 -110.5t-209 -90.5q145 613 168 696h-414q-71 321 -209 631q262 -30 664 -45
l16 205l-25 65h-442q-74 303 -213 631l328 -25q-169 314 -344 828q406 72 704 246q278 -660 504 -1065q85 118 406 913q386 0 802 152q-157 -436 -544 -1151l184 -9q0 -136 17.5 -228.5t58.5 -206t59 -175.5q-57 13 -107.5 24t-93 18t-100 11t-154.5 4h-122z" />
    <glyph glyph-name="mu" unicode="&#xb5;" horiz-adv-x="2777" 
d="M209 2335h389v-1598q0 -201 121.5 -352.5t304.5 -151.5q119 0 258 70.5t233.5 185t94.5 240.5v1606h381v-1807q0 -144 74.5 -264.5t207.5 -120.5q109 23 159.5 102t78.5 218h82q-11 -241 -195.5 -393t-390.5 -152q-100 12 -192.5 76t-152.5 164.5t-69 218.5
q-153 -163 -350 -303t-354 -140q-71 0 -171.5 32t-199 94.5t-166.5 148.5v-168q0 -100 18.5 -172.5t59.5 -181.5t64 -198.5t26 -209.5q0 -121 -66 -212t-175 -91q-96 0 -154.5 81t-58.5 189q0 87 16.5 166t54 208.5t55 209t17.5 162.5v2343z" />
    <glyph glyph-name="ordfeminine" unicode="&#xaa;" horiz-adv-x="1769" 
d="M496 1520h-9q-156 122 -278 143q63 106 110 225l-77 246l168 -37q287 642 381 975q65 5 335 66q11 -211 177 -619q62 -154 99.5 -275t68 -237.5t58.5 -217.5t48 -159q-137 -19 -207 -36t-186 -74q-37 194 -58 258q-46 0 -173 8t-199 8h-115q-20 -45 -70 -134.5
t-73 -139.5zM913 2527q-55 -140 -99 -253t-69 -201q197 0 295 -9q-15 57 -58.5 204t-68.5 259zM279 1081q0 66 -9.5 115.5t-27 87t-46.5 84.5t-53 86q377 -45 1307 -45q81 -257 197 -401q-151 4 -287 11.5t-402 23t-679 38.5z" />
    <glyph glyph-name="ordmasculine" unicode="&#xba;" horiz-adv-x="1946" 
d="M881 2847q-88 -76 -140.5 -228.5t-52.5 -300.5q0 -244 99.5 -365.5t220.5 -121.5q311 0 311 586q0 191 -81.5 310.5t-262.5 119.5h-94zM598 2970l-29 69q260 107 463 107q254 0 423 -108.5t246 -290.5t77 -404q0 -159 -58.5 -308t-163.5 -264.5t-248 -183t-300 -67.5
q-361 0 -564 219t-211 551q0 168 96.5 376.5t268.5 303.5zM287 1057q0 94 -30 155t-122 213q336 -36 1241 -57q111 8 242 8q25 -73 61.5 -138t92.5 -143.5t83 -119.5q-166 8 -386 19t-448.5 23t-378 20.5t-355.5 19.5z" />
    <glyph glyph-name="ae" unicode="&#xe6;" horiz-adv-x="4399" 
d="M1434 1110q29 0 279 -6t310 -6q-10 88 -37 315.5t-42 366t-23 235.5q-394 -711 -487 -905zM3023 2986q115 0 176 -8q587 14 1024 135q-337 -474 -422 -672q-276 -38 -561 -49q-249 20 -311 25l-74 -594q114 4 225.5 15.5t266 31.5t212.5 26q-51 -116 -153 -332.5
t-158 -355.5h-426q0 -91 -17 -241.5t-20 -212.5q8 -33 8 -82q144 8 304 8q76 0 164 -8t163 -8q49 0 74 -9q93 5 284.5 27.5t297.5 22.5q-44 -62 -157.5 -207.5t-180.5 -244.5t-117 -212q-180 -24 -368.5 -35t-408 -15.5t-404 -7.5t-302.5 -8v91q0 158 -28 438
q-483 41 -738 41h-241q-79 -107 -152.5 -205.5t-134.5 -182.5t-119 -173q-76 100 -234.5 187.5t-285.5 90.5q44 71 146 219t165 256l-90 504l332 -74q145 210 291 440.5t272.5 446t246 436.5t251.5 488q443 20 671 20q81 0 252 -5t277 -7z" />
    <glyph glyph-name="oslash" unicode="&#xf8;" horiz-adv-x="3600" 
d="M1872 2486q-103 33 -287 33h-201q-129 -120 -209 -283.5t-117 -346.5t-42 -378q15 -259 41 -376q219 301 445 677t370 674zM2216 1954q-168 -259 -318.5 -514.5t-264.5 -466t-183 -359.5q114 -34 197 -45q154 5 284.5 103t213.5 336.5t83 633.5q0 145 -12 312zM2130 3023
q5 14 42 89.5t52 111.5l17 16q77 0 126 -8q311 16 386 41q207 78 352 78h143q-54 -63 -130 -151.5t-188 -227t-227 -293.5q133 -139 219.5 -315t126 -375.5t39.5 -419.5q0 -312 -107.5 -597.5t-309 -508.5t-475 -347t-594.5 -124q-186 0 -435 57q-17 -39 -37.5 -88
t-34 -80.5t-30.5 -64.5q-31 4 -89 24t-104 25q-16 -8 -41 -8q-145 -17 -368.5 -75.5t-388.5 -117.5q182 309 463 754q-173 182 -272 454t-105 570q3 185 45 369.5t126 355.5t212 316.5t297 252.5l-58 143q472 193 922 193q220 0 426 -49z" />
    <glyph glyph-name="questiondown" unicode="&#xbf;" horiz-adv-x="2159" 
d="M1217 3265q142 0 250 -62.5t164.5 -170.5t56.5 -239q0 -133 -57.5 -239t-161.5 -166.5t-236 -60.5q-139 0 -248 58.5t-170 164t-61 235.5q0 203 126.5 341.5t336.5 138.5zM1962 950q0 -266 -66 -774q-269 -113 -478.5 -165t-459.5 -52q-198 0 -369.5 78t-277.5 240
t-110 403q0 201 125 418t282 371t223 161l25 545h791q0 -122 -36.5 -333.5t-41.5 -280.5q-123 -122 -231.5 -230.5t-191 -225t-106.5 -241.5q0 -95 63 -157t163 -68q320 53 696 311z" />
    <glyph glyph-name="exclamdown" unicode="&#xa1;" horiz-adv-x="1671" 
d="M1024 3248q216 0 339.5 -126.5t123.5 -328.5q0 -131 -56.5 -239t-162.5 -172t-244 -64q-217 0 -344 131t-127 336q0 132 57 237t163.5 165.5t250.5 60.5zM201 -57q44 189 72.5 389t70.5 540q20 167 78 472t79.5 429t35.5 291q100 26 278.5 51.5t270.5 42.5t200 58
q-1 -220 -15 -440t-32 -411t-47.5 -462.5t-32.5 -296.5q0 -119 -8 -180v-299h-86q-122 0 -258 -25z" />
    <glyph glyph-name="logicalnot" unicode="&#xac;" horiz-adv-x="3600" 
d="M3138 1110h-2937v258h3199v-1368h-262v1110z" />
    <glyph glyph-name="florin" unicode="&#x192;" horiz-adv-x="1823" 
d="M1233 3351q-24 8 -33 8q-72 0 -102.5 -140t-59 -424t-55.5 -378l-25 -90h443l-25 -185h-454l-283 -1335q-55 -280 -152 -586.5t-256 -546t-362 -239.5q-68 0 -119 20q-102 37 -102 152q0 81 61 145t148 64q45 0 57.5 -13.5t40.5 -54.5t61 -51q85 0 142.5 137.5t98 336.5
t87.5 435l336 1544h-512l25 177h528l24 122q59 298 148.5 562t223 439t300.5 175q75 0 138 -51.5t63 -124.5q0 -82 -73 -141.5t-152 -59.5q-37 0 -89.5 48t-70.5 55z" />
    <glyph glyph-name="guillemotleft" unicode="&#xab;" horiz-adv-x="2503" 
d="M201 1495l934 688v-446l-664 -480l647 -458v-480l-917 713v463zM1368 1495l938 696v-454l-668 -471l652 -467v-480l-922 721v455z" />
    <glyph glyph-name="guillemotright" unicode="&#xbb;" horiz-adv-x="2486" 
d="M1368 2183l930 -696v-455l-922 -721v480l647 466l-655 472v454zM201 2175l925 -688v-463l-909 -713v480l647 458l-663 480v446z" />
    <glyph glyph-name="ellipsis" unicode="&#x2026;" horiz-adv-x="3817" 
d="M3154 938q143 0 250 -64t164 -172t57 -239q0 -133 -57 -242t-164 -173t-250 -64q-144 0 -252.5 64t-165.5 173t-57 242q0 131 56.5 239t165.5 172t253 64zM1896 938q144 0 251 -64.5t163.5 -174.5t56.5 -244q0 -130 -57 -237t-164 -170.5t-250 -63.5q-141 0 -249 63.5
t-165 172t-57 235.5q0 131 56.5 242.5t164.5 176t250 64.5zM680 938q144 0 251 -64.5t163.5 -174.5t56.5 -244q0 -130 -57 -237t-164 -170.5t-250 -63.5t-250 63.5t-164 170.5t-57 237q0 134 56.5 244t163.5 174.5t251 64.5z" />
    <glyph glyph-name="Agrave" unicode="&#xc0;" horiz-adv-x="3015" 
d="M664 -16q-83 102 -238.5 179.5t-323.5 98.5q118 209 242 475l-176 496l336 -74q125 263 229 501.5t195 468t183 484t175 516.5q113 15 243.5 31.5t225 35t207.5 52.5q58 -289 137.5 -559t169 -527t164.5 -474q73 -216 129 -401.5t106.5 -366.5t100 -355.5t102.5 -347.5
q-532 -100 -790 -242q-64 361 -127 529q-441 41 -729 41h-250q-67 -112 -115 -192t-95 -165t-101 -204zM1528 2007q-229 -535 -336 -897q40 -1 256 -10.5t338 -9.5q-31 117 -123.5 428.5t-134.5 488.5zM1073 4162q163 125 344 405q482 -382 967 -733q-165 -141 -232 -207
t-170 -195q-278 266 -467 422t-442 308z" />
    <glyph glyph-name="Atilde" unicode="&#xc3;" horiz-adv-x="2970" 
d="M664 -16q-83 102 -238.5 179.5t-323.5 98.5q118 209 242 475l-176 496l336 -74q125 263 229 501.5t195 468t183 484t175 516.5q113 15 243.5 31.5t225 35t207.5 52.5q58 -289 137.5 -559t169 -527t164.5 -474q73 -216 129 -401.5t106.5 -366.5t100 -355.5t102.5 -347.5
q-532 -100 -790 -242q-64 361 -127 529q-441 41 -729 41h-250q-67 -112 -115 -192t-95 -165t-101 -204zM1528 2007q-229 -535 -336 -897q40 -1 256 -10.5t338 -9.5q-31 117 -123.5 428.5t-134.5 488.5zM2503 3744q-236 -224 -598 -279q-66 0 -108 21.5t-98 66t-100.5 66.5
t-111.5 22q-92 0 -178.5 -33t-205 -98t-165.5 -86q22 70 41.5 244.5t19.5 292.5v49q199 183 410 213q99 0 168.5 -36.5t159 -99t127.5 -65.5q189 0 380 108t308 236q-15 -66 -32.5 -147.5t-27.5 -145t-14 -137.5q11 -78 25 -192z" />
    <glyph glyph-name="Otilde" unicode="&#xd5;" horiz-adv-x="3314" 
d="M1057 1561q0 -239 63 -466.5t200.5 -374.5t342.5 -151q9 6 16 7.5t9 1.5q243 4 371 181t167 413.5t39 498.5q0 434 -168 688q-116 160 -495 160h-177q-351 -327 -368 -958zM881 2736l-58 143q440 201 881 201q374 0 645.5 -119.5t442 -329t252.5 -480t85 -582.5
q0 -306 -110 -592.5t-311.5 -509.5t-469 -349t-567.5 -126q-351 3 -627.5 115.5t-462.5 311.5t-281.5 465.5t-98.5 569.5q0 331 159 693t521 589zM2511 3744q-236 -225 -598 -279q-66 0 -108 21.5t-98 66t-100.5 66.5t-111.5 22q-92 0 -178 -33t-207 -98t-168 -86
q24 67 45 240t21 297v49q197 183 409 213q99 0 168.5 -36.5t159 -99t127.5 -65.5q189 0 380 108t308 236q-15 -66 -32.5 -147.5t-27.5 -145t-14 -137.5q18 -129 25 -192z" />
    <glyph glyph-name="OE" unicode="&#x152;" horiz-adv-x="4432" 
d="M1049 1561q0 -242 65 -467.5t201.5 -373t339.5 -151.5q9 6 15.5 7.5t8.5 1.5q213 4 344 149t186.5 370t55.5 480q-5 366 -55 561t-196.5 290t-432.5 95q-102 0 -156 -4q-201 -182 -281 -426t-95 -532zM201 1462q0 215 58 416t157 371t219 296t246 199l-58 144
q207 92 385 146t385 54q295 0 631 -102q224 45 438 45q123 0 304 -20.5t307 -20.5q285 6 484 35t474 104q-185 -259 -270 -386.5t-160 -293.5q-4 0 -129.5 -11t-228.5 -19t-178 -11q-51 5 -168.5 9.5t-176.5 7.5l-65 -594q137 13 264 25t235.5 25t204.5 32
q-152 -310 -311 -688l-426 -8q0 -133 -17 -263t-20 -200q8 -25 8 -74q172 16 246 16q66 0 201 -8t209 -8q112 0 315.5 20.5t315.5 20.5q-49 -81 -127.5 -177t-138.5 -169.5t-109.5 -153.5t-79.5 -172q-62 -4 -209 -16.5t-248.5 -18.5t-206.5 -6q-131 0 -358.5 16.5
t-304.5 16.5q-99 0 -276 -20.5t-269 -20.5q-434 0 -777.5 153.5t-549 482t-225.5 826.5z" />
    <glyph glyph-name="oe" unicode="&#x153;" horiz-adv-x="4415" 
d="M1049 1561q0 -242 65 -467.5t201.5 -373t339.5 -151.5q9 6 15.5 7.5t8.5 1.5q213 4 344 149t186.5 370t55.5 480q-5 366 -55 561t-196.5 290t-432.5 95q-102 0 -156 -4q-201 -182 -281 -426t-95 -532zM201 1462q0 215 58 416t157 371t219 296t246 199l-58 144
q207 92 385 146t385 54q295 0 631 -102q224 45 438 45q123 0 304 -20.5t307 -20.5q285 6 484 35t474 104q-185 -259 -270 -386.5t-160 -293.5q-4 0 -129.5 -11t-228.5 -19t-178 -11q-51 5 -168.5 9.5t-176.5 7.5l-65 -594q137 13 264 25t235.5 25t204.5 32
q-152 -310 -311 -688l-426 -8q0 -133 -17 -263t-20 -200q8 -25 8 -74q172 16 246 16q66 0 201 -8t209 -8q112 0 315.5 20.5t315.5 20.5q-49 -81 -127.5 -177t-138.5 -169.5t-109.5 -153.5t-79.5 -172q-62 -4 -209 -16.5t-248.5 -18.5t-206.5 -6q-131 0 -358.5 16.5
t-304.5 16.5q-99 0 -276 -20.5t-269 -20.5q-434 0 -777.5 153.5t-549 482t-225.5 826.5z" />
    <glyph glyph-name="emdash" unicode="&#x2013;" horiz-adv-x="2576" 
d="M2224 1647q0 -155 29.5 -270.5t105.5 -327.5q-209 57 -696 57q-81 1 -525 10.5t-737 9.5q-35 193 -200 635q192 -21 454.5 -36t656 -29.5t576.5 -23.5t336 -25z" />
    <glyph glyph-name="endash" unicode="&#x2014;" horiz-adv-x="4514" 
d="M4178 1647q0 -132 16 -223.5t56 -209t55 -165.5q-35 3 -107 20t-141.5 27t-193.5 10q-58 0 -603 4.5t-785 6t-896.5 5.5t-980.5 4h-197q-69 351 -208 635q180 -10 376 -32q61 -4 450 -10.5t1121 -14.5t1118.5 -13.5t452.5 -11.5q360 -32 467 -32z" />
    <glyph glyph-name="quotedblleft" unicode="&#x201c;" horiz-adv-x="3015" 
d="M922 1593q-369 136 -713 193q156 340 227.5 496t124 273.5t135 314t144.5 362.5q156 -82 281 -126t313 -83q-98 -178 -168.5 -342.5t-123.5 -325t-101 -332t-119 -430.5zM2241 3215q106 -76 181.5 -115.5t156 -62t198.5 -39.5q-107 -239 -192 -455t-163 -461.5
t-141 -512.5q-415 165 -696 192q115 267 222 505t179 395t161.5 350t93.5 204z" />
    <glyph glyph-name="quotedblright" unicode="&#x201d;" horiz-adv-x="2998" 
d="M2089 3232q248 -102 713 -193q-65 -151 -133 -298.5t-189.5 -406.5t-186 -404t-143.5 -345q-156 88 -272 131t-293 82q90 173 156 332t114.5 305.5t109 359t124.5 437.5zM770 1577q-241 200 -545 229q160 331 274.5 671t229.5 771q411 -155 696 -192
q-63 -148 -149 -340.5t-189 -417.5t-166.5 -369.5t-150.5 -351.5z" />
    <glyph glyph-name="quoteleft" unicode="&#x2018;" horiz-adv-x="1655" 
d="M922 1593q-369 136 -713 193q199 439 598 1470q323 -170 655 -241q-108 -201 -178.5 -362t-129 -327t-115 -350t-117.5 -383z" />
    <glyph glyph-name="quoteright" unicode="&#x2019;" horiz-adv-x="1655" 
d="M770 3240q236 -97 709 -193q-463 -1100 -607 -1470q-254 155 -655 246q104 189 209 436.5t191.5 496.5t152.5 484z" />
    <glyph glyph-name="ydieresis" unicode="&#xff;" horiz-adv-x="2830" 
d="M111 2970q363 58 712 245q117 -299 238 -562t258 -503q57 78 131 240.5t153.5 360t125.5 313.5q231 0 404 36t394 115q-74 -215 -171.5 -425.5t-249.5 -508t-265.5 -529t-218.5 -486.5q-34 -511 -111 -865q-685 -314 -917 -409q14 63 86.5 311t81.5 410q11 227 61 757
q-99 188 -192.5 365t-195 383.5t-177.5 380t-147 371.5zM950 4121q162 0 261.5 -101.5t99.5 -259.5q0 -154 -104 -253t-257 -99q-142 0 -247 104t-105 248q0 152 100.5 256.5t251.5 104.5zM1888 4121q155 0 255 -100t106 -253q0 -153 -106.5 -256.5t-254.5 -103.5
q-150 0 -255 105t-105 255q0 148 100.5 250.5t259.5 102.5z" />
    <glyph glyph-name="periodcentered" unicode="&#xb7;" horiz-adv-x="1864" 
d="M922 2159q220 0 386.5 -96.5t256.5 -263.5t90 -365q0 -204 -89.5 -373.5t-256.5 -267t-387 -97.5q-223 0 -391 97.5t-257.5 266.5t-89.5 374q0 199 90 365.5t257.5 263t390.5 96.5z" />
    <glyph glyph-name="Acircumflex" unicode="&#xc2;" 
d="M664 -16q-83 102 -238.5 179.5t-323.5 98.5q118 209 242 475l-176 496l336 -74q125 263 229 501.5t195 468t183 484t175 516.5q113 15 243.5 31.5t225 35t207.5 52.5q58 -289 137.5 -559t169 -527t164.5 -474q73 -216 129 -401.5t106.5 -366.5t100 -355.5t102.5 -347.5
q-532 -100 -790 -242q-64 361 -127 529q-441 41 -729 41h-250q-67 -112 -115 -192t-95 -165t-101 -204zM1528 2007q-229 -535 -336 -897q40 -1 256 -10.5t338 -9.5q-31 117 -123.5 428.5t-134.5 488.5zM1376 4264q78 -6 185.5 -13.5t150.5 -11.5q226 17 311 25
q265 -410 631 -799q-183 17 -246 17q-104 0 -385 -33q-68 146 -138.5 241t-221.5 279q-160 -209 -344 -528q-159 32 -369 32q-40 0 -117 -4t-112 -4q257 267 376 407.5t279 391.5z" />
    <glyph glyph-name="Ecircumflex" unicode="&#xca;" horiz-adv-x="2912" 
d="M586 2474l-410 -57q124 182 393 528q325 70 566 70q103 0 244 -13.5t206 -15.5q119 0 176 -8q422 8 942 127q-321 -438 -430 -672q-319 -40 -528 -49q-162 13 -344 24l-74 -593q585 60 705 81q-70 -150 -122 -261.5t-94.5 -210.5t-86.5 -216l-435 -8q0 -311 -37 -430
q9 -41 9 -106q110 8 278 8q87 0 222 -4t208 -4q114 0 293 20.5t293 20.5q-39 -72 -151.5 -197.5t-159.5 -196.5q-92 -131 -152 -278q-129 -4 -327.5 -22.5t-335.5 -18.5q-198 0 -403 15t-428.5 40t-418.5 47q86 220 312 594q0 86 -9 119q6 35 21 112.5t22 126.5t7 89
q0 21 -4.5 45.5t-4.5 36.5l-295 32q45 85 92 157t104.5 144.5t123.5 153.5q3 80 22 284.5t19 321.5q0 115 -8 164zM1257 4239q170 -13 336 -24q172 12 312 24q150 -232 290.5 -409.5t339.5 -388.5q-172 16 -245 16q-123 0 -385 -33q-69 143 -140.5 240.5t-220.5 279.5
q-179 -234 -344 -528q-157 33 -369 33q-38 0 -117 -4t-116 -4q245 249 372 398t287 400z" />
    <glyph glyph-name="Aacute" unicode="&#xc1;" horiz-adv-x="2978" 
d="M664 -16q-83 102 -238.5 179.5t-323.5 98.5q118 209 242 475l-176 496l336 -74q125 263 229 501.5t195 468t183 484t175 516.5q113 15 243.5 31.5t225 35t207.5 52.5q58 -289 137.5 -559t169 -527t164.5 -474q73 -216 129 -401.5t106.5 -366.5t100 -355.5t102.5 -347.5
q-532 -100 -790 -242q-64 361 -127 529q-441 41 -729 41h-250q-67 -112 -115 -192t-95 -165t-101 -204zM1528 2007q-229 -535 -336 -897q40 -1 256 -10.5t338 -9.5q-31 117 -123.5 428.5t-134.5 488.5zM1409 3416q-199 220 -393 385q144 108 237 179.5t348.5 269
t360.5 276.5q124 -173 186.5 -249t157.5 -148q-472 -310 -897 -713z" />
    <glyph glyph-name="Edieresis" unicode="&#xcb;" horiz-adv-x="2904" 
d="M586 2474l-410 -57q124 182 393 528q325 70 566 70q103 0 244 -13.5t206 -15.5q119 0 176 -8q422 8 942 127q-321 -438 -430 -672q-319 -40 -528 -49q-162 13 -344 24l-74 -593q585 60 705 81q-70 -150 -122 -261.5t-94.5 -210.5t-86.5 -216l-435 -8q0 -311 -37 -430
q9 -41 9 -106q110 8 278 8q87 0 222 -4t208 -4q114 0 293 20.5t293 20.5q-39 -72 -151.5 -197.5t-159.5 -196.5q-92 -131 -152 -278q-129 -4 -327.5 -22.5t-335.5 -18.5q-198 0 -403 15t-428.5 40t-418.5 47q86 220 312 594q0 86 -9 119q6 35 21 112.5t22 126.5t7 89
q0 21 -4.5 45.5t-4.5 36.5l-295 32q45 85 92 157t104.5 144.5t123.5 153.5q3 80 22 284.5t19 321.5q0 115 -8 164zM1143 4121q162 0 261 -101.5t99 -259.5q0 -154 -104 -253t-256 -99q-144 0 -248 104t-104 248q0 152 100.5 256.5t251.5 104.5zM2081 4121q156 0 255 -100
t105 -253q0 -153 -106.5 -256.5t-253.5 -103.5q-151 0 -256 105t-105 255q0 148 100.5 250.5t260.5 102.5z" />
    <glyph glyph-name="Egrave" unicode="&#xc8;" horiz-adv-x="2929" 
d="M586 2474l-410 -57q124 182 393 528q325 70 566 70q103 0 244 -13.5t206 -15.5q119 0 176 -8q422 8 942 127q-321 -438 -430 -672q-319 -40 -528 -49q-162 13 -344 24l-74 -593q585 60 705 81q-70 -150 -122 -261.5t-94.5 -210.5t-86.5 -216l-435 -8q0 -311 -37 -430
q9 -41 9 -106q110 8 278 8q87 0 222 -4t208 -4q114 0 293 20.5t293 20.5q-39 -72 -151.5 -197.5t-159.5 -196.5q-92 -131 -152 -278q-129 -4 -327.5 -22.5t-335.5 -18.5q-198 0 -403 15t-428.5 40t-418.5 47q86 220 312 594q0 86 -9 119q6 35 21 112.5t22 126.5t7 89
q0 21 -4.5 45.5t-4.5 36.5l-295 32q45 85 92 157t104.5 144.5t123.5 153.5q3 80 22 284.5t19 321.5q0 115 -8 164zM950 4137q172 129 344 405q515 -402 971 -733q-144 -118 -219.5 -192t-181.5 -209q-279 265 -473.5 423.5t-440.5 305.5z" />
    <glyph glyph-name="Iacute" unicode="&#xcd;" horiz-adv-x="1671" 
d="M471 3080q178 0 301 25.5t295.5 86.5t214.5 73q-41 -199 -66.5 -472t-37 -538t-11.5 -416v-1569q-385 -69 -856 -278q7 192 29 454.5t39 441t32 406t15 418.5v270q5 481 10 662.5t35 435.5zM631 3400q-208 230 -389 385q80 60 238 181t255.5 197.5t214.5 168.5t234 182
q201 -292 344 -402q-251 -164 -455.5 -325t-441.5 -387z" />
    <glyph glyph-name="Icircumflex" unicode="&#xce;" horiz-adv-x="1864" 
d="M471 3080q178 0 301 25.5t295.5 86.5t214.5 73q-41 -199 -66.5 -472t-37 -538t-11.5 -416v-1569q-385 -69 -856 -278q7 192 29 454.5t39 441t32 406t15 418.5v270q5 481 10 662.5t35 435.5zM594 4256q235 -18 336 -25q122 8 311 25q262 -407 631 -799q-172 16 -250 16
q-111 0 -381 -32q-71 147 -144.5 247t-215.5 273q-183 -236 -344 -529q-157 33 -369 33q-42 0 -120 -4t-114 -4q245 249 369 394t291 405z" />
    <glyph glyph-name="Idieresis" unicode="&#xcf;" horiz-adv-x="1593" 
d="M471 3080q178 0 301 25.5t295.5 86.5t214.5 73q-41 -199 -66.5 -472t-37 -538t-11.5 -416v-1569q-385 -69 -856 -278q7 192 29 454.5t39 441t32 406t15 418.5v270q5 481 10 662.5t35 435.5zM319 4137q162 0 261.5 -101.5t99.5 -258.5q0 -155 -104 -254t-257 -99
q-144 0 -248 104t-104 249q0 152 99 256t253 104zM1257 4137q153 0 254 -100t107 -252q0 -154 -106.5 -257.5t-254.5 -103.5q-150 0 -255 105t-105 256q0 147 100.5 249.5t259.5 102.5z" />
    <glyph glyph-name="Igrave" unicode="&#xcc;" horiz-adv-x="1655" 
d="M471 3080q178 0 301 25.5t295.5 86.5t214.5 73q-41 -199 -66.5 -472t-37 -538t-11.5 -416v-1569q-385 -69 -856 -278q7 192 29 454.5t39 441t32 406t15 418.5v270q5 481 10 662.5t35 435.5zM152 4153q175 136 344 406q460 -366 966 -733q-154 -131 -225 -201.5
t-172 -200.5q-279 265 -473 423.5t-440 305.5z" />
    <glyph glyph-name="Oacute" unicode="&#xd3;" horiz-adv-x="3305" 
d="M1057 1561q0 -239 63 -466.5t200.5 -374.5t342.5 -151q9 6 16 7.5t9 1.5q243 4 371 181t167 413.5t39 498.5q0 434 -168 688q-116 160 -495 160h-177q-351 -327 -368 -958zM881 2736l-58 143q440 201 881 201q374 0 645.5 -119.5t442 -329t252.5 -480t85 -582.5
q0 -306 -110 -592.5t-311.5 -509.5t-469 -349t-567.5 -126q-351 3 -627.5 115.5t-462.5 311.5t-281.5 465.5t-98.5 569.5q0 331 159 693t521 589zM1454 3441q-183 203 -389 385q106 79 271.5 206t320.5 248t350 271q48 -64 109 -146.5t112.5 -139t122.5 -112.5
q-454 -297 -897 -712z" />
    <glyph glyph-name="Ocircumflex" unicode="&#xd4;" horiz-adv-x="3322" 
d="M1057 1561q0 -239 63 -466.5t200.5 -374.5t342.5 -151q9 6 16 7.5t9 1.5q243 4 371 181t167 413.5t39 498.5q0 434 -168 688q-116 160 -495 160h-177q-351 -327 -368 -958zM881 2736l-58 143q440 201 881 201q374 0 645.5 -119.5t442 -329t252.5 -480t85 -582.5
q0 -306 -110 -592.5t-311.5 -509.5t-469 -349t-567.5 -126q-351 3 -627.5 115.5t-462.5 311.5t-281.5 465.5t-98.5 569.5q0 331 159 693t521 589zM1487 4239q171 -13 336 -24q176 11 311 24q101 -156 191 -279t196 -247t248 -272q-180 16 -250 16q-115 0 -385 -33
q-69 148 -142 248t-214 272q-169 -213 -344 -528q-162 33 -369 33q-42 0 -120 -4t-114 -4q234 236 363 387.5t293 410.5z" />
    <glyph glyph-name="Ograve" unicode="&#xd2;" horiz-adv-x="3330" 
d="M1057 1561q0 -239 63 -466.5t200.5 -374.5t342.5 -151q9 6 16 7.5t9 1.5q243 4 371 181t167 413.5t39 498.5q0 434 -168 688q-116 160 -495 160h-177q-351 -327 -368 -958zM881 2736l-58 143q440 201 881 201q374 0 645.5 -119.5t442 -329t252.5 -480t85 -582.5
q0 -306 -110 -592.5t-311.5 -509.5t-469 -349t-567.5 -126q-351 3 -627.5 115.5t-462.5 311.5t-281.5 465.5t-98.5 569.5q0 331 159 693t521 589zM1090 4145q161 125 344 406q452 -360 966 -734q-144 -118 -219.5 -192t-181.5 -209q-284 270 -474.5 426t-434.5 303z" />
    <glyph glyph-name="Uacute" unicode="&#xda;" horiz-adv-x="2888" 
d="M279 2847q222 32 847 192v-221q0 -243 -10 -464t-36 -680.5t-31 -657.5q5 -163 30 -251.5t89.5 -131.5t183.5 -47q528 0 528 1220q0 211 -28.5 593.5t-28.5 578.5q113 37 275.5 98.5t296.5 108t259 80.5q3 -110 18 -457.5t15 -558.5q0 -1195 -406 -1651
q-199 -226 -376 -356t-371.5 -187.5t-460.5 -62.5q-320 0 -503 126t-260.5 332.5t-92 397.5t-24.5 594q0 75 14.5 232t31.5 324.5t28.5 328t11.5 319.5v201zM1233 3432q-179 197 -393 385q144 108 290.5 221t388.5 299t267 205q122 -169 184.5 -246t159.5 -151
q-251 -164 -452.5 -322.5t-444.5 -390.5z" />
    <glyph glyph-name="Ucircumflex" unicode="&#xdb;" horiz-adv-x="2904" 
d="M279 2847q222 32 847 192v-221q0 -243 -10 -464t-36 -680.5t-31 -657.5q5 -163 30 -251.5t89.5 -131.5t183.5 -47q528 0 528 1220q0 211 -28.5 593.5t-28.5 578.5q113 37 275.5 98.5t296.5 108t259 80.5q3 -110 18 -457.5t15 -558.5q0 -1195 -406 -1651
q-199 -226 -376 -356t-371.5 -187.5t-460.5 -62.5q-320 0 -503 126t-260.5 332.5t-92 397.5t-24.5 594q0 75 14.5 232t31.5 324.5t28.5 328t11.5 319.5v201zM1208 4256q231 -18 336 -25q152 10 311 25q262 -407 631 -799q-172 16 -245 16q-114 0 -386 -32
q-68 146 -138.5 241t-221.5 279q-162 -211 -344 -529q-157 33 -369 33q-39 0 -117 -4t-112 -4q257 267 376 407.5t279 391.5z" />
    <glyph glyph-name="Ugrave" unicode="&#xd9;" horiz-adv-x="2904" 
d="M279 2847q222 32 847 192v-221q0 -243 -10 -464t-36 -680.5t-31 -657.5q5 -163 30 -251.5t89.5 -131.5t183.5 -47q528 0 528 1220q0 211 -28.5 593.5t-28.5 578.5q113 37 275.5 98.5t296.5 108t259 80.5q3 -110 18 -457.5t15 -558.5q0 -1195 -406 -1651
q-199 -226 -376 -356t-371.5 -187.5t-460.5 -62.5q-320 0 -503 126t-260.5 332.5t-92 397.5t-24.5 594q0 75 14.5 232t31.5 324.5t28.5 328t11.5 319.5v201zM922 4178q160 124 344 405q160 -126 280 -219t271 -207t222 -167t193 -144q-163 -135 -232 -202t-169 -195
q-284 270 -474.5 426t-434.5 303z" />
    <glyph glyph-name="circumflex" unicode="&#x2c6;" horiz-adv-x="2654" 
d="M1257 2646q71 -3 336 -20q269 18 312 20q263 -409 630 -799q-183 17 -245 17q-107 0 -385 -33q-69 143 -140.5 240.5t-220.5 279.5q-179 -234 -344 -528q-159 32 -369 32q-38 0 -117 -4t-116 -4q262 271 381 411.5t278 387.5z" />
    <glyph glyph-name="tilde" unicode="&#x2dc;" horiz-adv-x="2503" 
d="M2343 1511q-229 -217 -598 -278q-66 0 -108 21.5t-98 66t-100.5 66.5t-111.5 22q-91 0 -178.5 -32.5t-208.5 -98t-166 -86.5q24 67 45 240t21 297v49q197 183 409 213q98 0 166.5 -35t159 -98t129.5 -64q194 0 385 107t303 233q-67 -307 -74 -430q13 -83 25 -193z" />
    <glyph glyph-name="ring" unicode="&#x2da;" horiz-adv-x="2306" 
d="M1618 2544q177 0 309.5 -78t202.5 -213t70 -299q0 -160 -73.5 -295t-206.5 -213t-302 -78q-265 0 -429.5 168.5t-164.5 417.5q0 165 71 299.5t205.5 212.5t317.5 78zM1638 2142q-81 0 -128.5 -50.5t-47.5 -125.5q0 -73 47 -126.5t121 -53.5q83 0 134 53t51 127
q0 77 -46.5 126.5t-130.5 49.5z" />
    </font>
</defs>
</svg>
