<?xml version="1.0" standalone="no"?>
<!DOCTYPE svg PUBLIC "-//W3C//DTD SVG 1.1//EN" "http://www.w3.org/Graphics/SVG/1.1/DTD/svg11.dtd" >
<svg xmlns="http://www.w3.org/2000/svg" xmlns:xlink="http://www.w3.org/1999/xlink" version="1.1">
<metadata>
Created by FontForge 20150504 at Fri Jun 12 12:42:52 2015
 By Jimmy Wärting
(c) 2011 Microsoft Corporation. All Rights Reserved.
</metadata>
<defs>
<font id="Verdana" horiz-adv-x="0" >
  <font-face 
    font-family="Verdana"
    font-weight="400"
    font-stretch="normal"
    units-per-em="2048"
    panose-1="2 11 6 4 3 5 4 4 2 4"
    ascent="1638"
    descent="-410"
    x-height="1117"
    cap-height="1489"
    bbox="-1146 -621 2963 2152"
    underline-thickness="120"
    underline-position="-240"
    unicode-range="U+0020-FFFD"
  />
<missing-glyph horiz-adv-x="2048" 
d="M256 0v1536h1536v-1536h-1536zM384 128h1280v1280h-1280v-1280z" />
    <glyph glyph-name=".notdef" horiz-adv-x="2048" 
d="M256 0v1536h1536v-1536h-1536zM384 128h1280v1280h-1280v-1280z" />
    <glyph glyph-name=".null" 
 />
    <glyph glyph-name="nonmarkingreturn" horiz-adv-x="720" 
 />
    <glyph glyph-name="space" unicode=" " horiz-adv-x="720" 
 />
    <glyph glyph-name="space" unicode="&#xa0;" horiz-adv-x="720" 
 />
    <glyph glyph-name="exclam" unicode="!" horiz-adv-x="806" 
d="M515 1489l-26 -1079h-170l-28 1079h224zM505 0h-204v211h204v-211z" />
    <glyph glyph-name="quotedbl" unicode="&#x22;" horiz-adv-x="940" 
d="M772 1556l-43 -579h-132l-43 579h218zM386 1556l-43 -579h-132l-43 579h218z" />
    <glyph glyph-name="numbersign" unicode="#" horiz-adv-x="1676" 
d="M1481 932h-333l-92 -376h308v-135h-343l-104 -421h-129l104 421h-270l-104 -421h-129l104 421h-298v135h333l92 376h-308v135h343l105 422h129l-105 -422h270l105 422h129l-105 -422h298v-135zM1022 934h-274l-94 -380h274z" />
    <glyph glyph-name="dollar" unicode="$" horiz-adv-x="1302" 
d="M1160 380q0 -155 -121 -257.5t-317 -121.5v-362h-118v357q-132 1 -248 25.5t-201 63.5v198h16q19 -14 68 -40.5t95 -43.5q52 -19 121.5 -35.5t148.5 -19.5v433q-40 8 -74 15.5t-63 15.5q-163 41 -234 123.5t-71 203.5q0 148 116.5 250t325.5 119v272h118v-270
q101 -2 207 -24t178 -51v-196h-14q-75 46 -156.5 81.5t-214.5 44.5v-431q30 -5 65 -13.5t61 -13.5q149 -32 230.5 -110t81.5 -213zM604 747v413q-107 -8 -180 -58.5t-73 -140.5q0 -91 54 -137t199 -77zM971 354q0 94 -58.5 137.5t-190.5 68.5v-414q120 12 184.5 61t64.5 147
z" />
    <glyph glyph-name="percent" unicode="%" horiz-adv-x="2204" 
d="M884 1076q0 -224 -94.5 -333t-272.5 -109q-182 0 -275 109t-93 332q0 224 95 333t273 109q181 0 274 -110t93 -331zM1575 1489l-780 -1489h-165l780 1489h165zM2055 413q0 -224 -95 -333t-273 -109q-181 0 -274 110t-93 331q0 224 94.5 333t272.5 109q182 0 275 -109
t93 -332zM706 1076q0 172 -44.5 240t-144.5 68q-102 0 -146 -68t-44 -241t44 -240.5t146 -67.5q100 0 144.5 67.5t44.5 241.5zM1877 413q0 172 -44.5 240t-144.5 68q-102 0 -146 -68t-44 -241t44 -240.5t146 -67.5q100 0 144.5 67.5t44.5 241.5z" />
    <glyph glyph-name="ampersand" unicode="&#x26;" horiz-adv-x="1488" 
d="M792 1191q0 95 -56.5 149.5t-144.5 54.5q-92 0 -150 -61.5t-58 -150.5q0 -75 39.5 -133t170.5 -137q98 35 148.5 102.5t50.5 175.5zM986 315l-478 466q-31 -15 -62 -39.5t-62 -66.5q-28 -39 -46 -94t-18 -124q0 -146 85.5 -235.5t242.5 -89.5q93 0 184.5 45.5
t153.5 137.5zM1287 909v-96q0 -96 -25 -216t-85 -229l378 -368h-246l-229 224q-115 -142 -235 -198.5t-247 -56.5q-208 0 -345.5 121.5t-137.5 318.5q0 92 26 159t61 116q35 47 87 88.5t105 72.5q-110 72 -158.5 145t-48.5 184q0 67 26.5 127.5t79.5 110.5q50 48 130.5 78
t177.5 30q173 0 280 -87.5t107 -221.5q0 -44 -12 -99.5t-41 -99.5q-32 -49 -91 -94t-153 -77l371 -362q14 40 21 88t8 100q2 56 1.5 125t-0.5 117h195z" />
    <glyph glyph-name="quotesingle" unicode="'" horiz-adv-x="550" 
d="M386 1556l-43 -579h-136l-43 579h222z" />
    <glyph glyph-name="parenleft" unicode="(" horiz-adv-x="930" 
d="M783 -412h-229q-177 203 -275 443t-98 541t98 541t275 443h229v-10q-81 -73 -154.5 -168.5t-136.5 -222.5q-60 -123 -97.5 -271t-37.5 -312q0 -171 36.5 -313t98.5 -270q60 -123 137 -222.5t154 -168.5v-10z" />
    <glyph glyph-name="parenright" unicode=")" horiz-adv-x="930" 
d="M749 572q0 -301 -98 -541t-275 -443h-229v10q77 69 154.5 168.5t136.5 222.5q62 128 98.5 270t36.5 313q0 164 -37 312t-98 271q-63 127 -136.5 222.5t-154.5 168.5v10h229q177 -203 275 -443t98 -541z" />
    <glyph glyph-name="asterisk" unicode="*" horiz-adv-x="1302" 
d="M1137 887l-64 -110l-362 213l6 -360h-129l5 360l-361 -214l-65 110l381 207l-381 207l65 110l362 -213l-6 359h129l-7 -359l363 212l64 -110l-380 -205z" />
    <glyph glyph-name="plus" unicode="+" horiz-adv-x="1676" 
d="M1466 572h-545v-545h-166v545h-545v160h545v545h166v-545h545v-160z" />
    <glyph glyph-name="comma" unicode="," horiz-adv-x="745" 
d="M575 285l-282 -655h-146l174 655h254z" />
    <glyph glyph-name="hyphen" unicode="-" horiz-adv-x="930" 
d="M777 561h-624v181h624v-181z" />
    <glyph glyph-name="hyphen" unicode="&#xad;" horiz-adv-x="930" 
d="M777 561h-624v181h624v-181z" />
    <glyph glyph-name="period" unicode="." horiz-adv-x="745" 
d="M492 0h-239v285h239v-285z" />
    <glyph glyph-name="slash" unicode="/" horiz-adv-x="930" 
d="M860 1556l-717 -1860h-173l714 1860h176z" />
    <glyph glyph-name="zero" unicode="0" horiz-adv-x="1302" 
d="M1167 745q0 -401 -125.5 -588.5t-389.5 -187.5q-268 0 -391.5 190t-123.5 584q0 397 125 586.5t390 189.5q268 0 391.5 -192.5t123.5 -581.5zM904 291q35 81 47.5 190.5t12.5 263.5q0 152 -12.5 264t-48.5 190q-35 77 -95.5 116t-155.5 39q-94 0 -155.5 -39t-97.5 -118
q-34 -74 -46.5 -193t-12.5 -261q0 -156 11 -261t47 -188q33 -78 93.5 -119t160.5 -41q94 0 156 39t96 118z" />
    <glyph glyph-name="one" unicode="1" horiz-adv-x="1302" 
d="M1084 0h-806v152h310v998h-310v136q63 0 135 10.5t109 30.5q46 25 72.5 63.5t30.5 103.5h155v-1342h304v-152z" />
    <glyph glyph-name="two" unicode="2" horiz-adv-x="1302" 
d="M1169 0h-1008v209q105 90 210.5 180t196.5 179q192 186 263 295.5t71 236.5q0 116 -76.5 181.5t-213.5 65.5q-91 0 -197 -32t-207 -98h-10v210q71 35 189.5 64t229.5 29q229 0 359 -110.5t130 -299.5q0 -85 -21.5 -158.5t-63.5 -139.5q-39 -62 -91.5 -122t-127.5 -133
q-107 -105 -221 -203.5t-213 -182.5h801v-171z" />
    <glyph glyph-name="three" unicode="3" horiz-adv-x="1302" 
d="M1038 717q48 -43 79 -108t31 -168q0 -102 -37 -187t-104 -148q-75 -70 -176.5 -103.5t-222.5 -33.5q-124 0 -244 29.5t-197 64.5v209h15q85 -56 200 -93t222 -37q63 0 134 21t115 62q46 44 68.5 97t22.5 134q0 80 -25.5 132.5t-70.5 82.5q-45 31 -109 42.5t-138 11.5h-90
v166h70q152 0 242.5 63.5t90.5 185.5q0 54 -23 94.5t-64 66.5q-43 26 -92 36t-111 10q-95 0 -202 -34t-202 -96h-10v209q71 35 189.5 64.5t229.5 29.5q109 0 192 -20t150 -64q72 -48 109 -116t37 -159q0 -124 -87.5 -216.5t-206.5 -116.5v-14q48 -8 110 -33.5t105 -63.5z
" />
    <glyph glyph-name="four" unicode="4" horiz-adv-x="1302" 
d="M1203 419h-221v-419h-192v419h-713v230l721 840h184v-910h221v-160zM790 579v672l-577 -672h577z" />
    <glyph glyph-name="five" unicode="5" horiz-adv-x="1302" 
d="M1157 473q0 -104 -38 -199t-104 -160q-72 -70 -171.5 -107.5t-230.5 -37.5q-122 0 -235 25.5t-191 61.5v211h14q82 -52 192 -88.5t216 -36.5q71 0 137.5 20t118.5 70q44 43 66.5 103t22.5 139q0 77 -26.5 130t-73.5 85q-52 38 -126.5 53.5t-166.5 15.5q-88 0 -169.5 -12
t-140.5 -24v767h896v-175h-703v-396q43 4 88 6t78 2q121 0 212 -20.5t167 -72.5q80 -55 124 -142t44 -218z" />
    <glyph glyph-name="six" unicode="6" horiz-adv-x="1302" 
d="M1191 483q0 -227 -149.5 -370.5t-366.5 -143.5q-110 0 -200 34t-159 101q-86 83 -132.5 220t-46.5 330q0 198 42.5 351t135.5 272q88 113 227 176.5t324 63.5q59 0 99 -5t81 -18v-191h-10q-28 15 -84.5 28.5t-115.5 13.5q-215 0 -343 -134.5t-149 -363.5
q84 51 165.5 77.5t188.5 26.5q95 0 167.5 -17.5t148.5 -70.5q88 -61 132.5 -154t44.5 -226zM988 475q0 93 -27.5 154t-90.5 106q-46 32 -102 42t-117 10q-85 0 -158 -20t-150 -62q-2 -22 -3 -42.5t-1 -51.5q0 -158 32.5 -249.5t89.5 -144.5q46 -44 99.5 -64.5t116.5 -20.5
q145 0 228 88.5t83 254.5z" />
    <glyph glyph-name="seven" unicode="7" horiz-adv-x="1302" 
d="M1173 1266l-674 -1266h-214l717 1314h-848v175h1019v-223z" />
    <glyph glyph-name="eight" unicode="8" horiz-adv-x="1302" 
d="M1180 415q0 -193 -150.5 -321t-378.5 -128q-242 0 -385.5 125t-143.5 320q0 124 72 224.5t203 159.5v6q-120 64 -177.5 140t-57.5 190q0 168 138 280t351 112q223 0 356 -107t133 -272q0 -101 -63 -198.5t-185 -152.5v-6q140 -60 214 -148t74 -224zM943 1142
q0 107 -82.5 170.5t-210.5 63.5q-126 0 -206.5 -60t-80.5 -162q0 -72 40.5 -124.5t122.5 -93.5q37 -18 106.5 -47t135.5 -48q99 66 137 137t38 164zM974 396q0 92 -40.5 147.5t-158.5 111.5q-47 22 -103 41t-149 53q-90 -49 -144.5 -133t-54.5 -190q0 -135 93 -223t236 -88
q146 0 233.5 75t87.5 206z" />
    <glyph glyph-name="nine" unicode="9" horiz-adv-x="1302" 
d="M1167 834q0 -195 -44.5 -354t-134.5 -271q-91 -114 -228 -176t-322 -62q-52 0 -98 5.5t-82 17.5v191h10q29 -15 82 -28.5t118 -13.5q221 0 346.5 132.5t145.5 365.5q-93 -56 -175 -80t-179 -24q-92 0 -166.5 18t-149.5 70q-88 61 -132.5 155t-44.5 225q0 228 150 371
t366 143q108 0 200 -33.5t161 -100.5q85 -83 131 -213.5t46 -337.5zM965 877q0 155 -32 249t-88 146q-47 45 -101 64.5t-117 19.5q-144 0 -227.5 -90t-83.5 -253q0 -95 27 -155t91 -105q45 -31 99 -41.5t120 -10.5q78 0 158 21t150 61q1 21 2.5 41.5t1.5 52.5z" />
    <glyph glyph-name="colon" unicode=":" horiz-adv-x="930" 
d="M585 832h-239v285h239v-285zM585 0h-239v285h239v-285z" />
    <glyph glyph-name="semicolon" unicode=";" horiz-adv-x="930" 
d="M585 832h-239v285h239v-285zM658 285l-282 -655h-146l174 655h254z" />
    <glyph glyph-name="semicolon" unicode="&#x37e;" horiz-adv-x="930" 
d="M585 832h-239v285h239v-285zM658 285l-282 -655h-146l174 655h254z" />
    <glyph glyph-name="less" unicode="&#x3c;" horiz-adv-x="1676" 
d="M1408 77l-1154 513v124l1154 513v-180l-910 -395l910 -395v-180z" />
    <glyph glyph-name="equal" unicode="=" horiz-adv-x="1676" 
d="M1431 782h-1186v160h1186v-160zM1431 362h-1186v160h1186v-160z" />
    <glyph glyph-name="greater" unicode="&#x3e;" horiz-adv-x="1676" 
d="M1422 590l-1154 -513v180l910 395l-910 395v180l1154 -513v-124z" />
    <glyph glyph-name="question" unicode="?" horiz-adv-x="1117" 
d="M1005 1139q0 -98 -35 -174.5t-92 -135.5q-56 -57 -129 -107t-155 -97v-225h-179v305q65 37 140.5 81t123.5 89q58 52 90 107.5t32 141.5q0 113 -76.5 168.5t-197.5 55.5q-108 0 -204.5 -34t-152.5 -69h-10v204q70 27 177.5 48.5t203.5 21.5q215 0 339.5 -104.5
t124.5 -275.5zM610 0h-204v211h204v-211z" />
    <glyph glyph-name="at" unicode="@" horiz-adv-x="2048" 
d="M1870 663q0 -139 -40.5 -269t-115.5 -237h-440l-27 116q-74 -60 -142 -92t-156 -32q-168 0 -268.5 127t-100.5 355q0 227 123 362t294 135q73 0 129 -16.5t121 -49.5v48h159v-842h243q42 75 63.5 187.5t21.5 201.5q0 164 -45.5 298t-133.5 230t-218 147.5t-295 51.5
q-160 0 -292.5 -58t-227.5 -156q-96 -98 -150.5 -234.5t-54.5 -290.5q0 -165 52 -301.5t147 -233.5q99 -101 232 -152.5t290 -51.5q86 0 177.5 11t175.5 35v-142q-97 -21 -181 -28.5t-173 -7.5q-186 0 -345 63.5t-273 177.5q-115 115 -179 276t-64 356q0 185 67 344.5
t183 276.5t275 184t340 67q196 0 350 -62t260 -174t162.5 -269.5t56.5 -350.5zM1245 408v518q-63 29 -113 41.5t-107 12.5q-129 0 -202 -90t-73 -256q0 -163 58 -246.5t181 -83.5q67 0 134 31t122 73z" />
    <glyph glyph-name="A" unicode="A" horiz-adv-x="1400" 
d="M1374 0h-211l-146 415h-644l-146 -415h-201l542 1489h264zM956 585l-261 731l-262 -731h523z" />
    <glyph glyph-name="B" unicode="B" horiz-adv-x="1404" 
d="M1323 458q0 -111 -42 -196t-113 -140q-84 -66 -184.5 -94t-255.5 -28h-528v1489h441q163 0 244 -12t155 -50q82 -43 119 -110.5t37 -161.5q0 -106 -54 -180.5t-144 -119.5v-8q151 -31 238 -132.5t87 -256.5zM990 1129q0 54 -18 91t-58 60q-47 27 -114 33.5t-166 6.5h-236
v-430h256q93 0 148 9.5t102 39.5t66.5 77.5t19.5 112.5zM1117 450q0 90 -27 143t-98 90q-48 25 -116.5 32.5t-166.5 7.5h-311v-554h262q130 0 213 13.5t136 49.5q56 39 82 89t26 129z" />
    <glyph glyph-name="C" unicode="C" horiz-adv-x="1430" 
d="M1350 108q-55 -24 -99.5 -45t-116.5 -44q-61 -19 -132.5 -32.5t-157.5 -13.5q-162 0 -294.5 45.5t-230.5 142.5q-96 95 -150 241.5t-54 340.5q0 184 52 329t150 245q95 97 229.5 148t298.5 51q120 0 239.5 -29t265.5 -102v-235h-15q-123 103 -244 150t-259 47
q-113 0 -203.5 -36.5t-161.5 -113.5q-69 -75 -107.5 -189.5t-38.5 -264.5q0 -157 42.5 -270t109.5 -184q70 -74 163.5 -109.5t197.5 -35.5q143 0 268 49t234 147h14v-232z" />
    <glyph glyph-name="D" unicode="D" horiz-adv-x="1578" 
d="M1458 743q0 -203 -88.5 -368t-235.5 -256q-102 -63 -227.5 -91t-330.5 -28h-376v1489h372q218 0 346.5 -31.5t217.5 -86.5q152 -95 237 -253t85 -375zM1251 746q0 175 -61 295t-182 189q-88 50 -187 69.5t-237 19.5h-186v-1149h186q143 0 249.5 21t195.5 78
q111 71 166.5 187t55.5 290z" />
    <glyph glyph-name="E" unicode="E" horiz-adv-x="1295" 
d="M1181 0h-981v1489h981v-176h-783v-408h783v-176h-783v-553h783v-176z" />
    <glyph glyph-name="F" unicode="F" horiz-adv-x="1177" 
d="M1151 1313h-753v-420h647v-176h-647v-717h-198v1489h951v-176z" />
    <glyph glyph-name="G" unicode="G" horiz-adv-x="1588" 
d="M1442 110q-122 -56 -266.5 -97.5t-279.5 -41.5q-174 0 -319 48t-247 144q-103 97 -159 242.5t-56 340.5q0 357 208.5 563.5t572.5 206.5q127 0 259.5 -30.5t285.5 -103.5v-235h-18q-31 24 -90 63t-116 65q-69 31 -156.5 51.5t-198.5 20.5q-250 0 -395.5 -160.5
t-145.5 -434.5q0 -289 152 -449.5t414 -160.5q96 0 191.5 19t167.5 49v365h-399v174h595v-639z" />
    <glyph glyph-name="H" unicode="H" horiz-adv-x="1539" 
d="M1339 0h-198v729h-743v-729h-198v1489h198v-584h743v584h198v-1489z" />
    <glyph glyph-name="I" unicode="I" horiz-adv-x="862" 
d="M725 0h-588v152h195v1185h-195v152h588v-152h-195v-1185h195v-152z" />
    <glyph glyph-name="J" unicode="J" horiz-adv-x="931" 
d="M746 387q0 -196 -119.5 -302t-320.5 -106q-48 0 -128 8.5t-134 20.5v185h11q41 -14 101 -29t123 -15q92 0 146.5 21t80.5 60q27 40 34.5 98t7.5 134v869h-315v158h513v-1102z" />
    <glyph glyph-name="K" unicode="K" horiz-adv-x="1419" 
d="M1397 0h-257l-589 663l-148 -158v-505h-198v1489h198v-777l723 777h240l-665 -700z" />
    <glyph glyph-name="L" unicode="L" horiz-adv-x="1140" 
d="M1142 0h-942v1489h198v-1313h744v-176z" />
    <glyph glyph-name="M" unicode="M" horiz-adv-x="1726" 
d="M1526 0h-198v1283l-414 -873h-118l-411 873v-1283h-185v1489h270l397 -829l384 829h275v-1489z" />
    <glyph glyph-name="N" unicode="N" horiz-adv-x="1532" 
d="M1336 0h-245l-706 1332v-1332h-185v1489h307l644 -1216v1216h185v-1489z" />
    <glyph glyph-name="O" unicode="O" horiz-adv-x="1612" 
d="M1310 1318q91 -100 139.5 -245t48.5 -329t-49.5 -329.5t-138.5 -242.5q-92 -101 -217.5 -152t-286.5 -51q-157 0 -285.5 52t-218.5 151t-138.5 243t-48.5 329q0 182 48 326.5t140 247.5q88 98 218.5 150t284.5 52q160 0 287.5 -52.5t216.5 -149.5zM1292 744
q0 290 -130 447.5t-355 157.5q-227 0 -356.5 -157.5t-129.5 -447.5q0 -293 132 -448.5t354 -155.5t353.5 155.5t131.5 448.5z" />
    <glyph glyph-name="P" unicode="P" horiz-adv-x="1235" 
d="M1174 1039q0 -99 -34.5 -183.5t-96.5 -146.5q-77 -77 -182 -115.5t-265 -38.5h-198v-555h-198v1489h404q134 0 227 -22.5t165 -70.5q85 -57 131.5 -142t46.5 -215zM968 1034q0 77 -27 134t-82 93q-48 31 -109.5 44.5t-155.5 13.5h-196v-595h167q120 0 195 21.5t122 68.5
q47 48 66.5 101t19.5 119z" />
    <glyph glyph-name="Q" unicode="Q" horiz-adv-x="1612" 
d="M1528 -365q-60 -15 -118.5 -21.5t-119.5 -6.5q-174 0 -279.5 95.5t-114.5 273.5q-24 -4 -46.5 -5.5t-43.5 -1.5q-157 0 -285.5 52t-218.5 151t-138.5 243t-48.5 329q0 182 48 326.5t140 247.5q88 98 218.5 150t284.5 52q160 0 287.5 -52.5t216.5 -149.5
q91 -100 139.5 -245t48.5 -329q0 -273 -111.5 -460t-299.5 -262q4 -114 54 -177t182 -63q41 0 97.5 12.5t80.5 22.5h27v-182zM1292 744q0 290 -130 447.5t-355 157.5q-227 0 -356.5 -157.5t-129.5 -447.5q0 -293 132 -448.5t354 -155.5t353.5 155.5t131.5 448.5z" />
    <glyph glyph-name="R" unicode="R" horiz-adv-x="1424" 
d="M1432 0h-257l-498 592h-279v-592h-198v1489h417q135 0 225 -17.5t162 -62.5q81 -51 126.5 -128.5t45.5 -196.5q0 -161 -81 -269.5t-223 -163.5zM969 1070q0 64 -22.5 113.5t-74.5 83.5q-43 29 -102 40.5t-139 11.5h-233v-562h200q94 0 164 16.5t119 61.5q45 42 66.5 96.5
t21.5 138.5z" />
    <glyph glyph-name="S" unicode="S" horiz-adv-x="1400" 
d="M1282 425q0 -87 -40.5 -172t-113.5 -144q-80 -64 -186.5 -100t-256.5 -36q-161 0 -289.5 30t-261.5 89v248h14q113 -94 261 -145t278 -51q184 0 286.5 69t102.5 184q0 99 -48.5 146t-147.5 73q-75 20 -162.5 33t-185.5 33q-198 42 -293.5 143.5t-95.5 264.5
q0 187 158 306.5t401 119.5q157 0 288 -30t232 -74v-234h-14q-85 72 -223.5 119.5t-283.5 47.5q-159 0 -255.5 -66t-96.5 -170q0 -93 48 -146t169 -81q64 -14 182 -34t200 -41q166 -44 250 -133t84 -249z" />
    <glyph glyph-name="T" unicode="T" horiz-adv-x="1262" 
d="M1262 1313h-532v-1313h-198v1313h-532v176h1262v-176z" />
    <glyph glyph-name="U" unicode="U" horiz-adv-x="1499" 
d="M1321 598q0 -162 -35.5 -282.5t-116.5 -200.5q-77 -76 -180 -111t-240 -35q-140 0 -244 37t-175 109q-81 82 -116.5 198t-35.5 285v891h198v-901q0 -121 16.5 -191t55.5 -127q44 -65 119.5 -98t181.5 -33q107 0 182 32.5t120 98.5q39 57 55.5 130.5t16.5 182.5v906h198
v-891z" />
    <glyph glyph-name="V" unicode="V" horiz-adv-x="1400" 
d="M1374 1489l-542 -1489h-264l-542 1489h212l467 -1310l467 1310h202z" />
    <glyph glyph-name="W" unicode="W" horiz-adv-x="2025" 
d="M1933 1489l-387 -1489h-223l-313 1236l-306 -1236h-218l-394 1489h203l313 -1238l308 1238h201l311 -1250l311 1250h194z" />
    <glyph glyph-name="X" unicode="X" horiz-adv-x="1403" 
d="M1336 1489l-514 -736l513 -753h-229l-406 613l-416 -613h-216l519 744l-507 745h228l401 -605l410 605h217z" />
    <glyph glyph-name="Y" unicode="Y" horiz-adv-x="1260" 
d="M1254 1489l-524 -836v-653h-198v632l-526 857h219l407 -666l411 666h211z" />
    <glyph glyph-name="Z" unicode="Z" horiz-adv-x="1403" 
d="M1288 0h-1162v184l913 1129h-879v176h1106v-179l-922 -1134h944v-176z" />
    <glyph glyph-name="bracketleft" unicode="[" horiz-adv-x="930" 
d="M759 -392h-520v1948h520v-143h-346v-1662h346v-143z" />
    <glyph glyph-name="backslash" unicode="\" horiz-adv-x="930" 
d="M960 -304h-173l-717 1860h176z" />
    <glyph glyph-name="bracketright" unicode="]" horiz-adv-x="930" 
d="M691 -392h-520v143h346v1662h-346v143h520v-1948z" />
    <glyph glyph-name="asciicircum" unicode="^" horiz-adv-x="1676" 
d="M1490 684h-198l-455 627l-454 -629h-197l589 807h126z" />
    <glyph glyph-name="underscore" unicode="_" horiz-adv-x="1302" 
d="M1306 -300h-1310v120h1310v-120z" />
    <glyph glyph-name="grave" unicode="`" horiz-adv-x="1302" 
d="M762 1302h-149l-273 374h243z" />
    <glyph glyph-name="a" unicode="a" horiz-adv-x="1230" 
d="M1053 0h-187v119q-25 -17 -67.5 -47.5t-82.5 -48.5q-47 -23 -108 -38.5t-143 -15.5q-151 0 -256 100t-105 255q0 127 54.5 205.5t155.5 123.5q102 45 245 61t307 24v29q0 64 -22.5 106t-64.5 66q-40 23 -96 31t-117 8q-74 0 -165 -19.5t-188 -56.5h-10v191q55 15 159 33
t205 18q118 0 205.5 -19.5t151.5 -66.5q63 -46 96 -119t33 -181v-758zM866 275v311q-86 -5 -202.5 -15t-184.5 -29q-81 -23 -131 -71.5t-50 -133.5q0 -96 58 -144.5t177 -48.5q99 0 181 38.5t152 92.5z" />
    <glyph glyph-name="b" unicode="b" horiz-adv-x="1276" 
d="M1168 567q0 -140 -39.5 -252t-106.5 -188q-71 -79 -156 -118.5t-187 -39.5q-95 0 -166 22.5t-140 60.5l-12 -52h-176v1556h188v-556q79 65 168 106.5t200 41.5q198 0 312.5 -152t114.5 -429zM974 562q0 200 -66 303.5t-213 103.5q-82 0 -166 -35.5t-156 -91.5v-640
q80 -36 137.5 -50t130.5 -14q156 0 244.5 102.5t88.5 321.5z" />
    <glyph glyph-name="c" unicode="c" horiz-adv-x="1067" 
d="M1011 70q-94 -45 -178.5 -70t-179.5 -25q-121 0 -222 35.5t-173 107.5q-73 72 -113 182t-40 257q0 274 150.5 430t397.5 156q96 0 188.5 -27t169.5 -66v-209h-10q-86 67 -177.5 103t-178.5 36q-160 0 -252.5 -107.5t-92.5 -315.5q0 -202 90.5 -310.5t254.5 -108.5
q57 0 116 15t106 39q41 21 77 44.5t57 40.5h10v-207z" />
    <glyph glyph-name="d" unicode="d" horiz-adv-x="1276" 
d="M1091 0h-188v117q-81 -70 -169 -109t-191 -39q-200 0 -317.5 154t-117.5 427q0 142 40.5 253t109.5 189q68 76 158.5 116t187.5 40q88 0 156 -18.5t143 -57.5v484h188v-1556zM903 275v641q-76 34 -136 47t-131 13q-158 0 -246 -110t-88 -312q0 -199 68 -302.5t218 -103.5
q80 0 162 35.5t153 91.5z" />
    <glyph glyph-name="e" unicode="e" horiz-adv-x="1220" 
d="M1120 539h-823q0 -103 31 -179.5t85 -125.5q52 -48 123.5 -72t157.5 -24q114 0 229.5 45.5t164.5 89.5h10v-205q-95 -40 -194 -67t-208 -27q-278 0 -434 150.5t-156 427.5q0 274 149.5 435t393.5 161q226 0 348.5 -132t122.5 -375v-102zM937 683q-1 148 -74.5 229
t-223.5 81q-151 0 -240.5 -89t-101.5 -221h640z" />
    <glyph glyph-name="f" unicode="f" horiz-adv-x="720" 
d="M786 1374h-10q-31 9 -81 18.5t-88 9.5q-121 0 -175.5 -53.5t-54.5 -193.5v-38h339v-158h-333v-959h-188v959h-127v158h127v37q0 199 99 305.5t286 106.5q63 0 113.5 -6t92.5 -14v-172z" />
    <glyph glyph-name="g" unicode="g" horiz-adv-x="1276" 
d="M1091 127q0 -284 -129 -417t-397 -133q-89 0 -173.5 12.5t-166.5 35.5v192h10q46 -18 146 -44.5t200 -26.5q96 0 159 23t98 64q35 39 50 94t15 123v102q-85 -68 -162.5 -101.5t-197.5 -33.5q-200 0 -317.5 144.5t-117.5 407.5q0 144 40.5 248.5t110.5 180.5
q65 71 158 110.5t185 39.5q97 0 162.5 -19.5t138.5 -59.5l12 48h176v-990zM903 307v609q-75 34 -139.5 48.5t-128.5 14.5q-155 0 -244 -104t-89 -302q0 -188 66 -285t219 -97q82 0 164.5 31.5t151.5 84.5z" />
    <glyph glyph-name="h" unicode="h" horiz-adv-x="1296" 
d="M1119 0h-188v636q0 77 -9 144.5t-33 105.5q-25 42 -72 62.5t-122 20.5q-77 0 -161 -38t-161 -97v-834h-188v1556h188v-563q88 73 182 114t193 41q181 0 276 -109t95 -314v-725z" />
    <glyph glyph-name="i" unicode="i" horiz-adv-x="562" 
d="M387 1304h-212v195h212v-195zM375 0h-188v1117h188v-1117z" />
    <glyph glyph-name="j" unicode="j" horiz-adv-x="705" 
d="M533 1304h-212v195h212v-195zM521 -27q0 -196 -100 -296t-268 -100q-40 0 -105.5 8t-109.5 20v179h10q28 -11 75.5 -25t92.5 -14q72 0 116 20t66 60t28.5 96.5t6.5 137.5v900h-233v158h421v-1144z" />
    <glyph glyph-name="k" unicode="k" horiz-adv-x="1212" 
d="M1199 0h-248l-448 489l-122 -116v-373h-188v1556h188v-998l543 559h237l-519 -516z" />
    <glyph glyph-name="l" unicode="l" horiz-adv-x="562" 
d="M375 0h-188v1556h188v-1556z" />
    <glyph glyph-name="m" unicode="m" horiz-adv-x="1992" 
d="M1815 0h-188v636q0 72 -6.5 139t-27.5 107q-23 43 -66 65t-124 22q-79 0 -158 -39.5t-158 -100.5q3 -23 5 -53.5t2 -60.5v-715h-188v636q0 74 -6.5 140.5t-27.5 106.5q-23 43 -66 64.5t-124 21.5q-77 0 -154.5 -38t-154.5 -97v-834h-188v1117h188v-124q88 73 175.5 114
t186.5 41q114 0 193.5 -48t118.5 -133q114 96 208 138.5t201 42.5q184 0 271.5 -111.5t87.5 -311.5v-725z" />
    <glyph glyph-name="n" unicode="n" horiz-adv-x="1296" 
d="M1119 0h-188v636q0 77 -9 144.5t-33 105.5q-25 42 -72 62.5t-122 20.5q-77 0 -161 -38t-161 -97v-834h-188v1117h188v-124q88 73 182 114t193 41q181 0 276 -109t95 -314v-725z" />
    <glyph glyph-name="o" unicode="o" horiz-adv-x="1243" 
d="M1137 558q0 -273 -140 -431t-375 -158q-237 0 -376.5 158t-139.5 431t139.5 431.5t376.5 158.5q235 0 375 -158.5t140 -431.5zM943 558q0 217 -85 322.5t-236 105.5q-153 0 -237.5 -105.5t-84.5 -322.5q0 -210 85 -318.5t237 -108.5q150 0 235.5 107.5t85.5 319.5z" />
    <glyph glyph-name="p" unicode="p" horiz-adv-x="1276" 
d="M1168 572q0 -136 -39 -248.5t-110 -190.5q-66 -74 -155.5 -114.5t-189.5 -40.5q-87 0 -157.5 19t-143.5 59v-468h-188v1529h188v-117q75 63 168.5 105.5t199.5 42.5q202 0 314.5 -152.5t112.5 -423.5zM974 567q0 202 -69 302t-212 100q-81 0 -163 -35t-157 -92v-633
q80 -36 137.5 -49t130.5 -13q157 0 245 106t88 314z" />
    <glyph glyph-name="q" unicode="q" horiz-adv-x="1276" 
d="M1091 -412h-188v538q-87 -75 -173 -111.5t-186 -36.5q-199 0 -317.5 153.5t-118.5 423.5q0 144 41.5 254.5t109.5 185.5q66 73 155 113t188 40q90 0 159.5 -20t141.5 -59l12 48h176v-1529zM903 284v632q-78 35 -138 49t-130 14q-163 0 -248 -110.5t-85 -304.5
q0 -196 68.5 -301.5t215.5 -105.5q82 0 164 35.5t153 91.5z" />
    <glyph glyph-name="r" unicode="r" horiz-adv-x="874" 
d="M882 912h-10q-42 10 -81.5 14.5t-93.5 4.5q-87 0 -168 -38.5t-156 -99.5v-793h-188v1117h188v-165q112 90 197.5 127.5t174.5 37.5q49 0 71 -2.5t66 -9.5v-193z" />
    <glyph glyph-name="s" unicode="s" horiz-adv-x="1067" 
d="M983 322q0 -153 -126.5 -251t-345.5 -98q-124 0 -227.5 29.5t-173.5 64.5v211h10q89 -67 198 -106.5t209 -39.5q124 0 194 40t70 126q0 66 -38 100t-146 58q-40 9 -104.5 21t-117.5 26q-147 39 -208.5 114.5t-61.5 185.5q0 69 28.5 130t86.5 109q56 47 142.5 74.5
t193.5 27.5q100 0 202.5 -24.5t170.5 -59.5v-201h-10q-72 53 -175 89.5t-202 36.5q-103 0 -174 -39.5t-71 -117.5q0 -69 43 -104q42 -35 136 -57q52 -12 116.5 -24t107.5 -22q131 -30 202 -103q71 -74 71 -196z" />
    <glyph glyph-name="t" unicode="t" horiz-adv-x="807" 
d="M765 10q-53 -14 -115.5 -23t-111.5 -9q-171 0 -260 92t-89 295v594h-127v158h127v321h188v-321h388v-158h-388v-509q0 -88 4 -137.5t28 -92.5q22 -40 60.5 -58.5t117.5 -18.5q46 0 96 13.5t72 22.5h10v-169z" />
    <glyph glyph-name="u" unicode="u" horiz-adv-x="1296" 
d="M1111 0h-188v124q-95 -75 -182 -115t-192 -40q-176 0 -274 107.5t-98 315.5v725h188v-636q0 -85 8 -145.5t34 -103.5q27 -44 70 -64t125 -20q73 0 159.5 38t161.5 97v834h188v-1117z" />
    <glyph glyph-name="v" unicode="v" horiz-adv-x="1212" 
d="M1151 1117l-452 -1117h-189l-449 1117h204l346 -889l343 889h197z" />
    <glyph glyph-name="w" unicode="w" horiz-adv-x="1676" 
d="M1590 1117l-291 -1117h-174l-287 861l-285 -861h-173l-294 1117h196l205 -865l279 865h155l286 -865l194 865h189z" />
    <glyph glyph-name="x" unicode="x" horiz-adv-x="1212" 
d="M1152 0h-237l-317 429l-319 -429h-219l436 557l-432 560h237l315 -422l316 422h220l-439 -550z" />
    <glyph glyph-name="y" unicode="y" horiz-adv-x="1212" 
d="M1151 1117l-652 -1529h-201l208 466l-445 1063h204l343 -828l346 828h197z" />
    <glyph glyph-name="z" unicode="z" horiz-adv-x="1076" 
d="M995 0h-902v139l651 821h-637v157h871v-134l-654 -824h671v-159z" />
    <glyph glyph-name="braceleft" unicode="{" horiz-adv-x="1300" 
d="M1113 -392h-150q-179 0 -290.5 99.5t-111.5 287.5v149q0 169 -83 264.5t-254 95.5h-51v156h51q171 0 254 95.5t83 264.5v149q0 188 111.5 287.5t290.5 99.5h150v-138h-114q-136 0 -197.5 -63t-61.5 -203v-175q0 -139 -77 -233.5t-214 -149.5v-24q137 -55 214 -149.5
t77 -233.5v-175q0 -140 61.5 -203t197.5 -63h114v-138z" />
    <glyph glyph-name="bar" unicode="|" horiz-adv-x="930" 
d="M552 -392h-174v1948h174v-1948z" />
    <glyph glyph-name="braceright" unicode="}" horiz-adv-x="1300" 
d="M1127 504h-51q-171 0 -254 -95.5t-83 -264.5v-149q0 -188 -111.5 -287.5t-290.5 -99.5h-150v138h114q136 0 197.5 63t61.5 203v175q0 139 77 233.5t214 149.5v24q-137 55 -214 149.5t-77 233.5v175q0 140 -61.5 203t-197.5 63h-114v138h150q179 0 290.5 -99.5
t111.5 -287.5v-149q0 -169 83 -264.5t254 -95.5h51v-156z" />
    <glyph glyph-name="asciitilde" unicode="~" horiz-adv-x="1676" 
d="M1489 927q-2 -99 -22.5 -195t-65.5 -171q-46 -77 -111 -121t-165 -44q-94 0 -167 39.5t-157 141.5q-102 125 -148 157t-96 32q-94 0 -144 -87.5t-59 -283.5h-167q2 100 22.5 194.5t64.5 171.5q43 74 112 119.5t165 45.5q93 0 166.5 -38.5t158.5 -142.5q80 -98 131 -143.5
t112 -45.5q103 0 151.5 101t51.5 270h167z" />
    <glyph glyph-name="Adieresis" unicode="&#xc4;" horiz-adv-x="1400" 
d="M1374 0h-211l-146 415h-644l-146 -415h-201l542 1489h264zM956 585l-261 731l-262 -731h523zM1005 1677h-199v195h199v-195zM592 1677h-199v195h199v-195z" />
    <glyph glyph-name="Aring" unicode="&#xc5;" horiz-adv-x="1400" 
d="M1374 0h-211l-148 415h-640l-148 -415h-201l519 1407q-89 44 -142.5 123.5t-53.5 181.5q0 143 102 240t248 97q147 0 248.5 -97t101.5 -240q0 -100 -52.5 -181.5t-141.5 -123.5zM899 1710q0 86 -57 143.5t-143 57.5t-143 -58t-57 -143q0 -86 57.5 -143.5t142.5 -57.5
q86 0 143 57.5t57 143.5zM953 585l-258 715l-259 -715h517z" />
    <glyph glyph-name="Ccedilla" unicode="&#xc7;" horiz-adv-x="1430" 
d="M1350 108q-55 -24 -99.5 -45t-116.5 -44q-11 -3 -24 -7.5t-31 -7.5q2 -19 3.5 -44.5t1.5 -48.5q0 -162 -93.5 -248t-240.5 -86q-38 0 -97.5 7t-104.5 19v162h9q26 -10 71.5 -24t95.5 -14q106 0 155 40t49 126q0 19 -1 41.5t-3 42.5q-19 -2 -40.5 -3t-39.5 -1
q-162 0 -294.5 45.5t-230.5 142.5q-96 95 -150 241.5t-54 340.5q0 184 52 329t150 245q95 97 229.5 148t298.5 51q120 0 239.5 -29t265.5 -102v-235h-15q-123 103 -244 150t-259 47q-113 0 -203.5 -36.5t-161.5 -113.5q-69 -75 -107.5 -189.5t-38.5 -264.5q0 -157 42.5 -270
t109.5 -184q70 -74 163.5 -109.5t197.5 -35.5q143 0 268 49t234 147h14v-232z" />
    <glyph glyph-name="Eacute" unicode="&#xc9;" horiz-adv-x="1295" 
d="M1181 0h-981v1489h981v-176h-783v-408h783v-176h-783v-553h783v-176zM993 2049l-273 -374h-149l179 374h243z" />
    <glyph glyph-name="Ntilde" unicode="&#xd1;" horiz-adv-x="1532" 
d="M1336 0h-245l-706 1332v-1332h-185v1489h307l644 -1216v1216h185v-1489zM1208 1992q-11 -152 -77 -229t-177 -77q-54 0 -100 19.5t-87 56.5q-47 43 -79.5 64.5t-71.5 21.5q-52 0 -78 -45t-30 -121h-131q8 151 79 228t174 77q50 0 96.5 -19.5t88.5 -55.5
q47 -41 83.5 -61.5t69.5 -20.5q51 0 79.5 46t31.5 116h129z" />
    <glyph glyph-name="Odieresis" unicode="&#xd6;" horiz-adv-x="1612" 
d="M1307 1318q91 -100 139.5 -245t48.5 -329t-49.5 -329.5t-138.5 -242.5q-92 -101 -217.5 -152t-286.5 -51q-157 0 -285.5 52t-218.5 151t-138.5 243t-48.5 329q0 182 48 326.5t140 247.5q88 98 218.5 150t284.5 52q160 0 287.5 -52.5t216.5 -149.5zM1289 744
q0 290 -130 447.5t-355 157.5q-227 0 -356.5 -157.5t-129.5 -447.5q0 -293 132 -448.5t354 -155.5t353.5 155.5t131.5 448.5zM1108 1677h-199v195h199v-195zM695 1677h-199v195h199v-195z" />
    <glyph glyph-name="Udieresis" unicode="&#xdc;" horiz-adv-x="1499" 
d="M1321 598q0 -162 -35.5 -282.5t-116.5 -200.5q-77 -76 -180 -111t-240 -35q-140 0 -244 37t-175 109q-81 82 -116.5 198t-35.5 285v891h198v-901q0 -121 16.5 -191t55.5 -127q44 -65 119.5 -98t181.5 -33q107 0 182 32.5t120 98.5q39 57 55.5 130.5t16.5 182.5v906h198
v-891zM1056 1677h-199v195h199v-195zM643 1677h-199v195h199v-195z" />
    <glyph glyph-name="aacute" unicode="&#xe1;" horiz-adv-x="1230" 
d="M1053 0h-187v119q-25 -17 -67.5 -47.5t-82.5 -48.5q-47 -23 -108 -38.5t-143 -15.5q-151 0 -256 100t-105 255q0 127 54.5 205.5t155.5 123.5q102 45 245 61t307 24v29q0 64 -22.5 106t-64.5 66q-40 23 -96 31t-117 8q-74 0 -165 -19.5t-188 -56.5h-10v191q55 15 159 33
t205 18q118 0 205.5 -19.5t151.5 -66.5q63 -46 96 -119t33 -181v-758zM866 275v311q-86 -5 -202.5 -15t-184.5 -29q-81 -23 -131 -71.5t-50 -133.5q0 -96 58 -144.5t177 -48.5q99 0 181 38.5t152 92.5zM934 1676l-273 -374h-149l179 374h243z" />
    <glyph glyph-name="agrave" unicode="&#xe0;" horiz-adv-x="1230" 
d="M1053 0h-187v119q-25 -17 -67.5 -47.5t-82.5 -48.5q-47 -23 -108 -38.5t-143 -15.5q-151 0 -256 100t-105 255q0 127 54.5 205.5t155.5 123.5q102 45 245 61t307 24v29q0 64 -22.5 106t-64.5 66q-40 23 -96 31t-117 8q-74 0 -165 -19.5t-188 -56.5h-10v191q55 15 159 33
t205 18q118 0 205.5 -19.5t151.5 -66.5q63 -46 96 -119t33 -181v-758zM866 275v311q-86 -5 -202.5 -15t-184.5 -29q-81 -23 -131 -71.5t-50 -133.5q0 -96 58 -144.5t177 -48.5q99 0 181 38.5t152 92.5zM738 1302h-149l-273 374h243z" />
    <glyph glyph-name="acircumflex" unicode="&#xe2;" horiz-adv-x="1230" 
d="M1053 0h-187v119q-25 -17 -67.5 -47.5t-82.5 -48.5q-47 -23 -108 -38.5t-143 -15.5q-151 0 -256 100t-105 255q0 127 54.5 205.5t155.5 123.5q102 45 245 61t307 24v29q0 64 -22.5 106t-64.5 66q-40 23 -96 31t-117 8q-74 0 -165 -19.5t-188 -56.5h-10v191q55 15 159 33
t205 18q118 0 205.5 -19.5t151.5 -66.5q63 -46 96 -119t33 -181v-758zM866 275v311q-86 -5 -202.5 -15t-184.5 -29q-81 -23 -131 -71.5t-50 -133.5q0 -96 58 -144.5t177 -48.5q99 0 181 38.5t152 92.5zM961 1297h-159l-185 256l-184 -256h-155l228 379h227z" />
    <glyph glyph-name="adieresis" unicode="&#xe4;" horiz-adv-x="1230" 
d="M1053 0h-187v119q-25 -17 -67.5 -47.5t-82.5 -48.5q-47 -23 -108 -38.5t-143 -15.5q-151 0 -256 100t-105 255q0 127 54.5 205.5t155.5 123.5q102 45 245 61t307 24v29q0 64 -22.5 106t-64.5 66q-40 23 -96 31t-117 8q-74 0 -165 -19.5t-188 -56.5h-10v191q55 15 159 33
t205 18q118 0 205.5 -19.5t151.5 -66.5q63 -46 96 -119t33 -181v-758zM866 275v311q-86 -5 -202.5 -15t-184.5 -29q-81 -23 -131 -71.5t-50 -133.5q0 -96 58 -144.5t177 -48.5q99 0 181 38.5t152 92.5zM926 1304h-199v195h199v-195zM513 1304h-199v195h199v-195z" />
    <glyph glyph-name="atilde" unicode="&#xe3;" horiz-adv-x="1230" 
d="M1053 0h-187v119q-25 -17 -67.5 -47.5t-82.5 -48.5q-47 -23 -108 -38.5t-143 -15.5q-151 0 -256 100t-105 255q0 127 54.5 205.5t155.5 123.5q102 45 245 61t307 24v29q0 64 -22.5 106t-64.5 66q-40 23 -96 31t-117 8q-74 0 -165 -19.5t-188 -56.5h-10v191q55 15 159 33
t205 18q118 0 205.5 -19.5t151.5 -66.5q63 -46 96 -119t33 -181v-758zM866 275v311q-86 -5 -202.5 -15t-184.5 -29q-81 -23 -131 -71.5t-50 -133.5q0 -96 58 -144.5t177 -48.5q99 0 181 38.5t152 92.5zM1038 1619q-11 -152 -77 -229t-177 -77q-54 0 -100 19.5t-87 56.5
q-47 43 -79.5 64.5t-71.5 21.5q-52 0 -78 -45t-30 -121h-131q8 151 79 228t174 77q50 0 96.5 -19.5t88.5 -55.5q47 -41 83.5 -61.5t69.5 -20.5q51 0 79.5 46t31.5 116h129z" />
    <glyph glyph-name="aring" unicode="&#xe5;" horiz-adv-x="1230" 
d="M1053 0h-187v119q-25 -17 -67.5 -47.5t-82.5 -48.5q-47 -23 -108 -38.5t-143 -15.5q-151 0 -256 100t-105 255q0 127 54.5 205.5t155.5 123.5q102 45 245 61t307 24v29q0 64 -22.5 106t-64.5 66q-40 23 -96 31t-117 8q-74 0 -165 -19.5t-188 -56.5h-10v191q55 15 159 33
t205 18q118 0 205.5 -19.5t151.5 -66.5q63 -46 96 -119t33 -181v-758zM866 275v311q-86 -5 -202.5 -15t-184.5 -29q-81 -23 -131 -71.5t-50 -133.5q0 -96 58 -144.5t177 -48.5q99 0 181 38.5t152 92.5zM956 1630q0 -143 -102 -242t-248 -99q-144 0 -247 98.5t-103 242.5
q0 143 102 241t248 98q147 0 248.5 -98t101.5 -241zM811 1630q0 86 -58.5 145.5t-146.5 59.5t-146.5 -59t-58.5 -146t59 -146t146 -59q88 0 146.5 59t58.5 146z" />
    <glyph glyph-name="ccedilla" unicode="&#xe7;" horiz-adv-x="1067" 
d="M1011 70q-33 -15 -71.5 -30.5t-67.5 -24.5q3 -19 5.5 -47.5t2.5 -56.5q0 -162 -91.5 -248t-237.5 -86q-37 0 -95 7t-103 19v160h9q26 -10 70 -23t94 -13q104 0 153 39t49 127q0 22 -1.5 45t-3.5 43q-16 -2 -30.5 -4t-39.5 -2q-121 0 -222 35.5t-173 107.5
q-73 72 -113 182t-40 257q0 274 150.5 430t397.5 156q96 0 188.5 -27t169.5 -66v-209h-10q-86 67 -177.5 103t-178.5 36q-160 0 -252.5 -107.5t-92.5 -315.5q0 -202 90.5 -310.5t254.5 -108.5q57 0 116 15t106 39q41 21 77 44.5t57 40.5h10v-207z" />
    <glyph glyph-name="eacute" unicode="&#xe9;" horiz-adv-x="1220" 
d="M1120 539h-823q0 -103 31 -179.5t85 -125.5q52 -48 123.5 -72t157.5 -24q114 0 229.5 45.5t164.5 89.5h10v-205q-95 -40 -194 -67t-208 -27q-278 0 -434 150.5t-156 427.5q0 274 149.5 435t393.5 161q226 0 348.5 -132t122.5 -375v-102zM937 683q-1 148 -74.5 229
t-223.5 81q-151 0 -240.5 -89t-101.5 -221h640zM960 1676l-273 -374h-149l179 374h243z" />
    <glyph glyph-name="egrave" unicode="&#xe8;" horiz-adv-x="1220" 
d="M1120 539h-823q0 -103 31 -179.5t85 -125.5q52 -48 123.5 -72t157.5 -24q114 0 229.5 45.5t164.5 89.5h10v-205q-95 -40 -194 -67t-208 -27q-278 0 -434 150.5t-156 427.5q0 274 149.5 435t393.5 161q226 0 348.5 -132t122.5 -375v-102zM937 683q-1 148 -74.5 229
t-223.5 81q-151 0 -240.5 -89t-101.5 -221h640zM759 1302h-149l-273 374h243z" />
    <glyph glyph-name="ecircumflex" unicode="&#xea;" horiz-adv-x="1220" 
d="M1120 539h-823q0 -103 31 -179.5t85 -125.5q52 -48 123.5 -72t157.5 -24q114 0 229.5 45.5t164.5 89.5h10v-205q-95 -40 -194 -67t-208 -27q-278 0 -434 150.5t-156 427.5q0 274 149.5 435t393.5 161q226 0 348.5 -132t122.5 -375v-102zM937 683q-1 148 -74.5 229
t-223.5 81q-151 0 -240.5 -89t-101.5 -221h640zM986 1297h-159l-185 256l-184 -256h-155l228 379h227z" />
    <glyph glyph-name="edieresis" unicode="&#xeb;" horiz-adv-x="1220" 
d="M1120 539h-823q0 -103 31 -179.5t85 -125.5q52 -48 123.5 -72t157.5 -24q114 0 229.5 45.5t164.5 89.5h10v-205q-95 -40 -194 -67t-208 -27q-278 0 -434 150.5t-156 427.5q0 274 149.5 435t393.5 161q226 0 348.5 -132t122.5 -375v-102zM937 683q-1 148 -74.5 229
t-223.5 81q-151 0 -240.5 -89t-101.5 -221h640zM951 1304h-199v195h199v-195zM538 1304h-199v195h199v-195z" />
    <glyph glyph-name="iacute" unicode="&#xed;" horiz-adv-x="562" 
d="M375 0h-188v1117h188v-1117zM582 1676l-273 -374h-149l179 374h243z" />
    <glyph glyph-name="igrave" unicode="&#xec;" horiz-adv-x="562" 
d="M375 0h-188v1117h188v-1117zM401 1302h-149l-273 374h243z" />
    <glyph glyph-name="icircumflex" unicode="&#xee;" horiz-adv-x="562" 
d="M572 1297h-151l-143 267l-142 -267h-147l178 379h227zM375 0h-188v1117h188v-1117z" />
    <glyph glyph-name="idieresis" unicode="&#xef;" horiz-adv-x="562" 
d="M557 1304h-189v195h189v-195zM194 1304h-189v195h189v-195zM375 0h-188v1117h188v-1117z" />
    <glyph glyph-name="ntilde" unicode="&#xf1;" horiz-adv-x="1296" 
d="M1119 0h-188v636q0 77 -9 144.5t-33 105.5q-25 42 -72 62.5t-122 20.5q-77 0 -161 -38t-161 -97v-834h-188v1117h188v-124q88 73 182 114t193 41q181 0 276 -109t95 -314v-725zM1075 1619q-11 -152 -77 -229t-177 -77q-54 0 -100 19.5t-87 56.5q-47 43 -79.5 64.5
t-71.5 21.5q-52 0 -78 -45t-30 -121h-131q8 151 79 228t174 77q50 0 96.5 -19.5t88.5 -55.5q47 -41 83.5 -61.5t69.5 -20.5q51 0 79.5 46t31.5 116h129z" />
    <glyph glyph-name="oacute" unicode="&#xf3;" horiz-adv-x="1243" 
d="M1137 558q0 -273 -140 -431t-375 -158q-237 0 -376.5 158t-139.5 431t139.5 431.5t376.5 158.5q235 0 375 -158.5t140 -431.5zM943 558q0 217 -85 322.5t-236 105.5q-153 0 -237.5 -105.5t-84.5 -322.5q0 -210 85 -318.5t237 -108.5q150 0 235.5 107.5t85.5 319.5z
M933 1676l-273 -374h-149l179 374h243z" />
    <glyph glyph-name="ograve" unicode="&#xf2;" horiz-adv-x="1243" 
d="M1137 558q0 -273 -140 -431t-375 -158q-237 0 -376.5 158t-139.5 431t139.5 431.5t376.5 158.5q235 0 375 -158.5t140 -431.5zM943 558q0 217 -85 322.5t-236 105.5q-153 0 -237.5 -105.5t-84.5 -322.5q0 -210 85 -318.5t237 -108.5q150 0 235.5 107.5t85.5 319.5z
M732 1302h-149l-273 374h243z" />
    <glyph glyph-name="ocircumflex" unicode="&#xf4;" horiz-adv-x="1243" 
d="M1137 558q0 -273 -140 -431t-375 -158q-237 0 -376.5 158t-139.5 431t139.5 431.5t376.5 158.5q235 0 375 -158.5t140 -431.5zM943 558q0 217 -85 322.5t-236 105.5q-153 0 -237.5 -105.5t-84.5 -322.5q0 -210 85 -318.5t237 -108.5q150 0 235.5 107.5t85.5 319.5z
M963 1297h-159l-185 256l-184 -256h-155l228 379h227z" />
    <glyph glyph-name="odieresis" unicode="&#xf6;" horiz-adv-x="1243" 
d="M1137 558q0 -273 -140 -431t-375 -158q-237 0 -376.5 158t-139.5 431t139.5 431.5t376.5 158.5q235 0 375 -158.5t140 -431.5zM943 558q0 217 -85 322.5t-236 105.5q-153 0 -237.5 -105.5t-84.5 -322.5q0 -210 85 -318.5t237 -108.5q150 0 235.5 107.5t85.5 319.5z
M928 1304h-199v195h199v-195zM515 1304h-199v195h199v-195z" />
    <glyph glyph-name="otilde" unicode="&#xf5;" horiz-adv-x="1243" 
d="M1137 558q0 -273 -140 -431t-375 -158q-237 0 -376.5 158t-139.5 431t139.5 431.5t376.5 158.5q235 0 375 -158.5t140 -431.5zM943 558q0 217 -85 322.5t-236 105.5q-153 0 -237.5 -105.5t-84.5 -322.5q0 -210 85 -318.5t237 -108.5q150 0 235.5 107.5t85.5 319.5z
M1038 1619q-11 -152 -77 -229t-177 -77q-54 0 -100 19.5t-87 56.5q-47 43 -79.5 64.5t-71.5 21.5q-52 0 -78 -45t-30 -121h-131q8 151 79 228t174 77q50 0 96.5 -19.5t88.5 -55.5q47 -41 83.5 -61.5t69.5 -20.5q51 0 79.5 46t31.5 116h129z" />
    <glyph glyph-name="uacute" unicode="&#xfa;" horiz-adv-x="1296" 
d="M1111 0h-188v124q-95 -75 -182 -115t-192 -40q-176 0 -274 107.5t-98 315.5v725h188v-636q0 -85 8 -145.5t34 -103.5q27 -44 70 -64t125 -20q73 0 159.5 38t161.5 97v834h188v-1117zM945 1676l-273 -374h-149l179 374h243z" />
    <glyph glyph-name="ugrave" unicode="&#xf9;" horiz-adv-x="1296" 
d="M1111 0h-188v124q-95 -75 -182 -115t-192 -40q-176 0 -274 107.5t-98 315.5v725h188v-636q0 -85 8 -145.5t34 -103.5q27 -44 70 -64t125 -20q73 0 159.5 38t161.5 97v834h188v-1117zM764 1302h-149l-273 374h243z" />
    <glyph glyph-name="ucircumflex" unicode="&#xfb;" horiz-adv-x="1296" 
d="M1111 0h-188v124q-95 -75 -182 -115t-192 -40q-176 0 -274 107.5t-98 315.5v725h188v-636q0 -85 8 -145.5t34 -103.5q27 -44 70 -64t125 -20q73 0 159.5 38t161.5 97v834h188v-1117zM985 1297h-159l-185 256l-184 -256h-155l228 379h227z" />
    <glyph glyph-name="udieresis" unicode="&#xfc;" horiz-adv-x="1296" 
d="M1111 0h-188v124q-95 -75 -182 -115t-192 -40q-176 0 -274 107.5t-98 315.5v725h188v-636q0 -85 8 -145.5t34 -103.5q27 -44 70 -64t125 -20q73 0 159.5 38t161.5 97v834h188v-1117zM955 1304h-199v195h199v-195zM542 1304h-199v195h199v-195z" />
    <glyph glyph-name="dagger" unicode="&#x2020;" horiz-adv-x="1302" 
d="M1115 1034l-403 5l5 -904h-132l5 904l-403 -5v129l403 -5l-5 398h132l-5 -398l403 5v-129z" />
    <glyph glyph-name="degree" unicode="&#xb0;" horiz-adv-x="1110" 
d="M956 1116q0 -168 -116 -284t-285 -116t-285 115.5t-116 284.5q0 168 116 284t285 116q170 0 285.5 -116t115.5 -284zM791 1116q0 102 -67 171.5t-169 69.5t-169 -69.5t-67 -171.5q0 -104 68.5 -172.5t167.5 -68.5q102 0 169 70t67 171z" />
    <glyph glyph-name="cent" unicode="&#xa2;" horiz-adv-x="1302" 
d="M1120 74q-71 -30 -161 -53.5t-194 -26.5v-355h-118v359q-227 21 -357.5 165t-130.5 394q0 242 133.5 391.5t354.5 171.5v355h118v-351q104 -3 197 -25t158 -53v-203h-11q-55 44 -142 85t-202 50v-839q120 10 206.5 52.5t137.5 83.5h11v-201zM647 142v834
q-135 -20 -216 -125t-81 -294q0 -181 76 -286t221 -129z" />
    <glyph glyph-name="sterling" unicode="&#xa3;" horiz-adv-x="1302" 
d="M1163 0h-1026v207q118 32 169.5 126.5t51.5 279.5h-176v138h176v310q0 200 126.5 328.5t331.5 128.5q105 0 181 -17t140 -34v-206h-10q-62 42 -138 66t-162 24q-140 0 -209.5 -82.5t-69.5 -226.5v-291h415v-138h-415v-61q0 -126 -62 -219.5t-160 -150.5v-11h837v-171z
" />
    <glyph glyph-name="section" unicode="&#xa7;" horiz-adv-x="1302" 
d="M1128 601q0 -106 -59 -187t-158 -136v-7q97 -46 141 -118.5t44 -162.5q0 -77 -33 -146t-98 -119q-72 -56 -169 -83t-221 -27q-87 0 -170.5 13.5t-175.5 44.5v194h10q79 -37 169 -62t198 -25q134 0 215 48.5t81 135.5q0 56 -19.5 88.5t-64.5 57.5q-41 23 -113 41.5
t-154 38.5q-214 52 -296 133q-83 81 -83 210q0 98 57 182.5t159 141.5v7q-101 48 -143 121t-42 162q0 81 32 146.5t99 117.5q64 50 163.5 79t227.5 29q87 0 171 -14t175 -43v-194h-10q-58 27 -152.5 57t-215.5 30q-127 0 -211.5 -46t-84.5 -133q0 -57 21.5 -92.5t64.5 -58.5
t109 -41.5t157 -39.5q200 -46 290 -125q89 -79 89 -218zM881 399q28 33 43 65.5t15 90.5q0 51 -16.5 86t-45.5 58q-28 24 -67 39.5t-83 27.5q-39 11 -85.5 21.5t-116.5 30.5q-18 -9 -49 -31.5t-53 -46.5q-24 -26 -43 -69t-19 -92q0 -50 15.5 -85t44.5 -59q27 -23 67.5 -39
t84.5 -27q38 -10 86 -22t115 -31q20 11 53 34.5t54 48.5z" />
    <glyph glyph-name="bullet" unicode="&#x2022;" horiz-adv-x="1117" 
d="M932 662q0 -154 -110 -263.5t-264 -109.5t-263.5 109.5t-109.5 263.5t109.5 263.5t263.5 109.5t264 -109.5t110 -263.5z" />
    <glyph glyph-name="paragraph" unicode="&#xb6;" horiz-adv-x="1302" 
d="M1106 -363h-148v1722h-214v-1722h-149v956q-206 5 -332 129t-126 328q0 207 130 323t373 116h466v-1852z" />
    <glyph glyph-name="germandbls" unicode="&#xdf;" horiz-adv-x="1270" 
d="M1165 481q0 -214 -135.5 -359.5t-354.5 -145.5q-44 0 -101.5 7.5t-93.5 20.5v165h10q42 -24 91.5 -33t105.5 -9q74 0 129 29t88 78q35 52 50.5 115.5t15.5 139.5q0 166 -105.5 250.5t-303.5 84.5v150q157 0 234 59.5t77 188.5q0 35 -11 68t-41 64q-27 29 -71 46.5
t-105 17.5q-57 0 -103 -14.5t-86 -53.5q-37 -36 -59.5 -102t-22.5 -161v-1087h-188v1080q0 124 36 215.5t100 153.5q60 58 149.5 87.5t183.5 29.5q183 0 297.5 -87t114.5 -238q0 -112 -71 -201t-184 -121v-9q164 -37 259 -148.5t95 -280.5z" />
    <glyph glyph-name="registered" unicode="&#xae;" horiz-adv-x="2048" 
d="M1889 655q0 -358 -253.5 -611.5t-611.5 -253.5t-611.5 253.5t-253.5 611.5t253.5 611.5t611.5 253.5t611.5 -253.5t253.5 -611.5zM1773 655q0 310 -219.5 532t-529.5 222t-529.5 -222t-219.5 -532t219.5 -532t529.5 -222t529.5 222t219.5 532zM1581 215h-223l-331 355
h-162v-355h-165v915h312q94 0 155 -8t120 -39q63 -34 92.5 -82.5t29.5 -121.5q0 -97 -56.5 -161.5t-155.5 -102.5zM1229 868q0 36 -14 64t-47 46q-31 17 -66 22t-88 5h-149v-309h127q62 0 107 9.5t74 32.5q31 25 43.5 55t12.5 75z" />
    <glyph glyph-name="copyright" unicode="&#xa9;" horiz-adv-x="2048" 
d="M1889 655q0 -358 -253.5 -611.5t-611.5 -253.5t-611.5 253.5t-253.5 611.5t253.5 611.5t611.5 253.5t611.5 -253.5t253.5 -611.5zM1773 655q0 310 -219.5 532t-529.5 222t-529.5 -222t-219.5 -532t219.5 -532t529.5 -222t529.5 222t219.5 532zM1375 258
q-86 -39 -165.5 -58.5t-157.5 -19.5q-227 0 -359 123t-132 357q0 225 134.5 354t356.5 129q89 0 175 -24t148 -52v-181h-16q-54 40 -138.5 75t-173.5 35q-142 0 -221.5 -85.5t-79.5 -250.5q0 -159 76.5 -246t224.5 -87q83 0 161.5 29t150.5 81h16v-179z" />
    <glyph glyph-name="trademark" unicode="&#x2122;" horiz-adv-x="2000" 
d="M1777 785h-124v617h-20l-237 -451h-79l-239 458h-25v-624h-123v704h238l191 -382l191 382h227v-704zM755 1372h-229v-587h-127v587h-229v117h585v-117z" />
    <glyph glyph-name="acute" unicode="&#xb4;" horiz-adv-x="1302" 
d="M963 1676l-273 -374h-149l179 374h243z" />
    <glyph glyph-name="dieresis" unicode="&#xa8;" horiz-adv-x="1302" 
d="M958 1304h-199v195h199v-195zM545 1304h-199v195h199v-195z" />
    <glyph glyph-name="notequal" unicode="&#x2260;" horiz-adv-x="1676" 
d="M1431 362h-608l-104 -335h-153l104 335h-425v156h474l84 268h-558v156h606l105 335h153l-105 -335h427v-156h-476l-83 -268h559v-156z" />
    <glyph glyph-name="AE" unicode="&#xc6;" horiz-adv-x="2016" 
d="M1901 0h-944v556h-524l-212 -556h-207l594 1489h1293v-176h-749v-408h749v-176h-749v-553h749v-176zM957 723v601h-219l-239 -601h458z" />
    <glyph glyph-name="Oslash" unicode="&#xd8;" horiz-adv-x="1612" 
d="M1498 744q0 -184 -49.5 -329.5t-138.5 -242.5q-92 -101 -217.5 -152t-286.5 -51q-115 0 -215.5 29t-179.5 84l-159 -228h-132l205 294q-101 100 -155.5 250t-54.5 346q0 182 48 326.5t140 247.5q88 98 218.5 150t284.5 52q118 0 215 -27.5t179 -82.5l142 201h132
l-188 -268q101 -100 156.5 -248.5t55.5 -350.5zM1097 1260q-57 46 -129 68.5t-161 22.5q-110 0 -200 -38.5t-156 -116.5q-64 -76 -98.5 -190.5t-34.5 -261.5q0 -140 29.5 -252t87.5 -188zM1295 744q0 139 -30 253t-88 189l-664 -957q60 -45 132.5 -68t161.5 -23
q110 0 201.5 40t153.5 116q67 82 100 194.5t33 255.5z" />
    <glyph glyph-name="infinity" unicode="&#x221e;" horiz-adv-x="2048" 
d="M1887 663q0 -239 -122.5 -372.5t-329.5 -133.5q-133 0 -244 76.5t-180 222.5q-79 -151 -184.5 -225t-248.5 -74q-191 0 -304 135.5t-113 349.5q0 238 125 372t327 134q134 0 245 -77t179 -222q79 150 185.5 224.5t247.5 74.5q191 0 304 -135.5t113 -349.5zM967 729
q-63 117 -155 175.5t-188 58.5q-138 0 -216 -83.5t-78 -237.5q0 -133 63.5 -216t182.5 -83q110 0 172 48.5t119 142.5q34 57 52.5 92.5t47.5 102.5zM1718 663q0 134 -64 216.5t-182 82.5q-88 0 -152.5 -35.5t-138.5 -155.5q-30 -48 -55.5 -99.5t-44.5 -95.5
q60 -115 153.5 -174.5t189.5 -59.5q138 0 216 83t78 238z" />
    <glyph glyph-name="plusminus" unicode="&#xb1;" horiz-adv-x="1676" 
d="M1461 179h-1246v158h540v422h-540v158h540v545h166v-545h540v-158h-540v-422h540v-158z" />
    <glyph glyph-name="lessequal" unicode="&#x2264;" horiz-adv-x="1676" 
d="M1408 303l-1154 483v124l1154 483v-183l-889 -362l889 -362v-183zM1408 0h-1154v160h1154v-160z" />
    <glyph glyph-name="greaterequal" unicode="&#x2265;" horiz-adv-x="1676" 
d="M1422 786l-1154 -483v183l889 362l-889 362v183l1154 -483v-124zM1422 0h-1154v160h1154v-160z" />
    <glyph glyph-name="yen" unicode="&#xa5;" horiz-adv-x="1302" 
d="M1191 1489l-448 -842v-47h372v-138h-370v-138h370v-138h-370v-186h-188v186h-370v138h370v138h-370v138h372v47l-451 842h212l332 -659l336 659h203z" />
    <glyph glyph-name="yen" unicode="&#xffe5;" horiz-adv-x="1302" 
d="M1191 1489l-448 -842v-47h372v-138h-370v-138h370v-138h-370v-186h-188v186h-370v138h370v138h-370v138h372v47l-451 842h212l332 -659l336 659h203z" />
    <glyph glyph-name="uni00B5" unicode="&#xb5;" horiz-adv-x="1314" 
d="M1124 0h-178l-10 118q-59 -65 -123.5 -102t-155.5 -37q-86 0 -149.5 35t-129.5 99v-525h-188v1529h188v-838q32 -39 109.5 -80t168.5 -41q93 0 159.5 33.5t120.5 93.5v832h188v-1117z" />
    <glyph glyph-name="partialdiff" unicode="&#x2202;" horiz-adv-x="1302" 
d="M1145 837q0 -164 -39 -344t-121 -303q-85 -124 -186.5 -173t-214.5 -49q-192 0 -313.5 126.5t-121.5 329.5q0 228 134.5 372.5t336.5 144.5q90 0 169.5 -26t158.5 -91q2 26 3 55.5t1 55.5q0 217 -79 318t-231 101q-78 0 -169.5 -31.5t-169.5 -86.5h-11v194
q81 44 181.5 66.5t196.5 22.5q137 0 239.5 -54.5t164.5 -178.5q42 -86 56.5 -189t14.5 -260zM942 678q-60 47 -136 74t-148 27q-141 0 -225 -91t-84 -261q0 -145 67.5 -221.5t179.5 -76.5q128 0 209.5 97t115.5 287q6 33 11.5 73t9.5 92z" />
    <glyph glyph-name="summation" unicode="&#x2211;" horiz-adv-x="1489" 
d="M1369 -189h-1182v191l673 668l-663 631v188h1133v-176h-891l648 -601v-72l-666 -653h948v-176z" />
    <glyph glyph-name="product" unicode="&#x220f;" horiz-adv-x="1676" 
d="M1532 1315h-200v-1508h-198v1508h-592v-1508h-198v1508h-200v174h1388v-174z" />
    <glyph glyph-name="pi1" horiz-adv-x="1449" 
d="M1345 959h-202v-959h-188v959h-452v-959h-188v959h-202v158h1232v-158z" />
    <glyph glyph-name="integral" unicode="&#x222b;" horiz-adv-x="1302" 
d="M1168 1367h-10q-32 8 -89.5 18.5t-89.5 10.5q-129 0 -181 -61q-53 -61 -53 -210v-1123q0 -206 -104 -315q-105 -110 -293 -110q-52 0 -106.5 5.5t-103.5 15.5v178h10q33 -8 87 -18.5t88 -10.5q129 0 182 61q52 61 52 210v1123q0 204 104 315q104 110 293 110
q58 0 109 -5.5t105 -15.5v-178z" />
    <glyph glyph-name="ordfeminine" unicode="&#xaa;" horiz-adv-x="1117" 
d="M944 554h-170v94q-28 -20 -52.5 -38.5t-68.5 -37.5q-45 -20 -85.5 -30.5t-113.5 -10.5q-128 0 -215.5 85t-87.5 217q0 106 46.5 173.5t123.5 103.5q78 36 197.5 51.5t255.5 21.5v18q0 53 -18 85t-51 51q-34 18 -77.5 23t-91.5 5q-84 0 -168 -24t-123 -38h-14v172
q45 13 137 29t169 16q217 0 312 -84.5t95 -243.5v-638zM774 796v245q-69 -4 -160.5 -12t-145.5 -23q-64 -18 -103 -56.5t-39 -106.5q0 -76 45.5 -114t139.5 -38q82 0 147.5 33.5t115.5 71.5z" />
    <glyph glyph-name="ordmasculine" unicode="&#xba;" horiz-adv-x="1117" 
d="M996 1025q0 -235 -122 -364.5t-315 -129.5q-201 0 -319.5 132.5t-118.5 361.5t118.5 362t319.5 133q193 0 315 -130t122 -365zM814 1025q0 172 -67.5 258t-187.5 86q-122 0 -189 -87t-67 -257t67 -256.5t189 -86.5q120 0 187.5 85.5t67.5 257.5z" />
    <glyph glyph-name="uni2126" unicode="&#x2126;" horiz-adv-x="1676" 
d="M1569 0h-604v389q67 39 133 84t111 100q47 58 75 134.5t28 188.5q0 200 -124 326.5t-350 126.5t-350 -126.5t-124 -326.5q0 -110 29 -189t76 -135q47 -57 110.5 -100.5t131.5 -82.5v-389h-604v174h436v124q-168 88 -276.5 241t-108.5 357q0 278 185 451t495 173t495 -173
t185 -451q0 -204 -108.5 -357t-276.5 -241v-124h436v-174z" />
    <glyph glyph-name="ae" unicode="&#xe6;" horiz-adv-x="1956" 
d="M1855 559h-819q0 -114 30 -195t85 -133q52 -48 123 -70.5t157 -22.5q111 0 217.5 41.5t172.5 93.5h12v-205q-78 -35 -184.5 -64.5t-215.5 -29.5q-166 0 -284.5 52t-194.5 155q-21 -19 -67 -59t-96 -68q-63 -36 -137 -59.5t-189 -23.5q-150 0 -255.5 97t-105.5 249
q0 124 54 200.5t155 118.5q95 39 241 53t308 17v61q0 65 -23 107.5t-64 65.5q-40 23 -96 31.5t-116 8.5q-79 0 -168.5 -21t-179.5 -57h-13v191q55 15 158 34t204 19q159 0 264.5 -46.5t162.5 -137.5q69 82 170 134t226 52q217 0 342.5 -128t125.5 -379v-82zM1673 703
q-5 68 -23.5 119t-50.5 88q-34 39 -88.5 61t-133.5 22q-133 0 -223 -75t-115 -215h634zM894 298q-20 53 -30.5 119t-10.5 141q-105 -3 -201 -7.5t-178 -25.5q-79 -20 -127.5 -65.5t-48.5 -128.5q0 -95 58 -141t176 -46q99 0 195.5 43t166.5 111z" />
    <glyph glyph-name="oslash" unicode="&#xf8;" horiz-adv-x="1243" 
d="M1137 558q0 -273 -140 -431t-375 -158q-84 0 -155.5 21t-130.5 60l-133 -198h-110l171 256q-75 77 -116.5 190t-41.5 260q0 273 139.5 431.5t376.5 158.5q87 0 158 -22t125 -57l116 172h111l-155 -231q76 -76 118 -188t42 -264zM813 930q-37 29 -86.5 43.5t-104.5 14.5
q-155 0 -240 -110t-85 -320q0 -97 17 -171t52 -128zM946 558q0 97 -17.5 173t-51.5 130l-448 -671q39 -31 86.5 -46t106.5 -15q150 0 237 108.5t87 320.5z" />
    <glyph glyph-name="questiondown" unicode="&#xbf;" horiz-adv-x="1117" 
d="M712 1278h-204v211h204v-211zM958 40q-83 -30 -176 -50t-205 -20q-215 0 -339.5 104.5t-124.5 275.5q0 98 34.5 173t93.5 137q58 62 136.5 112.5t146.5 91.5v225h179v-305q-60 -33 -139 -81.5t-125 -88.5q-54 -47 -88 -109t-34 -140q0 -113 76.5 -168.5t197.5 -55.5
q103 0 201.5 33t155.5 70h10v-204z" />
    <glyph glyph-name="exclamdown" unicode="&#xa1;" horiz-adv-x="806" 
d="M505 1278h-204v211h204v-211zM515 0h-224l26 1079h170z" />
    <glyph glyph-name="logicalnot" unicode="&#xac;" horiz-adv-x="1676" 
d="M1456 57h-171v545h-1075v160h1246v-705z" />
    <glyph glyph-name="radical" unicode="&#x221a;" horiz-adv-x="1676" 
d="M1737 1788l-880 -1939h-102l-384 993h-237v139h393l313 -821l730 1628h167z" />
    <glyph glyph-name="florin" unicode="&#x192;" horiz-adv-x="1302" 
d="M1280 1321h-10q-29 10 -86 23t-98 13q-121 0 -184 -59.5t-98 -219.5l-42 -194h321v-138h-349l-103 -490q-29 -134 -75 -222t-110 -140q-65 -53 -141 -74t-168 -21q-41 0 -81 3.5t-92 12.5v180h10q33 -14 80 -24t91 -10q127 0 191.5 64t99.5 231l103 490h-217v138h245
l42 198q26 123 72 207t108 135t138.5 73t163.5 22q58 0 97.5 -5t91.5 -13v-180z" />
    <glyph glyph-name="approxequal" unicode="&#x2248;" horiz-adv-x="1676" 
d="M1431 1104q-20 -194 -111 -293t-249 -99q-77 0 -147 37.5t-126 82.5q-65 52 -117 79.5t-96 27.5q-75 0 -117 -48t-70 -172h-155q23 182 112.5 280t248.5 98q72 0 143 -37t130 -83q61 -48 114.5 -77.5t98.5 -29.5q76 0 120.5 54.5t63.5 179.5h157zM1432 588
q-25 -184 -112 -281.5t-250 -97.5q-72 0 -144 37.5t-129 82.5q-39 31 -103 69t-110 38q-78 0 -121 -55t-63 -179h-157q19 192 110.5 292t249.5 100q77 0 146 -37t127 -83q35 -28 97 -67.5t116 -39.5q75 0 117 49.5t69 171.5h157z" />
    <glyph glyph-name="uni2206" unicode="&#x2206;" horiz-adv-x="1489" 
d="M1438 0h-1388l562 1489h264zM1171 168l-432 1147l-431 -1147h863z" />
    <glyph glyph-name="guillemotleft" unicode="&#xab;" horiz-adv-x="1320" 
d="M1146 191l-528 419v85l528 418v-188l-357 -273l357 -273v-188zM716 162l-550 446v89l550 445v-196l-371 -294l371 -294v-196z" />
    <glyph glyph-name="guillemotright" unicode="&#xbb;" horiz-adv-x="1320" 
d="M1154 608l-550 -446v196l371 294l-371 294v196l550 -445v-89zM702 610l-528 -419v188l357 273l-357 273v188l528 -418v-85z" />
    <glyph glyph-name="ellipsis" unicode="&#x2026;" horiz-adv-x="1676" 
d="M1498 0h-204v223h204v-223zM940 0h-204v223h204v-223zM382 0h-204v223h204v-223z" />
    <glyph glyph-name="Agrave" unicode="&#xc0;" horiz-adv-x="1400" 
d="M1374 0h-211l-146 415h-644l-146 -415h-201l542 1489h264zM956 585l-261 731l-262 -731h523zM862 1675h-149l-273 374h243z" />
    <glyph glyph-name="Atilde" unicode="&#xc3;" horiz-adv-x="1400" 
d="M1374 0h-211l-146 415h-644l-146 -415h-201l542 1489h264zM956 585l-261 731l-262 -731h523zM1119 1992q-11 -152 -77 -229t-177 -77q-54 0 -100 19.5t-87 56.5q-47 43 -79.5 64.5t-71.5 21.5q-52 0 -78 -45t-30 -121h-131q8 151 79 228t174 77q50 0 96.5 -19.5
t88.5 -55.5q47 -41 83.5 -61.5t69.5 -20.5q51 0 79.5 46t31.5 116h129z" />
    <glyph glyph-name="Otilde" unicode="&#xd5;" horiz-adv-x="1612" 
d="M1310 1318q91 -100 139.5 -245t48.5 -329t-49.5 -329.5t-138.5 -242.5q-92 -101 -217.5 -152t-286.5 -51q-157 0 -285.5 52t-218.5 151t-138.5 243t-48.5 329q0 182 48 326.5t140 247.5q88 98 218.5 150t284.5 52q160 0 287.5 -52.5t216.5 -149.5zM1292 744
q0 290 -130 447.5t-355 157.5q-227 0 -356.5 -157.5t-129.5 -447.5q0 -293 132 -448.5t354 -155.5t353.5 155.5t131.5 448.5zM1207 1992q-11 -152 -77 -229t-177 -77q-54 0 -100 19.5t-87 56.5q-47 43 -79.5 64.5t-71.5 21.5q-52 0 -78 -45t-30 -121h-131q8 151 79 228
t174 77q50 0 96.5 -19.5t88.5 -55.5q47 -41 83.5 -61.5t69.5 -20.5q51 0 79.5 46t31.5 116h129z" />
    <glyph glyph-name="OE" unicode="&#x152;" horiz-adv-x="2191" 
d="M2076 0h-1074q-196 0 -325.5 27t-232.5 92q-145 91 -234.5 254t-89.5 370q0 215 87 373t239 254q79 51 203.5 85t356.5 34h1070v-176h-763v-408h763v-176h-763v-553h763v-176zM1116 172v1145h-122q-146 0 -236.5 -16t-185.5 -70q-116 -66 -180.5 -190t-64.5 -295
t56.5 -290t165.5 -187q91 -57 195 -77t250 -20h122z" />
    <glyph glyph-name="oe" unicode="&#x153;" horiz-adv-x="2010" 
d="M1910 539h-804q0 -104 30 -180t82 -125t122.5 -72.5t152.5 -23.5q109 0 211.5 39.5t172.5 95.5h12v-205q-98 -42 -193.5 -68t-200.5 -26q-168 0 -284 61t-190 165q-69 -111 -173.5 -171t-235.5 -60q-233 0 -369.5 158t-136.5 431q0 277 139.5 433.5t366.5 156.5
q140 0 240 -60.5t168 -174.5q71 106 178.5 170.5t250.5 64.5q225 0 343 -134t118 -373v-102zM1727 683q-3 155 -75.5 232.5t-213.5 77.5q-139 0 -226.5 -82t-103.5 -228h619zM924 558q0 215 -82 321.5t-229 106.5q-153 0 -233 -112t-80 -316q0 -212 83.5 -319.5
t229.5 -107.5t228.5 106.5t82.5 320.5z" />
    <glyph glyph-name="endash" unicode="&#x2013;" horiz-adv-x="1302" 
d="M1149 572h-996v160h996v-160z" />
    <glyph glyph-name="emdash" unicode="&#x2014;" horiz-adv-x="2048" 
d="M1895 572h-1742v160h1742v-160z" />
    <glyph glyph-name="quotedblleft" unicode="&#x201c;" horiz-adv-x="940" 
d="M790 997h-134l-271 559h240zM386 997h-134l-271 559h240z" />
    <glyph glyph-name="quotedblright" unicode="&#x201d;" horiz-adv-x="940" 
d="M959 1556l-271 -559h-134l165 559h240zM555 1556l-271 -559h-134l165 559h240z" />
    <glyph glyph-name="quoteleft" unicode="&#x2018;" horiz-adv-x="550" 
d="M390 997h-138l-271 559h244z" />
    <glyph glyph-name="quoteright" unicode="&#x2019;" horiz-adv-x="550" 
d="M569 1556l-271 -559h-138l165 559h244z" />
    <glyph glyph-name="divide" unicode="&#xf7;" horiz-adv-x="1676" 
d="M957 1022h-238v275h238v-275zM1466 572h-1256v160h1256v-160zM957 7h-238v275h238v-275z" />
    <glyph glyph-name="lozenge" unicode="&#x25ca;" horiz-adv-x="1676" 
d="M1504 654l-666 -710l-666 710l666 710zM1283 654l-445 477l-445 -477l445 -477z" />
    <glyph glyph-name="ydieresis" unicode="&#xff;" horiz-adv-x="1212" 
d="M1151 1117l-652 -1529h-201l208 466l-445 1063h204l343 -828l346 828h197zM923 1304h-199v195h199v-195zM510 1304h-199v195h199v-195z" />
    <glyph glyph-name="Ydieresis" unicode="&#x178;" horiz-adv-x="1260" 
d="M1254 1489l-524 -836v-653h-198v632l-526 857h219l407 -666l411 666h211zM939 1677h-199v195h199v-195zM526 1677h-199v195h199v-195z" />
    <glyph glyph-name="fraction" unicode="&#x2044;" horiz-adv-x="740" 
d="M843 1489l-780 -1489h-165l780 1489h165z" />
    <glyph glyph-name="fraction" unicode="&#x2215;" horiz-adv-x="740" 
d="M843 1489l-780 -1489h-165l780 1489h165z" />
    <glyph glyph-name="Euro" unicode="&#x20ac;" horiz-adv-x="1302" 
d="M1226 62q-108 -51 -200.5 -70t-218.5 -19q-243 0 -433.5 151t-239.5 411h-134l44 118h75q-2 21 -3 44.5t-1 45.5q0 26 1 52t3 50h-119l44 118h93q58 257 244 405t429 148q141 0 236.5 -20.5t179.5 -65.5v-209h-16q-80 65 -179 95.5t-223 30.5q-157 0 -285 -103.5
t-176 -280.5h475l-44 -118h-452q-2 -24 -3.5 -50t-1.5 -52q0 -23 1 -46t3 -44h380l-44 -118h-316q49 -182 181 -286.5t282 -104.5q157 0 246 31.5t157 92.5h15v-206z" />
    <glyph glyph-name="guilsinglleft" unicode="&#x2039;" horiz-adv-x="930" 
d="M736 172l-550 436v89l550 435v-199l-371 -281l371 -281v-199z" />
    <glyph glyph-name="guilsinglright" unicode="&#x203a;" horiz-adv-x="930" 
d="M744 608l-550 -436v199l371 281l-371 281v199l550 -435v-89z" />
    <glyph glyph-name="uniFB01" unicode="&#xfb01;" horiz-adv-x="1280" 
d="M1107 1304h-208v195h208v-195zM1090 0h-188v962h-519v-962h-188v959h-127v158h127v49q0 193 100 296.5t283 103.5q62 0 112.5 -6.5t91.5 -13.5v-170h-10q-28 8 -81 18t-87 10q-121 0 -174 -53.5t-53 -193.5v-40h713v-1117z" />
    <glyph glyph-name="uniFB02" unicode="&#xfb02;" horiz-adv-x="1282" 
d="M1095 0h-188v1389q-43 8 -112.5 14t-122.5 6q-162 0 -228.5 -54t-66.5 -194v-44h329v-158h-323v-959h-188v959h-127v158h127v49q0 191 116.5 295.5t338.5 104.5q69 0 141 -7t116 -11l188 8v-1556z" />
    <glyph glyph-name="daggerdbl" unicode="&#x2021;" horiz-adv-x="1302" 
d="M1115 507l-403 5l5 -388h-132l5 388l-403 -5v129l403 -5v418l-403 -5v129l403 -5l-5 388h132l-5 -388l403 5v-129l-403 5v-418l403 5v-129z" />
    <glyph glyph-name="uni2219" unicode="&#x2219;" horiz-adv-x="745" 
d="M492 511h-239v283h239v-283z" />
    <glyph glyph-name="quotesinglbase" unicode="&#x201a;" horiz-adv-x="550" 
d="M399 283l-271 -559h-138l165 559h244z" />
    <glyph glyph-name="quotedblbase" unicode="&#x201e;" horiz-adv-x="940" 
d="M799 283l-271 -559h-134l165 559h240zM395 283l-271 -559h-134l165 559h240z" />
    <glyph glyph-name="perthousand" unicode="&#x2030;" horiz-adv-x="3116" 
d="M884 1076q0 -224 -94.5 -333t-272.5 -109q-182 0 -275 109t-93 332q0 224 95 333t273 109q181 0 274 -110t93 -331zM1575 1489l-780 -1489h-165l780 1489h165zM2055 413q0 -224 -95 -333t-273 -109q-181 0 -274 110t-93 331q0 224 94.5 333t272.5 109q182 0 275 -109
t93 -332zM706 1076q0 172 -44.5 240t-144.5 68q-102 0 -146 -68t-44 -241t44 -240.5t146 -67.5q100 0 144.5 67.5t44.5 241.5zM1877 413q0 172 -44.5 240t-144.5 68q-102 0 -146 -68t-44 -241t44 -240.5t146 -67.5q100 0 144.5 67.5t44.5 241.5zM2963 413q0 -224 -95 -333
t-273 -109q-181 0 -274 110t-93 331q0 224 94.5 333t272.5 109q182 0 275 -109t93 -332zM2785 413q0 172 -44.5 240t-144.5 68q-102 0 -146 -68t-44 -241t44 -240.5t146 -67.5q100 0 144.5 67.5t44.5 241.5z" />
    <glyph glyph-name="Acircumflex" unicode="&#xc2;" horiz-adv-x="1400" 
d="M1374 0h-211l-146 415h-644l-146 -415h-201l542 1489h264zM956 585l-261 731l-262 -731h523zM1033 1670h-159l-185 256l-184 -256h-155l228 379h227z" />
    <glyph glyph-name="Ecircumflex" unicode="&#xca;" horiz-adv-x="1295" 
d="M1181 0h-981v1489h981v-176h-783v-408h783v-176h-783v-553h783v-176zM1031 1670h-159l-185 256l-184 -256h-155l228 379h227z" />
    <glyph glyph-name="Aacute" unicode="&#xc1;" horiz-adv-x="1400" 
d="M1374 0h-211l-146 415h-644l-146 -415h-201l542 1489h264zM956 585l-261 731l-262 -731h523zM955 2049l-273 -374h-149l179 374h243z" />
    <glyph glyph-name="Edieresis" unicode="&#xcb;" horiz-adv-x="1295" 
d="M1181 0h-981v1489h981v-176h-783v-408h783v-176h-783v-553h783v-176zM1038 1677h-199v195h199v-195zM625 1677h-199v195h199v-195z" />
    <glyph glyph-name="Egrave" unicode="&#xc8;" horiz-adv-x="1295" 
d="M1181 0h-981v1489h981v-176h-783v-408h783v-176h-783v-553h783v-176zM822 1675h-149l-273 374h243z" />
    <glyph glyph-name="Iacute" unicode="&#xcd;" horiz-adv-x="862" 
d="M725 0h-588v152h195v1185h-195v152h588v-152h-195v-1185h195v-152zM725 2049l-273 -374h-149l179 374h243z" />
    <glyph glyph-name="Icircumflex" unicode="&#xce;" horiz-adv-x="862" 
d="M725 0h-588v152h195v1185h-195v152h588v-152h-195v-1185h195v-152zM776 1670h-159l-185 256l-184 -256h-155l228 379h227z" />
    <glyph glyph-name="Idieresis" unicode="&#xcf;" horiz-adv-x="862" 
d="M725 0h-588v152h195v1185h-195v152h588v-152h-195v-1185h195v-152zM738 1677h-199v195h199v-195zM325 1677h-199v195h199v-195z" />
    <glyph glyph-name="Igrave" unicode="&#xcc;" horiz-adv-x="862" 
d="M725 0h-588v152h195v1185h-195v152h588v-152h-195v-1185h195v-152zM568 1675h-149l-273 374h243z" />
    <glyph glyph-name="Oacute" unicode="&#xd3;" horiz-adv-x="1612" 
d="M1310 1318q91 -100 139.5 -245t48.5 -329t-49.5 -329.5t-138.5 -242.5q-92 -101 -217.5 -152t-286.5 -51q-157 0 -285.5 52t-218.5 151t-138.5 243t-48.5 329q0 182 48 326.5t140 247.5q88 98 218.5 150t284.5 52q160 0 287.5 -52.5t216.5 -149.5zM1292 744
q0 290 -130 447.5t-355 157.5q-227 0 -356.5 -157.5t-129.5 -447.5q0 -293 132 -448.5t354 -155.5t353.5 155.5t131.5 448.5zM1083 2049l-273 -374h-149l179 374h243z" />
    <glyph glyph-name="Ocircumflex" unicode="&#xd4;" horiz-adv-x="1612" 
d="M1310 1318q91 -100 139.5 -245t48.5 -329t-49.5 -329.5t-138.5 -242.5q-92 -101 -217.5 -152t-286.5 -51q-157 0 -285.5 52t-218.5 151t-138.5 243t-48.5 329q0 182 48 326.5t140 247.5q88 98 218.5 150t284.5 52q160 0 287.5 -52.5t216.5 -149.5zM1292 744
q0 290 -130 447.5t-355 157.5q-227 0 -356.5 -157.5t-129.5 -447.5q0 -293 132 -448.5t354 -155.5t353.5 155.5t131.5 448.5zM1136 1670h-159l-185 256l-184 -256h-155l228 379h227z" />
    <glyph glyph-name="Ograve" unicode="&#xd2;" horiz-adv-x="1612" 
d="M1310 1318q91 -100 139.5 -245t48.5 -329t-49.5 -329.5t-138.5 -242.5q-92 -101 -217.5 -152t-286.5 -51q-157 0 -285.5 52t-218.5 151t-138.5 243t-48.5 329q0 182 48 326.5t140 247.5q88 98 218.5 150t284.5 52q160 0 287.5 -52.5t216.5 -149.5zM1292 744
q0 290 -130 447.5t-355 157.5q-227 0 -356.5 -157.5t-129.5 -447.5q0 -293 132 -448.5t354 -155.5t353.5 155.5t131.5 448.5zM932 1675h-149l-273 374h243z" />
    <glyph glyph-name="Uacute" unicode="&#xda;" horiz-adv-x="1499" 
d="M1321 598q0 -162 -35.5 -282.5t-116.5 -200.5q-77 -76 -180 -111t-240 -35q-140 0 -244 37t-175 109q-81 82 -116.5 198t-35.5 285v891h198v-901q0 -121 16.5 -191t55.5 -127q44 -65 119.5 -98t181.5 -33q107 0 182 32.5t120 98.5q39 57 55.5 130.5t16.5 182.5v906h198
v-891zM1073 2049l-273 -374h-149l179 374h243z" />
    <glyph glyph-name="Ucircumflex" unicode="&#xdb;" horiz-adv-x="1499" 
d="M1321 598q0 -162 -35.5 -282.5t-116.5 -200.5q-77 -76 -180 -111t-240 -35q-140 0 -244 37t-175 109q-81 82 -116.5 198t-35.5 285v891h198v-901q0 -121 16.5 -191t55.5 -127q44 -65 119.5 -98t181.5 -33q107 0 182 32.5t120 98.5q39 57 55.5 130.5t16.5 182.5v906h198
v-891zM1084 1670h-159l-185 256l-184 -256h-155l228 379h227z" />
    <glyph glyph-name="Ugrave" unicode="&#xd9;" horiz-adv-x="1499" 
d="M1321 598q0 -162 -35.5 -282.5t-116.5 -200.5q-77 -76 -180 -111t-240 -35q-140 0 -244 37t-175 109q-81 82 -116.5 198t-35.5 285v891h198v-901q0 -121 16.5 -191t55.5 -127q44 -65 119.5 -98t181.5 -33q107 0 182 32.5t120 98.5q39 57 55.5 130.5t16.5 182.5v906h198
v-891zM932 1675h-149l-273 374h243z" />
    <glyph glyph-name="dotlessi" unicode="&#x131;" horiz-adv-x="562" 
d="M375 0h-188v1117h188v-1117z" />
    <glyph glyph-name="circumflex" unicode="&#x2c6;" horiz-adv-x="1302" 
d="M993 1297h-159l-185 256l-184 -256h-155l228 379h227z" />
    <glyph glyph-name="tilde" unicode="&#x2dc;" horiz-adv-x="1302" 
d="M1068 1619q-11 -152 -77 -229t-177 -77q-54 0 -100 19.5t-87 56.5q-47 43 -79.5 64.5t-71.5 21.5q-52 0 -78 -45t-30 -121h-131q8 151 79 228t174 77q50 0 96.5 -19.5t88.5 -55.5q47 -41 83.5 -61.5t69.5 -20.5q51 0 79.5 46t31.5 116h129z" />
    <glyph glyph-name="uni02C9" unicode="&#x2c9;" horiz-adv-x="1302" 
d="M1022 1335h-742v154h742v-154z" />
    <glyph glyph-name="breve" unicode="&#x2d8;" horiz-adv-x="1302" 
d="M1026 1676q-10 -168 -108.5 -275t-267.5 -107t-267.5 107t-107.5 275h166q12 -132 65.5 -192t144.5 -60q89 0 142.5 60t67.5 192h165z" />
    <glyph glyph-name="dotaccent" unicode="&#x2d9;" horiz-adv-x="1302" 
d="M757 1304h-212v195h212v-195z" />
    <glyph glyph-name="ring" unicode="&#x2da;" horiz-adv-x="1302" 
d="M1001 1630q0 -143 -102 -242t-248 -99q-144 0 -247 98.5t-103 242.5q0 143 102 241t248 98q147 0 248.5 -98t101.5 -241zM856 1630q0 86 -58.5 145.5t-146.5 59.5t-146.5 -59t-58.5 -146t59 -146t146 -59q88 0 146.5 59t58.5 146z" />
    <glyph glyph-name="cedilla" unicode="&#xb8;" horiz-adv-x="1302" 
d="M880 -89q0 -162 -91.5 -248t-237.5 -86q-37 0 -95 7t-103 19v160h9q26 -10 70 -23t94 -13q104 0 153 39t49 127q0 29 -3 65.5t-6 61.5h153q2 -19 5 -45t3 -64z" />
    <glyph glyph-name="hungarumlaut" unicode="&#x2dd;" horiz-adv-x="1302" 
d="M1143 1676l-258 -374h-139l169 374h228zM739 1676l-258 -374h-139l169 374h228z" />
    <glyph glyph-name="ogonek" unicode="&#x2db;" horiz-adv-x="1302" 
d="M892 -391q-52 -14 -89.5 -20t-79.5 -6q-139 0 -223.5 79t-84.5 222q0 38 6.5 69t12.5 57h155q-6 -27 -9 -57t-3 -60q0 -82 41.5 -121t131.5 -39q36 0 76.5 13.5t57.5 21.5h8v-159z" />
    <glyph glyph-name="caron" unicode="&#x2c7;" horiz-adv-x="1302" 
d="M989 1676l-228 -379h-227l-228 379h159l185 -256l184 256h155z" />
    <glyph glyph-name="Lslash" unicode="&#x141;" horiz-adv-x="1150" 
d="M1152 0h-942v535l-186 -152v163l186 149v794h198v-648l349 283v-163l-349 -280v-505h744v-176z" />
    <glyph glyph-name="lslash" unicode="&#x142;" horiz-adv-x="582" 
d="M566 890l-181 -145v-745h-188v608l-173 -141v159l173 138v792h188v-655l181 148v-159z" />
    <glyph glyph-name="Scaron" unicode="&#x160;" horiz-adv-x="1400" 
d="M1282 425q0 -87 -40.5 -172t-113.5 -144q-80 -64 -186.5 -100t-256.5 -36q-161 0 -289.5 30t-261.5 89v248h14q113 -94 261 -145t278 -51q184 0 286.5 69t102.5 184q0 99 -48.5 146t-147.5 73q-75 20 -162.5 33t-185.5 33q-198 42 -293.5 143.5t-95.5 264.5
q0 187 158 306.5t401 119.5q157 0 288 -30t232 -74v-234h-14q-85 72 -223.5 119.5t-283.5 47.5q-159 0 -255.5 -66t-96.5 -170q0 -93 48 -146t169 -81q64 -14 182 -34t200 -41q166 -44 250 -133t84 -249zM1066 2049l-228 -379h-227l-228 379h159l185 -256l184 256h155z" />
    <glyph glyph-name="scaron" unicode="&#x161;" horiz-adv-x="1067" 
d="M983 322q0 -153 -126.5 -251t-345.5 -98q-124 0 -227.5 29.5t-173.5 64.5v211h10q89 -67 198 -106.5t209 -39.5q124 0 194 40t70 126q0 66 -38 100t-146 58q-40 9 -104.5 21t-117.5 26q-147 39 -208.5 114.5t-61.5 185.5q0 69 28.5 130t86.5 109q56 47 142.5 74.5
t193.5 27.5q100 0 202.5 -24.5t170.5 -59.5v-201h-10q-72 53 -175 89.5t-202 36.5q-103 0 -174 -39.5t-71 -117.5q0 -69 43 -104q42 -35 136 -57q52 -12 116.5 -24t107.5 -22q131 -30 202 -103q71 -74 71 -196zM907 1676l-228 -379h-227l-228 379h159l185 -256l184 256h155z
" />
    <glyph glyph-name="Zcaron" unicode="&#x17d;" horiz-adv-x="1403" 
d="M1288 0h-1162v184l913 1129h-879v176h1106v-179l-922 -1134h944v-176zM1039 2049l-228 -379h-227l-228 379h159l185 -256l184 256h155z" />
    <glyph glyph-name="zcaron" unicode="&#x17e;" horiz-adv-x="1076" 
d="M995 0h-902v139l651 821h-637v157h871v-134l-654 -824h671v-159zM881 1676l-228 -379h-227l-228 379h159l185 -256l184 256h155z" />
    <glyph glyph-name="brokenbar" unicode="&#xa6;" horiz-adv-x="930" 
d="M552 758h-174v798h174v-798zM552 -392h-174v798h174v-798z" />
    <glyph glyph-name="Eth" unicode="&#xd0;" horiz-adv-x="1588" 
d="M1468 743q0 -203 -88.5 -368t-235.5 -256q-102 -63 -227.5 -91t-330.5 -28h-376v740h-196v143h196v606h372q218 0 347 -31.5t217 -86.5q152 -95 237 -253t85 -375zM1261 746q0 175 -61 295t-182 189q-88 50 -187 69.5t-237 19.5h-188v-436h361v-143h-361v-570h188
q143 0 249.5 21t195.5 78q111 71 166.5 187t55.5 290z" />
    <glyph glyph-name="eth" unicode="&#xf0;" horiz-adv-x="1253" 
d="M1137 637q0 -324 -142 -496t-383 -172q-229 0 -367.5 135t-138.5 380q0 226 137 358t339 132q108 0 185.5 -26.5t163.5 -79.5q-32 112 -99.5 219t-154.5 181l-264 -162l-66 97l237 142q-84 67 -156 107.5t-165 87.5v16h295q35 -25 84 -58.5t86 -59.5l210 128l66 -97
l-186 -109q153 -147 236 -325.5t83 -397.5zM847 226q49 59 75 143.5t26 234.5q0 32 -1.5 59.5t-3.5 57.5q-75 45 -157.5 66.5t-168.5 21.5q-147 0 -231.5 -87.5t-84.5 -239.5q0 -180 84.5 -267t227.5 -87q66 0 127.5 22t106.5 76z" />
    <glyph glyph-name="Yacute" unicode="&#xdd;" horiz-adv-x="1260" 
d="M1254 1489l-524 -836v-653h-198v632l-526 857h219l407 -666l411 666h211zM935 2049l-273 -374h-149l179 374h243z" />
    <glyph glyph-name="yacute" unicode="&#xfd;" horiz-adv-x="1212" 
d="M1151 1117l-652 -1529h-201l208 466l-445 1063h204l343 -828l346 828h197zM928 1676l-273 -374h-149l179 374h243z" />
    <glyph glyph-name="Thorn" unicode="&#xde;" horiz-adv-x="1240" 
d="M1174 787q0 -92 -35 -176.5t-95 -141.5q-78 -75 -187.5 -111t-260.5 -36h-198v-322h-198v1489h198v-270h205q133 0 230 -22.5t164 -66.5q83 -53 130 -138t47 -205zM968 782q0 72 -26 125.5t-82 88.5q-48 30 -112 42.5t-154 12.5h-196v-563h167q119 0 195 20.5t123 65.5
q44 41 64.5 92t20.5 116z" />
    <glyph glyph-name="thorn" unicode="&#xfe;" horiz-adv-x="1276" 
d="M1168 572q0 -136 -39 -248.5t-110 -190.5q-66 -74 -155.5 -114.5t-189.5 -40.5q-87 0 -157.5 19t-143.5 59v-468h-188v1968h188v-556q75 63 168.5 105.5t199.5 42.5q202 0 314.5 -152.5t112.5 -423.5zM974 567q0 202 -69 302t-212 100q-81 0 -163 -35t-157 -92v-633
q80 -36 137.5 -49t130.5 -13q157 0 245 106t88 314z" />
    <glyph glyph-name="minus" unicode="&#x2212;" horiz-adv-x="1676" 
d="M1456 572h-1236v160h1236v-160z" />
    <glyph glyph-name="multiply" unicode="&#xd7;" horiz-adv-x="1676" 
d="M1385 216l-111 -111l-436 440l-436 -440l-111 111l440 436l-440 436l111 111l436 -440l436 440l111 -111l-440 -436z" />
    <glyph glyph-name="uni00B9" unicode="&#xb9;" horiz-adv-x="1110" 
d="M914 566h-615v122h234v568h-242v112q45 0 99 6.5t84 18.5q37 16 59 38t25 62h135v-805h221v-122z" />
    <glyph glyph-name="uni00B2" unicode="&#xb2;" horiz-adv-x="1110" 
d="M967 566h-760v156q100 62 183.5 117t134.5 96q131 103 168 154.5t37 135.5q0 69 -53.5 107t-143.5 38q-89 0 -175 -30.5t-134 -61.5h-13v180q71 26 158.5 43.5t174.5 17.5q180 0 273.5 -78.5t93.5 -203.5q0 -99 -48.5 -174.5t-163.5 -165.5q-55 -43 -132.5 -94
t-143.5 -92h544v-145z" />
    <glyph glyph-name="uni00B3" unicode="&#xb3;" horiz-adv-x="1110" 
d="M956 817q0 -75 -33 -131.5t-89 -90.5q-57 -35 -131 -51.5t-163 -16.5q-94 0 -176.5 15t-156.5 43v179h14q41 -36 138.5 -65.5t190.5 -29.5q100 0 166.5 35.5t66.5 110.5q0 85 -59 115t-171 30h-143v141h128q112 0 165.5 38.5t53.5 106.5q0 61 -49.5 96.5t-153.5 35.5
q-77 0 -174.5 -31t-141.5 -67h-14v178q74 27 160.5 44.5t176.5 17.5q175 0 271.5 -68t96.5 -174q0 -89 -55 -146t-144 -83v-8q95 -17 160.5 -72.5t65.5 -151.5z" />
    <glyph glyph-name="onehalf" unicode="&#xbd;" horiz-adv-x="2048" 
d="M545 565h-165v681h-209v117q102 0 165 22t72 108h137v-928zM1410 1489l-780 -1489h-165l780 1489h165zM1955 0h-688v148q91 69 158 121t106 89q109 103 141 157.5t32 136.5q0 70 -44 107t-120 37q-70 0 -141.5 -30t-112.5 -62h-15v179q65 27 140.5 44t152.5 17
q157 0 241.5 -79t84.5 -201q0 -93 -41 -167t-147 -168q-49 -43 -119.5 -96t-125.5 -94h498v-139z" />
    <glyph glyph-name="onequarter" unicode="&#xbc;" horiz-adv-x="2048" 
d="M545 565h-165v681h-209v117q102 0 165 22t72 108h137v-928zM1410 1489l-780 -1489h-165l780 1489h165zM1857 220h-163v-220h-150v220h-465v185l466 539h149v-591h163v-133zM1548 353v400l-353 -400h353z" />
    <glyph glyph-name="threequarters" unicode="&#xbe;" horiz-adv-x="2048" 
d="M793 826q0 -71 -30 -127t-78 -90q-53 -37 -114.5 -53t-140.5 -16q-82 0 -153.5 15t-136.5 43v175h17q37 -35 114 -64.5t156 -29.5q84 0 139 36.5t55 108.5q0 83 -50 112.5t-141 29.5h-140v139h125q87 0 134.5 38t47.5 104q0 60 -41 95.5t-128 35.5q-66 0 -142.5 -31
t-113.5 -66h-17v175q64 27 139 44t154 17q152 0 237 -70t85 -168q0 -87 -48.5 -143.5t-125.5 -82.5v-8q80 -16 138.5 -70.5t58.5 -148.5zM1500 1489l-780 -1489h-165l780 1489h165zM1913 220h-163v-220h-150v220h-465v185l466 539h149v-591h163v-133zM1604 353v400
l-353 -400h353z" />
    <glyph glyph-name="franc" unicode="&#x20a3;" horiz-adv-x="1302" 
d="M1140 1318h-706v-427h650v-171h-650v-273h330v-139h-330v-308h-192v308h-182v139h182v1042h898v-171z" />
    <glyph glyph-name="Gbreve" unicode="&#x11e;" horiz-adv-x="1588" 
d="M1442 110q-122 -56 -266.5 -97.5t-279.5 -41.5q-174 0 -319 48t-247 144q-103 97 -159 242.5t-56 340.5q0 357 208.5 563.5t572.5 206.5q127 0 259.5 -30.5t285.5 -103.5v-235h-18q-31 24 -90 63t-116 65q-69 31 -156.5 51.5t-198.5 20.5q-250 0 -395.5 -160.5
t-145.5 -434.5q0 -289 152 -449.5t414 -160.5q96 0 191.5 19t167.5 49v365h-399v174h595v-639zM1233 2049q-10 -168 -108.5 -275t-267.5 -107t-267.5 107t-107.5 275h166q12 -132 65.5 -192t144.5 -60q89 0 142.5 60t67.5 192h165z" />
    <glyph glyph-name="gbreve" unicode="&#x11f;" horiz-adv-x="1276" 
d="M1091 127q0 -284 -129 -417t-397 -133q-89 0 -173.5 12.5t-166.5 35.5v192h10q46 -18 146 -44.5t200 -26.5q96 0 159 23t98 64q35 39 50 94t15 123v102q-85 -68 -162.5 -101.5t-197.5 -33.5q-200 0 -317.5 144.5t-117.5 407.5q0 144 40.5 248.5t110.5 180.5
q65 71 158 110.5t185 39.5q97 0 162.5 -19.5t138.5 -59.5l12 48h176v-990zM903 307v609q-75 34 -139.5 48.5t-128.5 14.5q-155 0 -244 -104t-89 -302q0 -188 66 -285t219 -97q82 0 164.5 31.5t151.5 84.5zM1024 1676q-10 -168 -108.5 -275t-267.5 -107t-267.5 107
t-107.5 275h166q12 -132 65.5 -192t144.5 -60q89 0 142.5 60t67.5 192h165z" />
    <glyph glyph-name="Idotaccent" unicode="&#x130;" horiz-adv-x="862" 
d="M725 0h-588v152h195v1185h-195v152h588v-152h-195v-1185h195v-152zM537 1677h-212v195h212v-195z" />
    <glyph glyph-name="Scedilla" unicode="&#x15e;" horiz-adv-x="1400" 
d="M1282 425q0 -87 -40.5 -172t-113.5 -144q-44 -35 -96 -62.5t-114 -44.5q3 -22 4.5 -44t1.5 -47q0 -157 -89.5 -245.5t-243.5 -88.5q-37 0 -95 7t-103 19v162h9q26 -10 67 -24t97 -14q104 0 153 39t49 127q0 24 -1.5 44.5t-3.5 38.5q-20 -1 -38.5 -2t-39.5 -1
q-161 0 -289.5 30t-261.5 89v248h14q113 -94 261 -145t278 -51q184 0 286.5 69t102.5 184q0 99 -48.5 146t-147.5 73q-75 20 -162.5 33t-185.5 33q-198 42 -293.5 143.5t-95.5 264.5q0 187 158 306.5t401 119.5q157 0 288 -30t232 -74v-234h-14q-85 72 -223.5 119.5
t-283.5 47.5q-159 0 -255.5 -66t-96.5 -170q0 -93 48 -146t169 -81q64 -14 182 -34t200 -41q166 -44 250 -133t84 -249z" />
    <glyph glyph-name="scedilla" unicode="&#x15f;" horiz-adv-x="1067" 
d="M983 322q0 -107 -63.5 -188.5t-174.5 -123.5q2 -19 4.5 -46t2.5 -53q0 -162 -91.5 -248t-237.5 -86q-37 0 -95 7t-103 19v160h9q26 -10 70 -23t94 -13q104 0 153 39t49 127q0 24 -1.5 46.5t-3.5 37.5q-21 -2 -41 -3t-43 -1q-124 0 -227.5 29.5t-173.5 64.5v211h10
q89 -67 198 -106.5t209 -39.5q124 0 194 40t70 126q0 66 -38 100t-146 58q-40 9 -104.5 21t-117.5 26q-147 39 -208.5 114.5t-61.5 185.5q0 69 28.5 130t86.5 109q56 47 142.5 74.5t193.5 27.5q100 0 202.5 -24.5t170.5 -59.5v-201h-10q-72 53 -175 89.5t-202 36.5
q-103 0 -174 -39.5t-71 -117.5q0 -69 43 -104q42 -35 136 -57q52 -12 116.5 -24t107.5 -22q131 -30 202 -103q71 -74 71 -196z" />
    <glyph glyph-name="Cacute" unicode="&#x106;" horiz-adv-x="1430" 
d="M1350 108q-55 -24 -99.5 -45t-116.5 -44q-61 -19 -132.5 -32.5t-157.5 -13.5q-162 0 -294.5 45.5t-230.5 142.5q-96 95 -150 241.5t-54 340.5q0 184 52 329t150 245q95 97 229.5 148t298.5 51q120 0 239.5 -29t265.5 -102v-235h-15q-123 103 -244 150t-259 47
q-113 0 -203.5 -36.5t-161.5 -113.5q-69 -75 -107.5 -189.5t-38.5 -264.5q0 -157 42.5 -270t109.5 -184q70 -74 163.5 -109.5t197.5 -35.5q143 0 268 49t234 147h14v-232zM1073 2049l-273 -374h-149l179 374h243z" />
    <glyph glyph-name="cacute" unicode="&#x107;" horiz-adv-x="1067" 
d="M1011 70q-94 -45 -178.5 -70t-179.5 -25q-121 0 -222 35.5t-173 107.5q-73 72 -113 182t-40 257q0 274 150.5 430t397.5 156q96 0 188.5 -27t169.5 -66v-209h-10q-86 67 -177.5 103t-178.5 36q-160 0 -252.5 -107.5t-92.5 -315.5q0 -202 90.5 -310.5t254.5 -108.5
q57 0 116 15t106 39q41 21 77 44.5t57 40.5h10v-207zM913 1676l-273 -374h-149l179 374h243z" />
    <glyph glyph-name="Ccaron" unicode="&#x10c;" horiz-adv-x="1430" 
d="M1350 108q-55 -24 -99.5 -45t-116.5 -44q-61 -19 -132.5 -32.5t-157.5 -13.5q-162 0 -294.5 45.5t-230.5 142.5q-96 95 -150 241.5t-54 340.5q0 184 52 329t150 245q95 97 229.5 148t298.5 51q120 0 239.5 -29t265.5 -102v-235h-15q-123 103 -244 150t-259 47
q-113 0 -203.5 -36.5t-161.5 -113.5q-69 -75 -107.5 -189.5t-38.5 -264.5q0 -157 42.5 -270t109.5 -184q70 -74 163.5 -109.5t197.5 -35.5q143 0 268 49t234 147h14v-232zM1157 2049l-228 -379h-227l-228 379h159l185 -256l184 256h155z" />
    <glyph glyph-name="ccaron" unicode="&#x10d;" horiz-adv-x="1067" 
d="M1011 70q-94 -45 -178.5 -70t-179.5 -25q-121 0 -222 35.5t-173 107.5q-73 72 -113 182t-40 257q0 274 150.5 430t397.5 156q96 0 188.5 -27t169.5 -66v-209h-10q-86 67 -177.5 103t-178.5 36q-160 0 -252.5 -107.5t-92.5 -315.5q0 -202 90.5 -310.5t254.5 -108.5
q57 0 116 15t106 39q41 21 77 44.5t57 40.5h10v-207zM979 1676l-228 -379h-227l-228 379h159l185 -256l184 256h155z" />
    <glyph glyph-name="dcroat" unicode="&#x111;" horiz-adv-x="1276" 
d="M1275 1268h-184v-1268h-188v117q-77 -66 -163.5 -107t-196.5 -41q-198 0 -316.5 151t-118.5 424q0 142 41 251.5t109 186.5q68 76 159 115.5t187 39.5q89 0 156 -18t143 -57v206h-363v134h363v154h188v-154h184v-134zM903 275v633q-79 34 -136.5 46t-130.5 12
q-156 0 -245 -107t-89 -311q0 -195 67.5 -297.5t218.5 -102.5q80 0 162 35.5t153 91.5z" />
    <glyph glyph-name="macron" unicode="&#xaf;" horiz-adv-x="1302" 
d="M1306 1668h-1305l-5 120h1310v-120z" />
    <glyph glyph-name="periodcentered" unicode="&#xb7;" horiz-adv-x="745" 
d="M492 511h-239v283h239v-283z" />
    <glyph glyph-name="Abreve" unicode="&#x102;" horiz-adv-x="1400" 
d="M1374 0h-211l-146 415h-644l-146 -415h-201l542 1489h264zM956 585l-261 731l-262 -731h523zM1075 2049q-10 -168 -108.5 -275t-267.5 -107t-267.5 107t-107.5 275h166q12 -132 65.5 -192t144.5 -60q89 0 142.5 60t67.5 192h165z" />
    <glyph glyph-name="abreve" unicode="&#x103;" horiz-adv-x="1230" 
d="M1053 0h-187v119q-25 -17 -67.5 -47.5t-82.5 -48.5q-47 -23 -108 -38.5t-143 -15.5q-151 0 -256 100t-105 255q0 127 54.5 205.5t155.5 123.5q102 45 245 61t307 24v29q0 64 -22.5 106t-64.5 66q-40 23 -96 31t-117 8q-74 0 -165 -19.5t-188 -56.5h-10v191q55 15 159 33
t205 18q118 0 205.5 -19.5t151.5 -66.5q63 -46 96 -119t33 -181v-758zM866 275v311q-86 -5 -202.5 -15t-184.5 -29q-81 -23 -131 -71.5t-50 -133.5q0 -96 58 -144.5t177 -48.5q99 0 181 38.5t152 92.5zM984 1676q-10 -168 -108.5 -275t-267.5 -107t-267.5 107t-107.5 275
h166q12 -132 65.5 -192t144.5 -60q89 0 142.5 60t67.5 192h165z" />
    <glyph glyph-name="Aogonek" unicode="&#x104;" horiz-adv-x="1400" 
d="M1579 -391q-52 -14 -89.5 -20t-79.5 -6q-139 0 -223.5 78.5t-84.5 222.5q0 64 15 117t21 74l-121 340h-644l-146 -415h-201l542 1489h264l542 -1489h-97q-6 -27 -9.5 -53.5t-3.5 -53.5q0 -82 41.5 -121t131.5 -39q36 0 76.5 13.5t57.5 21.5h8v-159zM956 585l-261 731
l-262 -731h523z" />
    <glyph glyph-name="aogonek" unicode="&#x105;" horiz-adv-x="1230" 
d="M1326 -391q-52 -14 -89.5 -20t-79.5 -6q-139 0 -223.5 79t-84.5 222q0 38 6.5 67.5t10.5 48.5v119q-25 -17 -67.5 -47.5t-82.5 -48.5q-47 -23 -108 -38.5t-143 -15.5q-151 0 -256 100t-105 255q0 127 54.5 205.5t155.5 123.5q102 45 245 61t307 24v29q0 64 -22.5 106
t-64.5 66q-40 23 -96 31t-117 8q-74 0 -165 -19.5t-188 -56.5h-10v191q55 15 159 33t205 18q118 0 205.5 -19.5t151.5 -66.5q63 -46 96 -119t33 -181v-758h-29q-6 -27 -9.5 -52t-3.5 -55q0 -82 41.5 -121t131.5 -39q36 0 76.5 13.5t57.5 21.5h8v-159zM866 275v311
q-86 -5 -202.5 -15t-184.5 -29q-81 -23 -131 -71.5t-50 -133.5q0 -96 58 -144.5t177 -48.5q99 0 181 38.5t152 92.5z" />
    <glyph glyph-name="Dcaron" unicode="&#x10e;" horiz-adv-x="1578" 
d="M1458 743q0 -203 -88.5 -368t-235.5 -256q-102 -63 -227.5 -91t-330.5 -28h-376v1489h372q218 0 346.5 -31.5t217.5 -86.5q152 -95 237 -253t85 -375zM1251 746q0 175 -61 295t-182 189q-88 50 -187 69.5t-237 19.5h-186v-1149h186q143 0 249.5 21t195.5 78
q111 71 166.5 187t55.5 290zM1029 2049l-228 -379h-227l-228 379h159l185 -256l184 256h155z" />
    <glyph glyph-name="dcaron" unicode="&#x10f;" horiz-adv-x="1326" 
d="M1575 1556l-250 -505h-127l152 505h225zM1091 0h-188v117q-81 -70 -169 -109t-191 -39q-200 0 -317.5 154t-117.5 427q0 142 40.5 253t109.5 189q68 76 158.5 116t187.5 40q88 0 156 -18.5t143 -57.5v484h188v-1556zM903 275v641q-76 34 -136 47t-131 13
q-158 0 -246 -110t-88 -312q0 -199 68 -302.5t218 -103.5q80 0 162 35.5t153 91.5z" />
    <glyph glyph-name="Dcroat" unicode="&#x110;" horiz-adv-x="1588" 
d="M1468 743q0 -203 -88.5 -368t-235.5 -256q-102 -63 -227.5 -91t-330.5 -28h-376v740h-196v143h196v606h372q218 0 347 -31.5t217 -86.5q152 -95 237 -253t85 -375zM1261 746q0 175 -61 295t-182 189q-88 50 -187 69.5t-237 19.5h-188v-436h361v-143h-361v-570h188
q143 0 249.5 21t195.5 78q111 71 166.5 187t55.5 290z" />
    <glyph glyph-name="Eogonek" unicode="&#x118;" horiz-adv-x="1295" 
d="M1229 -391q-52 -14 -89.5 -20t-79.5 -6q-139 0 -223.5 79t-84.5 222q0 36 5.5 61.5t11.5 54.5h-569v1489h981v-176h-783v-408h783v-176h-783v-553h783v-176h-254q-6 -27 -9.5 -53.5t-3.5 -53.5q0 -82 41.5 -121t131.5 -39q36 0 76.5 13.5t57.5 21.5h8v-159z" />
    <glyph glyph-name="eogonek" unicode="&#x119;" horiz-adv-x="1220" 
d="M1120 539h-823q0 -103 31 -179.5t85 -125.5q52 -48 123.5 -72t157.5 -24q114 0 229.5 45.5t164.5 89.5h10v-205q-74 -31 -151.5 -55.5t-158.5 -33.5q-2 -20 -3.5 -44t-1.5 -42q0 -82 41.5 -121t131.5 -39q36 0 76.5 13.5t57.5 21.5h8v-159q-52 -14 -89.5 -20t-79.5 -6
q-139 0 -223.5 79t-84.5 222q0 24 3 49t7 43q-248 18 -386.5 167t-138.5 409q0 274 149.5 435t393.5 161q226 0 348.5 -132t122.5 -375v-102zM937 683q-1 148 -74.5 229t-223.5 81q-151 0 -240.5 -89t-101.5 -221h640z" />
    <glyph glyph-name="Ecaron" unicode="&#x11a;" horiz-adv-x="1295" 
d="M1181 0h-981v1489h981v-176h-783v-408h783v-176h-783v-553h783v-176zM1023 2049l-228 -379h-227l-228 379h159l185 -256l184 256h155z" />
    <glyph glyph-name="ecaron" unicode="&#x11b;" horiz-adv-x="1220" 
d="M1120 539h-823q0 -103 31 -179.5t85 -125.5q52 -48 123.5 -72t157.5 -24q114 0 229.5 45.5t164.5 89.5h10v-205q-95 -40 -194 -67t-208 -27q-278 0 -434 150.5t-156 427.5q0 274 149.5 435t393.5 161q226 0 348.5 -132t122.5 -375v-102zM937 683q-1 148 -74.5 229
t-223.5 81q-151 0 -240.5 -89t-101.5 -221h640zM986 1676l-228 -379h-227l-228 379h159l185 -256l184 256h155z" />
    <glyph glyph-name="Lacute" unicode="&#x139;" horiz-adv-x="1140" 
d="M1142 0h-942v1489h198v-1313h744v-176zM643 2049l-273 -374h-149l179 374h243z" />
    <glyph glyph-name="lacute" unicode="&#x13a;" horiz-adv-x="562" 
d="M375 0h-188v1556h188v-1556zM593 2049l-273 -374h-149l179 374h243z" />
    <glyph glyph-name="Lcaron" unicode="&#x13d;" horiz-adv-x="1140" 
d="M1142 0h-942v1489h198v-1313h744v-176zM947 1556l-250 -505h-127l152 505h225z" />
    <glyph glyph-name="lcaron" unicode="&#x13e;" horiz-adv-x="606" 
d="M852 1556l-250 -505h-127l152 505h225zM375 0h-188v1556h188v-1556z" />
    <glyph glyph-name="Ldot" unicode="&#x13f;" horiz-adv-x="1140" 
d="M1142 0h-942v1489h198v-1313h744v-176zM986 519h-233v267h233v-267z" />
    <glyph glyph-name="ldot" unicode="&#x140;" horiz-adv-x="939" 
d="M375 0h-188v1556h188v-1556zM866 520h-231v265h231v-265z" />
    <glyph glyph-name="Nacute" unicode="&#x143;" horiz-adv-x="1532" 
d="M1336 0h-245l-706 1332v-1332h-185v1489h307l644 -1216v1216h185v-1489zM1083 2049l-273 -374h-149l179 374h243z" />
    <glyph glyph-name="nacute" unicode="&#x144;" horiz-adv-x="1296" 
d="M1119 0h-188v636q0 77 -9 144.5t-33 105.5q-25 42 -72 62.5t-122 20.5q-77 0 -161 -38t-161 -97v-834h-188v1117h188v-124q88 73 182 114t193 41q181 0 276 -109t95 -314v-725zM963 1676l-273 -374h-149l179 374h243z" />
    <glyph glyph-name="Ncaron" unicode="&#x147;" horiz-adv-x="1532" 
d="M1336 0h-245l-706 1332v-1332h-185v1489h307l644 -1216v1216h185v-1489zM1151 2049l-228 -379h-227l-228 379h159l185 -256l184 256h155z" />
    <glyph glyph-name="ncaron" unicode="&#x148;" horiz-adv-x="1296" 
d="M1119 0h-188v636q0 77 -9 144.5t-33 105.5q-25 42 -72 62.5t-122 20.5q-77 0 -161 -38t-161 -97v-834h-188v1117h188v-124q88 73 182 114t193 41q181 0 276 -109t95 -314v-725zM1017 1676l-228 -379h-227l-228 379h159l185 -256l184 256h155z" />
    <glyph glyph-name="Ohungarumlaut" unicode="&#x150;" horiz-adv-x="1612" 
d="M1310 1318q91 -100 139.5 -245t48.5 -329t-49.5 -329.5t-138.5 -242.5q-92 -101 -217.5 -152t-286.5 -51q-157 0 -285.5 52t-218.5 151t-138.5 243t-48.5 329q0 182 48 326.5t140 247.5q88 98 218.5 150t284.5 52q160 0 287.5 -52.5t216.5 -149.5zM1292 744
q0 290 -130 447.5t-355 157.5q-227 0 -356.5 -157.5t-129.5 -447.5q0 -293 132 -448.5t354 -155.5t353.5 155.5t131.5 448.5zM1283 2049l-258 -374h-139l169 374h228zM879 2049l-258 -374h-139l169 374h228z" />
    <glyph glyph-name="ohungarumlaut" unicode="&#x151;" horiz-adv-x="1243" 
d="M1137 558q0 -273 -140 -431t-375 -158q-237 0 -376.5 158t-139.5 431t139.5 431.5t376.5 158.5q235 0 375 -158.5t140 -431.5zM943 558q0 217 -85 322.5t-236 105.5q-153 0 -237.5 -105.5t-84.5 -322.5q0 -210 85 -318.5t237 -108.5q150 0 235.5 107.5t85.5 319.5z
M1103 1676l-258 -374h-139l169 374h228zM699 1676l-258 -374h-139l169 374h228z" />
    <glyph glyph-name="Racute" unicode="&#x154;" horiz-adv-x="1424" 
d="M1432 0h-257l-498 592h-279v-592h-198v1489h417q135 0 225 -17.5t162 -62.5q81 -51 126.5 -128.5t45.5 -196.5q0 -161 -81 -269.5t-223 -163.5zM969 1070q0 64 -22.5 113.5t-74.5 83.5q-43 29 -102 40.5t-139 11.5h-233v-562h200q94 0 164 16.5t119 61.5q45 42 66.5 96.5
t21.5 138.5zM953 2049l-273 -374h-149l179 374h243z" />
    <glyph glyph-name="racute" unicode="&#x155;" horiz-adv-x="874" 
d="M882 912h-10q-42 10 -81.5 14.5t-93.5 4.5q-87 0 -168 -38.5t-156 -99.5v-793h-188v1117h188v-165q112 90 197.5 127.5t174.5 37.5q49 0 71 -2.5t66 -9.5v-193zM763 1676l-273 -374h-149l179 374h243z" />
    <glyph glyph-name="Rcaron" unicode="&#x158;" horiz-adv-x="1424" 
d="M1432 0h-257l-498 592h-279v-592h-198v1489h417q135 0 225 -17.5t162 -62.5q81 -51 126.5 -128.5t45.5 -196.5q0 -161 -81 -269.5t-223 -163.5zM969 1070q0 64 -22.5 113.5t-74.5 83.5q-43 29 -102 40.5t-139 11.5h-233v-562h200q94 0 164 16.5t119 61.5q45 42 66.5 96.5
t21.5 138.5zM999 2049l-228 -379h-227l-228 379h159l185 -256l184 256h155z" />
    <glyph glyph-name="rcaron" unicode="&#x159;" horiz-adv-x="874" 
d="M882 912h-10q-42 10 -81.5 14.5t-93.5 4.5q-87 0 -168 -38.5t-156 -99.5v-793h-188v1117h188v-165q112 90 197.5 127.5t174.5 37.5q49 0 71 -2.5t66 -9.5v-193zM829 1676l-228 -379h-227l-228 379h159l185 -256l184 256h155z" />
    <glyph glyph-name="Sacute" unicode="&#x15a;" horiz-adv-x="1400" 
d="M1282 425q0 -87 -40.5 -172t-113.5 -144q-80 -64 -186.5 -100t-256.5 -36q-161 0 -289.5 30t-261.5 89v248h14q113 -94 261 -145t278 -51q184 0 286.5 69t102.5 184q0 99 -48.5 146t-147.5 73q-75 20 -162.5 33t-185.5 33q-198 42 -293.5 143.5t-95.5 264.5
q0 187 158 306.5t401 119.5q157 0 288 -30t232 -74v-234h-14q-85 72 -223.5 119.5t-283.5 47.5q-159 0 -255.5 -66t-96.5 -170q0 -93 48 -146t169 -81q64 -14 182 -34t200 -41q166 -44 250 -133t84 -249zM983 2049l-273 -374h-149l179 374h243z" />
    <glyph glyph-name="sacute" unicode="&#x15b;" horiz-adv-x="1067" 
d="M983 322q0 -153 -126.5 -251t-345.5 -98q-124 0 -227.5 29.5t-173.5 64.5v211h10q89 -67 198 -106.5t209 -39.5q124 0 194 40t70 126q0 66 -38 100t-146 58q-40 9 -104.5 21t-117.5 26q-147 39 -208.5 114.5t-61.5 185.5q0 69 28.5 130t86.5 109q56 47 142.5 74.5
t193.5 27.5q100 0 202.5 -24.5t170.5 -59.5v-201h-10q-72 53 -175 89.5t-202 36.5q-103 0 -174 -39.5t-71 -117.5q0 -69 43 -104q42 -35 136 -57q52 -12 116.5 -24t107.5 -22q131 -30 202 -103q71 -74 71 -196zM855 1676l-273 -374h-149l179 374h243z" />
    <glyph glyph-name="uni0162" unicode="&#x162;" horiz-adv-x="1262" 
d="M1262 1313h-532v-1276q3 -20 7.5 -56t4.5 -70q0 -162 -91.5 -248t-237.5 -86q-37 0 -95 7t-103 19v160h9q26 -10 70 -23t94 -13q104 0 153 39t49 127q0 30 -2.5 57t-5.5 50h-50v1313h-532v176h1262v-176z" />
    <glyph glyph-name="uni0163" unicode="&#x163;" horiz-adv-x="807" 
d="M765 10l-26 -6.5t-30 -6.5q2 -18 4 -40t2 -46q0 -162 -91.5 -248t-237.5 -86q-37 0 -95 7t-103 19v160h9q26 -10 70 -23t94 -13q104 0 153 39t49 127q0 23 -1.5 46.5t-3.5 39.5h-20q-171 0 -260 91.5t-89 294.5v594h-127v158h127v321h188v-321h388v-158h-388v-509
q0 -88 4 -137.5t28 -92.5q22 -40 60.5 -58.5t117.5 -18.5q46 0 96 13.5t72 22.5h10v-169z" />
    <glyph glyph-name="Tcaron" unicode="&#x164;" horiz-adv-x="1262" 
d="M1262 1313h-532v-1313h-198v1313h-532v176h1262v-176zM971 2049l-228 -379h-227l-228 379h159l185 -256l184 256h155z" />
    <glyph glyph-name="tcaron" unicode="&#x165;" horiz-adv-x="807" 
d="M765 10q-53 -14 -115.5 -23t-111.5 -9q-171 0 -260 92t-89 295v594h-127v158h127v321h188v-321h388v-158h-388v-509q0 -88 4 -137.5t28 -92.5q22 -40 60.5 -58.5t117.5 -18.5q46 0 96 13.5t72 22.5h10v-169zM890 1797l-250 -495h-127l152 495h225z" />
    <glyph glyph-name="Uring" unicode="&#x16e;" horiz-adv-x="1499" 
d="M1321 598q0 -162 -35.5 -282.5t-116.5 -200.5q-77 -76 -180 -111t-240 -35q-140 0 -244 37t-175 109q-81 82 -116.5 198t-35.5 285v891h198v-901q0 -121 16.5 -191t55.5 -127q44 -65 119.5 -98t181.5 -33q107 0 182 32.5t120 98.5q39 57 55.5 130.5t16.5 182.5v906h198
v-891zM1100 1710q0 -143 -102 -242t-248 -99q-144 0 -247 98.5t-103 242.5q0 143 102 241t248 98q147 0 248.5 -98t101.5 -241zM955 1710q0 86 -58.5 145.5t-146.5 59.5t-146.5 -59t-58.5 -146t59 -146t146 -59q88 0 146.5 59t58.5 146z" />
    <glyph glyph-name="uring" unicode="&#x16f;" horiz-adv-x="1296" 
d="M1111 0h-188v124q-95 -75 -182 -115t-192 -40q-176 0 -274 107.5t-98 315.5v725h188v-636q0 -85 8 -145.5t34 -103.5q27 -44 70 -64t125 -20q73 0 159.5 38t161.5 97v834h188v-1117zM1001 1630q0 -143 -102 -242t-248 -99q-144 0 -247 98.5t-103 242.5q0 143 102 241
t248 98q147 0 248.5 -98t101.5 -241zM856 1630q0 86 -58.5 145.5t-146.5 59.5t-146.5 -59t-58.5 -146t59 -146t146 -59q88 0 146.5 59t58.5 146z" />
    <glyph glyph-name="Uhungarumlaut" unicode="&#x170;" horiz-adv-x="1499" 
d="M1321 598q0 -162 -35.5 -282.5t-116.5 -200.5q-77 -76 -180 -111t-240 -35q-140 0 -244 37t-175 109q-81 82 -116.5 198t-35.5 285v891h198v-901q0 -121 16.5 -191t55.5 -127q44 -65 119.5 -98t181.5 -33q107 0 182 32.5t120 98.5q39 57 55.5 130.5t16.5 182.5v906h198
v-891zM1263 2049l-258 -374h-139l169 374h228zM859 2049l-258 -374h-139l169 374h228z" />
    <glyph glyph-name="uhungarumlaut" unicode="&#x171;" horiz-adv-x="1296" 
d="M1111 0h-188v124q-95 -75 -182 -115t-192 -40q-176 0 -274 107.5t-98 315.5v725h188v-636q0 -85 8 -145.5t34 -103.5q27 -44 70 -64t125 -20q73 0 159.5 38t161.5 97v834h188v-1117zM1153 1676l-258 -374h-139l169 374h228zM749 1676l-258 -374h-139l169 374h228z" />
    <glyph glyph-name="Zacute" unicode="&#x179;" horiz-adv-x="1403" 
d="M1288 0h-1162v184l913 1129h-879v176h1106v-179l-922 -1134h944v-176zM970 2049l-273 -374h-149l179 374h243z" />
    <glyph glyph-name="zacute" unicode="&#x17a;" horiz-adv-x="1076" 
d="M995 0h-902v139l651 821h-637v157h871v-134l-654 -824h671v-159zM811 1676l-273 -374h-149l179 374h243z" />
    <glyph glyph-name="Zdotaccent" unicode="&#x17b;" horiz-adv-x="1403" 
d="M1288 0h-1162v184l913 1129h-879v176h1106v-179l-922 -1134h944v-176zM814 1677h-212v195h212v-195z" />
    <glyph glyph-name="zdotaccent" unicode="&#x17c;" horiz-adv-x="1076" 
d="M995 0h-902v139l651 821h-637v157h871v-134l-654 -824h671v-159zM647 1304h-212v195h212v-195z" />
    <glyph glyph-name="Gamma" unicode="&#x393;" horiz-adv-x="1160" 
d="M1162 1313h-764v-1313h-198v1489h962v-176z" />
    <glyph glyph-name="Theta" unicode="&#x398;" horiz-adv-x="1612" 
d="M1310 1318q91 -100 139.5 -245t48.5 -329t-49.5 -329.5t-138.5 -242.5q-92 -101 -217.5 -152t-286.5 -51q-157 0 -285.5 52t-218.5 151t-138.5 243t-48.5 329q0 182 48 326.5t140 247.5q88 98 218.5 150t284.5 52q160 0 287.5 -52.5t216.5 -149.5zM1292 744
q0 290 -130 447.5t-355 157.5q-227 0 -356.5 -157.5t-129.5 -447.5q0 -293 132 -448.5t354 -155.5t353.5 155.5t131.5 448.5zM1120 713h-627v179h627v-179z" />
    <glyph glyph-name="Phi" unicode="&#x3a6;" horiz-adv-x="1677" 
d="M1572 755q0 -140 -44.5 -248.5t-123.5 -181.5q-85 -79 -207 -125.5t-260 -49.5v-166h-197v166q-134 3 -257 48t-210 127q-79 74 -123.5 182t-44.5 248q0 136 43 238t119 178q81 81 202.5 128t270.5 51v155h197v-155q148 -3 271 -52t202 -127q75 -73 118.5 -177t43.5 -239
zM1366 763q0 99 -32 182t-91 140q-58 56 -129 82t-177 28v-890q94 2 171 30.5t127 75.5q65 60 98 147t33 205zM740 305v890q-106 -1 -177 -28t-129 -82t-90.5 -140t-32.5 -182q0 -112 33.5 -203t97.5 -149q49 -45 126.5 -75t171.5 -31z" />
    <glyph glyph-name="alpha" unicode="&#x3b1;" horiz-adv-x="1276" 
d="M1091 0h-188v117q-81 -70 -169 -109t-191 -39q-200 0 -317.5 154t-117.5 427q0 142 40.5 253t109.5 189q68 76 158.5 116t187.5 40q88 0 156 -22t143 -61v52h188v-1117zM903 275v636q-76 34 -136 49.5t-131 15.5q-158 0 -246 -110t-88 -312q0 -199 68 -302.5t218 -103.5
q80 0 162 35.5t153 91.5z" />
    <glyph glyph-name="delta" unicode="&#x3b4;" horiz-adv-x="1245" 
d="M1139 551q0 -272 -138.5 -427t-376.5 -155q-241 0 -379.5 151.5t-138.5 413.5q0 141 43 239.5t107 162.5q69 72 159 113t182 58q-76 63 -166 130.5t-192 139.5v179h810v-158h-561v-10q68 -46 179 -124t204 -162q150 -136 209 -261.5t59 -289.5zM945 551q0 135 -55 249
t-165 200q-66 -8 -138.5 -32t-138.5 -77q-63 -50 -105.5 -137t-42.5 -214q0 -201 85 -305t241 -104q153 0 236 105.5t83 314.5z" />
    <glyph glyph-name="epsilon" unicode="&#x3b5;" horiz-adv-x="1050" 
d="M1006 64q-107 -48 -210 -69t-218 -21q-79 0 -161 16t-152 56q-69 39 -112.5 102.5t-43.5 157.5q0 96 56.5 168t177.5 110v7q-91 24 -145 90t-54 158q0 89 47.5 147.5t112.5 92.5q64 33 145 49t160 16q98 0 180 -16.5t172 -44.5v-207h-13q-66 51 -163.5 79t-197.5 28
q-45 0 -84 -5.5t-81 -25.5q-35 -15 -60.5 -48.5t-25.5 -77.5q0 -61 28 -95t76 -49q45 -14 97 -15.5t105 -1.5h111v-166h-158q-62 0 -112 -4.5t-92 -21.5q-41 -17 -65.5 -54t-24.5 -96q0 -53 26 -90t67 -58q37 -19 87.5 -29t106.5 -10q102 0 218 36t187 98h13v-206z" />
    <glyph glyph-name="sigma" unicode="&#x3c3;" horiz-adv-x="1291" 
d="M1137 558q0 -281 -140.5 -435t-373.5 -154q-241 0 -379 158t-138 431q0 275 141 432.5t378 157.5q55 0 108 -11t82 -20h480v-165h-288q62 -73 96 -170t34 -224zM943 558q0 215 -82 322t-236 107q-161 0 -243 -112t-82 -317q0 -209 83.5 -318t239.5 -109q152 0 236 107.5
t84 319.5z" />
    <glyph glyph-name="tau" unicode="&#x3c4;" horiz-adv-x="1016" 
d="M1006 952h-404v-952h-188v952h-404v165h996v-165z" />
    <glyph glyph-name="phi" unicode="&#x3c6;" horiz-adv-x="1618" 
d="M1514 576q0 -259 -171.5 -417t-440.5 -173v-398h-187v398q-130 6 -240.5 46.5t-191.5 109.5q-85 74 -132 172t-47 232q0 159 59 296t192 275h229v-17q-136 -99 -210 -232t-74 -300q0 -189 112.5 -304t301.5 -121v1000q33 2 70.5 2.5t76.5 0.5q304 0 478.5 -149.5
t174.5 -420.5zM1319 586q0 184 -112 293.5t-305 109.5v-846q206 10 311.5 126t105.5 317z" />
    <glyph glyph-name="underscoredbl" unicode="&#x2017;" horiz-adv-x="1302" 
d="M1306 -202h-1310v120h1310v-120zM1306 -423h-1310v120h1310v-120z" />
    <glyph glyph-name="exclamdbl" unicode="&#x203c;" horiz-adv-x="1279" 
d="M515 1489l-26 -1079h-170l-28 1079h224zM505 0h-204v211h204v-211zM988 1489l-26 -1079h-170l-28 1079h224zM978 0h-204v211h204v-211z" />
    <glyph glyph-name="uni207F" unicode="&#x207f;" horiz-adv-x="1117" 
d="M966 554h-172v533q0 70 -7 123t-28 89q-22 36 -60.5 53.5t-102.5 17.5q-65 0 -135.5 -33.5t-135.5 -83.5v-699h-171v939h171v-104q75 62 156 96.5t165 34.5q154 0 237 -92.5t83 -263.5v-610z" />
    <glyph glyph-name="peseta" unicode="&#x20a7;" horiz-adv-x="2383" 
d="M2250 322q0 -155 -113 -252t-303 -97q-106 0 -199 30t-154 64v211h9q23 -19 58.5 -43.5t80.5 -46.5q53 -26 101.5 -41t117.5 -15q102 0 162.5 38t60.5 128q0 72 -33.5 106t-118.5 56q-42 11 -91 20.5t-104 25.5q-126 38 -181 112.5t-55 184.5q0 37 7.5 71t25.5 72h-221
v-946h-181v946h-124q-12 -69 -41.5 -129.5t-76.5 -107.5q-77 -77 -179 -115.5t-262 -38.5h-48v-555h-188v1489h244q134 0 224 -22.5t162 -70.5q71 -47 115 -120.5t54 -173.5h120v220h181v-220h383q36 18 93.5 30t106.5 12q85 0 175.5 -24t152.5 -60v-201h-9
q-64 53 -152.5 89.5t-179.5 36.5q-89 0 -146 -39t-57 -118q0 -70 29.5 -106t115.5 -59q46 -12 96 -24t96 -24q114 -30 180 -101t66 -192zM808 1034q0 77 -27 135.5t-82 94.5q-47 31 -112.5 45.5t-152.5 14.5h-46v-605h17q120 0 195 22.5t122 69.5q47 48 66.5 102.5
t19.5 120.5z" />
    <glyph glyph-name="IJ" unicode="&#x132;" horiz-adv-x="1783" 
d="M725 0h-588v152h195v1185h-195v152h588v-152h-195v-1185h195v-152zM1598 387q0 -196 -119.5 -302t-320.5 -106q-48 0 -128 8.5t-134 20.5v185h11q41 -14 101 -29t123 -15q92 0 146.5 21t80.5 60q27 40 34.5 98t7.5 134v869h-315v158h513v-1102z" />
    <glyph glyph-name="ij" unicode="&#x133;" horiz-adv-x="1257" 
d="M387 1304h-212v195h212v-195zM375 0h-188v1117h188v-1117zM1085 1304h-212v195h212v-195zM1073 -27q0 -196 -100 -296t-268 -100q-40 0 -105.5 8t-109.5 20v179h10q28 -11 75.5 -25t92.5 -14q72 0 116 20t66 60t28.5 96.5t6.5 137.5v900h-233v158h421v-1144z" />
    <glyph glyph-name="napostrophe" unicode="&#x149;" horiz-adv-x="1496" 
d="M1319 0h-188v636q0 77 -9 144.5t-33 105.5q-25 42 -72 62.5t-122 20.5q-77 0 -161 -38t-161 -97v-834h-188v1117h188v-124q88 73 182 114t193 41q181 0 276 -109t95 -314v-725zM409 1556l-271 -559h-138l165 559h244z" />
    <glyph glyph-name="minute" unicode="&#x2032;" horiz-adv-x="740" 
d="M647 1489l-298 -619h-136l194 619h240z" />
    <glyph glyph-name="second" unicode="&#x2033;" horiz-adv-x="1141" 
d="M647 1489l-298 -619h-136l194 619h240zM1048 1489l-298 -619h-136l194 619h240z" />
    <glyph glyph-name="afii61248" unicode="&#x2105;" horiz-adv-x="2204" 
d="M813 702q-30 -18 -103.5 -43t-151.5 -25q-192 0 -300.5 115t-108.5 325q0 201 110.5 322t298.5 121q65 0 128.5 -16.5t126.5 -49.5v-173h-14q-60 50 -117.5 75.5t-114.5 25.5q-109 0 -172.5 -74.5t-63.5 -230.5q0 -150 61.5 -226t174.5 -76q73 0 134 33t98 68h14v-171z
M1570 1489l-780 -1489h-165l780 1489h165zM2055 413q0 -224 -95 -333t-273 -109q-181 0 -274 110t-93 331q0 224 94.5 333t272.5 109q182 0 275 -109t93 -332zM1877 413q0 172 -44.5 240t-144.5 68q-102 0 -146 -68t-44 -241t44 -240.5t146 -67.5q100 0 144.5 67.5
t44.5 241.5z" />
    <glyph glyph-name="afii61289" unicode="&#x2113;" horiz-adv-x="662" 
d="M15 422l177 235v455q0 226 61.5 302.5t172.5 76.5q96 0 158 -65t62 -174q0 -92 -60 -224.5t-225 -362.5v-415q0 -89 14.5 -110.5t41.5 -21.5q26 0 60 16.5t139 90.5v-162q-55 -44 -111.5 -65.5t-113.5 -21.5q-92 0 -145.5 57t-53.5 184v225l-79 -98zM361 899
q98 169 121.5 233t23.5 119q0 30 -6.5 54t-19.5 41q-10 12 -22.5 18.5t-27.5 6.5t-27.5 -6t-18.5 -20q-11 -21 -17 -76t-6 -143v-227z" />
    <glyph glyph-name="H22073" unicode="&#x25a1;" horiz-adv-x="1237" 
d="M146 944h944v-944h-944v944zM222 868v-792h792v792h-792z" />
    <glyph glyph-name="H18543" unicode="&#x25aa;" horiz-adv-x="726" 
d="M594 908v-463h-463v463h463z" />
    <glyph glyph-name="H18551" unicode="&#x25ab;" horiz-adv-x="726" 
d="M594 908v-463h-463v463h463zM518 832h-311v-311h311v311z" />
    <glyph glyph-name="H18533" unicode="&#x25cf;" horiz-adv-x="1237" 
d="M177 576q0 183 129 312t312 129q182 0 311 -129t129 -312q0 -182 -129 -311t-311 -129q-183 0 -312 129t-129 311z" />
    <glyph glyph-name="openbullet" unicode="&#x25e6;" horiz-adv-x="726" 
d="M363 928q104 0 177.5 -73.5t73.5 -177.5t-73.5 -177.5t-177.5 -73.5t-177.5 73.5t-73.5 177.5t73 177.5t178 73.5zM363 852q-73 0 -124 -51.5t-51 -123.5q0 -73 51.5 -124t123.5 -51t123.5 51t51.5 124q0 72 -51 123.5t-124 51.5z" />
    <glyph glyph-name="Amacron" unicode="&#x100;" horiz-adv-x="1400" 
d="M1374 0h-211l-146 415h-644l-146 -415h-201l542 1489h264zM956 585l-261 731l-262 -731h523zM1071 1698h-742v154h742v-154z" />
    <glyph glyph-name="amacron" unicode="&#x101;" horiz-adv-x="1230" 
d="M1053 0h-187v119q-25 -17 -67.5 -47.5t-82.5 -48.5q-47 -23 -108 -38.5t-143 -15.5q-151 0 -256 100t-105 255q0 127 54.5 205.5t155.5 123.5q102 45 245 61t307 24v29q0 64 -22.5 106t-64.5 66q-40 23 -96 31t-117 8q-74 0 -165 -19.5t-188 -56.5h-10v191q55 15 159 33
t205 18q118 0 205.5 -19.5t151.5 -66.5q63 -46 96 -119t33 -181v-758zM866 275v311q-86 -5 -202.5 -15t-184.5 -29q-81 -23 -131 -71.5t-50 -133.5q0 -96 58 -144.5t177 -48.5q99 0 181 38.5t152 92.5zM983 1335h-742v154h742v-154z" />
    <glyph glyph-name="Ccircumflex" unicode="&#x108;" horiz-adv-x="1430" 
d="M1350 108q-55 -24 -99.5 -45t-116.5 -44q-61 -19 -132.5 -32.5t-157.5 -13.5q-162 0 -294.5 45.5t-230.5 142.5q-96 95 -150 241.5t-54 340.5q0 184 52 329t150 245q95 97 229.5 148t298.5 51q120 0 239.5 -29t265.5 -102v-235h-15q-123 103 -244 150t-259 47
q-113 0 -203.5 -36.5t-161.5 -113.5q-69 -75 -107.5 -189.5t-38.5 -264.5q0 -157 42.5 -270t109.5 -184q70 -74 163.5 -109.5t197.5 -35.5q143 0 268 49t234 147h14v-232zM1162 1670h-159l-185 256l-184 -256h-155l228 379h227z" />
    <glyph glyph-name="ccircumflex" unicode="&#x109;" horiz-adv-x="1067" 
d="M1011 70q-94 -45 -178.5 -70t-179.5 -25q-121 0 -222 35.5t-173 107.5q-73 72 -113 182t-40 257q0 274 150.5 430t397.5 156q96 0 188.5 -27t169.5 -66v-209h-10q-86 67 -177.5 103t-178.5 36q-160 0 -252.5 -107.5t-92.5 -315.5q0 -202 90.5 -310.5t254.5 -108.5
q57 0 116 15t106 39q41 21 77 44.5t57 40.5h10v-207zM981 1297h-159l-185 256l-184 -256h-155l228 379h227z" />
    <glyph glyph-name="Cdotaccent" unicode="&#x10a;" horiz-adv-x="1430" 
d="M1350 108q-55 -24 -99.5 -45t-116.5 -44q-61 -19 -132.5 -32.5t-157.5 -13.5q-162 0 -294.5 45.5t-230.5 142.5q-96 95 -150 241.5t-54 340.5q0 184 52 329t150 245q95 97 229.5 148t298.5 51q120 0 239.5 -29t265.5 -102v-235h-15q-123 103 -244 150t-259 47
q-113 0 -203.5 -36.5t-161.5 -113.5q-69 -75 -107.5 -189.5t-38.5 -264.5q0 -157 42.5 -270t109.5 -184q70 -74 163.5 -109.5t197.5 -35.5q143 0 268 49t234 147h14v-232zM925 1677h-212v195h212v-195z" />
    <glyph glyph-name="cdotaccent" unicode="&#x10b;" horiz-adv-x="1067" 
d="M1011 70q-94 -45 -178.5 -70t-179.5 -25q-121 0 -222 35.5t-173 107.5q-73 72 -113 182t-40 257q0 274 150.5 430t397.5 156q96 0 188.5 -27t169.5 -66v-209h-10q-86 67 -177.5 103t-178.5 36q-160 0 -252.5 -107.5t-92.5 -315.5q0 -202 90.5 -310.5t254.5 -108.5
q57 0 116 15t106 39q41 21 77 44.5t57 40.5h10v-207zM746 1304h-212v195h212v-195z" />
    <glyph glyph-name="Emacron" unicode="&#x112;" horiz-adv-x="1295" 
d="M1181 0h-981v1489h981v-176h-783v-408h783v-176h-783v-553h783v-176zM1073 1698h-742v154h742v-154z" />
    <glyph glyph-name="emacron" unicode="&#x113;" horiz-adv-x="1220" 
d="M1120 539h-823q0 -103 31 -179.5t85 -125.5q52 -48 123.5 -72t157.5 -24q114 0 229.5 45.5t164.5 89.5h10v-205q-95 -40 -194 -67t-208 -27q-278 0 -434 150.5t-156 427.5q0 274 149.5 435t393.5 161q226 0 348.5 -132t122.5 -375v-102zM937 683q-1 148 -74.5 229
t-223.5 81q-151 0 -240.5 -89t-101.5 -221h640zM1013 1335h-742v154h742v-154z" />
    <glyph glyph-name="Ebreve" unicode="&#x114;" horiz-adv-x="1295" 
d="M1181 0h-981v1489h981v-176h-783v-408h783v-176h-783v-553h783v-176zM1090 2049q-10 -168 -108.5 -275t-267.5 -107t-267.5 107t-107.5 275h166q12 -132 65.5 -192t144.5 -60q89 0 142.5 60t67.5 192h165z" />
    <glyph glyph-name="ebreve" unicode="&#x115;" horiz-adv-x="1220" 
d="M1120 539h-823q0 -103 31 -179.5t85 -125.5q52 -48 123.5 -72t157.5 -24q114 0 229.5 45.5t164.5 89.5h10v-205q-95 -40 -194 -67t-208 -27q-278 0 -434 150.5t-156 427.5q0 274 149.5 435t393.5 161q226 0 348.5 -132t122.5 -375v-102zM937 683q-1 148 -74.5 229
t-223.5 81q-151 0 -240.5 -89t-101.5 -221h640zM1024 1676q-10 -168 -108.5 -275t-267.5 -107t-267.5 107t-107.5 275h166q12 -132 65.5 -192t144.5 -60q89 0 142.5 60t67.5 192h165z" />
    <glyph glyph-name="Edotaccent" unicode="&#x116;" horiz-adv-x="1295" 
d="M1181 0h-981v1489h981v-176h-783v-408h783v-176h-783v-553h783v-176zM836 1677h-212v195h212v-195z" />
    <glyph glyph-name="edotaccent" unicode="&#x117;" horiz-adv-x="1220" 
d="M1120 539h-823q0 -103 31 -179.5t85 -125.5q52 -48 123.5 -72t157.5 -24q114 0 229.5 45.5t164.5 89.5h10v-205q-95 -40 -194 -67t-208 -27q-278 0 -434 150.5t-156 427.5q0 274 149.5 435t393.5 161q226 0 348.5 -132t122.5 -375v-102zM937 683q-1 148 -74.5 229
t-223.5 81q-151 0 -240.5 -89t-101.5 -221h640zM757 1304h-212v195h212v-195z" />
    <glyph glyph-name="Gcircumflex" unicode="&#x11c;" horiz-adv-x="1588" 
d="M1442 110q-122 -56 -266.5 -97.5t-279.5 -41.5q-174 0 -319 48t-247 144q-103 97 -159 242.5t-56 340.5q0 357 208.5 563.5t572.5 206.5q127 0 259.5 -30.5t285.5 -103.5v-235h-18q-31 24 -90 63t-116 65q-69 31 -156.5 51.5t-198.5 20.5q-250 0 -395.5 -160.5
t-145.5 -434.5q0 -289 152 -449.5t414 -160.5q96 0 191.5 19t167.5 49v365h-399v174h595v-639zM1201 1670h-159l-185 256l-184 -256h-155l228 379h227z" />
    <glyph glyph-name="gcircumflex" unicode="&#x11d;" horiz-adv-x="1276" 
d="M1091 127q0 -284 -129 -417t-397 -133q-89 0 -173.5 12.5t-166.5 35.5v192h10q46 -18 146 -44.5t200 -26.5q96 0 159 23t98 64q35 39 50 94t15 123v102q-85 -68 -162.5 -101.5t-197.5 -33.5q-200 0 -317.5 144.5t-117.5 407.5q0 144 40.5 248.5t110.5 180.5
q65 71 158 110.5t185 39.5q97 0 162.5 -19.5t138.5 -59.5l12 48h176v-990zM903 307v609q-75 34 -139.5 48.5t-128.5 14.5q-155 0 -244 -104t-89 -302q0 -188 66 -285t219 -97q82 0 164.5 31.5t151.5 84.5zM988 1297h-159l-185 256l-184 -256h-155l228 379h227z" />
    <glyph glyph-name="Gdotaccent" unicode="&#x120;" horiz-adv-x="1588" 
d="M1442 110q-122 -56 -266.5 -97.5t-279.5 -41.5q-174 0 -319 48t-247 144q-103 97 -159 242.5t-56 340.5q0 357 208.5 563.5t572.5 206.5q127 0 259.5 -30.5t285.5 -103.5v-235h-18q-31 24 -90 63t-116 65q-69 31 -156.5 51.5t-198.5 20.5q-250 0 -395.5 -160.5
t-145.5 -434.5q0 -289 152 -449.5t414 -160.5q96 0 191.5 19t167.5 49v365h-399v174h595v-639zM963 1677h-212v195h212v-195z" />
    <glyph glyph-name="gdotaccent" unicode="&#x121;" horiz-adv-x="1276" 
d="M1091 127q0 -284 -129 -417t-397 -133q-89 0 -173.5 12.5t-166.5 35.5v192h10q46 -18 146 -44.5t200 -26.5q96 0 159 23t98 64q35 39 50 94t15 123v102q-85 -68 -162.5 -101.5t-197.5 -33.5q-200 0 -317.5 144.5t-117.5 407.5q0 144 40.5 248.5t110.5 180.5
q65 71 158 110.5t185 39.5q97 0 162.5 -19.5t138.5 -59.5l12 48h176v-990zM903 307v609q-75 34 -139.5 48.5t-128.5 14.5q-155 0 -244 -104t-89 -302q0 -188 66 -285t219 -97q82 0 164.5 31.5t151.5 84.5zM746 1304h-212v195h212v-195z" />
    <glyph glyph-name="uni0122" unicode="&#x122;" horiz-adv-x="1588" 
d="M898 -107q0 21 -1.5 42.5t-3.5 36.5q-173 0 -317 47.5t-246 143.5q-103 97 -159 242.5t-56 340.5q0 357 208.5 563.5t572.5 206.5q127 0 259.5 -30.5t285.5 -103.5v-235h-18q-31 24 -90 63t-116 65q-69 31 -156.5 51.5t-198.5 20.5q-250 0 -395.5 -160.5t-145.5 -434.5
q0 -289 152 -449.5t414 -160.5q96 0 191.5 19t167.5 49v365h-399v174h595v-639q-90 -41 -196 -76t-200 -50q1 -14 2.5 -32.5t1.5 -40.5q0 -162 -91.5 -248t-237.5 -86q-37 0 -95 7t-103 19v160h9q26 -10 70 -23t94 -13q104 0 153 39t49 127z" />
    <glyph glyph-name="uni0123" unicode="&#x123;" horiz-adv-x="1276" 
d="M1091 127q0 -284 -129 -417t-397 -133q-89 0 -173.5 12.5t-166.5 35.5v192h10q46 -18 146 -44.5t200 -26.5q96 0 159 23t98 64q35 39 50 94t15 123v102q-85 -68 -162.5 -101.5t-197.5 -33.5q-200 0 -317.5 144.5t-117.5 407.5q0 144 40.5 248.5t110.5 180.5
q65 71 158 110.5t185 39.5q97 0 162.5 -19.5t138.5 -59.5l12 48h176v-990zM903 307v609q-75 34 -139.5 48.5t-128.5 14.5q-155 0 -244 -104t-89 -302q0 -188 66 -285t219 -97q82 0 164.5 31.5t151.5 84.5zM886 1676l-179 -374h-243l273 374h149z" />
    <glyph glyph-name="Hcircumflex" unicode="&#x124;" horiz-adv-x="1539" 
d="M1339 0h-198v729h-743v-729h-198v1489h198v-584h743v584h198v-1489zM1111 1670h-159l-185 256l-184 -256h-155l228 379h227z" />
    <glyph glyph-name="hcircumflex" unicode="&#x125;" horiz-adv-x="1296" 
d="M1119 0h-188v636q0 77 -9 144.5t-33 105.5q-25 42 -72 62.5t-122 20.5q-77 0 -161 -38t-161 -97v-834h-188v1556h188v-563q88 73 182 114t193 41q181 0 276 -109t95 -314v-725zM1027 1670h-159l-185 256l-184 -256h-155l228 379h227z" />
    <glyph glyph-name="Hbar" unicode="&#x126;" horiz-adv-x="1539" 
d="M1507 1109h-168v-1109h-198v729h-743v-729h-198v1109h-168v140h168v240h198v-240h743v240h198v-240h168v-140zM1141 905v204h-743v-204h743z" />
    <glyph glyph-name="hbar" unicode="&#x127;" horiz-adv-x="1296" 
d="M1119 0h-188v636q0 77 -9 144.5t-33 105.5q-25 42 -72 62.5t-122 20.5q-77 0 -161 -38t-161 -97v-834h-188v1268h-166v134h166v154h188v-154h321v-134h-321v-275q88 73 182 114t193 41q181 0 276 -109t95 -314v-725z" />
    <glyph glyph-name="Itilde" unicode="&#x128;" horiz-adv-x="862" 
d="M725 0h-588v152h195v1185h-195v152h588v-152h-195v-1185h195v-152zM819 1992q-7 -152 -69.5 -227.5t-164.5 -75.5q-52 0 -93.5 18t-79.5 56q-45 43 -75 64t-62 21q-48 0 -70.5 -45.5t-24.5 -120.5h-136q3 136 66 219t167 83q51 0 91.5 -18t80.5 -55q42 -40 75.5 -60.5
t62.5 -20.5q46 0 70.5 45.5t25.5 116.5h136z" />
    <glyph glyph-name="itilde" unicode="&#x129;" horiz-adv-x="562" 
d="M375 0h-188v1117h188v-1117zM577 1596q0 -129 -51.5 -194t-131.5 -65q-40 0 -69 13t-59 45q-32 35 -54.5 52t-45.5 17q-35 0 -51.5 -34.5t-16.5 -99.5h-112q0 129 52 194t130 65q47 0 72 -13.5t57 -44.5q33 -35 55 -52t44 -17q36 0 52.5 36t16.5 98h112z" />
    <glyph glyph-name="Imacron" unicode="&#x12a;" horiz-adv-x="862" 
d="M725 0h-588v152h195v1185h-195v152h588v-152h-195v-1185h195v-152zM767 1698h-672v154h672v-154z" />
    <glyph glyph-name="imacron" unicode="&#x12b;" horiz-adv-x="562" 
d="M566 1335h-570v154h570v-154zM375 0h-188v1117h188v-1117z" />
    <glyph glyph-name="Ibreve" unicode="&#x12c;" horiz-adv-x="862" 
d="M725 0h-588v152h195v1185h-195v152h588v-152h-195v-1185h195v-152zM735 2003q0 -168 -73.5 -271.5t-229.5 -103.5q-153 0 -228.5 103.5t-75.5 271.5h158q0 -134 34.5 -191t111.5 -57q73 0 109 55t36 193h158z" />
    <glyph glyph-name="ibreve" unicode="&#x12d;" horiz-adv-x="562" 
d="M560 1640q0 -154 -69.5 -250t-209.5 -96q-138 0 -209 95t-71 251h146q0 -122 32.5 -175.5t101.5 -53.5q65 0 99 49t34 180h146zM375 0h-188v1117h188v-1117z" />
    <glyph glyph-name="Iogonek" unicode="&#x12e;" horiz-adv-x="862" 
d="M372 0h-235v152h195v1185h-195v152h588v-152h-195v-1185h195v-152h-194q-6 -28 -10.5 -48.5t-4.5 -58.5q0 -81 33 -121t121 -40q33 0 65.5 9.5t51.5 20.5h9v-158q-36 -10 -76.5 -15.5t-74.5 -5.5q-135 0 -212 80t-77 220q0 34 4.5 60.5t11.5 56.5z" />
    <glyph glyph-name="iogonek" unicode="&#x12f;" horiz-adv-x="562" 
d="M387 1304h-212v195h212v-195zM582 -396q-36 -10 -76.5 -15.5t-74.5 -5.5q-133 0 -211 79t-78 221q0 63 18.5 118.5t26.5 80.5v1035h188v-1117h-60q-6 -26 -9.5 -53t-3.5 -54q0 -81 33 -121t121 -40q33 0 65.5 9.5t51.5 20.5h9v-158z" />
    <glyph glyph-name="Jcircumflex" unicode="&#x134;" horiz-adv-x="931" 
d="M746 387q0 -196 -119.5 -302t-320.5 -106q-48 0 -128 8.5t-134 20.5v185h11q41 -14 101 -29t123 -15q92 0 146.5 21t80.5 60q27 40 34.5 98t7.5 134v869h-315v158h513v-1102zM845 1670h-159l-185 256l-184 -256h-155l228 379h227z" />
    <glyph glyph-name="jcircumflex" unicode="&#x135;" horiz-adv-x="705" 
d="M521 -27q0 -196 -100 -296t-268 -100q-40 0 -105.5 8t-109.5 20v179h10q28 -11 75.5 -25t92.5 -14q72 0 116 20t66 60t28.5 96.5t6.5 137.5v900h-233v158h421v-1144zM687 1297h-159l-185 256l-184 -256h-155l228 379h227z" />
    <glyph glyph-name="Kcedilla" unicode="&#x136;" horiz-adv-x="1419" 
d="M1397 0h-257l-589 663l-148 -158v-505h-198v1489h198v-777l723 777h240l-665 -700zM875 -89q0 -162 -91.5 -248t-237.5 -86q-37 0 -95 7t-103 19v160h9q26 -10 70 -23t94 -13q104 0 153 39t49 127q0 29 -3 65.5t-6 61.5h153q2 -19 5 -45t3 -64z" />
    <glyph glyph-name="kcedilla" unicode="&#x137;" horiz-adv-x="1212" 
d="M1199 0h-248l-448 489l-122 -116v-373h-188v1556h188v-998l543 559h237l-519 -516zM748 -89q0 -162 -91.5 -248t-237.5 -86q-37 0 -95 7t-103 19v160h9q26 -10 70 -23t94 -13q104 0 153 39t49 127q0 29 -3 65.5t-6 61.5h153q2 -19 5 -45t3 -64z" />
    <glyph glyph-name="kgreenlandic" unicode="&#x138;" horiz-adv-x="1212" 
d="M1199 0h-248l-448 489l-122 -116v-373h-188v1117h188v-559l543 559h237l-519 -516z" />
    <glyph glyph-name="Lcedilla" unicode="&#x13b;" horiz-adv-x="1140" 
d="M703 0h-503v1489h198v-1313h744v-176h-285q2 -18 4 -41.5t2 -47.5q0 -162 -91.5 -248t-237.5 -86q-37 0 -95 7t-103 19v160h9q26 -10 70 -23t94 -13q104 0 153 39t49 127q0 30 -3 61t-5 46z" />
    <glyph glyph-name="lcedilla" unicode="&#x13c;" horiz-adv-x="562" 
d="M329 0h-142v1556h188v-1536h108q1 -18 3.5 -45.5t2.5 -63.5q0 -162 -87 -248t-220 -86q-37 0 -87 6t-90 18v160h9q24 -11 63 -22.5t79 -11.5q94 0 135 39.5t41 126.5q0 21 -0.5 46.5t-2.5 60.5z" />
    <glyph glyph-name="Ncedilla" unicode="&#x145;" horiz-adv-x="1532" 
d="M1336 0h-245l-706 1332v-1332h-185v1489h307l644 -1216v1216h185v-1489zM878 -89q0 -162 -91.5 -248t-237.5 -86q-37 0 -95 7t-103 19v160h9q26 -10 70 -23t94 -13q104 0 153 39t49 127q0 29 -3 65.5t-6 61.5h153q2 -19 5 -45t3 -64z" />
    <glyph glyph-name="ncedilla" unicode="&#x146;" horiz-adv-x="1296" 
d="M1119 0h-188v636q0 77 -9 144.5t-33 105.5q-25 42 -72 62.5t-122 20.5q-77 0 -161 -38t-161 -97v-834h-188v1117h188v-124q88 73 182 114t193 41q181 0 276 -109t95 -314v-725zM763 -89q0 -162 -91.5 -248t-237.5 -86q-37 0 -95 7t-103 19v160h9q26 -10 70 -23t94 -13
q104 0 153 39t49 127q0 29 -3 65.5t-6 61.5h153q2 -19 5 -45t3 -64z" />
    <glyph glyph-name="Eng" unicode="&#x14a;" horiz-adv-x="1532" 
d="M1152 -10l-767 1342v-1332h-185v1489h307l644 -1120v1120h185v-1512q0 -191 -103 -295.5t-283 -104.5q-39 0 -79.5 4t-77.5 10v168h11q22 -5 51 -10t59 -5q127 0 182.5 54t55.5 192z" />
    <glyph glyph-name="eng" unicode="&#x14b;" horiz-adv-x="1296" 
d="M931 49v587q0 77 -9 144.5t-33 105.5q-25 42 -72 62.5t-122 20.5q-77 0 -161 -38t-161 -97v-834h-188v1117h188v-124q88 73 182 114t193 41q181 0 276 -109t95 -314v-753q0 -191 -102 -293t-282 -102q-39 0 -78 3.5t-77 9.5v168h11q22 -5 52 -10t56 -5q76 0 124.5 19
t71.5 57q22 38 29 91t7 139z" />
    <glyph glyph-name="Omacron" unicode="&#x14c;" horiz-adv-x="1612" 
d="M1310 1318q91 -100 139.5 -245t48.5 -329t-49.5 -329.5t-138.5 -242.5q-92 -101 -217.5 -152t-286.5 -51q-157 0 -285.5 52t-218.5 151t-138.5 243t-48.5 329q0 182 48 326.5t140 247.5q88 98 218.5 150t284.5 52q160 0 287.5 -52.5t216.5 -149.5zM1292 744
q0 290 -130 447.5t-355 157.5q-227 0 -356.5 -157.5t-129.5 -447.5q0 -293 132 -448.5t354 -155.5t353.5 155.5t131.5 448.5zM1177 1708h-742v154h742v-154z" />
    <glyph glyph-name="omacron" unicode="&#x14d;" horiz-adv-x="1243" 
d="M1137 558q0 -273 -140 -431t-375 -158q-237 0 -376.5 158t-139.5 431t139.5 431.5t376.5 158.5q235 0 375 -158.5t140 -431.5zM943 558q0 217 -85 322.5t-236 105.5q-153 0 -237.5 -105.5t-84.5 -322.5q0 -210 85 -318.5t237 -108.5q150 0 235.5 107.5t85.5 319.5z
M993 1335h-742v154h742v-154z" />
    <glyph glyph-name="Obreve" unicode="&#x14e;" horiz-adv-x="1612" 
d="M1310 1318q91 -100 139.5 -245t48.5 -329t-49.5 -329.5t-138.5 -242.5q-92 -101 -217.5 -152t-286.5 -51q-157 0 -285.5 52t-218.5 151t-138.5 243t-48.5 329q0 182 48 326.5t140 247.5q88 98 218.5 150t284.5 52q160 0 287.5 -52.5t216.5 -149.5zM1292 744
q0 290 -130 447.5t-355 157.5q-227 0 -356.5 -157.5t-129.5 -447.5q0 -293 132 -448.5t354 -155.5t353.5 155.5t131.5 448.5zM1182 2049q-10 -168 -108.5 -275t-267.5 -107t-267.5 107t-107.5 275h166q12 -132 65.5 -192t144.5 -60q89 0 142.5 60t67.5 192h165z" />
    <glyph glyph-name="obreve" unicode="&#x14f;" horiz-adv-x="1243" 
d="M1137 558q0 -273 -140 -431t-375 -158q-237 0 -376.5 158t-139.5 431t139.5 431.5t376.5 158.5q235 0 375 -158.5t140 -431.5zM943 558q0 217 -85 322.5t-236 105.5q-153 0 -237.5 -105.5t-84.5 -322.5q0 -210 85 -318.5t237 -108.5q150 0 235.5 107.5t85.5 319.5z
M998 1676q-10 -168 -108.5 -275t-267.5 -107t-267.5 107t-107.5 275h166q12 -132 65.5 -192t144.5 -60q89 0 142.5 60t67.5 192h165z" />
    <glyph glyph-name="Rcedilla" unicode="&#x156;" horiz-adv-x="1424" 
d="M1432 0h-257l-498 592h-279v-592h-198v1489h417q135 0 225 -17.5t162 -62.5q81 -51 126.5 -128.5t45.5 -196.5q0 -161 -81 -269.5t-223 -163.5zM969 1070q0 64 -22.5 113.5t-74.5 83.5q-43 29 -102 40.5t-139 11.5h-233v-562h200q94 0 164 16.5t119 61.5q45 42 66.5 96.5
t21.5 138.5zM870 -89q0 -162 -91.5 -248t-237.5 -86q-37 0 -95 7t-103 19v160h9q26 -10 70 -23t94 -13q104 0 153 39t49 127q0 29 -3 65.5t-6 61.5h153q2 -19 5 -45t3 -64z" />
    <glyph glyph-name="rcedilla" unicode="&#x157;" horiz-adv-x="874" 
d="M99 -261.5q39 -11.5 79 -11.5q94 0 135 39.5t41 126.5q0 21 -0.5 46.5t-2.5 60.5h-166v1117h188v-165q112 90 197.5 127.5t174.5 37.5q49 0 71 -2.5t66 -9.5v-193h-10q-42 10 -81.5 14.5t-93.5 4.5q-87 0 -168 -38.5t-156 -99.5v-773h132q1 -18 3.5 -45.5t2.5 -63.5
q0 -162 -87 -248t-220 -86q-37 0 -87 6t-90 18v160h9q24 -11 63 -22.5z" />
    <glyph glyph-name="Scircumflex" unicode="&#x15c;" horiz-adv-x="1400" 
d="M1282 425q0 -87 -40.5 -172t-113.5 -144q-80 -64 -186.5 -100t-256.5 -36q-161 0 -289.5 30t-261.5 89v248h14q113 -94 261 -145t278 -51q184 0 286.5 69t102.5 184q0 99 -48.5 146t-147.5 73q-75 20 -162.5 33t-185.5 33q-198 42 -293.5 143.5t-95.5 264.5
q0 187 158 306.5t401 119.5q157 0 288 -30t232 -74v-234h-14q-85 72 -223.5 119.5t-283.5 47.5q-159 0 -255.5 -66t-96.5 -170q0 -93 48 -146t169 -81q64 -14 182 -34t200 -41q166 -44 250 -133t84 -249zM1067 1670h-159l-185 256l-184 -256h-155l228 379h227z" />
    <glyph glyph-name="scircumflex" unicode="&#x15d;" horiz-adv-x="1067" 
d="M983 322q0 -153 -126.5 -251t-345.5 -98q-124 0 -227.5 29.5t-173.5 64.5v211h10q89 -67 198 -106.5t209 -39.5q124 0 194 40t70 126q0 66 -38 100t-146 58q-40 9 -104.5 21t-117.5 26q-147 39 -208.5 114.5t-61.5 185.5q0 69 28.5 130t86.5 109q56 47 142.5 74.5
t193.5 27.5q100 0 202.5 -24.5t170.5 -59.5v-201h-10q-72 53 -175 89.5t-202 36.5q-103 0 -174 -39.5t-71 -117.5q0 -69 43 -104q42 -35 136 -57q52 -12 116.5 -24t107.5 -22q131 -30 202 -103q71 -74 71 -196zM912 1297h-159l-185 256l-184 -256h-155l228 379h227z" />
    <glyph glyph-name="Tbar" unicode="&#x166;" horiz-adv-x="1262" 
d="M532 740h-332v143h332v430h-532v176h1262v-176h-532v-430h332v-143h-332v-740h-198v740z" />
    <glyph glyph-name="tbar" unicode="&#x167;" horiz-adv-x="807" 
d="M765 10q-53 -14 -115.5 -23t-111.5 -9q-171 0 -260 92t-89 295v168h-127v134h127v292h-127v158h127v321h188v-321h388v-158h-388v-292h301v-134h-301v-83q0 -88 4 -137.5t28 -92.5q22 -40 60.5 -58.5t117.5 -18.5q46 0 96 13.5t72 22.5h10v-169z" />
    <glyph glyph-name="Utilde" unicode="&#x168;" horiz-adv-x="1499" 
d="M1321 598q0 -162 -35.5 -282.5t-116.5 -200.5q-77 -76 -180 -111t-240 -35q-140 0 -244 37t-175 109q-81 82 -116.5 198t-35.5 285v891h198v-901q0 -121 16.5 -191t55.5 -127q44 -65 119.5 -98t181.5 -33q107 0 182 32.5t120 98.5q39 57 55.5 130.5t16.5 182.5v906h198
v-891zM1165 1992q-11 -152 -77 -229t-177 -77q-54 0 -100 19.5t-87 56.5q-47 43 -79.5 64.5t-71.5 21.5q-52 0 -78 -45t-30 -121h-131q8 151 79 228t174 77q50 0 96.5 -19.5t88.5 -55.5q47 -41 83.5 -61.5t69.5 -20.5q51 0 79.5 46t31.5 116h129z" />
    <glyph glyph-name="utilde" unicode="&#x169;" horiz-adv-x="1296" 
d="M1111 0h-188v124q-95 -75 -182 -115t-192 -40q-176 0 -274 107.5t-98 315.5v725h188v-636q0 -85 8 -145.5t34 -103.5q27 -44 70 -64t125 -20q73 0 159.5 38t161.5 97v834h188v-1117zM1074 1619q-11 -152 -77 -229t-177 -77q-54 0 -100 19.5t-87 56.5q-47 43 -79.5 64.5
t-71.5 21.5q-52 0 -78 -45t-30 -121h-131q8 151 79 228t174 77q50 0 96.5 -19.5t88.5 -55.5q47 -41 83.5 -61.5t69.5 -20.5q51 0 79.5 46t31.5 116h129z" />
    <glyph glyph-name="Umacron" unicode="&#x16a;" horiz-adv-x="1499" 
d="M1321 598q0 -162 -35.5 -282.5t-116.5 -200.5q-77 -76 -180 -111t-240 -35q-140 0 -244 37t-175 109q-81 82 -116.5 198t-35.5 285v891h198v-901q0 -121 16.5 -191t55.5 -127q44 -65 119.5 -98t181.5 -33q107 0 182 32.5t120 98.5q39 57 55.5 130.5t16.5 182.5v906h198
v-891zM1121 1708h-742v154h742v-154z" />
    <glyph glyph-name="umacron" unicode="&#x16b;" horiz-adv-x="1296" 
d="M1111 0h-188v124q-95 -75 -182 -115t-192 -40q-176 0 -274 107.5t-98 315.5v725h188v-636q0 -85 8 -145.5t34 -103.5q27 -44 70 -64t125 -20q73 0 159.5 38t161.5 97v834h188v-1117zM1023 1335h-742v154h742v-154z" />
    <glyph glyph-name="Ubreve" unicode="&#x16c;" horiz-adv-x="1499" 
d="M1321 598q0 -162 -35.5 -282.5t-116.5 -200.5q-77 -76 -180 -111t-240 -35q-140 0 -244 37t-175 109q-81 82 -116.5 198t-35.5 285v891h198v-901q0 -121 16.5 -191t55.5 -127q44 -65 119.5 -98t181.5 -33q107 0 182 32.5t120 98.5q39 57 55.5 130.5t16.5 182.5v906h198
v-891zM1125 2049q-10 -168 -108.5 -275t-267.5 -107t-267.5 107t-107.5 275h166q12 -132 65.5 -192t144.5 -60q89 0 142.5 60t67.5 192h165z" />
    <glyph glyph-name="ubreve" unicode="&#x16d;" horiz-adv-x="1291" 
d="M1111 0h-188v124q-95 -75 -182 -115t-192 -40q-176 0 -274 107.5t-98 315.5v725h188v-636q0 -85 8 -145.5t34 -103.5q27 -44 70 -64t125 -20q73 0 159.5 38t161.5 97v834h188v-1117zM1027 1676q-10 -168 -108.5 -275t-267.5 -107t-267.5 107t-107.5 275h166
q12 -132 65.5 -192t144.5 -60q89 0 142.5 60t67.5 192h165z" />
    <glyph glyph-name="Uogonek" unicode="&#x172;" horiz-adv-x="1499" 
d="M788 -116q0 26 2.5 45.5t7.5 41.5q-9 0 -21.5 -0.5t-27.5 -0.5q-140 0 -244 36.5t-175 108.5q-81 82 -116.5 198t-35.5 285v891h198v-901q0 -121 16.5 -191t55.5 -127q44 -65 119.5 -98t181.5 -33q107 0 182 32.5t120 98.5q39 57 55.5 130.5t16.5 182.5v906h198v-891
q0 -162 -35.5 -282.5t-116.5 -200.5q-45 -44 -97 -73.5t-113 -45.5q-4 -20 -6.5 -50t-2.5 -53q0 -82 41.5 -121t131.5 -39q36 0 76.5 13.5t57.5 21.5h8v-159q-52 -14 -89.5 -20t-79.5 -6q-140 0 -224 79.5t-84 221.5z" />
    <glyph glyph-name="uogonek" unicode="&#x173;" horiz-adv-x="1291" 
d="M923 0v124q-95 -75 -182 -115t-192 -40q-176 0 -274 107.5t-98 315.5v725h188v-636q0 -85 8 -145.5t34 -103.5q27 -44 70 -64t125 -20q73 0 159.5 38t161.5 97v834h188v-1117h-30q-6 -27 -9.5 -53.5t-3.5 -53.5q0 -82 41.5 -121t131.5 -39q36 0 76.5 13.5t57.5 21.5h8
v-159q-52 -14 -89.5 -20t-79.5 -6q-140 0 -224 80t-84 221q0 36 5.5 61.5t11.5 54.5z" />
    <glyph glyph-name="Wcircumflex" unicode="&#x174;" horiz-adv-x="2025" 
d="M1933 1489l-387 -1489h-223l-313 1236l-306 -1236h-218l-394 1489h203l313 -1238l308 1238h201l311 -1250l311 1250h194zM1354 1670h-159l-185 256l-184 -256h-155l228 379h227z" />
    <glyph glyph-name="wcircumflex" unicode="&#x175;" horiz-adv-x="1676" 
d="M1590 1117l-291 -1117h-174l-287 861l-285 -861h-173l-294 1117h196l205 -865l279 865h155l286 -865l194 865h189zM1180 1297h-159l-185 256l-184 -256h-155l228 379h227z" />
    <glyph glyph-name="Ycircumflex" unicode="&#x176;" horiz-adv-x="1260" 
d="M1254 1489l-524 -836v-653h-198v632l-526 857h219l407 -666l411 666h211zM975 1670h-159l-185 256l-184 -256h-155l228 379h227z" />
    <glyph glyph-name="ycircumflex" unicode="&#x177;" horiz-adv-x="1212" 
d="M1151 1117l-652 -1529h-201l208 466l-445 1063h204l343 -828l346 828h197zM958 1297h-159l-185 256l-184 -256h-155l228 379h227z" />
    <glyph glyph-name="longs" unicode="&#x17f;" horiz-adv-x="615" 
d="M776 1374h-10q-31 9 -81 18.5t-88 9.5q-121 0 -172.5 -53.5t-51.5 -193.5v-1155h-188v1154q0 194 97 303t288 109q63 0 113.5 -6t92.5 -14v-172z" />
    <glyph glyph-name="Aringacute" unicode="&#x1fa;" horiz-adv-x="1400" 
d="M1374 0h-211l-148 415h-640l-148 -415h-201l504 1367q-49 31 -77.5 81.5t-28.5 114.5q0 109 80.5 181t195.5 72t195 -72t80 -181q0 -64 -28.5 -114.5t-76.5 -81.5zM828 1563q0 54 -35.5 91.5t-92.5 37.5t-93 -37t-36 -92q0 -57 36.5 -94.5t92.5 -37.5t92 38t36 94z
M953 585l-258 715l-259 -715h517zM977 2048l-243 -205h-149l149 205h243z" />
    <glyph glyph-name="aringacute" unicode="&#x1fb;" horiz-adv-x="1230" 
d="M1053 0h-187v119q-25 -17 -67.5 -47.5t-82.5 -48.5q-47 -23 -108 -38.5t-143 -15.5q-151 0 -256 100t-105 255q0 127 54.5 205.5t155.5 123.5q102 45 245 61t307 24v29q0 65 -23 108t-64 66q-41 24 -95.5 32.5t-117.5 8.5q-58 0 -110.5 -10t-94.5 -21q-49 -13 -89 -27.5
t-59 -21.5h-10v191q35 9 87.5 19t101.5 18q-28 30 -46.5 71.5t-18.5 87.5q0 109 79.5 181t194.5 72t194 -72t79 -181q0 -51 -23 -96.5t-58 -76.5q125 -34 192.5 -119t67.5 -239v-758zM866 275v311q-86 -5 -202.5 -15t-184.5 -29q-81 -23 -131 -71.5t-50 -133.5
q0 -96 58 -144.5t177 -48.5q99 0 181 38.5t152 92.5zM729 1289q0 54 -35.5 91.5t-92.5 37.5t-93 -37t-36 -92q0 -57 36.5 -95t92.5 -38t92 38.5t36 94.5zM878 1843l-243 -274h-149l149 274h243z" />
    <glyph glyph-name="AEacute" unicode="&#x1fc;" horiz-adv-x="2016" 
d="M1901 0h-944v556h-524l-212 -556h-207l594 1489h1293v-176h-749v-408h749v-176h-749v-553h749v-176zM957 723v601h-219l-239 -601h458zM1441 2049l-273 -374h-149l179 374h243z" />
    <glyph glyph-name="aeacute" unicode="&#x1fd;" horiz-adv-x="1956" 
d="M1855 559h-819q0 -114 30 -195t85 -133q52 -48 123 -70.5t157 -22.5q111 0 217.5 41.5t172.5 93.5h12v-205q-78 -35 -184.5 -64.5t-215.5 -29.5q-166 0 -284.5 52t-194.5 155q-21 -19 -67 -59t-96 -68q-63 -36 -137 -59.5t-189 -23.5q-150 0 -255.5 97t-105.5 249
q0 124 54 200.5t155 118.5q95 39 241 53t308 17v61q0 65 -23 107.5t-64 65.5q-40 23 -96 31.5t-116 8.5q-79 0 -168.5 -21t-179.5 -57h-13v191q55 15 158 34t204 19q159 0 264.5 -46.5t162.5 -137.5q69 82 170 134t226 52q217 0 342.5 -128t125.5 -379v-82zM1673 703
q-5 68 -23.5 119t-50.5 88q-34 39 -88.5 61t-133.5 22q-133 0 -223 -75t-115 -215h634zM894 298q-20 53 -30.5 119t-10.5 141q-105 -3 -201 -7.5t-178 -25.5q-79 -20 -127.5 -65.5t-48.5 -128.5q0 -95 58 -141t176 -46q99 0 195.5 43t166.5 111zM1324 1676l-273 -374h-149
l179 374h243z" />
    <glyph glyph-name="Oslashacute" unicode="&#x1fe;" horiz-adv-x="1612" 
d="M1498 744q0 -184 -49.5 -329.5t-138.5 -242.5q-92 -101 -217.5 -152t-286.5 -51q-115 0 -215.5 29t-179.5 84l-159 -228h-132l205 294q-101 100 -155.5 250t-54.5 346q0 182 48 326.5t140 247.5q88 98 218.5 150t284.5 52q118 0 215 -27.5t179 -82.5l142 201h132
l-188 -268q101 -100 156.5 -248.5t55.5 -350.5zM1097 1260q-57 46 -129 68.5t-161 22.5q-110 0 -200 -38.5t-156 -116.5q-64 -76 -98.5 -190.5t-34.5 -261.5q0 -140 29.5 -252t87.5 -188zM1295 744q0 139 -30 253t-88 189l-664 -957q60 -45 132.5 -68t161.5 -23
q110 0 201.5 40t153.5 116q67 82 100 194.5t33 255.5zM1083 2049l-273 -374h-149l179 374h243z" />
    <glyph glyph-name="oslashacute" unicode="&#x1ff;" horiz-adv-x="1243" 
d="M1137 558q0 -273 -140 -431t-375 -158q-84 0 -155.5 21t-130.5 60l-133 -198h-110l171 256q-75 77 -116.5 190t-41.5 260q0 273 139.5 431.5t376.5 158.5q87 0 158 -22t125 -57l116 172h111l-155 -231q76 -76 118 -188t42 -264zM813 930q-37 29 -86.5 43.5t-104.5 14.5
q-155 0 -240 -110t-85 -320q0 -97 17 -171t52 -128zM946 558q0 97 -17.5 173t-51.5 130l-448 -671q39 -31 86.5 -46t106.5 -15q150 0 237 108.5t87 320.5zM933 1676l-273 -374h-149l179 374h243z" />
    <glyph glyph-name="anoteleia" unicode="&#x387;" horiz-adv-x="930" 
d="M585 832h-239v285h239v-285z" />
    <glyph glyph-name="Wgrave" unicode="&#x1e80;" horiz-adv-x="2025" 
d="M1933 1489l-387 -1489h-223l-313 1236l-306 -1236h-218l-394 1489h203l313 -1238l308 1238h201l311 -1250l311 1250h194zM1133 1675h-149l-273 374h243z" />
    <glyph glyph-name="wgrave" unicode="&#x1e81;" horiz-adv-x="1676" 
d="M1590 1117l-291 -1117h-174l-287 861l-285 -861h-173l-294 1117h196l205 -865l279 865h155l286 -865l194 865h189zM957 1302h-149l-273 374h243z" />
    <glyph glyph-name="Wacute" unicode="&#x1e82;" horiz-adv-x="2025" 
d="M1933 1489l-387 -1489h-223l-313 1236l-306 -1236h-218l-394 1489h203l313 -1238l308 1238h201l311 -1250l311 1250h194zM1324 2049l-273 -374h-149l179 374h243z" />
    <glyph glyph-name="wacute" unicode="&#x1e83;" horiz-adv-x="1676" 
d="M1590 1117l-291 -1117h-174l-287 861l-285 -861h-173l-294 1117h196l205 -865l279 865h155l286 -865l194 865h189zM1154 1676l-273 -374h-149l179 374h243z" />
    <glyph glyph-name="Wdieresis" unicode="&#x1e84;" horiz-adv-x="2025" 
d="M1933 1489l-387 -1489h-223l-313 1236l-306 -1236h-218l-394 1489h203l313 -1238l308 1238h201l311 -1250l311 1250h194zM1322 1677h-199v195h199v-195zM909 1677h-199v195h199v-195z" />
    <glyph glyph-name="wdieresis" unicode="&#x1e85;" horiz-adv-x="1676" 
d="M1590 1117l-291 -1117h-174l-287 861l-285 -861h-173l-294 1117h196l205 -865l279 865h155l286 -865l194 865h189zM1149 1304h-199v195h199v-195zM736 1304h-199v195h199v-195z" />
    <glyph glyph-name="Ygrave" unicode="&#x1ef2;" horiz-adv-x="1260" 
d="M1254 1489l-524 -836v-653h-198v632l-526 857h219l407 -666l411 666h211zM772 1675h-149l-273 374h243z" />
    <glyph glyph-name="ygrave" unicode="&#x1ef3;" horiz-adv-x="1212" 
d="M1151 1117l-652 -1529h-201l208 466l-445 1063h204l343 -828l346 828h197zM761 1302h-149l-273 374h243z" />
    <glyph glyph-name="quotereversed" unicode="&#x201b;" horiz-adv-x="550" 
d="M390 1555l-165 -559h-244l271 559h138z" />
    <glyph glyph-name="uni203E" unicode="&#x203e;" horiz-adv-x="1302" 
d="M1302 1669h-1350v120h1350v-120z" />
    <glyph glyph-name="lira" unicode="&#x20a4;" horiz-adv-x="1302" 
d="M1163 0h-1026v207q103 27 152 91.5t63 187.5h-157v134h164v140h-164v134h163v167q0 200 126.5 328.5t331.5 128.5q105 0 181 -17t140 -34v-206h-10q-62 42 -138 66t-162 24q-140 0 -209.5 -82.5t-69.5 -226.5v-148h364v-134h-365v-140h365v-134h-369q-15 -101 -71 -180.5
t-146 -123.5v-11h837v-171z" />
    <glyph glyph-name="estimated" unicode="&#x212e;" horiz-adv-x="1470" 
d="M1297 632h-922q0 -132 33 -222.5t93 -152.5q58 -60 139.5 -89.5t177.5 -29.5q122 0 239 43t206 115h13v-213q-130 -54 -226 -81.5t-223 -27.5q-311 0 -480.5 173.5t-169.5 494.5q0 314 161 501t436 187q255 0 389 -153.5t134 -432.5v-112zM1107 786q-2 84 -21 156.5
t-60 123.5q-40 51 -107.5 80t-157.5 29q-159 0 -265.5 -106t-119.5 -283h731z" />
    <glyph glyph-name="oneeighth" unicode="&#x215b;" horiz-adv-x="2048" 
d="M545 565h-165v681h-209v117q102 0 165 22t72 108h137v-928zM1410 1489l-780 -1489h-165l780 1489h165zM1923 251q0 -121 -101.5 -201.5t-256.5 -80.5q-167 0 -262.5 79.5t-95.5 199.5q0 79 47 139t136 98v4q-82 41 -117 91t-35 121q0 106 92.5 176.5t236.5 70.5
q149 0 239.5 -67.5t90.5 -171.5q0 -63 -40 -125.5t-122 -97.5v-4q97 -39 142.5 -92.5t45.5 -138.5zM1733 692q0 51 -43.5 87t-122.5 36q-70 0 -116.5 -31.5t-46.5 -85.5q0 -38 24 -68.5t69 -50.5q23 -10 59 -25.5t82 -26.5q57 37 76 76.5t19 88.5zM1757 252q0 50 -27.5 79.5
t-93.5 59.5q-23 10 -67 24t-86 29q-58 -32 -86 -78.5t-28 -94.5q0 -74 59 -121.5t139 -47.5q81 0 135.5 39t54.5 111z" />
    <glyph glyph-name="threeeighths" unicode="&#x215c;" horiz-adv-x="2048" 
d="M793 826q0 -71 -30 -127t-78 -90q-53 -37 -114.5 -53t-140.5 -16q-82 0 -153.5 15t-136.5 43v175h17q37 -35 114 -64.5t156 -29.5q84 0 139 36.5t55 108.5q0 83 -50 112.5t-141 29.5h-140v139h125q87 0 134.5 38t47.5 104q0 60 -41 95.5t-128 35.5q-66 0 -142.5 -31
t-113.5 -66h-17v175q64 27 139 44t154 17q152 0 237 -70t85 -168q0 -87 -48.5 -143.5t-125.5 -82.5v-8q80 -16 138.5 -70.5t58.5 -148.5zM1500 1489l-780 -1489h-165l780 1489h165zM1956 251q0 -121 -101.5 -201.5t-256.5 -80.5q-167 0 -262.5 79.5t-95.5 199.5q0 79 47 139
t136 98v4q-82 41 -117 91t-35 121q0 106 92.5 176.5t236.5 70.5q149 0 239.5 -67.5t90.5 -171.5q0 -63 -40 -125.5t-122 -97.5v-4q97 -39 142.5 -92.5t45.5 -138.5zM1766 692q0 51 -43.5 87t-122.5 36q-70 0 -116.5 -31.5t-46.5 -85.5q0 -38 24 -68.5t69 -50.5
q23 -10 59 -25.5t82 -26.5q57 37 76 76.5t19 88.5zM1790 252q0 50 -27.5 79.5t-93.5 59.5q-23 10 -67 24t-86 29q-58 -32 -86 -78.5t-28 -94.5q0 -74 59 -121.5t139 -47.5q81 0 135.5 39t54.5 111z" />
    <glyph glyph-name="fiveeighths" unicode="&#x215d;" horiz-adv-x="2048" 
d="M793 867q0 -69 -25 -130t-72 -103q-48 -43 -116 -68.5t-155 -25.5q-78 0 -152.5 14t-134.5 40v159h16q37 -20 110 -47t151 -27q44 0 85 11.5t69 39.5q29 29 40.5 62.5t11.5 72.5q0 42 -15.5 70.5t-44.5 48.5q-30 21 -74.5 29.5t-97.5 8.5q-59 0 -113 -7t-92 -13v496h597
v-139h-440v-207q20 2 44.5 3t38.5 1q84 0 143 -11.5t111 -45.5q55 -36 85 -91.5t30 -140.5zM1500 1489l-780 -1489h-165l780 1489h165zM1956 251q0 -121 -101.5 -201.5t-256.5 -80.5q-167 0 -262.5 79.5t-95.5 199.5q0 79 47 139t136 98v4q-82 41 -117 91t-35 121
q0 106 92.5 176.5t236.5 70.5q149 0 239.5 -67.5t90.5 -171.5q0 -63 -40 -125.5t-122 -97.5v-4q97 -39 142.5 -92.5t45.5 -138.5zM1766 692q0 51 -43.5 87t-122.5 36q-70 0 -116.5 -31.5t-46.5 -85.5q0 -38 24 -68.5t69 -50.5q23 -10 59 -25.5t82 -26.5q57 37 76 76.5
t19 88.5zM1790 252q0 50 -27.5 79.5t-93.5 59.5q-23 10 -67 24t-86 29q-58 -32 -86 -78.5t-28 -94.5q0 -74 59 -121.5t139 -47.5q81 0 135.5 39t54.5 111z" />
    <glyph glyph-name="seveneighths" unicode="&#x215e;" horiz-adv-x="2048" 
d="M843 1358l-470 -793h-185l496 794h-531v139h690v-140zM1404 1489l-780 -1489h-165l780 1489h165zM1903 251q0 -121 -101.5 -201.5t-256.5 -80.5q-167 0 -262.5 79.5t-95.5 199.5q0 79 47 139t136 98v4q-82 41 -117 91t-35 121q0 106 92.5 176.5t236.5 70.5
q149 0 239.5 -67.5t90.5 -171.5q0 -63 -40 -125.5t-122 -97.5v-4q97 -39 142.5 -92.5t45.5 -138.5zM1713 692q0 51 -43.5 87t-122.5 36q-70 0 -116.5 -31.5t-46.5 -85.5q0 -38 24 -68.5t69 -50.5q23 -10 59 -25.5t82 -26.5q57 37 76 76.5t19 88.5zM1737 252q0 50 -27.5 79.5
t-93.5 59.5q-23 10 -67 24t-86 29q-58 -32 -86 -78.5t-28 -94.5q0 -74 59 -121.5t139 -47.5q81 0 135.5 39t54.5 111z" />
    <glyph glyph-name="uniF004" horiz-adv-x="432" 
d="M97 -423l165 559h244l-271 -559h-138z" />
    <glyph glyph-name="uniF005" horiz-adv-x="1302" 
d="M880 -89q0 -162 -91.5 -248t-237.5 -86q-37 0 -95 7t-103 19v160h9q26 -10 70 -23t94 -13q104 0 153 39t49 127q0 29 -3 65.5t-6 61.5h153q2 -19 5 -45t3 -64z" />
    <glyph glyph-name="tonos" unicode="&#x384;" horiz-adv-x="1302" 
d="M773 1676l-49 -384h-145l-49 384h243z" />
    <glyph glyph-name="dieresistonos" unicode="&#x385;" horiz-adv-x="1302" 
d="M765 1676l-49 -384h-128l-49 384h226zM1048 1304h-191v195h191v-195zM447 1304h-191v195h191v-195z" />
    <glyph glyph-name="Alphatonos" unicode="&#x386;" horiz-adv-x="1400" 
d="M1374 0h-211l-146 415h-644l-146 -415h-201l542 1489h264zM956 585l-261 731l-262 -731h523zM250 1489l-49 -384h-145l-49 384h243z" />
    <glyph glyph-name="Epsilontonos" unicode="&#x388;" horiz-adv-x="1538" 
d="M1424 0h-981v1489h981v-176h-783v-408h783v-176h-783v-553h783v-176zM243 1489l-49 -384h-145l-49 384h243z" />
    <glyph glyph-name="Etatonos" unicode="&#x389;" horiz-adv-x="1782" 
d="M1582 0h-198v729h-743v-729h-198v1489h198v-584h743v584h198v-1489zM243 1489l-49 -384h-145l-49 384h243z" />
    <glyph glyph-name="Iotatonos" unicode="&#x38a;" horiz-adv-x="1105" 
d="M968 0h-588v152h195v1185h-195v152h588v-152h-195v-1185h195v-152zM243 1489l-49 -384h-145l-49 384h243z" />
    <glyph glyph-name="Omicrontonos" unicode="&#x38c;" horiz-adv-x="1804" 
d="M1501 1318q91 -100 139.5 -245t48.5 -329t-49.5 -329.5t-138.5 -242.5q-92 -101 -217.5 -152t-286.5 -51q-157 0 -285.5 52t-218.5 151t-138.5 243t-48.5 329q0 182 48 326.5t140 247.5q88 98 218.5 150t284.5 52q160 0 287.5 -52.5t216.5 -149.5zM1483 744
q0 290 -130 447.5t-355 157.5q-227 0 -356.5 -157.5t-129.5 -447.5q0 -293 132 -448.5t354 -155.5t353.5 155.5t131.5 448.5zM243 1489l-49 -384h-145l-49 384h243z" />
    <glyph glyph-name="Upsilontonos" unicode="&#x38e;" horiz-adv-x="1543" 
d="M1537 1489l-524 -836v-653h-198v632l-526 857h219l407 -666l411 666h211zM243 1489l-49 -384h-145l-49 384h243z" />
    <glyph glyph-name="Omegatonos" unicode="&#x38f;" horiz-adv-x="1859" 
d="M1751 0h-576v387q60 38 119.5 82t103.5 101q45 59 71 138.5t26 185.5q0 206 -127 330.5t-347 124.5t-347 -124.5t-127 -330.5q0 -106 26 -185.5t71 -138.5q45 -57 104 -101t119 -82v-387h-576v174h410v124q-157 90 -258.5 246t-101.5 350q0 276 187.5 451t492.5 175
t492.5 -175t187.5 -451q0 -194 -101.5 -350t-258.5 -246v-124h410v-174zM243 1489l-49 -384h-145l-49 384h243z" />
    <glyph glyph-name="iotadieresistonos" unicode="&#x390;" horiz-adv-x="562" 
d="M375 0h-188v1117h188v-1117zM379 1676l-56 -384h-84l-56 384h196zM615 1304h-171v195h171v-195zM118 1304h-171v195h171v-195z" />
    <glyph glyph-name="Alpha" unicode="&#x391;" horiz-adv-x="1400" 
d="M1374 0h-211l-146 415h-644l-146 -415h-201l542 1489h264zM956 585l-261 731l-262 -731h523z" />
    <glyph glyph-name="Beta" unicode="&#x392;" horiz-adv-x="1404" 
d="M1323 458q0 -111 -42 -196t-113 -140q-84 -66 -184.5 -94t-255.5 -28h-528v1489h441q163 0 244 -12t155 -50q82 -43 119 -110.5t37 -161.5q0 -106 -54 -180.5t-144 -119.5v-8q151 -31 238 -132.5t87 -256.5zM990 1129q0 54 -18 91t-58 60q-47 27 -114 33.5t-166 6.5h-236
v-430h256q93 0 148 9.5t102 39.5t66.5 77.5t19.5 112.5zM1117 450q0 90 -27 143t-98 90q-48 25 -116.5 32.5t-166.5 7.5h-311v-554h262q130 0 213 13.5t136 49.5q56 39 82 89t26 129z" />
    <glyph glyph-name="Delta" unicode="&#x394;" horiz-adv-x="1440" 
d="M1414 0h-1388l562 1489h264zM1147 168l-432 1147l-431 -1147h863z" />
    <glyph glyph-name="Epsilon" unicode="&#x395;" horiz-adv-x="1295" 
d="M1181 0h-981v1489h981v-176h-783v-408h783v-176h-783v-553h783v-176z" />
    <glyph glyph-name="Zeta" unicode="&#x396;" horiz-adv-x="1403" 
d="M1288 0h-1162v184l913 1129h-879v176h1106v-179l-922 -1134h944v-176z" />
    <glyph glyph-name="Eta" unicode="&#x397;" horiz-adv-x="1539" 
d="M1339 0h-198v729h-743v-729h-198v1489h198v-584h743v584h198v-1489z" />
    <glyph glyph-name="Iota" unicode="&#x399;" horiz-adv-x="862" 
d="M725 0h-588v152h195v1185h-195v152h588v-152h-195v-1185h195v-152z" />
    <glyph glyph-name="Kappa" unicode="&#x39a;" horiz-adv-x="1419" 
d="M1397 0h-257l-589 663l-148 -158v-505h-198v1489h198v-777l723 777h240l-665 -700z" />
    <glyph glyph-name="Lambda" unicode="&#x39b;" horiz-adv-x="1404" 
d="M1378 0h-213l-468 1285l-468 -1285h-203l556 1489h240z" />
    <glyph glyph-name="Mu" unicode="&#x39c;" horiz-adv-x="1726" 
d="M1526 0h-198v1283l-414 -873h-118l-411 873v-1283h-185v1489h270l397 -829l384 829h275v-1489z" />
    <glyph glyph-name="Nu" unicode="&#x39d;" horiz-adv-x="1532" 
d="M1336 0h-245l-706 1332v-1332h-185v1489h307l644 -1216v1216h185v-1489z" />
    <glyph glyph-name="Xi" unicode="&#x39e;" horiz-adv-x="1329" 
d="M1215 1313h-1101v176h1101v-176zM1163 729h-997v176h997v-176zM1215 0h-1101v176h1101v-176z" />
    <glyph glyph-name="Omicron" unicode="&#x39f;" horiz-adv-x="1612" 
d="M1310 1318q91 -100 139.5 -245t48.5 -329t-49.5 -329.5t-138.5 -242.5q-92 -101 -217.5 -152t-286.5 -51q-157 0 -285.5 52t-218.5 151t-138.5 243t-48.5 329q0 182 48 326.5t140 247.5q88 98 218.5 150t284.5 52q160 0 287.5 -52.5t216.5 -149.5zM1292 744
q0 290 -130 447.5t-355 157.5q-227 0 -356.5 -157.5t-129.5 -447.5q0 -293 132 -448.5t354 -155.5t353.5 155.5t131.5 448.5z" />
    <glyph glyph-name="Pi" unicode="&#x3a0;" horiz-adv-x="1539" 
d="M1339 0h-198v1313h-743v-1313h-198v1489h1139v-1489z" />
    <glyph glyph-name="Rho" unicode="&#x3a1;" horiz-adv-x="1235" 
d="M1174 1039q0 -99 -34.5 -183.5t-96.5 -146.5q-77 -77 -182 -115.5t-265 -38.5h-198v-555h-198v1489h404q134 0 227 -22.5t165 -70.5q85 -57 131.5 -142t46.5 -215zM968 1034q0 77 -27 134t-82 93q-48 31 -109.5 44.5t-155.5 13.5h-196v-595h167q120 0 195 21.5t122 68.5
q47 48 66.5 101t19.5 119z" />
    <glyph glyph-name="Sigma" unicode="&#x3a3;" horiz-adv-x="1377" 
d="M1280 0h-1162v184l620 600l-600 526v179h1096v-176h-832l586 -506v-26l-630 -605h922v-176z" />
    <glyph glyph-name="Tau" unicode="&#x3a4;" horiz-adv-x="1262" 
d="M1262 1313h-532v-1313h-198v1313h-532v176h1262v-176z" />
    <glyph glyph-name="Upsilon" unicode="&#x3a5;" horiz-adv-x="1260" 
d="M1254 1489l-524 -836v-653h-198v632l-526 857h219l407 -666l411 666h211z" />
    <glyph glyph-name="Chi" unicode="&#x3a7;" horiz-adv-x="1403" 
d="M1336 1489l-514 -736l513 -753h-229l-406 613l-416 -613h-216l519 744l-507 745h228l401 -605l410 605h217z" />
    <glyph glyph-name="Psi" unicode="&#x3a8;" horiz-adv-x="1783" 
d="M1604 910q0 -157 -40.5 -264.5t-117.5 -174.5q-80 -69 -192.5 -104t-263.5 -45v-322h-197v322q-154 11 -267 47t-188 102q-78 69 -118.5 176t-40.5 263v579h198v-602q0 -109 29.5 -180t81.5 -115q53 -45 130 -68.5t175 -30.5v996h197v-996q97 8 175 30.5t131 68.5
q56 49 83 115.5t27 179.5v602h198v-579z" />
    <glyph glyph-name="Omega" unicode="&#x3a9;" horiz-adv-x="1676" 
d="M1568 0h-576v387q60 38 119.5 82t103.5 101q45 59 71 138.5t26 185.5q0 206 -127 330.5t-347 124.5t-347 -124.5t-127 -330.5q0 -106 26 -185.5t71 -138.5q45 -57 104 -101t119 -82v-387h-576v174h410v124q-157 90 -258.5 246t-101.5 350q0 276 187.5 451t492.5 175
t492.5 -175t187.5 -451q0 -194 -101.5 -350t-258.5 -246v-124h410v-174z" />
    <glyph glyph-name="Iotadieresis" unicode="&#x3aa;" horiz-adv-x="862" 
d="M725 0h-588v152h195v1185h-195v152h588v-152h-195v-1185h195v-152zM738 1677h-199v195h199v-195zM325 1677h-199v195h199v-195z" />
    <glyph glyph-name="Upsilondieresis" unicode="&#x3ab;" horiz-adv-x="1260" 
d="M1254 1489l-524 -836v-653h-198v632l-526 857h219l407 -666l411 666h211zM939 1677h-199v195h199v-195zM526 1677h-199v195h199v-195z" />
    <glyph glyph-name="alphatonos" unicode="&#x3ac;" horiz-adv-x="1276" 
d="M1091 0h-188v117q-81 -70 -169 -109t-191 -39q-200 0 -317.5 154t-117.5 427q0 142 40.5 253t109.5 189q68 76 158.5 116t187.5 40q88 0 156 -22t143 -61v52h188v-1117zM903 275v636q-76 34 -136 49.5t-131 15.5q-158 0 -246 -110t-88 -312q0 -199 68 -302.5t218 -103.5
q80 0 162 35.5t153 91.5zM743 1676l-49 -384h-145l-49 384h243z" />
    <glyph glyph-name="epsilontonos" unicode="&#x3ad;" horiz-adv-x="1050" 
d="M1006 64q-107 -48 -210 -69t-218 -21q-79 0 -161 16t-152 56q-69 39 -112.5 102.5t-43.5 157.5q0 96 56.5 168t177.5 110v7q-91 24 -145 90t-54 158q0 89 47.5 147.5t112.5 92.5q64 33 145 49t160 16q98 0 180 -16.5t172 -44.5v-207h-13q-66 51 -163.5 79t-197.5 28
q-45 0 -84 -5.5t-81 -25.5q-35 -15 -60.5 -48.5t-25.5 -77.5q0 -61 28 -95t76 -49q45 -14 97 -15.5t105 -1.5h111v-166h-158q-62 0 -112 -4.5t-92 -21.5q-41 -17 -65.5 -54t-24.5 -96q0 -53 26 -90t67 -58q37 -19 87.5 -29t106.5 -10q102 0 218 36t187 98h13v-206zM721 1676
l-49 -384h-145l-49 384h243z" />
    <glyph glyph-name="etatonos" unicode="&#x3ae;" horiz-adv-x="1296" 
d="M1119 -412h-188v1048q0 77 -9 144.5t-33 105.5q-25 42 -72 62.5t-122 20.5q-77 0 -161 -38t-161 -97v-834h-188v1117h188v-124q88 73 182 114t193 41q181 0 276 -109t95 -314v-1137zM802 1676l-49 -384h-145l-49 384h243z" />
    <glyph glyph-name="iotatonos" unicode="&#x3af;" horiz-adv-x="562" 
d="M375 0h-188v1117h188v-1117zM403 1676l-49 -384h-145l-49 384h243z" />
    <glyph glyph-name="upsilondieresistonos" unicode="&#x3b0;" horiz-adv-x="1293" 
d="M1116 407q0 -218 -122 -327.5t-348 -109.5q-223 0 -346 107.5t-123 329.5v710h188v-641q0 -93 10 -153t42 -106q31 -43 84.5 -64.5t145.5 -21.5q86 0 143.5 22t87.5 66q29 44 39.5 105.5t10.5 151.5v641h188v-710zM760 1676l-49 -384h-128l-49 384h226zM1043 1304h-191
v195h191v-195zM442 1304h-191v195h191v-195z" />
    <glyph glyph-name="beta" unicode="&#x3b2;" horiz-adv-x="1270" 
d="M1165 444q0 -202 -134.5 -334t-339.5 -132q-79 0 -167 22t-151 64v-476h-188v1490q0 224 126.5 351t349.5 127q90 0 164.5 -21.5t133.5 -67.5q57 -43 91 -112t34 -160q0 -127 -69.5 -221.5t-196.5 -131.5v-17q159 -26 253 -125.5t94 -255.5zM971 449q0 89 -34.5 144.5
t-92.5 86.5q-59 32 -132 43t-146 11h-36v160h36q66 0 131 14.5t104 44.5q46 34 68.5 83t22.5 134q0 112 -69 170t-178 58q-73 0 -125 -26.5t-85 -70.5q-32 -44 -47 -102.5t-15 -120.5v-862q66 -38 141 -53.5t147 -15.5q149 0 229.5 78.5t80.5 223.5z" />
    <glyph glyph-name="gamma" unicode="&#x3b3;" horiz-adv-x="1212" 
d="M1151 1117l-457 -1061v-468h-188v468l-445 1061h204l343 -828l346 828h197z" />
    <glyph glyph-name="zeta" unicode="&#x3b6;" horiz-adv-x="937" 
d="M922 75q32 -40 46 -85.5t14 -85.5q0 -84 -45 -168.5t-112 -147.5h-179v14q90 79 128 138.5t38 128.5q0 57 -30.5 95t-77.5 38h-145q-229 0 -340 116t-111 345q0 140 46 268t124 247q75 112 173.5 214.5t206.5 196.5v9h-460v158h744v-135q-117 -78 -231.5 -181
t-204.5 -223q-89 -117 -146 -257t-57 -283q0 -34 3 -70t15 -76q10 -38 34.5 -75.5t63.5 -61.5q36 -22 96.5 -24.5t116.5 -2.5h86q71 0 122 -26t82 -66z" />
    <glyph glyph-name="eta" unicode="&#x3b7;" horiz-adv-x="1296" 
d="M1119 -412h-188v1048q0 77 -9 144.5t-33 105.5q-25 42 -72 62.5t-122 20.5q-77 0 -161 -38t-161 -97v-834h-188v1117h188v-124q88 73 182 114t193 41q181 0 276 -109t95 -314v-1137z" />
    <glyph glyph-name="theta" unicode="&#x3b8;" horiz-adv-x="1278" 
d="M1141 768q0 -190 -23 -316.5t-59 -210.5q-58 -135 -163 -203.5t-257 -68.5t-257 68.5t-163 203.5q-37 84 -59.5 210.5t-22.5 316.5q0 174 22.5 305.5t60.5 214.5q57 130 162.5 199t256.5 69t256.5 -69t162.5 -199q37 -84 60 -215t23 -305zM952 858q-4 143 -28.5 250
t-56.5 161q-41 70 -95 98.5t-133 28.5t-133 -28.5t-95 -98.5q-34 -55 -57.5 -161.5t-27.5 -249.5h626zM952 697h-626q0 -142 23 -258.5t59 -178.5q40 -69 96 -100t135 -31t135 31t96 100q36 62 59 178.5t23 258.5z" />
    <glyph glyph-name="iota" unicode="&#x3b9;" horiz-adv-x="562" 
d="M375 0h-188v1117h188v-1117z" />
    <glyph glyph-name="kappa" unicode="&#x3ba;" horiz-adv-x="1212" 
d="M1192 0h-248l-451 489l-112 -109v-380h-188v1117h188v-550l384 417q72 79 135.5 107t126.5 28q28 0 58 -1t37 -1v-166h-11q-16 2 -39.5 3t-36.5 1q-47 0 -85.5 -23.5t-67.5 -56.5l-251 -271z" />
    <glyph glyph-name="lambda" unicode="&#x3bb;" horiz-adv-x="1212" 
d="M1151 0h-205l-328 829l-361 -829h-196l465 1056l-215 500h211z" />
    <glyph glyph-name="mu" unicode="&#x3bc;" horiz-adv-x="1310" 
d="M1125 0h-186v118q-74 -78 -141.5 -108.5t-145.5 -30.5q-75 0 -135 27t-144 107v-525h-188v1529h188v-838q32 -39 111 -80t170 -41q93 0 161 33.5t122 93.5v832h188v-1117z" />
    <glyph glyph-name="nu" unicode="&#x3bd;" horiz-adv-x="1212" 
d="M1151 1117l-452 -1117h-189l-449 1117h204l346 -889l343 889h197z" />
    <glyph glyph-name="xi" unicode="&#x3be;" horiz-adv-x="1030" 
d="M1041 -96q0 -85 -45.5 -169t-111.5 -147h-180v14q92 79 129.5 139t37.5 128q0 55 -29 94t-75 39h-140q-140 0 -232.5 27t-155.5 84q-66 60 -100.5 135.5t-34.5 163.5q0 78 25 144t73 119q44 49 112.5 83.5t144.5 53.5v11q-125 28 -200 110.5t-75 186.5q0 83 43.5 150.5
t133.5 125.5v6h-228v154h824v-158h-256q-68 0 -122.5 -14.5t-102.5 -48.5q-45 -32 -72 -83t-27 -118q0 -79 32.5 -128t83.5 -75q45 -23 104 -34t139 -11h170v-165h-295q-66 0 -118.5 -20t-99.5 -59q-43 -37 -68.5 -90t-25.5 -112q0 -102 37.5 -159t101.5 -82
q63 -25 139.5 -28.5t166.5 -3.5h28q68 0 119.5 -23.5t84.5 -60.5q31 -35 48 -82.5t17 -96.5z" />
    <glyph glyph-name="omicron" unicode="&#x3bf;" horiz-adv-x="1243" 
d="M1137 558q0 -273 -140 -431t-375 -158q-237 0 -376.5 158t-139.5 431t139.5 431.5t376.5 158.5q235 0 375 -158.5t140 -431.5zM943 558q0 217 -85 322.5t-236 105.5q-153 0 -237.5 -105.5t-84.5 -322.5q0 -210 85 -318.5t237 -108.5q150 0 235.5 107.5t85.5 319.5z" />
    <glyph glyph-name="rho" unicode="&#x3c1;" horiz-adv-x="1280" 
d="M1172 577q0 -258 -138.5 -428.5t-360.5 -170.5q-65 0 -146.5 18t-153.5 61v-469h-188v1058q0 123 35.5 215.5t101.5 158.5q62 62 155.5 95t195.5 33q243 0 371 -147t128 -424zM978 565q0 218 -80 320t-226 102q-158 0 -228.5 -96t-70.5 -278v-403q73 -34 132.5 -48.5
t134.5 -14.5q162 0 250 111t88 307z" />
    <glyph glyph-name="sigma1" unicode="&#x3c2;" horiz-adv-x="1040" 
d="M1018 -96q0 -87 -47 -172t-109 -144h-177v14q86 75 124.5 135.5t38.5 131.5q0 54 -30 93.5t-75 39.5h-92q-117 0 -216 30t-174 97q-73 66 -114.5 170t-41.5 250q0 270 155.5 432t414.5 162q84 0 164 -18.5t147 -45.5v-211h-12q-94 62 -172.5 87t-146.5 25
q-166 0 -260.5 -119t-94.5 -312q0 -112 28.5 -183t78.5 -116q50 -44 114.5 -63.5t139.5 -19.5h100q115 0 186 -76.5t71 -186.5z" />
    <glyph glyph-name="upsilon" unicode="&#x3c5;" horiz-adv-x="1293" 
d="M1116 407q0 -218 -122 -327.5t-348 -109.5q-223 0 -346 107.5t-123 329.5v710h188v-641q0 -93 10 -153t42 -106q31 -43 84.5 -64.5t145.5 -21.5q86 0 143.5 22t87.5 66q29 44 39.5 105.5t10.5 151.5v641h188v-710z" />
    <glyph glyph-name="chi" unicode="&#x3c7;" horiz-adv-x="1208" 
d="M1160 -412h-213l-346 619l-350 -619h-203l444 770l-433 759h213l335 -600l339 600h203l-433 -751z" />
    <glyph glyph-name="psi" unicode="&#x3c8;" horiz-adv-x="1683" 
d="M1507 446q0 -114 -48 -198t-127 -137q-82 -55 -182 -82.5t-215 -32.5v-408h-187v408q-115 6 -214.5 32t-182.5 83q-80 54 -127.5 137.5t-47.5 197.5v671h188v-612q0 -113 37.5 -180.5t89.5 -102.5q56 -38 123 -53t134 -19v967h187v-967q67 5 134 19t123 53
q59 40 93 101.5t34 181.5v612h188v-671z" />
    <glyph glyph-name="omega" unicode="&#x3c9;" horiz-adv-x="1666" 
d="M1553 503q0 -96 -23.5 -192.5t-74.5 -171.5q-55 -80 -133.5 -124.5t-193.5 -44.5q-96 0 -177 49.5t-118 116.5h-6q-39 -68 -113 -117t-176 -49q-113 0 -194.5 46.5t-132.5 122.5t-74.5 171.5t-23.5 192.5q0 170 57 308.5t201 305.5h228v-17q-135 -108 -214.5 -262
t-79.5 -337q0 -66 8 -122.5t38 -119.5q26 -55 72.5 -91.5t117.5 -36.5q51 0 86.5 12.5t55.5 29.5q22 18 36.5 40t20.5 37v584h186v-584q9 -17 23 -39t35 -39q24 -19 52.5 -30t86.5 -11q70 0 117 35.5t74 92.5q25 55 36 116t11 126q0 182 -78.5 336t-215.5 263v17h228
q144 -167 201 -305.5t57 -308.5z" />
    <glyph glyph-name="iotadieresis" unicode="&#x3ca;" horiz-adv-x="562" 
d="M557 1304h-189v195h189v-195zM194 1304h-189v195h189v-195zM375 0h-188v1117h188v-1117z" />
    <glyph glyph-name="upsilondieresis" unicode="&#x3cb;" horiz-adv-x="1293" 
d="M1116 407q0 -218 -122 -327.5t-348 -109.5q-223 0 -346 107.5t-123 329.5v710h188v-641q0 -93 10 -153t42 -106q31 -43 84.5 -64.5t145.5 -21.5q86 0 143.5 22t87.5 66q29 44 39.5 105.5t10.5 151.5v641h188v-710zM953 1304h-199v195h199v-195zM540 1304h-199v195h199
v-195z" />
    <glyph glyph-name="omicrontonos" unicode="&#x3cc;" horiz-adv-x="1243" 
d="M1137 558q0 -273 -140 -431t-375 -158q-237 0 -376.5 158t-139.5 431t139.5 431.5t376.5 158.5q235 0 375 -158.5t140 -431.5zM943 558q0 217 -85 322.5t-236 105.5q-153 0 -237.5 -105.5t-84.5 -322.5q0 -210 85 -318.5t237 -108.5q150 0 235.5 107.5t85.5 319.5z
M743 1676l-49 -384h-145l-49 384h243z" />
    <glyph glyph-name="upsilontonos" unicode="&#x3cd;" horiz-adv-x="1293" 
d="M1116 407q0 -218 -122 -327.5t-348 -109.5q-223 0 -346 107.5t-123 329.5v710h188v-641q0 -93 10 -153t42 -106q31 -43 84.5 -64.5t145.5 -21.5q86 0 143.5 22t87.5 66q29 44 39.5 105.5t10.5 151.5v641h188v-710zM768 1676l-49 -384h-145l-49 384h243z" />
    <glyph glyph-name="omegatonos" unicode="&#x3ce;" horiz-adv-x="1666" 
d="M1553 503q0 -96 -23.5 -192.5t-74.5 -171.5q-55 -80 -133.5 -124.5t-193.5 -44.5q-96 0 -177 49.5t-118 116.5h-6q-39 -68 -113 -117t-176 -49q-113 0 -194.5 46.5t-132.5 122.5t-74.5 171.5t-23.5 192.5q0 170 57 308.5t201 305.5h228v-17q-135 -108 -214.5 -262
t-79.5 -337q0 -66 8 -122.5t38 -119.5q26 -55 72.5 -91.5t117.5 -36.5q51 0 86.5 12.5t55.5 29.5q22 18 36.5 40t20.5 37v584h186v-584q9 -17 23 -39t35 -39q24 -19 52.5 -30t86.5 -11q70 0 117 35.5t74 92.5q25 55 36 116t11 126q0 182 -78.5 336t-215.5 263v17h228
q144 -167 201 -305.5t57 -308.5zM955 1676l-49 -384h-145l-49 384h243z" />
    <glyph glyph-name="afii10023" unicode="&#x401;" horiz-adv-x="1295" 
d="M1181 0h-981v1489h981v-176h-783v-408h783v-176h-783v-553h783v-176zM1038 1677h-199v195h199v-195zM625 1677h-199v195h199v-195z" />
    <glyph glyph-name="afii10051" unicode="&#x402;" horiz-adv-x="1623" 
d="M1543 460q0 -108 -41.5 -196.5t-114.5 -146.5q-87 -69 -174.5 -93t-225.5 -24h-110v177h93q91 0 151 8t107 42q56 40 82 95.5t26 133.5q0 75 -24.5 132.5t-77.5 92.5q-50 34 -124.5 43.5t-205.5 9.5h-277v-734h-198v1313h-430v176h1128v-176h-500v-408h339
q152 0 247.5 -18t180.5 -84q76 -59 112.5 -146t36.5 -197z" />
    <glyph glyph-name="afii10052" unicode="&#x403;" horiz-adv-x="1160" 
d="M1162 1313h-764v-1313h-198v1489h962v-176zM1016 2029l-273 -374h-149l179 374h243z" />
    <glyph glyph-name="afii10053" unicode="&#x404;" horiz-adv-x="1435" 
d="M1337 65q-99 -39 -217 -65.5t-263 -26.5q-169 0 -306 52t-234 151t-149.5 243t-52.5 327q0 175 52.5 318.5t150.5 245.5q95 98 232 152t306 54q140 0 263 -26t218 -65v-223h-16q-78 64 -202.5 105t-265.5 41q-109 0 -196 -29t-159 -88q-70 -59 -114 -145.5t-59 -200.5
h820v-173h-830q0 -139 44 -247.5t115 -178.5q74 -72 172 -108.5t210 -36.5q138 0 261.5 37t203.5 104h16v-217z" />
    <glyph glyph-name="afii10054" unicode="&#x405;" horiz-adv-x="1400" 
d="M1282 425q0 -87 -40.5 -172t-113.5 -144q-80 -64 -186.5 -100t-256.5 -36q-161 0 -289.5 30t-261.5 89v248h14q113 -94 261 -145t278 -51q184 0 286.5 69t102.5 184q0 99 -48.5 146t-147.5 73q-75 20 -162.5 33t-185.5 33q-198 42 -293.5 143.5t-95.5 264.5
q0 187 158 306.5t401 119.5q157 0 288 -30t232 -74v-234h-14q-85 72 -223.5 119.5t-283.5 47.5q-159 0 -255.5 -66t-96.5 -170q0 -93 48 -146t169 -81q64 -14 182 -34t200 -41q166 -44 250 -133t84 -249z" />
    <glyph glyph-name="afii10055" unicode="&#x406;" horiz-adv-x="862" 
d="M725 0h-588v152h195v1185h-195v152h588v-152h-195v-1185h195v-152z" />
    <glyph glyph-name="afii10056" unicode="&#x407;" horiz-adv-x="862" 
d="M725 0h-588v152h195v1185h-195v152h588v-152h-195v-1185h195v-152zM738 1677h-199v195h199v-195zM325 1677h-199v195h199v-195z" />
    <glyph glyph-name="afii10057" unicode="&#x408;" horiz-adv-x="931" 
d="M746 387q0 -196 -119.5 -302t-320.5 -106q-48 0 -128 8.5t-134 20.5v185h11q41 -14 101 -29t123 -15q92 0 146.5 21t80.5 60q27 40 34.5 98t7.5 134v869h-315v158h513v-1102z" />
    <glyph glyph-name="afii10058" unicode="&#x409;" horiz-adv-x="2290" 
d="M2003 457q0 75 -25 132t-78 92q-55 37 -127 45t-203 8h-276v-565h271q133 0 204.5 13t125.5 50q56 39 82 91.5t26 133.5zM2210 461q0 -108 -42.5 -196t-113.5 -143q-84 -66 -180 -94t-248 -28h-530v1313h-528q-3 -113 -8.5 -221.5t-8.5 -193.5q-8 -214 -26.5 -352
t-47.5 -227q-29 -90 -65.5 -143.5t-83.5 -96.5q-48 -44 -98.5 -63t-118.5 -19q-21 0 -51 1.5t-42 1.5v192h14q10 -1 25 -2t30 -1q36 0 68 11t54 34q71 71 104.5 234t47.5 464q5 98 10.5 260t9.5 297h913v-584h338q152 0 248 -17.5t181 -83.5q76 -59 112.5 -146t36.5 -197z
" />
    <glyph glyph-name="afii10059" unicode="&#x40a;" horiz-adv-x="2259" 
d="M1972 457q0 75 -25 132t-78 92q-55 37 -127 45t-203 8h-276v-565h271q133 0 204.5 13t125.5 50q56 39 82 91.5t26 133.5zM2179 461q0 -108 -42.5 -196t-113.5 -143q-84 -66 -180 -94t-248 -28h-530v734h-667v-734h-198v1489h198v-584h667v584h198v-584h338
q152 0 248 -17.5t181 -83.5q76 -59 112.5 -146t36.5 -197z" />
    <glyph glyph-name="afii10060" unicode="&#x40b;" horiz-adv-x="1675" 
d="M627 0h-198v1313h-430v176h1128v-176h-500v-467q95 31 218 56.5t226 25.5q101 0 186 -25t146 -78q61 -52 95.5 -133.5t34.5 -196.5v-495h-198v396q0 74 -11 144t-41 113q-32 46 -92.5 70.5t-160.5 24.5q-106 0 -203.5 -19t-199.5 -53v-676z" />
    <glyph glyph-name="afii10061" unicode="&#x40c;" horiz-adv-x="1419" 
d="M1397 0h-254l-605 679h-135v-679h-198v1489h198v-668q51 1 96 10t85 34q40 23 79 65.5t69 104.5q13 27 30.5 68t35.5 86q69 166 161.5 233t272.5 67h79v-177h-83q-69 0 -108 -12.5t-70 -41.5q-29 -26 -50.5 -70t-44.5 -103q-52 -132 -105.5 -194t-143.5 -108zM1023 2029
l-273 -374h-149l179 374h243z" />
    <glyph glyph-name="afii10062" unicode="&#x40e;" horiz-adv-x="1260" 
d="M1254 1489l-566 -1253q-34 -76 -80.5 -125t-100.5 -76q-52 -25 -100.5 -33.5t-93.5 -8.5q-40 0 -97 4t-73 5v185h14q15 -2 50 -6.5t80 -4.5q20 0 56 3t64 14q32 12 63.5 38t53.5 76l36 79l-554 1103h219l435 -878l390 878h204zM1017 1935q-5 -166 -105.5 -250t-268.5 -84
t-268.5 84t-105.5 250h182q2 -112 50 -161.5t142 -49.5q95 0 142.5 49t49.5 162h182z" />
    <glyph glyph-name="afii10145" unicode="&#x40f;" horiz-adv-x="1539" 
d="M676 0h-476v1489h198v-1317h743v1317h198v-1489h-476v-337h-187v337z" />
    <glyph glyph-name="afii10017" unicode="&#x410;" horiz-adv-x="1400" 
d="M1374 0h-211l-146 415h-644l-146 -415h-201l542 1489h264zM956 585l-261 731l-262 -731h523z" />
    <glyph glyph-name="afii10018" unicode="&#x411;" horiz-adv-x="1404" 
d="M1324 461q0 -108 -42.5 -196t-113.5 -143q-84 -66 -180 -94t-248 -28h-540v1489h997v-176h-799v-408h348q152 0 248 -17.5t181 -83.5q76 -59 112.5 -146t36.5 -197zM1117 457q0 75 -25 132t-78 92q-55 37 -127 45t-203 8h-286v-565h281q133 0 204.5 13t125.5 50
q56 39 82 91.5t26 133.5z" />
    <glyph glyph-name="afii10019" unicode="&#x412;" horiz-adv-x="1404" 
d="M1323 458q0 -111 -42 -196t-113 -140q-84 -66 -184.5 -94t-255.5 -28h-528v1489h441q163 0 244 -12t155 -50q82 -43 119 -110.5t37 -161.5q0 -106 -54 -180.5t-144 -119.5v-8q151 -31 238 -132.5t87 -256.5zM990 1129q0 54 -18 91t-58 60q-47 27 -114 33.5t-166 6.5h-236
v-430h256q93 0 148 9.5t102 39.5t66.5 77.5t19.5 112.5zM1117 450q0 90 -27 143t-98 90q-48 25 -116.5 32.5t-166.5 7.5h-311v-554h262q130 0 213 13.5t136 49.5q56 39 82 89t26 129z" />
    <glyph glyph-name="afii10020" unicode="&#x413;" horiz-adv-x="1160" 
d="M1162 1313h-764v-1313h-198v1489h962v-176z" />
    <glyph glyph-name="afii10021" unicode="&#x414;" horiz-adv-x="1527" 
d="M1438 -337h-188v341h-1052v-341h-188v513h120q130 214 207.5 558.5t77.5 754.5h882v-1313h141v-513zM1099 176v1141h-498q-14 -357 -88 -653.5t-192 -487.5h778z" />
    <glyph glyph-name="afii10022" unicode="&#x415;" horiz-adv-x="1295" 
d="M1181 0h-981v1489h981v-176h-783v-408h783v-176h-783v-553h783v-176z" />
    <glyph glyph-name="afii10024" unicode="&#x416;" horiz-adv-x="1993" 
d="M1960 0h-242l-524 681h-105v-681h-196v681h-107l-524 -681h-230l593 766q-88 58 -140 136t-84 183q-19 61 -37.5 104.5t-46.5 71.5q-27 27 -68.5 39t-101.5 12h-60v177h71q167 0 256 -63.5t150 -236.5q11 -30 26 -74t30 -80q44 -105 115.5 -156t157.5 -59v669h196v-671
q92 6 164.5 55.5t118.5 161.5q18 44 32.5 86.5t23.5 67.5q60 172 150.5 236t255.5 64h71v-177h-60q-66 0 -103.5 -11.5t-67.5 -39.5q-29 -27 -47.5 -72.5t-37.5 -103.5q-42 -133 -104.5 -200.5t-124.5 -106.5z" />
    <glyph glyph-name="afii10025" unicode="&#x417;" horiz-adv-x="1261" 
d="M1046 717q48 -42 79.5 -106.5t31.5 -166.5q0 -105 -45.5 -190t-115.5 -145q-80 -68 -195 -102t-248 -34q-147 0 -272.5 27.5t-199.5 57.5v222h15q99 -59 223.5 -96.5t237.5 -37.5q72 0 156 21t136 62q54 45 78.5 100.5t24.5 124.5q0 79 -30 129.5t-81 81.5
q-51 30 -123.5 43.5t-161.5 13.5h-201v169h179q173 0 278 63.5t105 183.5q0 54 -26.5 95t-72.5 65q-45 24 -100.5 34.5t-131.5 10.5q-78 0 -144 -15t-125 -35q-48 -17 -98 -43t-73 -39h-13v219q75 32 199 59t250 27q123 0 211.5 -19.5t163.5 -63.5q78 -48 119 -116t41 -158
q0 -127 -81.5 -215t-206.5 -115v-15q52 -9 111 -32.5t106 -64.5z" />
    <glyph glyph-name="afii10026" unicode="&#x418;" horiz-adv-x="1537" 
d="M1337 0h-197v1193l-740 -1193h-200v1489h197v-1175l731 1175h209v-1489z" />
    <glyph glyph-name="afii10027" unicode="&#x419;" horiz-adv-x="1537" 
d="M1337 0h-197v1193l-740 -1193h-200v1489h197v-1175l731 1175h209v-1489zM1156 1935q-5 -166 -105.5 -250t-268.5 -84t-268.5 84t-105.5 250h182q2 -112 50 -161.5t142 -49.5q95 0 142.5 49t49.5 162h182z" />
    <glyph glyph-name="afii10028" unicode="&#x41a;" horiz-adv-x="1419" 
d="M1397 0h-254l-605 679h-135v-679h-198v1489h198v-668q51 1 96 10t85 34q40 23 79 65.5t69 104.5q13 27 30.5 68t35.5 86q69 166 161.5 233t272.5 67h79v-177h-83q-69 0 -108 -12.5t-70 -41.5q-29 -26 -50.5 -70t-44.5 -103q-52 -132 -105.5 -194t-143.5 -108z" />
    <glyph glyph-name="afii10029" unicode="&#x41b;" horiz-adv-x="1504" 
d="M1304 0h-198v1313h-538q-3 -113 -8.5 -221.5t-8.5 -193.5q-8 -214 -26.5 -352t-47.5 -227q-29 -90 -65.5 -143.5t-83.5 -96.5q-48 -44 -98.5 -63t-118.5 -19q-21 0 -51 1.5t-42 1.5v192h14q10 -1 25 -2t30 -1q36 0 68 11t54 34q71 71 104.5 234t47.5 464q5 98 10.5 260
t9.5 297h923v-1489z" />
    <glyph glyph-name="afii10030" unicode="&#x41c;" horiz-adv-x="1726" 
d="M1526 0h-198v1283l-414 -873h-118l-411 873v-1283h-185v1489h270l397 -829l384 829h275v-1489z" />
    <glyph glyph-name="afii10031" unicode="&#x41d;" horiz-adv-x="1539" 
d="M1339 0h-198v729h-743v-729h-198v1489h198v-584h743v584h198v-1489z" />
    <glyph glyph-name="afii10032" unicode="&#x41e;" horiz-adv-x="1612" 
d="M1310 1318q91 -100 139.5 -245t48.5 -329t-49.5 -329.5t-138.5 -242.5q-92 -101 -217.5 -152t-286.5 -51q-157 0 -285.5 52t-218.5 151t-138.5 243t-48.5 329q0 182 48 326.5t140 247.5q88 98 218.5 150t284.5 52q160 0 287.5 -52.5t216.5 -149.5zM1292 744
q0 290 -130 447.5t-355 157.5q-227 0 -356.5 -157.5t-129.5 -447.5q0 -293 132 -448.5t354 -155.5t353.5 155.5t131.5 448.5z" />
    <glyph glyph-name="afii10033" unicode="&#x41f;" horiz-adv-x="1539" 
d="M1339 0h-198v1313h-743v-1313h-198v1489h1139v-1489z" />
    <glyph glyph-name="afii10034" unicode="&#x420;" horiz-adv-x="1235" 
d="M1174 1039q0 -99 -34.5 -183.5t-96.5 -146.5q-77 -77 -182 -115.5t-265 -38.5h-198v-555h-198v1489h404q134 0 227 -22.5t165 -70.5q85 -57 131.5 -142t46.5 -215zM968 1034q0 77 -27 134t-82 93q-48 31 -109.5 44.5t-155.5 13.5h-196v-595h167q120 0 195 21.5t122 68.5
q47 48 66.5 101t19.5 119z" />
    <glyph glyph-name="afii10035" unicode="&#x421;" horiz-adv-x="1430" 
d="M1350 108q-55 -24 -99.5 -45t-116.5 -44q-61 -19 -132.5 -32.5t-157.5 -13.5q-162 0 -294.5 45.5t-230.5 142.5q-96 95 -150 241.5t-54 340.5q0 184 52 329t150 245q95 97 229.5 148t298.5 51q120 0 239.5 -29t265.5 -102v-235h-15q-123 103 -244 150t-259 47
q-113 0 -203.5 -36.5t-161.5 -113.5q-69 -75 -107.5 -189.5t-38.5 -264.5q0 -157 42.5 -270t109.5 -184q70 -74 163.5 -109.5t197.5 -35.5q143 0 268 49t234 147h14v-232z" />
    <glyph glyph-name="afii10036" unicode="&#x422;" horiz-adv-x="1262" 
d="M1262 1313h-532v-1313h-198v1313h-532v176h1262v-176z" />
    <glyph glyph-name="afii10037" unicode="&#x423;" horiz-adv-x="1260" 
d="M1254 1489l-566 -1253q-34 -76 -80.5 -125t-100.5 -76q-52 -25 -100.5 -33.5t-93.5 -8.5q-40 0 -97 4t-73 5v185h14q15 -2 50 -6.5t80 -4.5q20 0 56 3t64 14q32 12 63.5 38t53.5 76l36 79l-554 1103h219l435 -878l390 878h204z" />
    <glyph glyph-name="afii10038" unicode="&#x424;" horiz-adv-x="1677" 
d="M1572 755q0 -140 -44.5 -248.5t-123.5 -181.5q-85 -79 -207 -125.5t-260 -49.5v-166h-197v166q-134 3 -257 48t-210 127q-79 74 -123.5 182t-44.5 248q0 136 43 238t119 178q81 81 202.5 128t270.5 51v155h197v-155q148 -3 271 -52t202 -127q75 -73 118.5 -177t43.5 -239
zM1366 763q0 99 -32 182t-91 140q-58 56 -129 82t-177 28v-890q94 2 171 30.5t127 75.5q65 60 98 147t33 205zM740 305v890q-106 -1 -177 -28t-129 -82t-90.5 -140t-32.5 -182q0 -112 33.5 -203t97.5 -149q49 -45 126.5 -75t171.5 -31z" />
    <glyph glyph-name="afii10039" unicode="&#x425;" horiz-adv-x="1403" 
d="M1336 1489l-514 -736l513 -753h-229l-406 613l-416 -613h-216l519 744l-507 745h228l401 -605l410 605h217z" />
    <glyph glyph-name="afii10040" unicode="&#x426;" horiz-adv-x="1559" 
d="M1282 0h-1082v1489h198v-1315h733v1315h198v-1315h141v-511h-188v337z" />
    <glyph glyph-name="afii10041" unicode="&#x427;" horiz-adv-x="1458" 
d="M1258 0h-198v630q-129 -40 -239.5 -61t-210.5 -21q-99 0 -185 24.5t-149 77.5t-98.5 135t-35.5 196v508h198v-409q0 -87 10 -147.5t45 -108.5q35 -47 92 -70.5t164 -23.5q113 0 220 20t189 50v689h198v-1489z" />
    <glyph glyph-name="afii10042" unicode="&#x428;" horiz-adv-x="2110" 
d="M1910 0h-1710v1489h198v-1317h558v1317h198v-1317h558v1317h198v-1489z" />
    <glyph glyph-name="afii10043" unicode="&#x429;" horiz-adv-x="2140" 
d="M1863 0h-1663v1489h198v-1317h558v1317h198v-1317h558v1317h198v-1317h141v-509h-188v337z" />
    <glyph glyph-name="afii10044" unicode="&#x42a;" horiz-adv-x="1604" 
d="M1317 457q0 75 -25 132t-78 92q-55 37 -127 45t-203 8h-276v-565h271q133 0 204.5 13t125.5 50q56 39 82 91.5t26 133.5zM1524 461q0 -108 -42.5 -196t-113.5 -143q-84 -66 -180 -94t-248 -28h-530v1313h-410v176h608v-584h338q152 0 248 -17.5t181 -83.5
q76 -59 112.5 -146t36.5 -197z" />
    <glyph glyph-name="afii10045" unicode="&#x42b;" horiz-adv-x="1885" 
d="M1107 457q0 75 -25 132t-78 92q-55 37 -127 45t-203 8h-276v-565h271q133 0 204.5 13t125.5 50q56 39 82 91.5t26 133.5zM1314 461q0 -108 -42.5 -196t-113.5 -143q-84 -66 -180 -94t-248 -28h-530v1489h198v-584h338q152 0 248 -17.5t181 -83.5q76 -59 112.5 -146
t36.5 -197zM1685 0h-198v1489h198v-1489z" />
    <glyph glyph-name="afii10046" unicode="&#x42c;" horiz-adv-x="1394" 
d="M1107 457q0 75 -25 132t-78 92q-55 37 -127 45t-203 8h-276v-565h271q133 0 204.5 13t125.5 50q56 39 82 91.5t26 133.5zM1314 461q0 -108 -42.5 -196t-113.5 -143q-84 -66 -180 -94t-248 -28h-530v1489h198v-584h338q152 0 248 -17.5t181 -83.5q76 -59 112.5 -146
t36.5 -197z" />
    <glyph glyph-name="afii10047" unicode="&#x42d;" horiz-adv-x="1436" 
d="M1121 1324q96 -96 148 -238t52 -336q0 -172 -52.5 -316.5t-151.5 -247.5q-102 -106 -238.5 -159.5t-299.5 -53.5q-141 0 -268 27t-214 64v219h16q81 -65 204.5 -103.5t264.5 -38.5q123 0 225 43.5t170 118.5q72 80 108.5 180.5t36.5 228.5h-813v173h803
q-14 119 -60 206.5t-117 144.5t-161 84.5t-192 27.5q-137 0 -257 -38.5t-207 -105.5h-17v220q93 39 220 65.5t260 26.5q172 0 307.5 -48t232.5 -144z" />
    <glyph glyph-name="afii10048" unicode="&#x42e;" horiz-adv-x="2118" 
d="M1797 744q0 296 -128.5 450.5t-347.5 154.5q-221 0 -350 -154t-129 -451q0 -293 129.5 -448.5t349.5 -155.5q219 0 347.5 155t128.5 449zM638 720h-240v-720h-198v1489h198v-596h249q36 301 217 464t456 163q319 0 501 -206.5t182 -569.5q0 -365 -184 -570t-499 -205
q-308 0 -491.5 196.5t-190.5 554.5z" />
    <glyph glyph-name="afii10049" unicode="&#x42f;" horiz-adv-x="1446" 
d="M1246 0h-198v592h-321l-445 -592h-238l478 622q-150 51 -232.5 157.5t-82.5 285.5q0 114 47.5 196.5t125.5 137.5q71 50 166 70t210 20h490v-1489zM1048 757v562h-302q-86 0 -138 -11t-95 -40q-46 -31 -72 -87t-26 -123q0 -80 18.5 -133t59.5 -94q45 -44 110 -59t151 -15
h294z" />
    <glyph glyph-name="afii10065" unicode="&#x430;" horiz-adv-x="1230" 
d="M1053 0h-187v119q-25 -17 -67.5 -47.5t-82.5 -48.5q-47 -23 -108 -38.5t-143 -15.5q-151 0 -256 100t-105 255q0 127 54.5 205.5t155.5 123.5q102 45 245 61t307 24v29q0 64 -22.5 106t-64.5 66q-40 23 -96 31t-117 8q-74 0 -165 -19.5t-188 -56.5h-10v191q55 15 159 33
t205 18q118 0 205.5 -19.5t151.5 -66.5q63 -46 96 -119t33 -181v-758zM866 275v311q-86 -5 -202.5 -15t-184.5 -29q-81 -23 -131 -71.5t-50 -133.5q0 -96 58 -144.5t177 -48.5q99 0 181 38.5t152 92.5z" />
    <glyph glyph-name="afii10066" unicode="&#x431;" horiz-adv-x="1258" 
d="M1006 952q70 -70 106 -169.5t36 -233.5q0 -250 -150 -415t-369 -165q-108 0 -199 36.5t-155 112.5q-80 95 -119.5 239.5t-39.5 352.5q0 75 7 152.5t32 185.5q20 93 58.5 179t91.5 139q72 73 189.5 117.5t311.5 61.5q79 7 147 11.5t122 8.5v-173q-66 -4 -130.5 -8
t-128.5 -10q-128 -11 -231.5 -42t-151.5 -80q-53 -53 -79.5 -138.5t-34.5 -162.5q75 54 164.5 90.5t190.5 36.5q94 0 181 -31t151 -95zM957 538q0 185 -89 276.5t-235 91.5q-87 0 -167 -27.5t-152 -73.5q-2 -25 -3.5 -58.5t-1.5 -61.5q0 -174 29 -282t82 -172
q46 -54 100 -76.5t116 -22.5q151 0 236 109t85 297z" />
    <glyph glyph-name="afii10067" unicode="&#x432;" horiz-adv-x="1218" 
d="M1107 338q0 -81 -32.5 -144t-89.5 -105q-64 -47 -139.5 -68t-198.5 -21h-462v1117h432q125 0 188.5 -8.5t119.5 -37.5q63 -33 92.5 -86t29.5 -125q0 -83 -47 -144t-121 -95v-10q99 -24 163.5 -92.5t64.5 -180.5zM854 831q0 36 -15.5 65t-47.5 45q-42 21 -94.5 23.5
t-129.5 2.5h-196v-306h235q74 0 109.5 5.5t71.5 27.5q38 24 52.5 56.5t14.5 80.5zM913 337q0 55 -18 89.5t-79 63.5q-38 18 -82 21.5t-122 3.5h-241v-365h178q112 0 172.5 7.5t104.5 32.5t65.5 61t21.5 86z" />
    <glyph glyph-name="afii10068" unicode="&#x433;" horiz-adv-x="965" 
d="M955 952h-582v-952h-188v1117h770v-165z" />
    <glyph glyph-name="afii10069" unicode="&#x434;" horiz-adv-x="1273" 
d="M1199 -268h-175v271h-840v-271h-175v428h121q117 193 174.5 445.5t57.5 511.5h702v-957h135v-428zM876 160v799h-337q-13 -251 -77 -458t-147 -341h561z" />
    <glyph glyph-name="afii10070" unicode="&#x435;" horiz-adv-x="1220" 
d="M1120 539h-823q0 -103 31 -179.5t85 -125.5q52 -48 123.5 -72t157.5 -24q114 0 229.5 45.5t164.5 89.5h10v-205q-95 -40 -194 -67t-208 -27q-278 0 -434 150.5t-156 427.5q0 274 149.5 435t393.5 161q226 0 348.5 -132t122.5 -375v-102zM937 683q-1 148 -74.5 229
t-223.5 81q-151 0 -240.5 -89t-101.5 -221h640z" />
    <glyph glyph-name="afii10072" unicode="&#x436;" horiz-adv-x="1634" 
d="M1586 0h-227l-358 510h-91v-510h-186v510h-81l-374 -510h-217l431 585q-49 26 -86.5 74t-68.5 145q-27 85 -64 118t-121 33h-53v162h69q124 0 199 -50t120 -175q9 -26 22.5 -59.5t23.5 -56.5q33 -76 84.5 -107.5t115.5 -35.5v484h186v-484q64 4 116.5 36t85.5 107
q11 25 24.5 58t21.5 58q44 123 118 174t199 51h69v-162h-53q-85 0 -122.5 -35t-62.5 -116q-28 -89 -66.5 -138.5t-83.5 -74.5z" />
    <glyph glyph-name="afii10073" unicode="&#x437;" horiz-adv-x="1074" 
d="M962 313q0 -94 -43.5 -159t-111.5 -105q-68 -39 -150 -57t-164 -18q-116 0 -221 22t-207 68v206h13q73 -64 186 -99t219 -35q50 0 103 9.5t92 30.5q42 24 67 57.5t25 91.5q0 60 -24.5 96t-66.5 54q-41 18 -99 22t-106 4h-163v162h113q40 0 104.5 3t104.5 16
q52 17 82.5 48t30.5 99q0 47 -24 77.5t-60 47.5q-37 17 -82.5 23t-80.5 6q-102 0 -200.5 -27.5t-165.5 -79.5h-13v207q83 27 178 44t190 17q78 0 155.5 -14t144.5 -48q66 -34 108 -92.5t42 -144.5q0 -88 -54.5 -154.5t-146.5 -95.5v-7q103 -25 164 -93.5t61 -181.5z" />
    <glyph glyph-name="afii10074" unicode="&#x438;" horiz-adv-x="1311" 
d="M1126 0h-186v839l-585 -839h-170v1117h186v-827l579 827h176v-1117z" />
    <glyph glyph-name="afii10075" unicode="&#x439;" horiz-adv-x="1311" 
d="M1126 0h-186v839l-585 -839h-170v1117h186v-827l579 827h176v-1117zM1019 1557q-5 -148 -93.5 -231t-257.5 -83t-257.5 83t-93.5 231h171q1 -105 46.5 -152t133.5 -47q89 0 134 46t46 153h171z" />
    <glyph glyph-name="afii10076" unicode="&#x43a;" horiz-adv-x="1212" 
d="M1193 0h-246l-464 512h-102v-512h-188v1117h188v-482q93 0 150 33.5t97 107.5q14 27 27.5 57.5t26.5 58.5q52 113 130 169t224 56h86v-162h-83q-79 0 -123.5 -33.5t-80.5 -117.5q-40 -94 -84.5 -140.5t-94.5 -70.5z" />
    <glyph glyph-name="afii10077" unicode="&#x43b;" horiz-adv-x="1271" 
d="M1086 0h-188v959h-417q-3 -83 -6 -160t-6 -139q-7 -167 -23 -266.5t-42 -165.5q-24 -62 -53.5 -100.5t-63.5 -69.5q-34 -30 -75.5 -45t-90.5 -15q-17 0 -49.5 1t-42.5 1v164h10q8 0 23 -1t25 -1q24 0 49.5 7t43.5 26q51 50 82 169t41 344q4 82 7.5 194.5t6.5 214.5h769
v-1117z" />
    <glyph glyph-name="afii10078" unicode="&#x43c;" horiz-adv-x="1426" 
d="M1241 0h-186v882l-278 -574h-140l-276 574v-882h-176v1117h227l304 -625l294 625h231v-1117z" />
    <glyph glyph-name="afii10079" unicode="&#x43d;" horiz-adv-x="1305" 
d="M1120 0h-188v503h-559v-503h-188v1117h188v-452h559v452h188v-1117z" />
    <glyph glyph-name="afii10080" unicode="&#x43e;" horiz-adv-x="1243" 
d="M1137 558q0 -273 -140 -431t-375 -158q-237 0 -376.5 158t-139.5 431t139.5 431.5t376.5 158.5q235 0 375 -158.5t140 -431.5zM943 558q0 217 -85 322.5t-236 105.5q-153 0 -237.5 -105.5t-84.5 -322.5q0 -210 85 -318.5t237 -108.5q150 0 235.5 107.5t85.5 319.5z" />
    <glyph glyph-name="afii10081" unicode="&#x43f;" horiz-adv-x="1305" 
d="M1120 0h-188v955h-559v-955h-188v1117h935v-1117z" />
    <glyph glyph-name="afii10082" unicode="&#x440;" horiz-adv-x="1276" 
d="M1168 572q0 -136 -39 -248.5t-110 -190.5q-66 -74 -155.5 -114.5t-189.5 -40.5q-87 0 -157.5 19t-143.5 59v-468h-188v1529h188v-117q75 63 168.5 105.5t199.5 42.5q202 0 314.5 -152.5t112.5 -423.5zM974 567q0 202 -69 302t-212 100q-81 0 -163 -35t-157 -92v-633
q80 -36 137.5 -49t130.5 -13q157 0 245 106t88 314z" />
    <glyph glyph-name="afii10083" unicode="&#x441;" horiz-adv-x="1094" 
d="M1021 70q-115 -54 -197.5 -74.5t-164.5 -20.5q-122 0 -224 35.5t-175 107.5t-113.5 182t-40.5 257q0 267 148 426.5t405 159.5q97 0 190.5 -27t171.5 -66v-209h-11q-93 71 -183.5 105t-175.5 34q-167 0 -258.5 -112t-91.5 -311t91 -309t259 -110q59 0 117.5 15t106.5 39
q38 19 78.5 45.5t56.5 39.5h11v-207z" />
    <glyph glyph-name="afii10084" unicode="&#x442;" horiz-adv-x="1016" 
d="M1006 952h-404v-952h-188v952h-404v165h996v-165z" />
    <glyph glyph-name="afii10085" unicode="&#x443;" horiz-adv-x="1212" 
d="M1151 1117l-652 -1529h-201l208 466l-445 1063h204l343 -828l346 828h197z" />
    <glyph glyph-name="afii10086" unicode="&#x444;" horiz-adv-x="1722" 
d="M1611 588q0 -149 -38 -263.5t-101 -188.5q-62 -74 -143 -113t-170 -39q-67 0 -116.5 23t-88.5 42v-461h-186v461q-61 -30 -100.5 -47.5t-123.5 -17.5q-193 0 -313 151t-120 420q0 141 39 251.5t102 185.5q61 73 143.5 111.5t164.5 38.5q60 0 109.5 -18.5t98.5 -48.5v481
h186v-481q46 27 108 47t125 20q198 0 311 -149.5t113 -404.5zM1418 567q0 191 -68 302t-204 111q-55 0 -92 -9t-100 -34v-745q47 -22 78.5 -34.5t89.5 -12.5q141 0 218.5 108.5t77.5 313.5zM768 192v745q-39 18 -79 30.5t-89 12.5q-135 0 -215.5 -103t-80.5 -313
q0 -195 71.5 -307t206.5 -112q53 0 98.5 14.5t87.5 32.5z" />
    <glyph glyph-name="afii10087" unicode="&#x445;" horiz-adv-x="1212" 
d="M1152 0h-237l-317 429l-319 -429h-219l436 557l-432 560h237l315 -422l316 422h220l-439 -550z" />
    <glyph glyph-name="afii10088" unicode="&#x446;" horiz-adv-x="1320" 
d="M1071 0h-886v1117h188v-955h550v955h188v-955h135v-430h-175v268z" />
    <glyph glyph-name="afii10089" unicode="&#x447;" horiz-adv-x="1240" 
d="M1055 0h-188v429q-91 -28 -174 -45t-181 -17q-180 0 -275 88.5t-95 255.5v406h188v-310q0 -64 8 -114.5t34 -87.5q26 -36 73 -55t131 -19q69 0 150 13.5t141 31.5v541h188v-1117z" />
    <glyph glyph-name="afii10090" unicode="&#x448;" horiz-adv-x="1794" 
d="M1609 0h-1424v1117h188v-955h430v955h188v-955h430v955h188v-1117z" />
    <glyph glyph-name="afii10091" unicode="&#x449;" horiz-adv-x="1818" 
d="M1569 0h-1384v1117h188v-955h430v955h188v-955h430v955h188v-955h135v-430h-175v268z" />
    <glyph glyph-name="afii10092" unicode="&#x44a;" horiz-adv-x="1312" 
d="M1026 343q0 51 -17.5 89.5t-57.5 62.5q-42 25 -95.5 30t-153.5 5h-176v-380h172q100 0 155 8.5t95 32.5q41 26 59.5 61.5t18.5 90.5zM1220 346q0 -81 -32.5 -147t-88.5 -107q-66 -50 -141 -71t-193 -21h-427v952h-328v165h516v-435h244q126 0 195.5 -13t138.5 -64
q58 -43 87 -110t29 -149z" />
    <glyph glyph-name="afii10093" unicode="&#x44b;" horiz-adv-x="1627" 
d="M873 343q0 51 -17.5 89.5t-57.5 62.5q-42 25 -95.5 30t-153.5 5h-176v-380h172q100 0 155 8.5t95 32.5q41 26 59.5 61.5t18.5 90.5zM1067 346q0 -81 -32.5 -147t-88.5 -107q-66 -50 -141 -71t-193 -21h-427v1117h188v-435h244q126 0 195.5 -13t138.5 -64q58 -43 87 -110
t29 -149zM1254 1117h188v-1117h-188v1117z" />
    <glyph glyph-name="afii10094" unicode="&#x44c;" horiz-adv-x="1169" 
d="M883 343q0 51 -17.5 89.5t-57.5 62.5q-42 25 -95.5 30t-153.5 5h-186v-380h182q100 0 155 8.5t95 32.5q41 26 59.5 61.5t18.5 90.5zM1077 346q0 -81 -32.5 -147t-88.5 -107q-66 -50 -141 -71t-193 -21h-437v1117h188v-435h254q126 0 195.5 -13t138.5 -64q58 -43 87 -110
t29 -149z" />
    <glyph glyph-name="afii10095" unicode="&#x44d;" horiz-adv-x="1120" 
d="M861 1005q73 -70 113 -175t40 -249q0 -278 -155.5 -442t-415.5 -164q-102 0 -197.5 24t-162.5 51v206h13q60 -47 159 -83.5t208 -36.5q157 0 255 96t110 282h-564v151h563q-20 158 -115 237.5t-237 79.5q-91 0 -181 -30.5t-177 -97.5h-13v206q63 25 160 54t200 29
q124 0 224 -34t173 -104z" />
    <glyph glyph-name="afii10096" unicode="&#x44e;" horiz-adv-x="1718" 
d="M1418 558q0 215 -83 321.5t-230 106.5q-153 0 -233.5 -111.5t-80.5 -316.5q0 -212 84 -319.5t230 -107.5t229.5 106.5t83.5 320.5zM605 506h-232v-506h-188v1117h188v-453h237q25 231 161.5 357.5t335.5 126.5q231 0 368 -158t137 -432q0 -271 -135 -430t-370 -159
q-222 0 -355.5 144t-146.5 393z" />
    <glyph glyph-name="afii10097" unicode="&#x44f;" horiz-adv-x="1228" 
d="M1043 0h-188v443h-221l-346 -443h-221l376 461q-145 40 -212 122.5t-67 216.5q0 89 40 151t101 101q60 38 138 51.5t170 13.5h430v-1117zM855 591v376h-237q-77 0 -111 -5t-74 -27q-39 -22 -57.5 -59.5t-18.5 -81.5q0 -55 11.5 -89t47.5 -64q37 -29 90 -39.5t118 -10.5
h231z" />
    <glyph glyph-name="afii10071" unicode="&#x451;" horiz-adv-x="1220" 
d="M1120 539h-823q0 -103 31 -179.5t85 -125.5q52 -48 123.5 -72t157.5 -24q114 0 229.5 45.5t164.5 89.5h10v-205q-95 -40 -194 -67t-208 -27q-278 0 -434 150.5t-156 427.5q0 274 149.5 435t393.5 161q226 0 348.5 -132t122.5 -375v-102zM937 683q-1 148 -74.5 229
t-223.5 81q-151 0 -240.5 -89t-101.5 -221h640zM951 1304h-199v195h199v-195zM538 1304h-199v195h199v-195z" />
    <glyph glyph-name="afii10099" unicode="&#x452;" horiz-adv-x="1296" 
d="M932.5 555.5q-0.5 37.5 -1.5 80.5q-1 80 -10.5 144t-34.5 105q-26 43 -70.5 63.5t-114.5 20.5q-80 0 -166 -38.5t-162 -96.5v-834h-188v1268h-166v134h166v154h188v-154h321v-134h-321v-275q88 73 184.5 114t194.5 41q177 0 270.5 -111t96.5 -312q0 -47 1.5 -100.5
t1.5 -128.5q0 -58 -1 -114t-2 -114q-3 -176 -45 -304.5t-113 -208.5q-70 -80 -162.5 -119t-198.5 -39h-35t-54 2v158h68q187 0 265 123t87 459q1 34 1.5 71.5t0.5 83.5q0 24 -0.5 61.5z" />
    <glyph glyph-name="afii10100" unicode="&#x453;" horiz-adv-x="965" 
d="M955 952h-582v-952h-188v1117h770v-165zM861 1666l-273 -374h-149l179 374h243z" />
    <glyph glyph-name="afii10101" unicode="&#x454;" horiz-adv-x="1120" 
d="M1034 48q-78 -32 -157.5 -52.5t-202.5 -20.5q-125 0 -229.5 35.5t-180.5 107.5q-76 73 -117 183t-41 256q0 261 149.5 423.5t418.5 162.5q104 0 197.5 -27t162.5 -59v-203h-12q-64 50 -161 89t-198 39q-143 0 -242.5 -78t-124.5 -239h572v-151h-575q10 -178 108 -278
t262 -100q108 0 202.5 34t156.5 84h12v-206z" />
    <glyph glyph-name="afii10102" unicode="&#x455;" horiz-adv-x="1067" 
d="M983 322q0 -153 -126.5 -251t-345.5 -98q-124 0 -227.5 29.5t-173.5 64.5v211h10q89 -67 198 -106.5t209 -39.5q124 0 194 40t70 126q0 66 -38 100t-146 58q-40 9 -104.5 21t-117.5 26q-147 39 -208.5 114.5t-61.5 185.5q0 69 28.5 130t86.5 109q56 47 142.5 74.5
t193.5 27.5q100 0 202.5 -24.5t170.5 -59.5v-201h-10q-72 53 -175 89.5t-202 36.5q-103 0 -174 -39.5t-71 -117.5q0 -69 43 -104q42 -35 136 -57q52 -12 116.5 -24t107.5 -22q131 -30 202 -103q71 -74 71 -196z" />
    <glyph glyph-name="afii10103" unicode="&#x456;" horiz-adv-x="562" 
d="M387 1304h-212v195h212v-195zM375 0h-188v1117h188v-1117z" />
    <glyph glyph-name="afii10104" unicode="&#x457;" horiz-adv-x="562" 
d="M557 1304h-189v195h189v-195zM194 1304h-189v195h189v-195zM375 0h-188v1117h188v-1117z" />
    <glyph glyph-name="afii10105" unicode="&#x458;" horiz-adv-x="705" 
d="M533 1304h-212v195h212v-195zM521 -27q0 -196 -100 -296t-268 -100q-40 0 -105.5 8t-109.5 20v179h10q28 -11 75.5 -25t92.5 -14q72 0 116 20t66 60t28.5 96.5t6.5 137.5v900h-233v158h421v-1144z" />
    <glyph glyph-name="afii10106" unicode="&#x459;" horiz-adv-x="1872" 
d="M1586 343q0 51 -17.5 89.5t-57.5 62.5q-42 25 -95.5 30t-153.5 5h-176v-380h172q100 0 155 8.5t95 32.5q41 26 59.5 61.5t18.5 90.5zM1780 346q0 -81 -32.5 -147t-88.5 -107q-66 -50 -141 -71t-193 -21h-427v959h-417q-3 -83 -6 -160t-6 -139q-7 -167 -23 -266.5
t-42 -165.5q-24 -62 -53.5 -100.5t-63.5 -69.5q-34 -30 -75.5 -45t-90.5 -15q-17 0 -49.5 1t-42.5 1v164h10q8 0 23 -1t25 -1q24 0 49.5 7t43.5 26q51 50 82 169t41 344q4 82 7.5 194.5t6.5 214.5h769v-435h244q126 0 195.5 -13t138.5 -64q58 -43 87 -110t29 -149z" />
    <glyph glyph-name="afii10107" unicode="&#x45a;" horiz-adv-x="1872" 
d="M1586 343q0 51 -17.5 89.5t-57.5 62.5q-42 25 -95.5 30t-153.5 5h-176v-380h172q100 0 155 8.5t95 32.5q41 26 59.5 61.5t18.5 90.5zM1780 346q0 -81 -32.5 -147t-88.5 -107q-66 -50 -141 -71t-193 -21h-427v528h-525v-528h-188v1117h188v-435h525v435h188v-435h244
q126 0 195.5 -13t138.5 -64q58 -43 87 -110t29 -149z" />
    <glyph glyph-name="afii10108" unicode="&#x45b;" horiz-adv-x="1296" 
d="M1119 0h-188v636q0 77 -9 144.5t-33 105.5q-25 42 -72 62.5t-122 20.5q-77 0 -161 -38t-161 -97v-834h-188v1268h-166v134h166v154h188v-154h321v-134h-321v-275q88 73 182 114t193 41q181 0 276 -109t95 -314v-725z" />
    <glyph glyph-name="afii10109" unicode="&#x45c;" horiz-adv-x="1212" 
d="M1193 0h-246l-464 512h-102v-512h-188v1117h188v-482q93 0 150 33.5t97 107.5q14 27 27.5 57.5t26.5 58.5q52 113 130 169t224 56h86v-162h-83q-79 0 -123.5 -33.5t-80.5 -117.5q-40 -94 -84.5 -140.5t-94.5 -70.5zM956 1666l-273 -374h-149l179 374h243z" />
    <glyph glyph-name="afii10110" unicode="&#x45e;" horiz-adv-x="1212" 
d="M1151 1117l-652 -1529h-201l208 466l-445 1063h204l343 -828l346 828h197zM962 1557q-5 -148 -93.5 -231t-257.5 -83t-257.5 83t-93.5 231h171q1 -105 46.5 -152t133.5 -47q89 0 134 46t46 153h171z" />
    <glyph glyph-name="afii10193" unicode="&#x45f;" horiz-adv-x="1305" 
d="M1120 0h-380v-268h-174v268h-381v1117h188v-956h559v956h188v-1117z" />
    <glyph glyph-name="afii10050" unicode="&#x490;" horiz-adv-x="1160" 
d="M398 1313v-1313h-198v1489h776v410h186v-586h-764z" />
    <glyph glyph-name="afii10098" unicode="&#x491;" horiz-adv-x="965" 
d="M373 952v-952h-188v1117h596v369h174v-534h-582z" />
    <glyph glyph-name="afii00208" unicode="&#x2015;" horiz-adv-x="2048" 
d="M1845 572h-1642v160h1642v-160z" />
    <glyph glyph-name="afii61352" unicode="&#x2116;" horiz-adv-x="2400" 
d="M1279 0h-245l-654 1332v-1332h-180v1489h307l592 -1216v1216h180v-1489zM2233 1076q0 -224 -94.5 -333t-272.5 -109q-182 0 -275 109t-93 332q0 224 95 333t273 109q181 0 274 -110t93 -331zM2055 1076q0 172 -44 240t-145 68q-103 0 -146.5 -68t-43.5 -241t43.5 -240.5
t146.5 -67.5q101 0 145 67.5t44 241.5zM1641 366h440v-158h-440v158z" />
    <glyph glyph-name="pi" unicode="&#x3c0;" horiz-adv-x="1305" 
d="M1120 0h-188v955h-559v-955h-188v1117h935v-1117z" />
    <glyph glyph-name="glyph571" horiz-adv-x="1110" 
d="M655 565h-165v681h-209v117q102 0 165 22t72 108h137v-928z" />
    <glyph glyph-name="glyph572" horiz-adv-x="1110" 
d="M927 573h-688v148q91 69 158 121t106 89q109 103 141 157.5t32 136.5q0 70 -44 107t-120 37q-70 0 -141.5 -30t-112.5 -62h-15v179q65 27 140.5 44t152.5 17q157 0 241.5 -79t84.5 -201q0 -93 -41 -167t-147 -168q-49 -43 -119.5 -96t-125.5 -94h498v-139z" />
    <glyph glyph-name="glyph573" horiz-adv-x="1110" 
d="M883 826q0 -71 -30 -127t-78 -90q-53 -37 -114.5 -53t-140.5 -16q-82 0 -153.5 15t-136.5 43v175h17q37 -35 114 -64.5t156 -29.5q84 0 139 36.5t55 108.5q0 83 -50 112.5t-141 29.5h-140v139h125q87 0 134.5 38t47.5 104q0 60 -41 95.5t-128 35.5q-66 0 -142.5 -31
t-113.5 -66h-17v175q64 27 139 44t154 17q152 0 237 -70t85 -168q0 -87 -48.5 -143.5t-125.5 -82.5v-8q80 -16 138.5 -70.5t58.5 -148.5z" />
    <glyph glyph-name="uni2074" unicode="&#x2074;" horiz-adv-x="1110" 
d="M957 793h-163v-220h-150v220h-465v185l466 539h149v-591h163v-133zM648 926v400l-353 -400h353z" />
    <glyph glyph-name="uni2075" unicode="&#x2075;" horiz-adv-x="1110" 
d="M885 867q0 -69 -25 -130t-72 -103q-48 -43 -116 -68.5t-155 -25.5q-78 0 -152.5 14t-134.5 40v159h16q37 -20 110 -47t151 -27q44 0 85 11.5t69 39.5q29 29 40.5 62.5t11.5 72.5q0 42 -15.5 70.5t-44.5 48.5q-30 21 -74.5 29.5t-97.5 8.5q-59 0 -113 -7t-92 -13v496h597
v-139h-440v-207q20 2 44.5 3t38.5 1q84 0 143 -11.5t111 -45.5q55 -36 85 -91.5t30 -140.5z" />
    <glyph glyph-name="uni2077" unicode="&#x2077;" horiz-adv-x="1110" 
d="M933 1358l-470 -793h-185l496 794h-531v139h690v-140z" />
    <glyph glyph-name="uni2078" unicode="&#x2078;" horiz-adv-x="1110" 
d="M913 821q0 -121 -101.5 -201.5t-256.5 -80.5q-167 0 -262.5 79.5t-95.5 199.5q0 79 47 139t136 98v4q-82 41 -117 91t-35 121q0 106 92.5 176.5t236.5 70.5q149 0 239.5 -67.5t90.5 -171.5q0 -63 -40 -125.5t-122 -97.5v-4q97 -39 142.5 -92.5t45.5 -138.5zM723 1262
q0 51 -43.5 87t-122.5 36q-70 0 -116.5 -31.5t-46.5 -85.5q0 -38 24 -68.5t69 -50.5q23 -10 59 -25.5t82 -26.5q57 37 76 76.5t19 88.5zM747 822q0 50 -27.5 79.5t-93.5 59.5q-23 10 -67 24t-86 29q-58 -32 -86 -78.5t-28 -94.5q0 -74 59 -121.5t139 -47.5q81 0 135.5 39
t54.5 111z" />
    <glyph glyph-name="glyph578" 
 />
    <glyph glyph-name="glyph579" 
 />
    <glyph glyph-name="glyph580" 
 />
    <glyph glyph-name="glyph581" 
 />
    <glyph glyph-name="Ohorn" unicode="&#x1a0;" horiz-adv-x="1652" 
d="M1441 1097q31 -88 44 -171t13 -182q0 -184 -49.5 -329.5t-138.5 -242.5q-92 -101 -217.5 -152t-286.5 -51q-157 0 -285.5 52t-218.5 151t-138.5 243t-48.5 329q0 182 48 326.5t140 247.5q88 98 218.5 150t284.5 52q160 0 287.5 -52.5t216.5 -149.5q24 -27 36.5 -43.5
t32.5 -49.5q79 4 112.5 36t33.5 100q0 36 -11 81.5t-23 68.5v9h160q13 -47 18.5 -82t5.5 -85q0 -108 -60 -173t-174 -83zM1292 744q0 290 -130 447.5t-355 157.5q-227 0 -356.5 -157.5t-129.5 -447.5q0 -293 132 -448.5t354 -155.5t353.5 155.5t131.5 448.5z" />
    <glyph glyph-name="ohorn" unicode="&#x1a1;" horiz-adv-x="1243" 
d="M1137 558q0 -273 -140 -431t-375 -158q-237 0 -376.5 158t-139.5 431t139.5 431.5t376.5 158.5q51 0 99 -7.5t91 -23.5h93q90 0 127 32.5t37 103.5q0 36 -11 81.5t-23 68.5v9h160q13 -47 18.5 -82t5.5 -85q0 -106 -57.5 -170t-165.5 -84q69 -77 105 -185.5t36 -247.5z
M943 558q0 217 -85 322.5t-236 105.5q-153 0 -237.5 -105.5t-84.5 -322.5q0 -210 85 -318.5t237 -108.5q150 0 235.5 107.5t85.5 319.5z" />
    <glyph glyph-name="Uhorn" unicode="&#x1af;" horiz-adv-x="1549" 
d="M1321 598q0 -162 -35.5 -282.5t-116.5 -200.5q-77 -76 -180 -111t-240 -35q-140 0 -244 37t-175 109q-81 82 -116.5 198t-35.5 285v891h198v-901q0 -121 16.5 -191t55.5 -127q44 -65 119.5 -98t181.5 -33q107 0 182 32.5t120 98.5q39 57 55.5 130.5t16.5 182.5v906h216
q90 0 127 32.5t37 103.5q0 36 -11 81.5t-23 68.5v9h160q13 -47 18.5 -82t5.5 -85q0 -131 -86 -197t-246 -66v-756z" />
    <glyph glyph-name="uhorn" unicode="&#x1b0;" horiz-adv-x="1351" 
d="M1111 0h-188v124q-95 -75 -182 -115t-192 -40q-176 0 -274 107.5t-98 315.5v725h188v-636q0 -85 8 -145.5t34 -103.5q27 -44 70 -64t125 -20q73 0 159.5 38t161.5 97v834h208q90 0 127 32.5t37 103.5q0 36 -11 81.5t-23 68.5v9h160q13 -47 18.5 -82t5.5 -85
q0 -131 -86 -197t-246 -66h-2v-982z" />
    <glyph glyph-name="hookabovecomb" unicode="&#x309;" 
d="M-387 1528q0 -64 -33 -103t-99 -60v-68h-110v121q47 12 71 31.5t24 58.5q0 24 -19 43.5t-52 19.5q-31 0 -49.5 -4.5t-42.5 -13.5h-3v105q19 6 55.5 12t74.5 6q81 0 132 -43t51 -105z" />
    <glyph glyph-name="dotbelowcomb" unicode="&#x323;" 
d="M-533 -382h-212v195h212v-195z" />
    <glyph glyph-name="gravecomb" unicode="&#x300;" 
d="M-478 1302h-149l-273 374h243z" />
    <glyph glyph-name="acutecomb" unicode="&#x301;" 
d="M-337 1676l-273 -374h-149l179 374h243z" />
    <glyph glyph-name="glyph590" horiz-adv-x="1302" 
d="M993 1297h-159l-185 256l-184 -256h-155l228 379h227zM1300 1676l-218 -266h-129l124 266h223z" />
    <glyph glyph-name="glyph591" horiz-adv-x="1302" 
d="M993 1297h-159l-185 256l-184 -256h-155l228 379h227zM350 1410h-129l-218 266h223z" />
    <glyph glyph-name="glyph592" horiz-adv-x="1302" 
d="M993 1297h-159l-185 256l-184 -256h-155l228 379h227zM1216 1726q0 -64 -33 -103t-99 -60v-68h-110v121q47 12 71 31.5t24 58.5q0 24 -19 43.5t-52 19.5q-31 0 -49.5 -4.5t-42.5 -13.5h-3v105q19 6 55.5 12t74.5 6q81 0 132 -43t51 -105z" />
    <glyph glyph-name="glyph593" horiz-adv-x="1302" 
d="M993 1297h-159l-185 256l-184 -256h-155l228 379h227zM1011 2014q-6 -137 -73 -209t-162 -72q-53 0 -89.5 20.5t-64.5 45.5q-24 22 -53 44.5t-54 22.5q-43 0 -60 -31t-22 -102h-140q5 136 72.5 208.5t162.5 72.5q54 0 90.5 -21t64.5 -46q22 -20 51.5 -43t54.5 -23
q42 0 60 31t22 102h140z" />
    <glyph glyph-name="glyph594" horiz-adv-x="1302" 
d="M981 1606q0 -163 -89 -257t-241 -94q-151 0 -240 94t-89 257h162q0 -124 42.5 -174t124.5 -50q83 0 125.5 50t42.5 174h162zM913 1787l-218 -266h-129l124 266h223z" />
    <glyph glyph-name="glyph595" horiz-adv-x="1302" 
d="M981 1606q0 -163 -89 -257t-241 -94q-151 0 -240 94t-89 257h162q0 -124 42.5 -174t124.5 -50q83 0 125.5 50t42.5 174h162zM737 1521h-129l-218 266h223z" />
    <glyph glyph-name="glyph596" horiz-adv-x="1302" 
d="M981 1606q0 -163 -89 -257t-241 -94q-151 0 -240 94t-89 257h162q0 -124 42.5 -174t124.5 -50q83 0 125.5 50t42.5 174h162zM801 1697q0 -52 -27.5 -85.5t-82.5 -51.5v-56h-92v101q39 10 59 26.5t20 48.5q0 25 -17 39.5t-42 14.5q-28 0 -43 -4t-35 -11h-2v87q16 6 46 11
t63 5q66 0 109.5 -34.5t43.5 -90.5z" />
    <glyph glyph-name="glyph597" horiz-adv-x="1302" 
d="M981 1606q0 -163 -89 -257t-241 -94q-151 0 -240 94t-89 257h162q0 -124 42.5 -174t124.5 -50q83 0 125.5 50t42.5 174h162zM1011 2014q-6 -137 -73 -209t-162 -72q-53 0 -89.5 20.5t-64.5 45.5q-24 22 -53 44.5t-54 22.5q-43 0 -60 -31t-22 -102h-140q5 136 72.5 208.5
t162.5 72.5q54 0 90.5 -21t64.5 -46q22 -20 51.5 -43t54.5 -23q42 0 60 31t22 102h140z" />
    <glyph glyph-name="glyph598" horiz-adv-x="1302" 
d="M834 1528q0 -64 -33 -103t-99 -60v-68h-110v121q47 12 71 31.5t24 58.5q0 24 -19 43.5t-52 19.5q-31 0 -49.5 -4.5t-42.5 -13.5h-3v105q19 6 55.5 12t74.5 6q81 0 132 -43t51 -105z" />
    <glyph glyph-name="glyph599" horiz-adv-x="1302" 
d="M993 1620h-169l-175 89l-174 -89h-165l248 173h187zM981 2049q-11 -82 -67 -135.5t-136 -53.5q-37 0 -73.5 12.5t-64.5 25.5q-27 13 -58 26t-51 13q-29 0 -49 -16t-26 -61h-134q10 78 65.5 133.5t137.5 55.5q39 0 72.5 -11.5t66.5 -27.5q34 -16 58 -27t50 -11
q27 0 48.5 17.5t26.5 59.5h134z" />
    <glyph glyph-name="glyph600" horiz-adv-x="1302" 
d="M981 1848q0 -88 -85.5 -164t-243.5 -76t-244 76.5t-86 163.5h162q0 -48 37.5 -92t130.5 -44q90 0 128.5 44.5t38.5 91.5h162zM898 2049l-198 -216h-129l104 216h223z" />
    <glyph glyph-name="glyph601" horiz-adv-x="1302" 
d="M981 1848q0 -88 -85.5 -164t-243.5 -76t-244 76.5t-86 163.5h162q0 -48 37.5 -92t130.5 -44q90 0 128.5 44.5t38.5 91.5h162zM733 1833h-129l-198 216h223z" />
    <glyph glyph-name="glyph602" horiz-adv-x="1302" 
d="M981 1848q0 -88 -85.5 -164t-243.5 -76t-244 76.5t-86 163.5h162q0 -48 37.5 -92t130.5 -44q90 0 128.5 44.5t38.5 91.5h162zM773 1945q0 -43 -23 -71t-69 -43v-47h-77v84q35 9 50.5 24t15.5 39q0 23 -14 34t-35 11q-25 0 -38 -4t-27 -9h-2v73q14 5 39 9t52 4
q54 0 91 -28.5t37 -75.5z" />
    <glyph glyph-name="glyph603" horiz-adv-x="1302" 
d="M981 1798q0 -84 -87 -137t-242 -53t-242.5 51.5t-87.5 138.5h162q0 -46 54 -66t114 -20t113.5 20t53.5 66h162zM981 2049q-11 -82 -67 -135.5t-136 -53.5q-37 0 -73.5 12.5t-64.5 25.5q-27 13 -58 26t-51 13q-29 0 -49 -16t-26 -61h-134q10 78 65.5 133.5t137.5 55.5
q39 0 72.5 -11.5t66.5 -27.5q34 -16 58 -27t50 -11q27 0 48.5 17.5t26.5 59.5h134z" />
    <glyph glyph-name="glyph604" horiz-adv-x="1302" 
d="M993 1640h-159l-185 206l-184 -206h-155l228 329h227zM1296 1901q0 -64 -33 -103t-99 -60v-68h-110v121q47 12 71 31.5t24 58.5q0 24 -19 43.5t-52 19.5q-31 0 -49.5 -4.5t-42.5 -13.5h-3v105q19 6 55.5 12t74.5 6q81 0 132 -43t51 -105z" />
    <glyph glyph-name="uni1EA0" unicode="&#x1ea0;" horiz-adv-x="1400" 
d="M1374 0h-211l-146 415h-644l-146 -415h-201l542 1489h264zM956 585l-261 731l-262 -731h523zM801 -382h-212v195h212v-195z" />
    <glyph glyph-name="uni1EA1" unicode="&#x1ea1;" horiz-adv-x="1230" 
d="M1053 0h-187v119q-25 -17 -67.5 -47.5t-82.5 -48.5q-47 -23 -108 -38.5t-143 -15.5q-151 0 -256 100t-105 255q0 127 54.5 205.5t155.5 123.5q102 45 245 61t307 24v29q0 64 -22.5 106t-64.5 66q-40 23 -96 31t-117 8q-74 0 -165 -19.5t-188 -56.5h-10v191q55 15 159 33
t205 18q118 0 205.5 -19.5t151.5 -66.5q63 -46 96 -119t33 -181v-758zM866 275v311q-86 -5 -202.5 -15t-184.5 -29q-81 -23 -131 -71.5t-50 -133.5q0 -96 58 -144.5t177 -48.5q99 0 181 38.5t152 92.5zM637 -382h-212v195h212v-195z" />
    <glyph glyph-name="uni1EA2" unicode="&#x1ea2;" horiz-adv-x="1400" 
d="M1374 0h-211l-146 415h-644l-146 -415h-201l542 1489h264zM956 585l-261 731l-262 -731h523zM881 1901q0 -64 -33 -103t-99 -60v-68h-110v121q47 12 71 31.5t24 58.5q0 24 -19 43.5t-52 19.5q-31 0 -49.5 -4.5t-42.5 -13.5h-3v105q19 6 55.5 12t74.5 6q81 0 132 -43
t51 -105z" />
    <glyph glyph-name="uni1EA3" unicode="&#x1ea3;" horiz-adv-x="1230" 
d="M1053 0h-187v119q-25 -17 -67.5 -47.5t-82.5 -48.5q-47 -23 -108 -38.5t-143 -15.5q-151 0 -256 100t-105 255q0 127 54.5 205.5t155.5 123.5q102 45 245 61t307 24v29q0 64 -22.5 106t-64.5 66q-40 23 -96 31t-117 8q-74 0 -165 -19.5t-188 -56.5h-10v191q55 15 159 33
t205 18q118 0 205.5 -19.5t151.5 -66.5q63 -46 96 -119t33 -181v-758zM866 275v311q-86 -5 -202.5 -15t-184.5 -29q-81 -23 -131 -71.5t-50 -133.5q0 -96 58 -144.5t177 -48.5q99 0 181 38.5t152 92.5zM783 1528q0 -64 -33 -103t-99 -60v-68h-110v121q47 12 71 31.5t24 58.5
q0 24 -19 43.5t-52 19.5q-31 0 -49.5 -4.5t-42.5 -13.5h-3v105q19 6 55.5 12t74.5 6q81 0 132 -43t51 -105z" />
    <glyph glyph-name="uni1EA4" unicode="&#x1ea4;" horiz-adv-x="1400" 
d="M1374 0h-211l-146 415h-644l-146 -415h-201l542 1489h264zM956 585l-261 731l-262 -731h523zM1040 1650h-159l-185 256l-184 -256h-155l228 379h227zM1347 2029l-218 -266h-129l124 266h223z" />
    <glyph glyph-name="uni1EA5" unicode="&#x1ea5;" horiz-adv-x="1230" 
d="M1053 0h-187v119q-25 -17 -67.5 -47.5t-82.5 -48.5q-47 -23 -108 -38.5t-143 -15.5q-151 0 -256 100t-105 255q0 127 54.5 205.5t155.5 123.5q102 45 245 61t307 24v29q0 64 -22.5 106t-64.5 66q-40 23 -96 31t-117 8q-74 0 -165 -19.5t-188 -56.5h-10v191q55 15 159 33
t205 18q118 0 205.5 -19.5t151.5 -66.5q63 -46 96 -119t33 -181v-758zM866 275v311q-86 -5 -202.5 -15t-184.5 -29q-81 -23 -131 -71.5t-50 -133.5q0 -96 58 -144.5t177 -48.5q99 0 181 38.5t152 92.5zM961 1297h-159l-185 256l-184 -256h-155l228 379h227zM1268 1676
l-218 -266h-129l124 266h223z" />
    <glyph glyph-name="uni1EA6" unicode="&#x1ea6;" horiz-adv-x="1400" 
d="M1374 0h-211l-146 415h-644l-146 -415h-201l542 1489h264zM956 585l-261 731l-262 -731h523zM1040 1650h-159l-185 256l-184 -256h-155l228 379h227zM397 1763h-129l-218 266h223z" />
    <glyph glyph-name="uni1EA7" unicode="&#x1ea7;" horiz-adv-x="1230" 
d="M1053 0h-187v119q-25 -17 -67.5 -47.5t-82.5 -48.5q-47 -23 -108 -38.5t-143 -15.5q-151 0 -256 100t-105 255q0 127 54.5 205.5t155.5 123.5q102 45 245 61t307 24v29q0 64 -22.5 106t-64.5 66q-40 23 -96 31t-117 8q-74 0 -165 -19.5t-188 -56.5h-10v191q55 15 159 33
t205 18q118 0 205.5 -19.5t151.5 -66.5q63 -46 96 -119t33 -181v-758zM866 275v311q-86 -5 -202.5 -15t-184.5 -29q-81 -23 -131 -71.5t-50 -133.5q0 -96 58 -144.5t177 -48.5q99 0 181 38.5t152 92.5zM961 1297h-159l-185 256l-184 -256h-155l228 379h227zM318 1410h-129
l-218 266h223z" />
    <glyph glyph-name="uni1EA8" unicode="&#x1ea8;" horiz-adv-x="1400" 
d="M1374 0h-211l-146 415h-644l-146 -415h-201l542 1489h264zM956 585l-261 731l-262 -731h523zM1040 1640h-159l-185 206l-184 -206h-155l228 329h227zM1343 1901q0 -64 -33 -103t-99 -60v-68h-110v121q47 12 71 31.5t24 58.5q0 24 -19 43.5t-52 19.5q-31 0 -49.5 -4.5
t-42.5 -13.5h-3v105q19 6 55.5 12t74.5 6q81 0 132 -43t51 -105z" />
    <glyph glyph-name="uni1EA9" unicode="&#x1ea9;" horiz-adv-x="1230" 
d="M1053 0h-187v119q-25 -17 -67.5 -47.5t-82.5 -48.5q-47 -23 -108 -38.5t-143 -15.5q-151 0 -256 100t-105 255q0 127 54.5 205.5t155.5 123.5q102 45 245 61t307 24v29q0 64 -22.5 106t-64.5 66q-40 23 -96 31t-117 8q-74 0 -165 -19.5t-188 -56.5h-10v191q55 15 159 33
t205 18q118 0 205.5 -19.5t151.5 -66.5q63 -46 96 -119t33 -181v-758zM866 275v311q-86 -5 -202.5 -15t-184.5 -29q-81 -23 -131 -71.5t-50 -133.5q0 -96 58 -144.5t177 -48.5q99 0 181 38.5t152 92.5zM961 1297h-159l-185 256l-184 -256h-155l228 379h227zM1184 1726
q0 -64 -33 -103t-99 -60v-68h-110v121q47 12 71 31.5t24 58.5q0 24 -19 43.5t-52 19.5q-31 0 -49.5 -4.5t-42.5 -13.5h-3v105q19 6 55.5 12t74.5 6q81 0 132 -43t51 -105z" />
    <glyph glyph-name="uni1EAA" unicode="&#x1eaa;" horiz-adv-x="1400" 
d="M1374 0h-211l-146 415h-644l-146 -415h-201l542 1489h264zM956 585l-261 731l-262 -731h523zM1040 1620h-169l-175 89l-174 -89h-165l248 173h187zM1028 2049q-11 -82 -67 -135.5t-136 -53.5q-37 0 -73.5 12.5t-64.5 25.5q-27 13 -58 26t-51 13q-29 0 -49 -16t-26 -61
h-134q10 78 65.5 133.5t137.5 55.5q39 0 72.5 -11.5t66.5 -27.5q34 -16 58 -27t50 -11q27 0 48.5 17.5t26.5 59.5h134z" />
    <glyph glyph-name="uni1EAB" unicode="&#x1eab;" horiz-adv-x="1230" 
d="M1053 0h-187v119q-25 -17 -67.5 -47.5t-82.5 -48.5q-47 -23 -108 -38.5t-143 -15.5q-151 0 -256 100t-105 255q0 127 54.5 205.5t155.5 123.5q102 45 245 61t307 24v29q0 64 -22.5 106t-64.5 66q-40 23 -96 31t-117 8q-74 0 -165 -19.5t-188 -56.5h-10v191q55 15 159 33
t205 18q118 0 205.5 -19.5t151.5 -66.5q63 -46 96 -119t33 -181v-758zM866 275v311q-86 -5 -202.5 -15t-184.5 -29q-81 -23 -131 -71.5t-50 -133.5q0 -96 58 -144.5t177 -48.5q99 0 181 38.5t152 92.5zM961 1297h-159l-185 256l-184 -256h-155l228 379h227zM979 2014
q-6 -137 -73 -209t-162 -72q-53 0 -89.5 20.5t-64.5 45.5q-24 22 -53 44.5t-54 22.5q-43 0 -60 -31t-22 -102h-140q5 136 72.5 208.5t162.5 72.5q54 0 90.5 -21t64.5 -46q22 -20 51.5 -43t54.5 -23q42 0 60 31t22 102h140z" />
    <glyph glyph-name="uni1EAC" unicode="&#x1eac;" horiz-adv-x="1400" 
d="M1374 0h-211l-146 415h-644l-146 -415h-201l542 1489h264zM956 585l-261 731l-262 -731h523zM1040 1650h-159l-185 256l-184 -256h-155l228 379h227zM801 -382h-212v195h212v-195z" />
    <glyph glyph-name="uni1EAD" unicode="&#x1ead;" horiz-adv-x="1230" 
d="M1053 0h-187v119q-25 -17 -67.5 -47.5t-82.5 -48.5q-47 -23 -108 -38.5t-143 -15.5q-151 0 -256 100t-105 255q0 127 54.5 205.5t155.5 123.5q102 45 245 61t307 24v29q0 64 -22.5 106t-64.5 66q-40 23 -96 31t-117 8q-74 0 -165 -19.5t-188 -56.5h-10v191q55 15 159 33
t205 18q118 0 205.5 -19.5t151.5 -66.5q63 -46 96 -119t33 -181v-758zM866 275v311q-86 -5 -202.5 -15t-184.5 -29q-81 -23 -131 -71.5t-50 -133.5q0 -96 58 -144.5t177 -48.5q99 0 181 38.5t152 92.5zM961 1297h-159l-185 256l-184 -256h-155l228 379h227zM637 -382h-212
v195h212v-195z" />
    <glyph glyph-name="uni1EAE" unicode="&#x1eae;" horiz-adv-x="1400" 
d="M1374 0h-211l-146 415h-644l-146 -415h-201l542 1489h264zM956 585l-261 731l-262 -731h523zM1028 1848q0 -88 -85.5 -164t-243.5 -76t-244 76.5t-86 163.5h162q0 -48 37.5 -92t130.5 -44q90 0 128.5 44.5t38.5 91.5h162zM945 2049l-198 -216h-129l104 216h223z" />
    <glyph glyph-name="uni1EAF" unicode="&#x1eaf;" horiz-adv-x="1230" 
d="M1053 0h-187v119q-25 -17 -67.5 -47.5t-82.5 -48.5q-47 -23 -108 -38.5t-143 -15.5q-151 0 -256 100t-105 255q0 127 54.5 205.5t155.5 123.5q102 45 245 61t307 24v29q0 64 -22.5 106t-64.5 66q-40 23 -96 31t-117 8q-74 0 -165 -19.5t-188 -56.5h-10v191q55 15 159 33
t205 18q118 0 205.5 -19.5t151.5 -66.5q63 -46 96 -119t33 -181v-758zM866 275v311q-86 -5 -202.5 -15t-184.5 -29q-81 -23 -131 -71.5t-50 -133.5q0 -96 58 -144.5t177 -48.5q99 0 181 38.5t152 92.5zM949 1606q0 -163 -89 -257t-241 -94q-151 0 -240 94t-89 257h162
q0 -124 42.5 -174t124.5 -50q83 0 125.5 50t42.5 174h162zM881 1787l-218 -266h-129l124 266h223z" />
    <glyph glyph-name="uni1EB0" unicode="&#x1eb0;" horiz-adv-x="1400" 
d="M1374 0h-211l-146 415h-644l-146 -415h-201l542 1489h264zM956 585l-261 731l-262 -731h523zM1028 1848q0 -88 -85.5 -164t-243.5 -76t-244 76.5t-86 163.5h162q0 -48 37.5 -92t130.5 -44q90 0 128.5 44.5t38.5 91.5h162zM780 1833h-129l-198 216h223z" />
    <glyph glyph-name="uni1EB1" unicode="&#x1eb1;" horiz-adv-x="1230" 
d="M1053 0h-187v119q-25 -17 -67.5 -47.5t-82.5 -48.5q-47 -23 -108 -38.5t-143 -15.5q-151 0 -256 100t-105 255q0 127 54.5 205.5t155.5 123.5q102 45 245 61t307 24v29q0 64 -22.5 106t-64.5 66q-40 23 -96 31t-117 8q-74 0 -165 -19.5t-188 -56.5h-10v191q55 15 159 33
t205 18q118 0 205.5 -19.5t151.5 -66.5q63 -46 96 -119t33 -181v-758zM866 275v311q-86 -5 -202.5 -15t-184.5 -29q-81 -23 -131 -71.5t-50 -133.5q0 -96 58 -144.5t177 -48.5q99 0 181 38.5t152 92.5zM949 1606q0 -163 -89 -257t-241 -94q-151 0 -240 94t-89 257h162
q0 -124 42.5 -174t124.5 -50q83 0 125.5 50t42.5 174h162zM705 1521h-129l-218 266h223z" />
    <glyph glyph-name="uni1EB2" unicode="&#x1eb2;" horiz-adv-x="1400" 
d="M1374 0h-211l-146 415h-644l-146 -415h-201l542 1489h264zM956 585l-261 731l-262 -731h523zM1028 1848q0 -88 -85.5 -164t-243.5 -76t-244 76.5t-86 163.5h162q0 -48 37.5 -92t130.5 -44q90 0 128.5 44.5t38.5 91.5h162zM820 1945q0 -43 -23 -71t-69 -43v-47h-77v84
q35 9 50.5 24t15.5 39q0 23 -14 34t-35 11q-25 0 -38 -4t-27 -9h-2v73q14 5 39 9t52 4q54 0 91 -28.5t37 -75.5z" />
    <glyph glyph-name="uni1EB3" unicode="&#x1eb3;" horiz-adv-x="1230" 
d="M1053 0h-187v119q-25 -17 -67.5 -47.5t-82.5 -48.5q-47 -23 -108 -38.5t-143 -15.5q-151 0 -256 100t-105 255q0 127 54.5 205.5t155.5 123.5q102 45 245 61t307 24v29q0 64 -22.5 106t-64.5 66q-40 23 -96 31t-117 8q-74 0 -165 -19.5t-188 -56.5h-10v191q55 15 159 33
t205 18q118 0 205.5 -19.5t151.5 -66.5q63 -46 96 -119t33 -181v-758zM866 275v311q-86 -5 -202.5 -15t-184.5 -29q-81 -23 -131 -71.5t-50 -133.5q0 -96 58 -144.5t177 -48.5q99 0 181 38.5t152 92.5zM949 1606q0 -163 -89 -257t-241 -94q-151 0 -240 94t-89 257h162
q0 -124 42.5 -174t124.5 -50q83 0 125.5 50t42.5 174h162zM769 1697q0 -52 -27.5 -85.5t-82.5 -51.5v-56h-92v101q39 10 59 26.5t20 48.5q0 25 -17 39.5t-42 14.5q-28 0 -43 -4t-35 -11h-2v87q16 6 46 11t63 5q66 0 109.5 -34.5t43.5 -90.5z" />
    <glyph glyph-name="uni1EB4" unicode="&#x1eb4;" horiz-adv-x="1400" 
d="M1374 0h-211l-146 415h-644l-146 -415h-201l542 1489h264zM956 585l-261 731l-262 -731h523zM1028 1798q0 -84 -87 -137t-242 -53t-242.5 51.5t-87.5 138.5h162q0 -46 54 -66t114 -20t113.5 20t53.5 66h162zM1028 2049q-11 -82 -67 -135.5t-136 -53.5q-37 0 -73.5 12.5
t-64.5 25.5q-27 13 -58 26t-51 13q-29 0 -49 -16t-26 -61h-134q10 78 65.5 133.5t137.5 55.5q39 0 72.5 -11.5t66.5 -27.5q34 -16 58 -27t50 -11q27 0 48.5 17.5t26.5 59.5h134z" />
    <glyph glyph-name="uni1EB5" unicode="&#x1eb5;" horiz-adv-x="1230" 
d="M1053 0h-187v119q-25 -17 -67.5 -47.5t-82.5 -48.5q-47 -23 -108 -38.5t-143 -15.5q-151 0 -256 100t-105 255q0 127 54.5 205.5t155.5 123.5q102 45 245 61t307 24v29q0 64 -22.5 106t-64.5 66q-40 23 -96 31t-117 8q-74 0 -165 -19.5t-188 -56.5h-10v191q55 15 159 33
t205 18q118 0 205.5 -19.5t151.5 -66.5q63 -46 96 -119t33 -181v-758zM866 275v311q-86 -5 -202.5 -15t-184.5 -29q-81 -23 -131 -71.5t-50 -133.5q0 -96 58 -144.5t177 -48.5q99 0 181 38.5t152 92.5zM949 1606q0 -163 -89 -257t-241 -94q-151 0 -240 94t-89 257h162
q0 -124 42.5 -174t124.5 -50q83 0 125.5 50t42.5 174h162zM979 2014q-6 -137 -73 -209t-162 -72q-53 0 -89.5 20.5t-64.5 45.5q-24 22 -53 44.5t-54 22.5q-43 0 -60 -31t-22 -102h-140q5 136 72.5 208.5t162.5 72.5q54 0 90.5 -21t64.5 -46q22 -20 51.5 -43t54.5 -23
q42 0 60 31t22 102h140z" />
    <glyph glyph-name="uni1EB6" unicode="&#x1eb6;" horiz-adv-x="1400" 
d="M1374 0h-211l-146 415h-644l-146 -415h-201l542 1489h264zM956 585l-261 731l-262 -731h523zM1073 2049q-10 -168 -108.5 -275t-267.5 -107t-267.5 107t-107.5 275h166q12 -132 65.5 -192t144.5 -60q89 0 142.5 60t67.5 192h165zM801 -382h-212v195h212v-195z" />
    <glyph glyph-name="uni1EB7" unicode="&#x1eb7;" horiz-adv-x="1230" 
d="M1053 0h-187v119q-25 -17 -67.5 -47.5t-82.5 -48.5q-47 -23 -108 -38.5t-143 -15.5q-151 0 -256 100t-105 255q0 127 54.5 205.5t155.5 123.5q102 45 245 61t307 24v29q0 64 -22.5 106t-64.5 66q-40 23 -96 31t-117 8q-74 0 -165 -19.5t-188 -56.5h-10v191q55 15 159 33
t205 18q118 0 205.5 -19.5t151.5 -66.5q63 -46 96 -119t33 -181v-758zM866 275v311q-86 -5 -202.5 -15t-184.5 -29q-81 -23 -131 -71.5t-50 -133.5q0 -96 58 -144.5t177 -48.5q99 0 181 38.5t152 92.5zM991 1676q-10 -168 -108.5 -275t-267.5 -107t-267.5 107t-107.5 275
h166q12 -132 65.5 -192t144.5 -60q89 0 142.5 60t67.5 192h165zM637 -382h-212v195h212v-195z" />
    <glyph glyph-name="uni1EB8" unicode="&#x1eb8;" horiz-adv-x="1295" 
d="M1181 0h-981v1489h981v-176h-783v-408h783v-176h-783v-553h783v-176zM805 -382h-212v195h212v-195z" />
    <glyph glyph-name="uni1EB9" unicode="&#x1eb9;" horiz-adv-x="1220" 
d="M1120 539h-823q0 -103 31 -179.5t85 -125.5q52 -48 123.5 -72t157.5 -24q114 0 229.5 45.5t164.5 89.5h10v-205q-95 -40 -194 -67t-208 -27q-278 0 -434 150.5t-156 427.5q0 274 149.5 435t393.5 161q226 0 348.5 -132t122.5 -375v-102zM937 683q-1 148 -74.5 229
t-223.5 81q-151 0 -240.5 -89t-101.5 -221h640zM774 -382h-212v195h212v-195z" />
    <glyph glyph-name="uni1EBA" unicode="&#x1eba;" horiz-adv-x="1295" 
d="M1181 0h-981v1489h981v-176h-783v-408h783v-176h-783v-553h783v-176zM872 1901q0 -64 -33 -103t-99 -60v-68h-110v121q47 12 71 31.5t24 58.5q0 24 -19 43.5t-52 19.5q-31 0 -49.5 -4.5t-42.5 -13.5h-3v105q19 6 55.5 12t74.5 6q81 0 132 -43t51 -105z" />
    <glyph glyph-name="uni1EBB" unicode="&#x1ebb;" horiz-adv-x="1220" 
d="M1120 539h-823q0 -103 31 -179.5t85 -125.5q52 -48 123.5 -72t157.5 -24q114 0 229.5 45.5t164.5 89.5h10v-205q-95 -40 -194 -67t-208 -27q-278 0 -434 150.5t-156 427.5q0 274 149.5 435t393.5 161q226 0 348.5 -132t122.5 -375v-102zM937 683q-1 148 -74.5 229
t-223.5 81q-151 0 -240.5 -89t-101.5 -221h640zM840 1528q0 -64 -33 -103t-99 -60v-68h-110v121q47 12 71 31.5t24 58.5q0 24 -19 43.5t-52 19.5q-31 0 -49.5 -4.5t-42.5 -13.5h-3v105q19 6 55.5 12t74.5 6q81 0 132 -43t51 -105z" />
    <glyph glyph-name="uni1EBC" unicode="&#x1ebc;" horiz-adv-x="1295" 
d="M1181 0h-981v1489h981v-176h-783v-408h783v-176h-783v-553h783v-176zM1106 1992q-11 -152 -77 -229t-177 -77q-54 0 -100 19.5t-87 56.5q-47 43 -79.5 64.5t-71.5 21.5q-52 0 -78 -45t-30 -121h-131q8 151 79 228t174 77q50 0 96.5 -19.5t88.5 -55.5q47 -41 83.5 -61.5
t69.5 -20.5q51 0 79.5 46t31.5 116h129z" />
    </font>
</defs>
</svg>
