<?xml version="1.0" standalone="no"?>
<!DOCTYPE svg PUBLIC "-//W3C//DTD SVG 1.1//EN" "http://www.w3.org/Graphics/SVG/1.1/DTD/svg11.dtd" >
<svg xmlns="http://www.w3.org/2000/svg" xmlns:xlink="http://www.w3.org/1999/xlink" version="1.1">
<metadata>
Created by FontForge 20170910 at Tue Nov  6 10:22:44 2018
 By Jimmy Wärting
1.2, Copyright Copr. Castcraft Software, Inc. 1990.
</metadata>
<defs>
<font id="OPTICristeta-Italic" horiz-adv-x="683" >
  <font-face 
    font-family="OPTICristeta-Italic"
    font-weight="400"
    font-style="italic"
    font-stretch="normal"
    units-per-em="1000"
    panose-1="2 0 6 5 5 0 0 9 0 4"
    ascent="800"
    descent="-200"
    x-height="672"
    cap-height="836"
    bbox="-243.531 -200 1149 1202"
    underline-thickness="50"
    underline-position="-100"
    unicode-range="U+000D-221E"
  />
<missing-glyph horiz-adv-x="280" 
 />
    <glyph glyph-name=".notdef" horiz-adv-x="280" 
 />
    <glyph glyph-name="uni0000" horiz-adv-x="0" 
 />
    <glyph glyph-name="uni0000" horiz-adv-x="0" 
 />
    <glyph glyph-name="uni000D" unicode="&#xd;" horiz-adv-x="250" 
 />
    <glyph glyph-name="uni0020" unicode=" " horiz-adv-x="151" 
 />
    <glyph glyph-name="uni0021" unicode="!" horiz-adv-x="361" 
d="M134 827q1 3 6 3.5t9 0.5h4h139h12q16 0 34.5 -2.5t25.5 -13.5q8 -12 3.5 -32.5t-18.5 -66.5l-157 -511h-147l121 559q2 9 1.5 14.5t-2.5 13.5q-2 7 -7.5 11.5t-11 8.5t-9.5 7.5t-3 7.5zM30 0q-14 0 -23 2t-15 10q-4 5 -5.5 10.5t1.5 16.5l30 102h119q13 0 23 -2.5
t15 -10.5q3 -5 5 -10.5t-1 -15.5l-30 -102h-119z" />
    <glyph glyph-name="uni0024" unicode="$" horiz-adv-x="651" 
d="M149 2h-89q-40 0 -63.5 3.5t-36.5 15.5q-10 11 -4 36.5t17 67.5l19 75h17q4 -19 10 -29t15.5 -14.5t23 -5.5t32.5 -1h96h37q32 0 64.5 6.5t53.5 32.5q8 10 13 24t8 29t3 29.5t-3 24.5q-4 16 -16 26.5t-27 17.5t-31 11.5t-28 8.5l-39 13q-19 7 -40.5 16t-41 21.5
t-34.5 29.5t-22 39q-8 27 -4.5 67.5t15.5 83t30 81t39 62.5t45.5 37.5t49.5 20.5t49.5 9t45.5 2l17 78h104q20 0 25 -9q7 -7 7 -15t-3 -21l-8 -33q23 0 46 -1t41 -3q21 -2 41 -4q-6 -39 -12.5 -64t-17.5 -39.5t-30 -20.5t-50 -6h-68h-23q-36 0 -67 -5t-51 -29
q-15 -18 -20 -45.5t1 -48.5q4 -13 15 -22.5t25 -17t30 -12.5t29 -9l46 -13q29 -9 52.5 -18.5t41 -24t29.5 -35t18 -51.5q5 -27 -0.5 -72.5t-21 -94t-39.5 -92.5t-56 -68q-19 -14 -37 -22.5t-37.5 -13t-41 -6t-47.5 -2.5l-18 -77h-104q-20 0 -26 8q-6 7 -6 15t3 21z" />
    <glyph glyph-name="uni0025" unicode="%" horiz-adv-x="976" 
d="M191 828q44 19 93 19q17 0 38 -1.5t42 -6t39.5 -13t29.5 -21.5q15 -17 19.5 -41t3 -49.5t-7 -50t-11.5 -43.5q-15 -52 -30.5 -90t-39.5 -63t-60.5 -37t-92.5 -12q-34 0 -66.5 7t-53.5 25q-15 12 -22.5 28t-10.5 32.5t-2 32.5t2 28q3 20 12 57t24.5 76t39 73.5t54.5 49.5z
M617 386q31 24 60 29.5t67 5.5q19 0 38.5 -1.5t38 -4.5t34 -8.5t25.5 -13.5q25 -20 31 -49t3 -58q-2 -22 -11 -60.5t-24.5 -79.5t-38.5 -77.5t-53 -53.5q-18 -10 -49 -15t-64 -5q-26 0 -52.5 3.5t-48.5 13.5t-37 29.5t-18 50.5q-3 22 3 62.5t19 85t32.5 85t44.5 61.5z
M291 765q-28 0 -44 -11.5t-30 -35.5q-6 -10 -16 -37.5t-18.5 -58.5t-12.5 -58t0 -37q8 -18 27.5 -22.5t36.5 -4.5q15 0 29.5 4.5t25.5 16.5q6 6 12.5 21.5t14 36t14 43.5t11.5 43.5t7.5 36.5t1.5 22q-2 14 -10 22.5t-20 13.5q-13 5 -29 5zM715 337q-21 -10 -37.5 -40.5
t-28.5 -65.5t-18.5 -67t-6.5 -45q2 -26 17 -36.5t40 -10.5t43 10q17 9 31.5 38.5t26 63.5t18.5 64t8 41q2 31 -20 46q-7 5 -17 6.5t-21 1.5q-10 0 -19.5 -1.5t-15.5 -4.5zM258 5h-94q-7 0 -12.5 1.5t-7.5 7.5q-1 4 1.5 13.5t13.5 24.5l554 783h95q7 0 12 -1.5t7 -7.5
q2 -4 -0.5 -12.5t-13.5 -25.5z" />
    <glyph glyph-name="uni0026" unicode="&#x26;" horiz-adv-x="861" 
d="M462 561l-5 6q42 36 36 83q-5 34 -27.5 46.5t-52.5 12.5q-33 0 -57.5 -15t-33.5 -49q-4 -21 -1 -38.5t13 -36t26 -39.5t37 -48l79 -104q11 36 18.5 55.5t20.5 28.5t35.5 11t62.5 2h119l-22 -98q-3 -13 -5.5 -21.5t-7.5 -12.5t-12.5 -5.5t-21.5 -1.5q-13 0 -21.5 -1
t-13.5 -5t-8.5 -11.5t-7.5 -20.5l-18 -67l10 -15q17 -26 32 -41.5t32.5 -24t38.5 -11t50 -2.5l-4 -23q-6 -33 -10.5 -53t-9 -31t-9.5 -15.5t-11 -7.5t-12.5 -3.5t-16.5 -0.5h-18h-63q-17 0 -28.5 1.5t-21 6.5t-19 14.5t-22.5 25.5q-25 -19 -50.5 -30t-52.5 -17t-57 -8
t-66 -2h-37q-26 0 -57.5 2t-62.5 10.5t-58 25t-44 46.5q-16 29 -20 71.5t1 87t17 87t26 71.5q13 27 26.5 44t30 30t35.5 23t43 22q-36 57 -35 113t43 116q21 29 49 47.5t58.5 29t61 14.5t55.5 4q32 0 63.5 -4.5t59.5 -15.5t51.5 -31t38.5 -52q7 -15 11.5 -34.5t5 -39t-3 -37
t-11.5 -30.5q-17 -25 -46.5 -29.5t-70.5 -4.5h-9h-45zM269 391q-14 0 -25.5 -7t-21.5 -17q-13 -12 -22.5 -35.5t-15.5 -48.5t-8 -47t0 -32q5 -24 21 -37t37.5 -19t45 -7t42.5 -1q26 0 54.5 7.5t44.5 30.5z" />
    <glyph glyph-name="uni0027" unicode="'" horiz-adv-x="331" 
d="M166 836h136q11 0 16.5 -1.5t10.5 -6.5q5 -6 4 -12t-3 -17l-40 -166q-3 -17 -7.5 -24.5t-13.5 -12.5q-7 -3 -22.5 -3.5t-22.5 -0.5h-87h-8q-10 0 -13 3q-5 5 -2 15l8 39h56q14 0 19.5 4t10.5 17l4 20h-59q-12 0 -17 5q-3 3 -3 7.5t2 10.5z" />
    <glyph glyph-name="uni0028" unicode="(" horiz-adv-x="402" 
d="M422 919l-32 -42q-14 -17 -28 -37.5t-25 -37.5q-54 -87 -90 -182t-59 -195q-24 -103 -32.5 -222t16.5 -255q1 -8 5 -21q2 -6 4 -13h-74q-28 34 -47.5 78.5t-30.5 94.5t-15 104t-2 105.5t9.5 98.5t18.5 85q16 56 43.5 113.5t62.5 111.5q23 35 51 68.5t55 62.5t49.5 51
t35.5 32h85z" />
    <glyph glyph-name="uni0029" unicode=")" horiz-adv-x="400" 
d="M-45 -86q16 21 32 41q14 18 28.5 38.5t25.5 37.5q54 88 89.5 182t58.5 194q25 104 33 222.5t-17 254.5q-1 5 -2 10.5t-3 11.5t-4 13h75q43 -51 65 -124.5t28 -153t-1.5 -156t-24.5 -133.5q-17 -56 -44.5 -113.5t-62.5 -111.5q-22 -34 -50 -68t-55 -63t-50 -50.5
t-35 -31.5h-86z" />
    <glyph glyph-name="uni002A" unicode="*" horiz-adv-x="215" 
d="M132 835h86l-3 -45l35 27l39 -74l-41 -21l40 -21l-41 -67l-34 24l3 -49h-86l3 49l-36 -24l-40 72l40 22l-40 17l41 72l37 -26z" />
    <glyph glyph-name="uni002C" unicode="," horiz-adv-x="330" 
d="M13 146h137q11 0 16.5 -1.5t9.5 -6.5q5 -6 4 -12t-3 -17l-40 -166q-3 -16 -7.5 -24t-13.5 -13q-6 -3 -22 -3.5t-23 -0.5h-86h-8q-11 0 -14 3q-5 5 -2 16l8 38h56q14 0 20 4t10 18l4 19h-59q-11 0 -16 5q-3 3 -3 7.5t2 10.5z" />
    <glyph glyph-name="uni002D" unicode="-" horiz-adv-x="436" 
d="M226 404h37q27 0 41 -2t19 -10q4 -6 7 -11t3 -15.5t-4.5 -29.5t-14.5 -54h-146h-37q-28 0 -42 2t-19 10q-4 6 -6.5 11t-2.5 15.5t4 29.5t14 54h147z" />
    <glyph glyph-name="uni002E" unicode="." horiz-adv-x="330" 
d="M36 0q-14 0 -23 2t-15 10q-7 9 -4 27l24 102h119q13 0 23 -2.5t15 -10.5q3 -5 4.5 -11t-0.5 -15l-24 -102h-119z" />
    <glyph glyph-name="uni002F" unicode="/" horiz-adv-x="563" 
d="M511 768q17 -13 26.5 -21t14.5 -13.5t6.5 -8.5t1.5 -7q0 -5 -1.5 -10.5t-6 -14t-12.5 -21t-21 -31.5l-488 -688q-16 12 -25.5 19.5t-14.5 12.5t-7 9t-2 9q0 4 0.5 8.5t4.5 13t12 21.5t23 34z" />
    <glyph glyph-name="uni0030" unicode="0" horiz-adv-x="493" 
d="M171 814q29 23 59.5 30.5t65.5 7.5q18 0 38.5 -3t40.5 -11.5t38 -23.5t31 -39q18 -31 25.5 -74t8.5 -88t-2.5 -87.5t-8.5 -74.5l-13 -95q-8 -55 -19.5 -109.5t-29 -101t-43 -82.5t-61.5 -56q-18 -10 -47 -16.5t-61 -6.5q-38 0 -74 11.5t-57 40.5q-20 26 -30 62.5
t-13.5 75.5t-2.5 75.5t2 61.5q2 30 7 72.5t13 91t19.5 99.5t28 97t37.5 83.5t48 59.5zM264 706q-27 -8 -45 -32t-29.5 -57.5t-18.5 -75.5t-13 -86l-15 -108q-8 -63 -9.5 -111.5t22.5 -83.5q10 -15 25 -20.5t29 -5.5q9 0 16.5 2t12.5 4q20 9 33.5 25.5t24 44.5t19 69.5
t17.5 101.5l15 110q5 33 8 62t3 53t-5 44.5t-16 36.5q-11 17 -27.5 23t-30.5 6q-8 0 -16 -2z" />
    <glyph glyph-name="uni0031" unicode="1" horiz-adv-x="261" 
d="M147 4q-1 -4 -13 -4h-12h-71h-7q-7 0 -13.5 1.5t-10.5 9.5q-3 6 -4 12t-0.5 16t3 25t5.5 39l80 520q4 30 6.5 49t-1.5 29q-3 11 -15 11q-10 0 -15 10q-1 5 -2 11t0.5 17.5t5.5 31.5t11 54h83h14q25 0 35.5 -2t15.5 -12q6 -11 3 -33.5t-9 -59.5l-100 -658q-3 -22 -4 -35
t9 -21q3 -2 5 -4t1 -7z" />
    <glyph glyph-name="uni0032" unicode="2" horiz-adv-x="482" 
d="M145 719q-3 5 -3.5 12t1 20t4.5 33.5t8 51.5h179h22q24 0 49 -8t42 -43q9 -19 13.5 -44t5 -51t-1.5 -50.5t-5 -43.5q-7 -48 -18.5 -82.5t-29.5 -61.5t-43 -50.5t-58 -48.5l-54 -40q-43 -31 -65.5 -70.5t-26.5 -101.5h159q21 0 32 0.5t16.5 2t7 3.5t3.5 4q5 6 7.5 13
t6.5 16h12l-11 -67q-6 -40 -10.5 -62.5t-10 -33.5t-15 -14t-26.5 -3h-23h-296q3 38 13 97t30.5 121t52 119t76.5 90l50 37q16 12 33 25.5t32 30.5t26 39t14 50q3 17 2 35.5t-9 34.5q-10 17 -24 21t-34 4h-25h-60h-7q-14 0 -24.5 2t-16.5 13z" />
    <glyph glyph-name="uni0033" unicode="3" horiz-adv-x="453" 
d="M204 517q18 0 34 1t30 5.5t25 15t19 29.5q3 7 5.5 21.5t4 31t1.5 31.5t-3 22q-7 20 -22 24.5t-32 4.5h-16h-78q-20 0 -27 2t-12 9q-4 6 -3 15.5t3 19.5l13 87h172q11 0 24 -1t26.5 -6t26.5 -15.5t23 -29.5q11 -21 15 -43t4.5 -44t-2 -43t-4.5 -38q-7 -49 -18.5 -90.5
t-46.5 -69.5q17 -11 23.5 -22.5t12.5 -31.5q4 -16 4 -43t-2.5 -59t-7.5 -67t-11.5 -67t-14 -59t-15.5 -43q-10 -23 -21.5 -36t-26 -19t-32 -7.5t-41.5 -1.5h-12h-144q-24 0 -38 2t-19 12q-5 9 -5 19.5t5 34.5l18 120h9q6 -15 11 -23.5t11.5 -13.5t16 -6.5t24.5 -1.5h40h26
q30 0 49 7t31 39q3 9 8 32.5t9 50.5t5 52t-3 37q-3 11 -7.5 17t-12.5 9.5t-21 4.5t-34 1h-14h-13q-11 0 -20 2t-14 11q-2 4 -3 10t0 18t4 31.5t8 51.5h55z" />
    <glyph glyph-name="uni0034" unicode="4" horiz-adv-x="468" 
d="M378 351h75l-17 -108q-2 -16 -5.5 -23.5t-14.5 -7.5h-59l-26 -167q-1 -6 -0.5 -14.5t6.5 -12.5q9 -5 8 -12q-2 -6 -12 -6h-4h-47h-36q-14 0 -19.5 1t-8.5 5q-3 3 -4.5 7.5t-0.5 14.5t3.5 27.5t7.5 47.5l16 109h-151q-19 0 -31 0.5t-20 2.5t-13 7t-8 14q-2 6 -1 16t3 22
l16 100l300 462h78h11q8 0 12 -1.5t8 -9.5q2 -4 2.5 -8t-0.5 -14.5t-4 -31t-9 -57.5zM139 351h123l38 248z" />
    <glyph glyph-name="uni0035" unicode="5" horiz-adv-x="458" 
d="M443 836q-7 -46 -12 -72.5t-12 -39.5t-17 -16t-27 -3h-22h-113l-25 -164h65q23 0 42 -2t34.5 -9.5t27.5 -21.5t21 -38q9 -26 8 -75.5t-8 -104.5t-17.5 -104.5t-20.5 -75.5q-16 -40 -32.5 -62.5t-35 -33t-39 -12.5t-43.5 -2h-150h-16q-17 0 -23.5 1.5t-9.5 7.5
q-1 4 -1.5 9t0.5 15t4 27.5t7 46.5l12 75h8q5 -15 9.5 -23.5t10.5 -13t15.5 -6t24.5 -1.5h51h24q14 0 26.5 1.5t23 8t20 19.5t18.5 35q4 11 9 36t8 52t3.5 52t-4.5 36q-5 13 -11.5 20t-16.5 10.5t-24.5 4t-35.5 0.5h-120l48 320q6 38 10 59t11.5 30.5t22 11.5t41.5 2h231z
" />
    <glyph glyph-name="uni0036" unicode="6" horiz-adv-x="472" 
d="M447 774q-3 -24 -6 -38.5t-10 -23t-19 -11t-35 -2.5h-49q-35 0 -59.5 -4t-41 -16t-26 -33t-14.5 -55l-9 -66h105q21 0 39 -1.5t33 -8t27 -19.5t21 -35q12 -27 14 -68.5t-1.5 -85.5t-10.5 -85.5t-14 -69.5q-13 -47 -28 -79.5t-37.5 -52t-55 -28t-79.5 -8.5q-21 0 -42.5 3
t-41 10t-35 19.5t-24.5 31.5q-15 30 -22.5 56t-9 57.5t3 73t13.5 102.5l26 169q15 98 35 161.5t49.5 101t70.5 52.5t98 15h144zM135 240q-3 -23 0 -44.5t8 -31.5q11 -25 31 -30.5t43 -5.5q20 2 35 11.5t26 43.5q4 14 8.5 38.5t7 50.5t3 49.5t-3.5 35.5q-7 23 -20 28t-42 5
h-36h-38z" />
    <glyph glyph-name="uni0037" unicode="7" horiz-adv-x="434" 
d="M80 716q-5 8 -5 18t4 33l11 69h328l-12 -81q-3 -21 -8.5 -46t-13.5 -45l-223 -572q-8 -22 -13 -34t-4 -17q1 -12 5.5 -17t10.5 -10l-4 -14h-75q-32 0 -45.5 2t-18.5 13q-1 6 -0.5 11.5t3.5 15t9 24.5t15 39l232 598h-131q-30 0 -45 2t-20 11z" />
    <glyph glyph-name="uni0038" unicode="8" horiz-adv-x="464" 
d="M429 542q-7 -25 -13.5 -39.5t-23.5 -32.5q15 -19 22.5 -39t9.5 -40t0 -40.5t-4 -40.5q-3 -24 -5 -43t-5 -38t-7 -39l-9 -45q-11 -52 -24 -81t-30.5 -43t-39.5 -17.5t-50 -3.5h-107q-17 0 -34 1.5t-32.5 8t-29 21t-23.5 41.5q-6 16 -7.5 43.5t0.5 60t6.5 67t10 65t10.5 55
t9 35.5q6 19 11.5 32t12 22t15 16t19.5 15q-19 39 -19.5 66.5t3.5 56.5q1 11 3.5 27t5.5 33t7.5 34.5t8.5 32.5q12 37 23.5 57.5t26 30.5t34 12.5t46.5 2.5h50h20q19 0 36 -1.5t32 -7t27.5 -17.5t21.5 -33q9 -22 11 -53t-0.5 -64t-8 -64.5t-10.5 -53.5zM269 720
q-11 -1 -19.5 -3.5t-15.5 -8.5t-12.5 -17t-10.5 -29q-2 -7 -5 -22.5t-4.5 -33t-1 -34t4.5 -25.5q7 -14 21.5 -18.5t28.5 -4.5q29 0 46.5 9.5t25.5 41.5q1 4 4 20.5t5 36t2.5 38.5t-3.5 27q-6 15 -22 19.5t-28 4.5q-6 0 -10 -0.5t-6 -0.5zM182 384q-13 -9 -23.5 -34.5
t-17 -55.5t-9.5 -58.5t-2 -42.5q4 -33 23 -47q13 -8 44 -8q20 0 39.5 4.5t27.5 13.5q11 11 18.5 33.5t12.5 47t7.5 47.5t2.5 35q0 21 -3 35t-14 25q-6 7 -22 10t-33 3t-31.5 -2.5t-19.5 -5.5z" />
    <glyph glyph-name="uni0039" unicode="9" horiz-adv-x="470" 
d="M34 185h12q3 -10 5.5 -18t8 -12.5t15.5 -7t28 -2.5h57q31 0 49 2t29 7t17.5 13t13.5 21q8 13 16 66l9 56h-105q-23 0 -42.5 2t-35.5 8.5t-28.5 20.5t-22.5 38q-11 28 -12 74t4 96t14 96.5t19 74.5q15 42 31 65t34 34.5t38 14t42 2.5h39h31q19 0 37.5 -1.5t35 -8t31 -19.5
t26.5 -35q14 -25 19 -55.5t5 -63t-3.5 -64.5t-7.5 -59l-45 -294q-12 -79 -26 -125.5t-35.5 -71t-54 -32t-80.5 -7.5h-142q-14 0 -24.5 4t-15.5 17q-5 14 -4.5 27t2.5 30zM328 541q2 15 5 33t3.5 36.5t-2 36.5t-11.5 33q-10 16 -28 20.5t-33 4.5q-19 0 -25 -2
q-22 -6 -34 -21.5t-21 -49.5q-4 -13 -7.5 -34.5t-5 -44t-1 -43.5t5.5 -34q9 -23 26 -28t37 -5h26h51z" />
    <glyph glyph-name="uni003A" unicode=":" horiz-adv-x="333" 
d="M81 208q-13 0 -22 2t-15 10q-7 9 -4 26l24 103h119q12 0 22.5 -2.5t15.5 -10.5q3 -5 4.5 -11.5t-0.5 -15.5l-25 -101h-119zM33 0q-14 0 -23 2t-15 10q-7 9 -4 27l24 102h119q13 0 23 -2.5t15 -10.5q3 -5 4.5 -11t-0.5 -15l-24 -102h-119z" />
    <glyph glyph-name="uni003B" unicode=";" horiz-adv-x="352" 
d="M96 214q-14 0 -23 2t-15 10q-7 9 -4 26l24 103h119q13 0 23 -2.5t15 -10.5q3 -5 4.5 -11t-0.5 -16l-24 -101h-119zM25 146h137q11 0 16.5 -1.5t9.5 -6.5q5 -6 4 -12t-3 -17l-39 -166q-4 -16 -8.5 -24t-13.5 -13q-6 -3 -21.5 -3.5t-23.5 -0.5h-86h-8q-10 0 -13 3
q-5 5 -2 16l8 38h56q13 0 19.5 4t9.5 18l4 19h-59q-11 0 -16 5q-3 3 -3 7.5t2 10.5z" />
    <glyph glyph-name="uni003F" unicode="?" horiz-adv-x="635" 
d="M141 720q-5 8 3.5 38t19.5 78h230h32q19 0 40.5 -1.5t42.5 -6.5t39.5 -15t30.5 -28q14 -21 19.5 -49.5t5.5 -58.5t-4 -57t-10 -45q-15 -45 -32 -75.5t-42.5 -53t-62.5 -40.5t-91 -38l-32 -12q-39 -15 -60.5 -26t-34 -26t-20.5 -37.5t-20 -59.5h-45h-45q-29 0 -42 1.5
t-18 9.5q-4 5 -5 11.5t2 19.5q4 20 8 37q3 14 6 27.5t5 18.5q11 34 27.5 57.5t38.5 40.5t49 29.5t58 24.5l46 18q33 12 56.5 23t40 22.5t27.5 25t20 32.5q8 17 6 40.5t-13 38.5q-6 8 -13 12t-19.5 6t-32.5 2.5t-50 0.5h-79h-15q-29 0 -44.5 2t-22.5 13zM38 0q-14 0 -23 2
t-15 10q-8 10 -4 27l24 102h119q13 0 23 -2.5t15 -10.5q3 -5 4.5 -10.5t-0.5 -15.5l-24 -102h-119z" />
    <glyph glyph-name="uni0041" unicode="A" horiz-adv-x="781" 
d="M365 830q1 3 5 5q2 1 5 1h164h48q24 0 36 -1.5t17 -6.5q6 -7 8.5 -24.5t2.5 -65.5v-673q0 -25 5 -34t17 -18q1 -1 2 -3q2 -2 0 -5q0 -1 -3 -4q-2 0 -3 -1h-89h-50q-19 0 -29 1.5t-16 7.5q-8 8 -9.5 30.5t-1.5 67.5v100h-266q-20 -34 -37 -63q-14 -24 -27 -46t-16 -29
q-12 -22 -9 -32q0 -11 7 -14.5t19 -8.5q2 -1 3 -3q3 -3 2 -6q0 -4 -6 -4q-3 -1 -6 -1h-147h-19q-13 0 -23 1.5t-15 7.5q-7 9 -1.5 20t24.5 42l402 665q14 23 20 32t8 13q7 14 4.5 21t-20.5 18q-7 4 -6 10zM281 333h193v352z" />
    <glyph glyph-name="uni0042" unicode="B" horiz-adv-x="752" 
d="M656 543q-9 -17 -18 -28.5t-18 -20t-20 -15.5t-25 -15q15 -7 27.5 -14t22.5 -16t17.5 -22t11.5 -33q5 -23 1 -65.5t-14.5 -89.5t-26 -89.5t-33.5 -65.5t-40.5 -36.5t-46 -21t-47.5 -9.5t-46 -2h-315h-41q-22 0 -35.5 2t-18.5 10q-3 5 -2.5 16t3 24.5t6 28t6.5 26.5
l155 649q5 18 7.5 30t1.5 20q-1 6 -7.5 10.5t-11.5 6.5q-6 2 -6.5 3.5t-0.5 4.5q0 5 25 5h325q17 0 42.5 -1.5t52.5 -7.5t51.5 -19.5t39.5 -39.5q12 -22 15 -51.5t-1 -61t-13.5 -61.5t-22.5 -51zM293 527h26h29q24 0 48.5 1t46 6t38.5 14.5t26 26.5q5 9 9.5 23t7.5 30
t3 30.5t-5 23.5q-10 18 -31.5 22t-54.5 4h-39h-61zM200 138h77h25q41 0 76.5 7t54.5 40q6 10 14.5 34t15 51t9 51t-3.5 34q-14 26 -39 31.5t-62 5.5h-38h-69z" />
    <glyph glyph-name="uni0043" unicode="C" horiz-adv-x="663" 
d="M665 836l-22 -94q-1 -7 -4.5 -14t-12.5 -12.5t-27 -9t-48 -3.5h-69h-19q-21 0 -43 -1.5t-43 -8t-39 -19.5t-32 -37q-20 -35 -35.5 -77t-29.5 -107l-23 -101q-7 -29 -12 -53.5t-6 -45.5t3.5 -38t16.5 -31q18 -22 41.5 -27t52.5 -5h37h104q20 0 34 1t26 5.5t23.5 14
t26.5 27.5q1 2 3 4q4 4 6 4q4 1 6 -4q1 -1 1 -4l-17 -72q-8 -36 -14.5 -60.5t-18.5 -39.5t-33.5 -21.5t-59.5 -6.5h-165q-31 0 -62 2.5t-60.5 9.5t-55.5 21t-46 36q-21 23 -32.5 49.5t-14 61t3.5 77.5t20 99l46 180q23 90 48.5 148.5t63.5 92t94.5 46.5t141.5 13h245z" />
    <glyph glyph-name="uni0044" unicode="D" horiz-adv-x="783" 
d="M137 831q0 4 6 4.5t14 0.5h364h27q21 0 41 -1.5t39 -7t37 -16t34 -29.5q25 -28 36.5 -63.5t13.5 -74.5t-3.5 -80.5t-15.5 -81.5l-38 -163q-21 -85 -45.5 -146t-63.5 -99t-97.5 -56t-145.5 -18h-266h-43q-20 0 -29.5 2t-15.5 10q-3 4 -2.5 14.5t3 24t6 29t6.5 28.5
l158 662q3 13 5 21t1 15q-1 5 -7 10.5t-13 6.5q-6 2 -6 8zM330 704l-134 -563h59q62 0 102 3.5t66.5 21.5t44 55.5t33.5 104.5l39 166q5 19 10.5 43t8.5 48.5t1 46.5t-14 36q-20 26 -46 32t-63 6h-30h-77z" />
    <glyph glyph-name="uni0045" unicode="E" 
d="M140 831q1 5 21 5h517l-24 -98q-2 -9 -6.5 -15t-16.5 -9.5t-33.5 -5.5t-58.5 -2h-205l-44 -181h294l-23 -97q-7 -28 -34 -34t-60 -6h-13h-83q-34 0 -56.5 -2t-38 -13t-25.5 -35t-21 -69l-31 -128h219h18q27 0 49 5t48 30q1 2 3 3q4 4 6 4q4 1 8 -3q1 -2 1 -4l-13 -56
q-9 -38 -15.5 -61.5t-18 -36.5t-31.5 -17.5t-55 -4.5h-335h-36q-28 0 -41 2t-17 10q-5 11 -0.5 35.5t9.5 44.5l161 672q8 37 7 42q-2 7 -8 11t-12 6q-7 2 -6 8z" />
    <glyph glyph-name="uni0046" unicode="F" horiz-adv-x="629" 
d="M144 826q-3 2 -2 6t8 4h524q-9 -43 -14 -68.5t-16 -38t-34.5 -16t-70.5 -3.5h-205l-43 -184h284l-6 -25q-10 -41 -14.5 -63t-13.5 -32.5t-28 -12t-60 -1.5h-82h-20q-37 0 -57.5 -2.5t-31.5 -14t-18 -35.5t-17 -67l-46 -191q-6 -24 -6.5 -37t1.5 -20t7.5 -9t11.5 -4
t6.5 -7t-7.5 -5h-110h-17q-36 0 -55 2t-25 12t-2 30.5t13 57.5l161 659q5 23 6.5 39.5t-21.5 25.5z" />
    <glyph glyph-name="uni0047" unicode="G" horiz-adv-x="763" 
d="M713 836q-6 -32 -9.5 -56t-12.5 -40t-27 -24t-53 -8h-122q-57 0 -94 -6.5t-64 -35.5t-49.5 -89.5t-51.5 -167.5q-11 -41 -20 -78t-11 -68.5t5 -55t26 -37.5q15 -11 47 -15t64 -4q22 0 39 1.5t25 3.5q17 5 27 11.5t17.5 21t14 39t15.5 64.5l26 106h-21h-99
q-23 0 -29.5 6.5t-1.5 32.5l20 94h198h8q45 0 69.5 -1.5t33.5 -11t6 -29.5t-12 -56l-73 -295q-11 -47 -21 -74.5t-26.5 -41.5t-43.5 -18t-73 -4h-153q-99 0 -163.5 14t-95 58t-26.5 127.5t43 221.5q29 103 54 173.5t51 116.5t53.5 71.5t60.5 37t73 14t90 2.5h286z" />
    <glyph glyph-name="uni0048" unicode="H" horiz-adv-x="786" 
d="M178 70q-3 -14 -5.5 -23.5t-1.5 -15.5q1 -7 6 -11.5t13 -6.5t6 -8q-1 -4 -5.5 -4.5t-18.5 -0.5h-85q-44 0 -67 1.5t-31.5 11t-5 29.5t12.5 57l159 667q2 8 5.5 20.5t1.5 19.5q-3 12 -20 17q-8 2 -6 8q1 4 5.5 4.5t19.5 0.5h84q43 0 66 -2t31.5 -11.5t5.5 -29t-11 -55.5
l-50 -211h244l58 239q2 8 5.5 20.5t1.5 19.5q-3 12 -19 17q-8 2 -6 8q1 4 5.5 4.5t18.5 0.5h85h7q41 0 62.5 -1.5t29 -11t4.5 -29.5t-12 -56l-159 -668q-3 -14 -5.5 -23.5t-1.5 -15.5q1 -13 20 -18q8 -2 6 -8q-1 -4 -5.5 -4.5t-19.5 -0.5h-84q-44 0 -67 2t-31.5 11.5
t-5 29.5t11.5 56l69 292h-245z" />
    <glyph glyph-name="uni0049" unicode="I" horiz-adv-x="353" 
d="M182 70q-3 -14 -5.5 -23.5t-1.5 -15.5q1 -7 6 -11.5t13 -6.5t6 -8q-1 -4 -5.5 -4.5t-18.5 -0.5h-84q-44 0 -67.5 1.5t-31.5 11t-5 29.5t12 57l159 667q2 8 5.5 20.5t1.5 19.5q-3 12 -20 17q-8 2 -6 8q1 4 5.5 4.5t19.5 0.5h84h7q41 0 62.5 -1.5t29.5 -11t5 -29.5t-12 -56
z" />
    <glyph glyph-name="uni004A" unicode="J" horiz-adv-x="564" 
d="M249 836h195h34q36 0 55 -2.5t25 -13t2 -32t-13 -60.5l-140 -583q-13 -53 -22 -82t-24.5 -43t-43 -17t-77.5 -3h-23h-171h-8q-30 0 -45.5 2t-19.5 14t1.5 37.5t17.5 71.5l18 68q2 4 5 4t4 -3q8 -17 14 -27.5t24 -17.5q5 -2 21.5 -2.5t38.5 -0.5q29 0 56.5 1.5t34.5 5.5
q6 3 11 8t9.5 14.5t9 26.5t11.5 45l88 365q9 38 13 59.5t-4 30.5q-5 6 -13 7.5t-31 1.5h-44q-23 0 -28.5 3t-3.5 14z" />
    <glyph glyph-name="uni004B" unicode="K" horiz-adv-x="800" 
d="M251 341l-65 -271q-3 -14 -5.5 -23.5t-1.5 -15.5q1 -7 6 -11.5t13 -6.5t6 -8q-1 -4 -5.5 -4.5t-18.5 -0.5h-84q-44 0 -67.5 1.5t-31.5 11t-5 29.5t12 57l159 667q2 8 5.5 20.5t1.5 19.5q-3 12 -19 17q-9 2 -7 8q1 4 6 4.5t19 0.5h84q43 0 65.5 -3t31 -13t6 -29.5
t-10.5 -52.5l-41 -173l178 154q3 2 11.5 9.5t18.5 16.5t19 17t12 12q39 42 -9 55q-5 3 -3 5t8 2h166q20 0 35 -4.5t20 -13.5t-1 -23.5t-28 -34.5l-57 -47l-184 -157l79 -320q9 -36 14 -55t13.5 -28t23.5 -10.5t43 -1.5l-34 -141h-69h-36q-28 0 -44.5 2.5t-27 13t-18 32.5
t-17.5 60l-78 309z" />
    <glyph glyph-name="uni004C" unicode="L" horiz-adv-x="561" 
d="M157 762q6 26 8 41.5t-15 27.5q3 2 10 3.5t12 1.5h42q54 0 83 -2t39.5 -11.5t7.5 -30.5t-12 -60l-140 -594h224q20 0 28 5t20 19q7 7 9 7q1 0 5 -2v-7q-1 -4 -1 -8.5t-2 -9.5l-5 -20q-10 -41 -16.5 -65t-17 -37t-30 -16.5t-55.5 -3.5h-270q-41 0 -62.5 1.5t-29.5 11.5
t-4.5 31.5t12.5 60.5z" />
    <glyph glyph-name="uni004D" unicode="M" horiz-adv-x="1066" 
d="M485 334l167 389l21 57q5 14 5.5 22.5t-2.5 13t-7 6.5t-8 3q-9 2 -9.5 6.5t8.5 4.5h112h19q37 0 56.5 -2t28 -11t10 -28t1.5 -54l6 -675q0 -18 0.5 -28t1 -15.5t2 -7t4.5 -3.5q14 -4 13.5 -8t-14.5 -4h-75h-12q-36 0 -56 2t-29.5 11t-11 28.5t-1.5 55.5l8 470l-242 -567
h-124l-42 579l-167 -499q-5 -12 -8 -22.5t-2 -15.5q2 -19 10.5 -22t17.5 -9q4 -4 2 -7.5t-8 -3.5h-80q-45 0 -69 1.5t-31.5 10.5t-2 29t19.5 56l239 655q5 14 8 25t2.5 20t-5.5 16t-18 12q-9 5 -7 8t8 3h110q45 0 68.5 -1.5t34 -11t12.5 -29.5t5 -58z" />
    <glyph glyph-name="uni004E" unicode="N" horiz-adv-x="762" 
d="M568 0h-97q-10 1 -18 10.5t-14.5 22.5t-12 27.5t-9.5 26.5l-146 405l-98 -406q-3 -14 -5 -24t-1 -18.5t6.5 -15.5t16.5 -14q9 -5 7 -10t-12 -4h-82q-47 0 -71.5 2.5t-33 12.5t-5 31.5t12.5 58.5l159 661q6 33 3.5 42.5t-19.5 14.5q-11 4 -8.5 8.5t13.5 4.5h155
q15 0 23.5 -1.5t15 -10t14 -27.5t19.5 -54l117 -325l83 332q6 28 6 43.5t-23 28.5q-9 5 -7.5 9.5t10.5 4.5h2h82q47 0 71.5 -2t33 -12t5 -31.5t-12.5 -59.5z" />
    <glyph glyph-name="uni004F" unicode="O" horiz-adv-x="789" 
d="M306 831q37 12 86 17t89 5q30 0 62.5 -3.5t64 -12.5t60.5 -25t50 -41q27 -31 37.5 -71t10.5 -85.5t-8 -94.5t-17 -99q-4 -21 -8.5 -37t-10.5 -36q-29 -93 -59 -161.5t-75 -113.5t-110.5 -67t-165.5 -22q-31 0 -64 3t-64 10.5t-58 19.5t-46 31q-36 35 -50.5 77.5
t-15.5 90.5t8 100.5t21 107.5l7 31.5t8 30.5q18 60 36.5 114t45.5 99t66.5 79t99.5 53zM412 706q-39 -9 -64.5 -33t-43.5 -57.5t-30.5 -74t-24.5 -82.5q-4 -15 -7 -26.5l-6 -23l-6 -23t-6 -25.5q-7 -29 -13 -58.5t-6.5 -56.5t7 -51t26.5 -42q16 -16 39.5 -21.5t46.5 -5.5
q26 0 46 5q38 11 63 32.5t41.5 51t28 65.5t23.5 75q5 16 8.5 29.5t6.5 26t6 26t6 30.5q7 31 12.5 61.5t6.5 58t-6 51.5t-25 42q-17 17 -43 23t-49 6t-37 -3z" />
    <glyph glyph-name="uni0050" unicode="P" horiz-adv-x="733" 
d="M232 292l-53 -222q-3 -14 -5.5 -23.5t-1.5 -15.5q1 -7 6 -11.5t13 -6.5t6 -8q-1 -4 -5.5 -4.5t-18.5 -0.5h-84q-45 0 -68 1.5t-31.5 11t-5 29.5t12.5 57l159 667q2 8 5.5 20.5t1.5 19.5q-3 12 -20 17q-8 2 -6 8q1 4 5.5 4.5t19.5 0.5h353h27q19 0 40.5 -1.5t42 -8.5
t39 -19.5t30.5 -35.5q11 -18 13.5 -47.5t0 -64t-10 -72t-17.5 -72.5t-21.5 -64.5t-22.5 -48.5q-23 -38 -54 -60t-67 -33t-75 -14t-79 -3h-129zM264 428h117q23 2 38 7t25.5 14t18 22.5t15.5 31.5q6 14 13.5 37t12.5 48.5t5.5 50t-6.5 40.5q-11 22 -33.5 27t-57.5 5h-43h-36z
" />
    <glyph glyph-name="uni0051" unicode="Q" horiz-adv-x="784" 
d="M691 273q-16 -55 -31 -92.5t-38 -67t-59 -55t-96 -55.5q5 -11 6 -15.5t7 -13.5q3 -5 9.5 -9t20.5 -4h31h45q8 0 9 -2t0 -8q-6 -37 -10.5 -57.5t-12.5 -30t-22 -11t-40 -1.5h-24h-48q-22 0 -35 1.5t-21.5 7t-15 17t-15.5 31.5q-11 30 -22 52q-5 13 -10 24q-38 0 -75.5 2
t-73 10.5t-67 27t-56.5 51.5q-23 29 -32.5 66.5t-10 77t4.5 78.5t11 70l24 106q14 51 34.5 108.5t52.5 109.5t77.5 91.5t110.5 54.5q25 7 62.5 11.5t80.5 4.5q33 0 68 -3.5t67 -12.5t59.5 -23.5t46.5 -35.5q25 -27 37 -66t14.5 -83.5t-3 -91.5t-14.5 -91.5t-19.5 -83.5
t-19.5 -66zM413 152q40 35 62 83t33 89l35 143q2 7 7.5 35t7.5 62t-3 68t-25 53q-17 16 -42 22t-48 6q-48 0 -81.5 -24t-56 -60t-36.5 -79t-25 -82l-33 -149q-5 -22 -9 -50.5t0.5 -56t20.5 -50.5t50 -35l5 -1l-28 88h142z" />
    <glyph glyph-name="uni0052" unicode="R" horiz-adv-x="748" 
d="M283 506h57h40q28 0 47 1.5t33 7t25 17t21 30.5q6 11 10.5 27.5t7 34t2 33.5t-6.5 26q-12 20 -30 25t-53 5h-47h-57zM509 836h35q26 0 47.5 -1.5t40 -7t34 -17t29.5 -31.5q15 -21 19 -54t2 -68.5t-9 -67t-14 -49.5q-16 -41 -35.5 -68.5t-43 -45.5t-53 -29t-65.5 -19
l50 -143q12 -38 19 -58.5t15.5 -30t23 -11t41.5 -1.5l-23 -90q-6 -16 -9.5 -25t-10.5 -13.5t-18.5 -5t-34.5 -0.5h-58q-21 0 -34.5 1t-24 11t-19.5 32.5t-21 66.5l-76 263h-65l-72 -304q-3 -14 -5.5 -23.5t-1.5 -15.5q1 -7 6 -11.5t13 -6.5t6 -8q-1 -4 -5.5 -4.5t-18.5 -0.5
h-84q-45 0 -68 1.5t-31.5 11t-5 29.5t12.5 57l159 667q2 8 5.5 20.5t1.5 19.5q-3 12 -20 17q-8 2 -6 8q1 4 5.5 4.5t19.5 0.5h347z" />
    <glyph glyph-name="uni0053" unicode="S" horiz-adv-x="669" 
d="M600 836h30q-9 -36 -14 -61.5t-14.5 -41.5t-27 -23.5t-51.5 -7.5h-78h-40q-35 0 -59.5 -5t-39.5 -28q-5 -7 -10 -18.5t-8 -24.5t-3.5 -25t2.5 -21q4 -14 15.5 -24.5t26 -17.5t30 -12t26.5 -9l49 -19q26 -9 47.5 -16t38.5 -17t29.5 -26t20.5 -43q7 -25 3.5 -66.5
t-14 -86.5t-27.5 -86.5t-37 -67.5q-25 -33 -45 -51t-42.5 -26.5t-52 -10t-73.5 -1.5h-8h-236q-38 0 -57.5 2t-24.5 14t1.5 38.5t20.5 74.5l20 72h17q2 -9 3 -15.5t3 -11.5t6.5 -8.5t14.5 -8.5q5 -2 15.5 -3t33.5 -2h99q9 0 18.5 -0.5t20.5 -0.5q30 0 61.5 6.5t52.5 32.5
q7 9 12.5 23t9 29.5t4 30.5t-2.5 25q-4 15 -15.5 25.5t-25.5 17t-29 11t-26 8.5l-44 16q-25 9 -46 16t-38.5 17t-30 26t-20.5 43q-6 19 -0.5 58.5t17 83t28 84t33.5 61.5q20 25 39 39t41 21t49 9t63 2h57h182z" />
    <glyph glyph-name="uni0054" unicode="T" horiz-adv-x="637" 
d="M311 70q-3 -14 -5.5 -23.5t-1.5 -15.5q1 -7 6 -11.5t13 -6.5q9 -2 7 -8q-1 -4 -5.5 -4.5t-19.5 -0.5h-84q-44 0 -66.5 4t-30.5 15.5t-5 30.5t10 49l144 603h-138q-13 0 -21.5 -0.5t-14 -4t-10.5 -10.5t-13 -20q-3 -5 -8 -5q-6 0 -6 5l13 56q10 42 15.5 65t16 33.5
t31.5 12.5t62 2h397q31 0 48.5 1.5t26.5 5t13.5 10.5t8.5 17q2 6 7 6q6 0 7 -6l-10 -53q-8 -41 -14 -64t-16 -34.5t-27 -14.5t-47 -3h-40h-93z" />
    <glyph glyph-name="uni0055" unicode="U" horiz-adv-x="786" 
d="M648 232q-9 -40 -19.5 -75.5t-29.5 -65t-49 -52t-78 -36.5q-13 -4 -33 -7.5t-44.5 -6t-52.5 -4t-57 -1.5q-33 0 -65.5 2.5t-62 8.5t-53.5 15.5t-39 24.5q-24 23 -34 47t-10.5 49t5.5 51.5t13 56.5l126 527q2 8 5.5 20.5t1.5 19.5q-3 12 -19 17q-8 2 -7 8q2 4 6.5 4.5
t18.5 0.5h84q43 0 66 -1.5t31.5 -10.5t5.5 -29t-11 -57l-107 -451q-4 -19 -9 -38t-6.5 -35.5t1 -30t12.5 -21.5q11 -11 35.5 -15t50.5 -4q21 0 39.5 2t28.5 5q20 6 31.5 15t19 25t14 40.5t15.5 61.5l114 474q2 8 5.5 20.5t1.5 19.5q-3 12 -19 17q-8 2 -6 8q1 4 5.5 4.5
t18.5 0.5h85q43 0 65.5 -1.5t31 -10.5t5.5 -29t-11 -57z" />
    <glyph glyph-name="uni0056" unicode="V" horiz-adv-x="768" 
d="M87 824q-5 2 -3.5 6.5t9.5 5.5h116q33 0 50.5 -2.5t26 -12.5t10.5 -29t3 -52l18 -492l279 505q19 34 17.5 50t-21.5 22q-5 2 -4.5 6.5t8.5 4.5h147q28 0 44 -2.5t20 -12.5t-3.5 -28.5t-25.5 -50.5l-424 -742h-164q-25 0 -32.5 6t-9.5 30q-1 18 -2 33q-2 12 -2.5 23.5
t-0.5 14.5l-32 665q-1 23 -3.5 34.5t-20.5 17.5z" />
    <glyph glyph-name="uni0057" unicode="W" horiz-adv-x="1100" 
d="M176 836q43 0 66 -1.5t33.5 -11t12 -30t1.5 -57.5l1 -463l262 563h186v-22v-540l207 479q9 21 12.5 33t3 19t-5.5 11t-14 9q-4 2 -3 6.5t8 4.5h93h19q42 0 63 -2t26 -12.5t-4 -32t-27 -60.5l-341 -729h-166q-14 0 -23 1t-14 6t-7 14.5t-3 25.5q-1 14 -1 26
q0 11 -0.5 20.5t-0.5 13.5l-6 399l-222 -484l-11 -22h-152q-17 0 -27.5 1t-16 4.5t-8 11.5t-2.5 22v10q-1 4 -1 8v6l-7 696q0 24 -2.5 37t-6 19t-8 7.5t-9.5 3.5q-5 3 -5 6t6 4h94z" />
    <glyph glyph-name="uni0058" unicode="X" horiz-adv-x="774" 
d="M128 823q-5 2 -4 7.5t9 5.5h101h29q31 0 47.5 -2.5t27 -13t18.5 -33t22 -61.5l37 -101l52 64q17 21 30.5 39.5t21.5 29.5q15 23 16 39t-22 26q-5 3 -4.5 8t7.5 5h110q48 0 74.5 -2.5t32 -14.5t-10 -37t-50.5 -70l-198 -253l129 -362q10 -27 16 -42.5t12 -24t13.5 -12.5
t19.5 -7q5 -2 3 -6.5t-8 -4.5h-101h-32q-31 0 -48 2.5t-28.5 13.5t-20 33.5t-22.5 61.5l-67 190l-138 -182q-10 -14 -20.5 -28t-19.5 -28q-7 -12 -9 -18t-1 -9q1 -4 2 -7.5t4 -7.5q6 -4 15 -9q5 -2 3.5 -7t-6.5 -5h-145h-16q-39 0 -58 2.5t-19 14t18 35.5t53 68l274 342
l-102 301q-7 23 -14 38t-33 22z" />
    <glyph glyph-name="uni0059" unicode="Y" 
d="M375 70q-3 -14 -5.5 -23.5t-1.5 -15.5q1 -13 20 -18q8 -2 6 -8q-1 -4 -5.5 -4.5t-19.5 -0.5h-84q-44 0 -67 4.5t-31.5 15.5t-5 30t11.5 49l38 162q9 35 12 56q2 11 4 19q-2 8 -4 20q-2 10 -5.5 24t-8.5 33l-93 355q-7 30 -12.5 39.5t-22.5 15.5q-8 4 -6.5 8.5t12.5 4.5
h90h26q32 0 49.5 -2t27.5 -12t15.5 -30.5t13.5 -57.5l52 -236l138 224q2 2 6.5 11t9.5 18q6 11 14 25q12 23 10.5 34t-17.5 19q-3 3 3 5t17 2h78q49 0 73 -3t29 -13.5t-6.5 -31.5t-35.5 -58l-224 -346q-11 -19 -20 -33.5t-14 -24.5q-7 -11 -11 -19q-2 -9 -4 -19
q-2 -8 -4.5 -19.5t-5.5 -25.5z" />
    <glyph glyph-name="uni005A" unicode="Z" horiz-adv-x="720" 
d="M207 836h511q-2 -21 -4 -40q-2 -17 -5 -34.5t-7 -29.5q-1 -3 -7.5 -11.5t-14.5 -18.5q-8 -11 -19 -24l-404 -536h204h22q25 0 50 6t38 31q2 3 4 3q8 0 6 -8l-13 -55q-8 -32 -12.5 -54.5t-14 -37t-29.5 -21t-59 -6.5h-403q-28 0 -43 1t-21 6t-4 16t8 32l23 79l438 578h-22
h-207q-10 0 -20 1t-17 4.5t-9 10.5t2 19z" />
    <glyph glyph-name="uni005E" unicode="^" horiz-adv-x="288" 
d="M169 907h120l82 -117l-2 -21q-2 -17 -4.5 -20.5t-16.5 -3.5h-21l-103 76l-127 -76h-19q-9 0 -12.5 1t-2.5 9l4 15z" />
    <glyph glyph-name="uni0060" unicode="`" horiz-adv-x="228" 
d="M100 922h56l171 -122l-15 -55h-25l-167 73q-19 8 -29 13.5t-13 11t-1 14t7 22.5z" />
    <glyph glyph-name="uni0061" unicode="a" horiz-adv-x="666" 
d="M175 672h248h37q17 0 34.5 -1.5t34.5 -6.5t32.5 -14.5t28.5 -26.5q13 -16 16.5 -33.5t2 -36t-6.5 -38.5t-10 -41l-102 -404q-4 -17 -6 -26.5t-0.5 -15t6.5 -8.5t14 -7q8 -5 7 -9t-10 -4h-2h-84h-6q-45 0 -68 2t-30.5 13.5t-2 35.5t18.5 69l-14 -18q-24 -34 -39.5 -54
t-29 -30.5t-28.5 -14t-38 -3.5h-23.5t-27.5 1q-17 1 -35.5 2.5t-36 7.5t-33.5 18.5t-28 35.5q-9 17 -11 43t1 55t10 60t15.5 58t17 48t14.5 31q20 33 42 50.5t47.5 26t55 10t63.5 1.5h62h35q29 0 44 4t25 22q2 4 4.5 11.5t3.5 15.5t1 16t-2 12q-7 11 -19 13.5t-43 2.5h-48
h-109q-22 0 -34 1t-17.5 5.5t-4.5 13.5t6 26zM381 338h-44h-46q-22 0 -37.5 -1.5t-27.5 -6t-21.5 -14t-20.5 -26.5q-6 -10 -11.5 -26t-9 -33.5t-4.5 -32.5t3 -23q8 -17 32 -21.5t53 -4.5h38h51z" />
    <glyph glyph-name="uni0062" unicode="b" horiz-adv-x="677" 
d="M143 824q-5 2 -4.5 6.5t7.5 5.5h109q34 0 52 -2t25.5 -10.5t6 -24.5t-7.5 -44l-3 -11q-2 -10 -5 -20l-36 -154q23 38 35.5 58.5t26 30.5t33.5 11.5t57 1.5q17 0 41 -1t49 -7.5t47.5 -20t36.5 -38.5q15 -27 19.5 -65.5t1 -83.5t-13 -92.5t-23 -92t-29.5 -83.5t-32 -65
q-27 -46 -52.5 -71t-53.5 -36.5t-59.5 -13.5t-69.5 -2h-220q-40 0 -61 2t-28.5 12.5t-4 33t13.5 63.5l159 656q5 19 4 34.5t-21 22.5zM220 141h49q32 0 55.5 6t44.5 29q11 12 22.5 35.5t21.5 53t18.5 61.5t14.5 61.5t8.5 53t0.5 35.5q-2 18 -11 29t-22 17t-28 8t-30 2
q-17 0 -33 -2t-25 -6q-16 -8 -27.5 -29.5t-19.5 -44.5q-9 -26 -16 -57l-61 -252h38z" />
    <glyph glyph-name="uni0063" unicode="c" horiz-adv-x="570" 
d="M531 672h14q-9 -51 -15.5 -78.5t-17 -40t-29.5 -15t-54 -2.5h-37h-41q-40 0 -65 -7.5t-46 -39.5q-7 -12 -17 -35.5t-19.5 -53.5t-18 -62.5t-14 -62.5t-6 -54t5.5 -36q11 -21 31.5 -30t48.5 -11q8 0 19 -0.5t24 -0.5q20 0 44 2t47 8t44 17.5t36 30.5q4 5 8 5q6 0 4 -9
l-11 -54q-7 -37 -11.5 -60.5t-12.5 -38.5t-24.5 -23.5t-49.5 -14.5q-20 -5 -55.5 -9t-77.5 -4q-30 0 -60.5 3t-58.5 11.5t-51.5 22t-40.5 34.5q-19 25 -26.5 61t-6.5 78t8.5 86.5t19 86.5t25 78.5t26.5 61.5q29 56 57 87t61.5 46.5t74.5 19t94 3.5h174z" />
    <glyph glyph-name="uni0064" unicode="d" horiz-adv-x="697" 
d="M494 824q-4 2 -4.5 7t11.5 5h90q42 0 64.5 -2t30.5 -11.5t5.5 -30t-11.5 -56.5l-166 -667q-4 -16 -4.5 -25.5t2 -15.5t7 -9t11.5 -8q8 -4 8 -7.5t-8 -3.5h-96h-45h-16q-16 0 -25 1.5t-12.5 6.5t-2.5 14.5t4 24.5l13 67q-24 -42 -37 -65.5t-24.5 -34t-25 -12.5t-38.5 -2
h-70q-21 0 -41.5 2.5t-39.5 9.5t-36 21.5t-31 38.5q-13 23 -16 59.5t0.5 79.5t13 89t22 89t27 79.5t27.5 59.5q32 53 69 82t76.5 42.5t81.5 16.5t82 3h97l30 112q2 10 2.5 16t-1.5 10t-8 7t-16 7zM412 534h-40q-24 0 -43.5 -2t-36.5 -9.5t-31.5 -22t-28.5 -40.5
q-6 -12 -15 -34.5t-18 -50.5t-16.5 -58.5t-11.5 -58t-3 -50t10 -34.5q14 -19 42 -25t52 -6q12 0 20.5 1t13.5 2q24 5 37.5 15.5t21.5 26t13 37t12 49.5l65 260h-43z" />
    <glyph glyph-name="uni0065" unicode="e" horiz-adv-x="642" 
d="M187 304q-11 -29 -15 -56q-4 -23 -2 -46.5t18 -38.5q9 -8 24.5 -13.5t34.5 -8.5t40 -4.5t40 -1.5q24 0 48.5 2t48 8t44 18t36.5 33q1 4 6 4t5 -6l-13 -58q-10 -46 -18.5 -74t-23.5 -43.5t-42 -20.5t-75 -5h-33h-46q-29 0 -64.5 2t-69.5 10t-63 23t-46 42q-15 25 -20 62
t-2.5 80t11 89t20.5 89.5t26.5 80.5t28.5 62q30 52 66.5 81t76 43.5t80 18t77.5 3.5q17 0 45 -3t57.5 -12t56 -25t39.5 -42q12 -25 15 -64.5t-0.5 -79t-11 -73t-16.5 -47.5q-6 -10 -18.5 -16t-28 -9t-32.5 -3.5t-33 -0.5h-23h-248zM442 417q4 14 7 30t4 31.5t-0.5 28.5
t-7.5 19q-14 19 -37 24.5t-45 5.5q-13 0 -23.5 -1t-16.5 -2q-26 -5 -43 -19t-28 -33t-18.5 -41t-14.5 -43h223z" />
    <glyph glyph-name="uni0066" unicode="f" horiz-adv-x="427" 
d="M159 69q-6 -27 -8 -38t0 -15t7.5 -3.5t13.5 -2.5q5 -2 5.5 -5.5t-6.5 -4.5h-93q-42 0 -63 8t-27.5 21.5t-3.5 32t9 40.5l115 432h-52l28 110q17 0 28 1.5t18.5 10t13.5 26t15 50.5q9 36 22 57t31.5 31.5t42.5 13t54 2.5h50h165q-2 -9 -4.5 -24t-7.5 -31t-13 -29.5
t-22 -19.5q-6 -2 -17.5 -3t-26.5 -1h-59q-25 0 -33 -5.5t-13 -25.5l-7 -25h143l-20 -80q-6 -21 -11.5 -32t-11.5 -16.5t-14 -6.5t-19 -1h-52q-19 0 -29.5 -1t-17 -6t-10.5 -15.5t-9 -30.5z" />
    <glyph glyph-name="uni0067" unicode="g" horiz-adv-x="674" 
d="M-20 27q1 6 7 6q4 0 7 -6q10 -19 23 -28.5t28 -13t31 -4t32 -0.5h11q12 0 30 0.5t35.5 1t31.5 1t17 1.5q33 5 51 16.5t28.5 29t16 39.5t12.5 48l8 27q-13 -20 -28 -38q-13 -16 -30 -30.5t-37 -22.5q-12 -5 -27.5 -6.5t-31.5 -1.5q-25 0 -51 2.5t-50 10t-44.5 21.5
t-34.5 38q-13 24 -17 58t-0.5 73.5t12 81t19.5 79.5t24 69.5t24 51.5q27 46 58.5 74t65.5 43t71.5 19.5t76.5 4.5h178q44 0 67 -2t31.5 -12.5t5 -32.5t-14.5 -62l-131 -540q-16 -66 -43 -101t-63.5 -51.5t-81.5 -20t-96 -5.5h-82q-9 0 -32.5 0.5t-50 3.5t-50 9.5t-31.5 17.5
q-6 7 -5.5 22t3.5 30.5t7 30t6 22.5zM399 532h-26q-32 0 -54.5 -1.5t-40 -9.5t-32 -23.5t-31.5 -44.5q-9 -17 -20.5 -49.5t-19.5 -68t-8.5 -67.5t12.5 -49q13 -16 35 -21t44 -5q18 0 32 2t19 3q21 7 32.5 12.5t18 16.5t11.5 31.5t14 58.5l50 215h-36z" />
    <glyph glyph-name="uni0068" unicode="h" horiz-adv-x="706" 
d="M530 69q-6 -21 -7.5 -32t0 -16t7 -6.5t13.5 -4.5q5 -2 5.5 -5.5t-6.5 -4.5h-92q-42 0 -63.5 7t-28.5 19.5t-3.5 31.5t9.5 44l72 304q4 15 8.5 32.5t7 33.5t0 29.5t-11.5 20.5q-8 8 -28.5 10.5t-40.5 2.5q-14 0 -26 -1t-18 -3q-21 -7 -33.5 -19t-20 -28.5t-13 -36.5
t-11.5 -43l-80 -335q-7 -31 -5.5 -42t18.5 -17q5 -2 5.5 -5.5t-6.5 -4.5h-92q-42 0 -63.5 4t-28.5 14.5t-4 30.5t10 53l161 664q8 32 6 42.5t-19 16.5q-6 2 -6 6.5t7 4.5h92q42 0 64 -2t30 -12t4.5 -31t-12.5 -58l-35 -147q23 32 35.5 49t24.5 25.5t27 10t43 1.5h10h39
q19 0 40.5 -1t42.5 -5t39 -11.5t29 -20.5q13 -16 16.5 -36t2 -41t-6 -42t-8.5 -39z" />
    <glyph glyph-name="uni0069" unicode="i" horiz-adv-x="340" 
d="M166 69q-4 -18 -5.5 -28t0 -16t6 -9t12.5 -6q5 -2 5.5 -5.5t-6.5 -4.5h-93q-42 0 -63 4t-28 14.5t-4 30.5t10 53l121 500q8 32 6 42.5t-19 16.5q-5 2 -5.5 6t6.5 5h92q42 0 64 -2t30 -12t4.5 -30.5t-12.5 -57.5zM199 715q-13 0 -22 2t-15 10q-4 5 -5 12t1 15l20 82h122
q12 0 22.5 -2.5t15.5 -10.5q3 -5 4.5 -11t-0.5 -15l-21 -82h-122z" />
    <glyph glyph-name="uni006A" unicode="j" horiz-adv-x="347" 
d="M149 1q-15 -58 -25.5 -90t-28 -47t-49 -18t-89.5 -3h-24h-96q-32 0 -49 1t-24.5 5.5t-7 13.5t4.5 24l26 101q3 6 8 6t8 -6q10 -18 28.5 -21t35.5 -3q4 0 13 0.5t19 1t19.5 1.5t13.5 2q16 5 24.5 13t14 20t10 29.5t11.5 41.5l129 529q8 32 6 42.5t-19 16.5q-6 2 -6 6.5
t7 4.5h92q42 0 64 -2t30 -12t4.5 -30.5t-12.5 -57.5zM199 715q-13 0 -22 2t-15 10q-4 5 -5 12t1 15l20 82h122q12 0 22.5 -2.5t15.5 -10.5q3 -5 4.5 -11t-0.5 -15l-21 -82h-122z" />
    <glyph glyph-name="uni006B" unicode="k" horiz-adv-x="691" 
d="M516 69q-4 -18 -5.5 -28t0 -16t6 -9t12.5 -6q5 -2 5.5 -5.5t-6.5 -4.5h-93q-42 0 -63.5 3.5t-28.5 14t-3.5 30.5t11.5 54l26 115q7 29 10.5 47t4 29.5t-1 18t-4.5 10.5q-8 11 -22 13.5t-45 2.5h-47h-36l-66 -269q-4 -18 -5.5 -28t0 -16t6 -9t12.5 -6q5 -2 5.5 -5.5
t-6.5 -4.5h-92q-42 0 -63.5 4t-28.5 14.5t-4 30.5t10 53l161 664q8 32 6 42.5t-19 16.5q-7 2 -7 6.5t8 4.5h92q42 0 64 -2t30 -12t4.5 -31t-12.5 -58l-70 -287l150 154l19 22q24 26 -12 39q-5 2 -5 6.5t7 4.5h129q38 0 57 -2.5t19 -13.5t-19.5 -34t-59.5 -64l-114 -116
q9 -1 25.5 -0.5t35 -2.5t37 -10.5t31.5 -24.5q11 -15 13.5 -34.5t0.5 -40.5t-6.5 -41.5t-8.5 -35.5z" />
    <glyph glyph-name="uni006C" unicode="l" horiz-adv-x="340" 
d="M163 69q-4 -18 -5.5 -28t0 -16t6 -9t12.5 -6q5 -2 5.5 -5.5t-6.5 -4.5h-93q-42 0 -63.5 4t-28.5 14.5t-3.5 30.5t10.5 53l161 664q8 32 5.5 42.5t-19.5 16.5q-6 2 -6 6.5t7 4.5h93q42 0 64 -2t29.5 -12t4 -31t-12.5 -58z" />
    <glyph glyph-name="uni006D" unicode="m" horiz-adv-x="1034" 
d="M766 409q4 20 8.5 37t6 31t-0.5 25.5t-11 19.5q-8 7 -24.5 10t-34.5 3q-26 0 -43 -5q-21 -6 -34.5 -21.5t-22 -35t-13 -38.5t-7.5 -33l-79 -333q-4 -18 -5.5 -28t0 -16t6 -9t12.5 -6q5 -2 5.5 -5.5t-6.5 -4.5h-93q-42 0 -63.5 3.5t-28.5 14.5t-3.5 31t10.5 53l74 307
q4 20 8.5 37t6 31.5t0 26.5t-9.5 20q-6 6 -23 8.5t-35 2.5q-14 0 -26 -1t-18 -3q-19 -6 -32 -21.5t-21 -35t-13 -39t-8 -33.5l-79 -333q-4 -18 -5.5 -28t0 -16t6 -9t12.5 -6q5 -2 5.5 -5.5t-6.5 -4.5h-92q-42 0 -63.5 3.5t-28.5 14.5t-4 31t10 53l121 500q8 32 6 42.5
t-19 16.5q-5 2 -5.5 6t6.5 5h92h18q34 0 53 -2t26 -11t4 -27.5t-12 -51.5q18 32 27 50.5t19.5 27.5t27.5 11.5t50 2.5h66q11 0 28.5 -1t37 -6t37.5 -15t29 -28q9 -14 12 -26.5t6 -24.5q21 35 33 55.5t21 30.5t20 12.5t31 2.5h35q18 0 44.5 -1t53 -5t49 -13t34.5 -25
q11 -15 15 -34t3.5 -38.5t-5 -38.5t-10.5 -34l-20 -81l-79 -333q-4 -18 -6 -28t-0.5 -16t6 -9t13.5 -6q5 -2 5.5 -5.5t-6.5 -4.5h-93q-42 0 -63.5 3.5t-28.5 14.5t-3.5 31t10.5 53z" />
    <glyph glyph-name="uni006E" unicode="n" horiz-adv-x="679" 
d="M620 571q0 -11 -5.5 -38.5t-12.5 -56.5q-9 -34 -19 -74l-79 -333q-4 -18 -6 -28t-0.5 -16t6 -9t13.5 -6q5 -2 5.5 -5.5t-6.5 -4.5h-93q-42 0 -63.5 3.5t-28.5 14.5t-3.5 31t10.5 53l74 307q8 39 14 68.5t-9 46.5q-6 6 -23 8.5t-35 2.5q-14 0 -26 -1t-18 -3
q-20 -6 -32.5 -21.5t-21 -35t-13 -39t-7.5 -33.5l-79 -333q-4 -18 -5.5 -28t0 -16t6 -9t12.5 -6q5 -2 5.5 -5.5t-6.5 -4.5h-93q-42 0 -63.5 3.5t-28.5 14.5t-3.5 31t10.5 53l121 500q8 32 6 42.5t-19 16.5q-5 2 -5.5 6t6.5 5h92h18q34 0 53 -2t26 -11t4 -27.5t-12 -51.5
q17 33 28 51.5t25 27.5t35.5 11t59.5 2h42q27 0 53 -4t46 -15.5t32.5 -31t12.5 -50.5z" />
    <glyph glyph-name="uni006F" unicode="o" 
d="M35 404q20 68 41.5 116t53.5 81t79 51.5t117 25.5q5 0 15.5 0.5t27.5 0.5q25 0 59 -2t68 -8.5t63.5 -19t46.5 -32.5q20 -24 27.5 -53.5t6 -62.5t-8.5 -68.5t-16 -72.5q-8 -35 -16 -63t-18 -57q-15 -42 -28.5 -79t-35 -67t-55 -52t-87.5 -36q-22 -5 -58.5 -9t-78.5 -4
q-30 0 -60 2.5t-57.5 8.5t-50.5 16.5t-38 26.5q-27 27 -35.5 64.5t-6.5 76.5t10 76.5t14 64.5zM299 547q-23 -10 -42 -36t-34.5 -60t-27 -72.5t-19.5 -73.5t-12 -63t-4 -41q-1 -22 4.5 -39.5t24.5 -31.5q11 -8 30.5 -10.5t40.5 -2.5q18 0 34.5 2t25.5 5q30 11 48.5 29.5
t31 43.5t20.5 56t17 68l10 37q7 30 13.5 57t8.5 50t-3 42t-21 32q-13 11 -33 14.5t-41 3.5q-23 0 -43 -3t-29 -7z" />
    <glyph glyph-name="uni0070" unicode="p" horiz-adv-x="689" 
d="M225 150h53q39 0 60.5 5.5t42.5 29.5q12 13 22.5 37.5t20 55t17.5 63.5t13.5 61.5t8 49.5t1.5 27q-4 32 -33 46q-6 4 -21 5t-32 1q-20 0 -38.5 -1.5t-26.5 -4.5q-16 -7 -27 -23.5t-18 -35t-11 -37t-7 -30.5l-59 -249h34zM157 0l-26 -99q-4 -17 -5.5 -27.5t0 -16.5t6 -9
t12.5 -6q6 -2 6.5 -5.5t-7.5 -4.5h-92q-42 0 -63.5 4t-28.5 14.5t-4 30.5t10 53l162 668q8 32 6 42.5t-19 16.5q-6 2 -6 6.5t7 4.5h93q42 0 63.5 -3t28.5 -14t3.5 -32.5t-12.5 -58.5q24 39 37 60.5t27.5 32t36 13t61.5 2.5q16 0 39 -1.5t47.5 -8.5t46.5 -21t36 -39
q14 -26 18 -64.5t0 -83.5t-14.5 -93.5t-24.5 -93.5t-30.5 -84.5t-32.5 -65.5q-25 -40 -47.5 -63.5t-46 -35.5t-49.5 -15t-58 -3h-61h-119z" />
    <glyph glyph-name="uni0071" unicode="q" horiz-adv-x="681" 
d="M424 534h-59q-23 0 -40.5 -1t-31 -5t-25.5 -11.5t-24 -21.5q-17 -18 -33.5 -59t-28.5 -86.5t-19 -86t-4 -58.5t11.5 -29t21 -17t28 -8t30.5 -2q22 0 41.5 2.5t28.5 6.5q15 7 23.5 15t14.5 21.5t11 34t12 51.5l64 254h-21zM465 -99q-4 -19 -6 -29.5t-0.5 -16t6.5 -8
t13 -5.5q5 -2 5.5 -5.5t-6.5 -4.5h-92q-42 0 -63.5 6t-29 18t-4 31.5t10.5 46.5l44 188l-12 -17q-25 -37 -39 -58.5t-26.5 -31.5t-29.5 -12.5t-48 -2.5h-30q-16 0 -37.5 1.5t-43.5 8.5t-42 20t-34 37t-17.5 60.5t0 79.5t12.5 89t21.5 89t27.5 79.5t29 60.5q30 51 62 80
t67.5 44t74.5 19t83 4h184h5q39 0 60 -2t28 -13t3.5 -34t-14.5 -66z" />
    <glyph glyph-name="uni0072" unicode="r" horiz-adv-x="475" 
d="M164 69q-4 -18 -5.5 -28t0 -16t6 -9t12.5 -6q5 -2 5.5 -5.5t-6.5 -4.5h-93q-42 0 -63.5 3.5t-28.5 14.5t-3.5 31t10.5 53l121 500q8 32 6 42.5t-19 16.5q-5 2 -5.5 6t6.5 5h92q40 0 62 -2t31 -10.5t7.5 -26t-9.5 -47.5q23 30 34.5 47t20.5 25.5t20 11t33 2.5h47h75
l-25 -100q-3 -12 -6.5 -19.5t-9.5 -11t-16 -5t-28 -1.5h-19h-27q-24 0 -45.5 -1.5t-34.5 -7.5t-22 -14t-15.5 -22t-13 -35.5t-14.5 -54.5z" />
    <glyph glyph-name="uni0073" unicode="s" horiz-adv-x="601" 
d="M538 672q-7 -36 -11.5 -60.5t-14.5 -40.5t-29 -23t-57 -7h-68h-26q-30 0 -57.5 -3.5t-41.5 -20.5q-11 -14 -11.5 -24.5t2.5 -23.5q2 -10 13.5 -18t26 -13.5t28 -9t20.5 -5.5l39 -10q18 -4 40 -10t42.5 -16t37.5 -25.5t25 -39.5q7 -20 4 -55.5t-12.5 -73.5t-23.5 -72
t-28 -52q-20 -25 -43 -39t-48 -21t-52.5 -8t-56.5 -1h-7h-202h-16.5t-21 1.5t-19.5 4.5t-13 9q-10 14 -3.5 38.5t19.5 68.5l18 64h5h6q5 -9 12.5 -18t18.5 -13q8 -5 20 -7.5t30 -2.5h78h52q21 0 36.5 0.5t26.5 3.5t19.5 8.5t16.5 14.5q11 11 12.5 28.5t-4.5 29.5
q-5 11 -17.5 19.5t-27 14.5t-28.5 9.5t-21 5.5l-37 9q-15 4 -36 9.5t-42.5 15.5t-39 25t-25.5 37q-7 19 -4.5 50t11 64.5t20.5 64t25 48.5q17 24 37.5 38t42.5 21t45 9t45 2h35h235z" />
    <glyph glyph-name="uni0074" unicode="t" horiz-adv-x="443" 
d="M77 648q36 5 66 14t56.5 24.5t51.5 40.5t51 63h39l-30 -124h163l-2 -7q-2 -8 -5.5 -24t-9.5 -34t-14.5 -33.5t-20.5 -21.5q-8 -4 -21 -4h-67q-16 0 -26 -4q-14 -6 -23.5 -20t-15.5 -30t-9.5 -32t-6.5 -27l-42 -178q-12 -46 -16 -67t12 -32q3 -2 11 -3.5t18.5 -2t22.5 -1
t23 -0.5h23.5t11.5 1q12 4 21 12t20 25h13l-12 -61q-7 -36 -14 -59.5t-19.5 -37.5t-33 -19.5t-55.5 -5.5h-110h-15q-12 0 -26.5 0.5t-29 3.5t-27 8.5t-20.5 14.5q-9 12 -10 30.5t1.5 37.5t7 36.5t6.5 27.5l93 383h-56z" />
    <glyph glyph-name="uni0075" unicode="u" horiz-adv-x="707" 
d="M11 102q0 11 5.5 38.5t13.5 56.5q8 34 18 74l79 332q4 18 5.5 28t0 16t-6 9t-12.5 6q-5 2 -5.5 5.5t6.5 4.5h93q42 0 63 -3.5t28 -14.5t4 -30.5t-10 -52.5l-74 -308q-4 -19 -8.5 -36t-6 -31.5t0 -26.5t9.5 -20q6 -7 27.5 -9.5t44.5 -2.5q17 0 30.5 1t19.5 3q20 6 32.5 22
t21 35.5t13 39t7.5 33.5l79 332q4 18 5.5 28t0 16t-6 9t-12.5 6q-5 2 -5.5 5.5t6.5 4.5h93q42 0 63.5 -3.5t28.5 -14.5t3.5 -30.5t-10.5 -52.5l-121 -501q-8 -32 -6 -42.5t19 -16.5q5 -2 5.5 -6t-6.5 -5h-92h-18q-34 0 -53 2t-26 11t-4 27.5t12 52.5q-17 -33 -28 -52
t-25.5 -28t-37 -11t-62.5 -2h-37q-10 0 -31 1t-44.5 6t-45 15.5t-32.5 28.5q-8 14 -9.5 25.5t-1.5 25.5z" />
    <glyph glyph-name="uni0076" unicode="v" horiz-adv-x="575" 
d="M56 672h79h31q38 0 53 -2t19 -8q5 -7 7.5 -19.5t3.5 -26t1.5 -25.5t0.5 -17l15 -321q45 99 81 177q15 33 30 65.5t27 58t19.5 41.5t7.5 17q5 11 7 18t0.5 12t-7 9.5t-15.5 11.5v9h88h43q35 0 46 -2t15 -12q5 -12 -7 -38.5t-28 -57.5l-287 -562h-172l-31 601
q-1 23 -3.5 36.5t-23.5 27.5v7z" />
    <glyph glyph-name="uni0077" unicode="w" horiz-adv-x="956" 
d="M60 672h76h48q27 0 40.5 -1.5t19.5 -7.5q5 -4 7 -17t3.5 -28t1.5 -28v-18l11 -312l195 412h163l20 -415q44 94 80 170q15 32 29.5 63.5t26.5 57.5t20 43t9 21q8 20 6.5 28.5t-12.5 17.5l-7 5v9h166q23 0 26 -18q1 -5 -3 -16t-9 -22l-312 -616h-177l-14 364l-188 -364
h-170l-23 589q0 8 -1 21.5t-6 21.5q-5 12 -10.5 17.5t-15.5 13.5v9z" />
    <glyph glyph-name="uni0078" unicode="x" horiz-adv-x="690" 
d="M67 672h93h41q23 0 36 -2.5t23 -12t19.5 -29t24.5 -52.5l42 -89l96 115q12 14 15.5 21t3.5 11q0 10 -3 15.5t-13 12.5v10h155h7q8 0 15 -2t9 -12q4 -14 -13.5 -36t-48.5 -61l-165 -198l137 -291q12 -26 21.5 -40t29.5 -23v-9h-89h-11q-37 0 -57 2t-33.5 12t-24.5 32
t-29 61l-57 121l-119 -144q-18 -21 -22 -33.5t-2 -17.5q2 -12 6.5 -15.5t12.5 -8.5v-9h-101h-45q-26 0 -36.5 2t-14.5 12q-5 14 14.5 38.5t51.5 62.5l196 237l-124 264q-8 18 -15 26t-26 20v10z" />
    <glyph glyph-name="uni0079" unicode="y" horiz-adv-x="655" 
d="M60 672h83h27q30 0 46.5 -2t25.5 -11.5t15 -28.5t15 -53l68 -267l152 250q41 64 40 76q-1 9 -5.5 14.5t-16.5 11.5v10h79h51q17 0 26.5 -0.5t15 -2.5t8.5 -5t6 -9t-1 -16.5t-10.5 -23.5t-14.5 -25.5t-14 -22.5l-403 -658q-9 -14 -13.5 -23.5t-4.5 -17t6 -14t19 -14.5v-8
h-87h-43q-29 0 -40.5 3t-17.5 14q-5 11 5 30t36 61l108 176l-22 84l-102 404q-3 14 -8.5 29.5t-17.5 22.5l-11 6v10z" />
    <glyph glyph-name="uni007A" unicode="z" horiz-adv-x="654" 
d="M605 672q-11 -48 -17.5 -71.5t-14 -38.5t-18.5 -27.5t-31 -38.5l-281 -348h135q37 0 72 4.5t62 30.5h15l-16 -68q-10 -42 -17.5 -65t-17.5 -34.5t-25.5 -13.5t-41.5 -2h-15h-307h-58q-27 0 -36 1.5t-12 6.5q-2 3 1 19.5t8 36.5q6 23 13 51l355 432h-138h-41
q-33 0 -51.5 3t-23.5 16q-1 4 2 20.5t7 35.5q5 23 12 50h480z" />
    <glyph glyph-name="uni007E" unicode="~" horiz-adv-x="362" 
d="M366 826q19 3 26.5 6.5t13 7t13.5 5.5t26 2q7 0 3 -10l-3 -11q-2 -6 -3.5 -12t-3.5 -12q-4 -13 -5.5 -22t-18.5 -20q-13 -8 -30.5 -11t-38.5 -3q-23 0 -47.5 4t-49.5 12l-20 6q-28 9 -53 9h-11t-12 -2q-8 -2 -20 -7t-20 -8q-9 -3 -15.5 -4.5t-23.5 -1.5q-5 -1 -5 2.5
t2 7.5l3 12q3 15 5 23q4 14 9.5 23.5t16.5 17.5q29 17 71 17q44 0 93 -17l22 -7q30 -9 53 -9q6 0 12 0.5t11 1.5z" />
    <glyph glyph-name="uni00C4" unicode="&#xc4;" horiz-adv-x="781" 
d="M363 830q1 3 5 5q2 1 5 1h164h48q24 0 36 -1.5t17 -6.5q6 -7 8.5 -24.5t2.5 -65.5v-673q0 -25 5 -34t17 -18q1 -1 1 -3q2 -2 1 -5q0 -1 -3 -4q-2 0 -3 -1h-89h-50q-19 0 -29 1.5t-16 7.5q-8 8 -9.5 30.5t-1.5 67.5v100h-267q-20 -34 -36 -63q-14 -24 -27 -46t-16 -29
q-12 -22 -9 -32q0 -11 7 -14.5t19 -8.5q2 -1 3 -3q3 -3 2 -6q-2 -4 -7 -4q-2 -1 -5 -1h-147h-19q-13 0 -23 1.5t-15 7.5q-7 9 -1.5 20t24.5 42l402 665q14 23 20 32t8 13q7 14 4.5 21t-20.5 18q-7 4 -6 10zM279 333h193v352zM356 1095h73q32 0 39.5 -11t-1.5 -46l-15 -57
h-62q-40 0 -50.5 9.5t-1.5 46.5zM538 1095h73q32 0 39.5 -11t-1.5 -46l-15 -57h-62q-40 0 -50.5 9.5t-1.5 46.5z" />
    <glyph glyph-name="uni00C5" unicode="&#xc5;" horiz-adv-x="781" 
d="M363 830q1 3 5 5q2 1 5 1h164h48q24 0 36 -1.5t17 -6.5q6 -7 8.5 -24.5t2.5 -65.5v-673q0 -25 5 -34t17 -18q1 -1 1 -3q2 -2 1 -5q0 -1 -3 -4q-2 0 -3 -1h-89h-50q-19 0 -29 1.5t-16 7.5q-8 8 -9.5 30.5t-1.5 67.5v100h-267q-20 -34 -36 -63q-14 -24 -27 -46t-16 -29
q-12 -22 -9 -32q0 -11 7 -14.5t19 -8.5q2 -1 3 -3q3 -3 2 -6q-2 -4 -7 -4q-2 -1 -5 -1h-147h-19q-13 0 -23 1.5t-15 7.5q-7 9 -1.5 20t24.5 42l402 665q14 23 20 32t8 13q7 14 4.5 21t-20.5 18q-7 4 -6 10zM279 333h193v352zM460 1177q8 6 18.5 11.5t22.5 8.5q15 5 30 5
q18 0 37 -6.5t35 -20.5q23 -19 33.5 -46.5t7.5 -51.5q-3 -22 -13 -41t-25.5 -32.5t-35.5 -21t-42 -7.5q-44 0 -75.5 29t-35.5 73q-2 23 7 51t36 49zM516 1119q-22 -11 -21 -29.5t17 -29.5q8 -5 21 -5q12 0 21.5 9.5t10.5 21.5q1 11 -5 19t-13 13q-6 5 -16 5q-8 0 -15 -4z
" />
    <glyph glyph-name="uni00C9" unicode="&#xc9;" 
d="M140 831q1 5 21 5h517l-24 -98q-2 -9 -6.5 -15t-16.5 -9.5t-33.5 -5.5t-58.5 -2h-205l-44 -181h294l-23 -97q-7 -28 -34 -34t-60 -6h-13h-83q-34 0 -56.5 -2t-38 -13t-25.5 -35t-21 -69l-31 -128h219h18q27 0 49 5t48 30q1 2 3 3q4 4 6 4q4 1 8 -3q1 -2 1 -4l-13 -56
q-9 -38 -15.5 -61.5t-18 -36.5t-31.5 -17.5t-55 -4.5h-335h-36q-28 0 -41 2t-17 10q-5 11 -0.5 35.5t9.5 44.5l161 672q8 37 7 42q-2 7 -8 11t-12 6q-7 2 -6 8zM560 1115l-13 -54q-3 -15 -5 -22.5t-6.5 -12.5t-13 -9l-25.5 -12l-152 -69h-49l12 43l199 136h53z" />
    <glyph glyph-name="uni00D1" unicode="&#xd1;" horiz-adv-x="762" 
d="M565 0h-97q-10 1 -18 10.5t-14.5 22.5t-12 27.5t-9.5 26.5l-146 405l-98 -406q-3 -14 -5 -24t-1 -18.5t6.5 -15.5t16.5 -14q9 -5 7 -10t-12 -4h-82q-47 0 -71.5 2.5t-33 12.5t-5 31.5t12.5 58.5l159 661q6 33 3 42.5t-20 14.5q-10 4 -7.5 8.5t13.5 4.5h155
q15 0 23.5 -1.5t15 -10t14 -27.5t19.5 -54l117 -325l83 332q6 28 6 43.5t-23 28.5q-9 5 -7.5 9.5t10.5 4.5h2h82q47 0 71.5 -2t33 -12t5 -31.5t-12.5 -59.5zM603 1013q19 3 26.5 7t13 7t13.5 5.5t26 2.5q7 0 3 -11l-3 -11q-2 -6 -3.5 -12t-3.5 -12t-2.5 -11.5t-2.5 -10.5
t-6 -9.5t-13 -10.5q-13 -8 -30.5 -11t-38.5 -3q-23 0 -47.5 4t-49.5 12l-20 6q-28 9 -53 9h-11t-12 -2q-8 -2 -20 -7t-20 -8q-9 -3 -15.5 -4.5t-23.5 -1.5q-5 -1 -5 2.5t2 7.5l3 12q3 18 8.5 35.5t22.5 28.5q29 17 72 17t92 -17l22 -7q30 -9 53 -9q6 0 12 0.5t11 1.5z" />
    <glyph glyph-name="uni00D6" unicode="&#xd6;" horiz-adv-x="789" 
d="M307 831q37 12 86 17t89 5q30 0 62.5 -3.5t64 -12.5t60.5 -25t50 -41q27 -31 37.5 -71t10.5 -85.5t-8 -94.5t-17 -99q-4 -21 -8.5 -37t-10.5 -36q-29 -93 -59 -161.5t-75 -113.5t-110.5 -67t-165.5 -22q-31 0 -64 3t-64 10.5t-58 19.5t-46 31q-36 35 -50.5 77.5
t-15.5 90.5t8 100.5t21 107.5l7 31.5t8 30.5q18 60 36.5 114t45.5 99t66.5 79t99.5 53zM413 706q-39 -9 -64.5 -33t-43.5 -57.5t-30.5 -74t-24.5 -82.5q-4 -15 -7 -26.5l-6 -23l-6 -23t-6 -25.5q-7 -29 -13 -58.5t-6.5 -56.5t7 -51t26.5 -42q16 -16 39.5 -21.5t46.5 -5.5
q26 0 46 5q38 11 63 32.5t41.5 51t28 65.5t23.5 75q5 16 8.5 29.5t6.5 26t6 26t6 30.5q7 31 12.5 61.5t6.5 58t-6 51.5t-25 42q-17 17 -43 23t-49 6t-37 -3zM366 1091h73q32 0 39.5 -11t-1.5 -46l-15 -57h-62q-40 0 -50.5 9.5t-1.5 46.5zM548 1091h74q32 0 39 -11t-2 -46
l-15 -57h-62q-40 0 -50.5 9.5t-1.5 46.5z" />
    <glyph glyph-name="uni00DC" unicode="&#xdc;" horiz-adv-x="786" 
d="M652 232q-9 -40 -19.5 -75.5t-29.5 -65t-49 -52t-78 -36.5q-13 -4 -33 -7.5t-44.5 -6t-52.5 -4t-57 -1.5q-33 0 -65.5 2.5t-62 8.5t-53.5 15.5t-39 24.5q-24 23 -34 47t-10.5 49t5.5 51.5t13 56.5l126 527q2 8 5.5 20.5t1.5 19.5q-3 12 -19 17q-8 2 -6 8q1 4 5.5 4.5
t18.5 0.5h84q43 0 66 -1.5t31.5 -10.5t5.5 -29t-11 -57l-107 -451q-4 -19 -9 -38t-6.5 -35.5t1 -30t12.5 -21.5q11 -11 35.5 -15t50.5 -4q22 0 40 2t28 5q20 6 31.5 15t19 25t14 40.5t15.5 61.5l114 474q2 8 5.5 20.5t1.5 19.5q-3 12 -19 17q-8 2 -6 8q1 4 5.5 4.5t18.5 0.5
h85q43 0 66 -1.5t31.5 -10.5t5.5 -29t-12 -57zM352 1103h73q32 0 39.5 -11t-1.5 -46l-15 -57h-62q-40 0 -51 9.5t-1 46.5zM534 1103h73q32 0 39.5 -11t-1.5 -46l-15 -57h-62q-40 0 -50.5 9.5t-1.5 46.5z" />
    <glyph glyph-name="uni00E1" unicode="&#xe1;" horiz-adv-x="666" 
d="M178 672h248h37q17 0 34.5 -1.5t34.5 -6.5t32.5 -14.5t28.5 -26.5q13 -16 16.5 -33.5t2 -36t-6.5 -38.5t-10 -41l-102 -404q-4 -17 -6 -26.5t-0.5 -15t6.5 -8.5t14 -7q8 -5 7 -9t-9 -4h-2h-85h-6q-45 0 -68 2t-30.5 13.5t-2 35.5t18.5 69l-14 -18q-24 -34 -39.5 -54
t-29 -30.5t-28.5 -14t-38 -3.5h-23.5t-27.5 1q-17 1 -35 2.5t-36 7.5t-34 18.5t-28 35.5q-9 17 -11 43t1 55t10 60t15.5 58t17 48t14.5 31q20 33 42 50.5t47.5 26t55 10t63.5 1.5h62h35q29 0 44 4t25 22q2 4 4.5 11.5t3.5 15.5t1 16t-2 12q-7 11 -19 13.5t-43 2.5h-48h-108
q-22 0 -34.5 1t-17.5 5.5t-4.5 13.5t5.5 26zM385 338h-45h-46q-22 0 -37.5 -1.5t-27.5 -6t-21.5 -14t-20.5 -26.5q-6 -10 -11.5 -26t-9 -33.5t-4.5 -32.5t3 -23q8 -17 32 -21.5t53 -4.5h38h51zM551 924l-12 -54q-3 -15 -5 -22.5t-6.5 -12.5t-13 -9l-25.5 -12l-152 -69h-49
l12 42l198 137h53z" />
    <glyph glyph-name="uni00E0" unicode="&#xe0;" horiz-adv-x="666" 
d="M178 672h248h37q17 0 34.5 -1.5t34.5 -6.5t32.5 -14.5t28.5 -26.5q13 -16 16.5 -33.5t2 -36t-6.5 -38.5t-10 -41l-102 -404q-4 -17 -6 -26.5t-0.5 -15t6.5 -8.5t14 -7q8 -5 7 -9t-9 -4h-2h-85h-6q-45 0 -68 2t-30.5 13.5t-2 35.5t18.5 69l-14 -18q-24 -34 -39.5 -54
t-29 -30.5t-28.5 -14t-38 -3.5h-23.5t-27.5 1q-17 1 -35 2.5t-36 7.5t-34 18.5t-28 35.5q-9 17 -11 43t1 55t10 60t15.5 58t17 48t14.5 31q20 33 42 50.5t47.5 26t55 10t63.5 1.5h62h35q29 0 44 4t25 22q2 4 4.5 11.5t3.5 15.5t1 16t-2 12q-7 11 -19 13.5t-43 2.5h-48h-108
q-22 0 -34.5 1t-17.5 5.5t-4.5 13.5t5.5 26zM385 338h-45h-46q-22 0 -37.5 -1.5t-27.5 -6t-21.5 -14t-20.5 -26.5q-6 -10 -11.5 -26t-9 -33.5t-4.5 -32.5t3 -23q8 -17 32 -21.5t53 -4.5h38h51zM255 922h56l171 -122l-14 -55h-25l-167 73q-19 8 -29 13.5t-13 11t-1 14t7 22.5
z" />
    <glyph glyph-name="uni00E2" unicode="&#xe2;" horiz-adv-x="666" 
d="M172 672h248h37q17 0 34.5 -1.5t34.5 -6.5t32.5 -14.5t28.5 -26.5q13 -16 16.5 -33.5t2 -36t-6.5 -38.5t-10 -41l-102 -404q-4 -17 -6 -26.5t-0.5 -15t6.5 -8.5t14 -7q8 -5 7 -9t-10 -4h-2h-84h-6q-45 0 -68 2t-30.5 13.5t-2 35.5t17.5 69l-13 -18q-24 -34 -39.5 -54
t-29 -30.5t-28.5 -14t-38 -3.5h-23.5t-27.5 1q-17 1 -35.5 2.5t-36 7.5t-33.5 18.5t-28 35.5q-9 17 -11 43t1 55t10 60t15.5 58t17 48t14.5 31q20 33 42 50.5t47.5 26t55 10t63.5 1.5h62h35q29 0 44 4t25 22q2 4 4.5 11.5t3.5 15.5t1 16t-2 12q-7 11 -19 13.5t-43 2.5h-48
h-109q-22 0 -34 1t-17.5 5.5t-4.5 13.5t6 26zM378 338h-44h-46q-22 0 -37.5 -1.5t-27.5 -6t-21.5 -14t-20.5 -26.5q-6 -10 -11.5 -26t-9 -33.5t-4.5 -32.5t3 -23q8 -17 32 -21.5t53 -4.5h38h51zM313 907h120l83 -117l-2 -21q-2 -17 -4.5 -20.5t-17.5 -3.5h-21l-103 76
l-127 -76h-18q-9 0 -12.5 1t-2.5 9l4 15z" />
    <glyph glyph-name="uni00E4" unicode="&#xe4;" horiz-adv-x="666" 
d="M178 672h248h37q17 0 34.5 -1.5t34.5 -6.5t32.5 -14.5t28.5 -26.5q13 -16 16.5 -33.5t2 -36t-6.5 -38.5t-10 -41l-102 -404q-4 -17 -6 -26.5t-0.5 -15t6.5 -8.5t14 -7q8 -5 7 -9t-9 -4h-2h-85h-6q-45 0 -68 2t-30.5 13.5t-2 35.5t18.5 69l-14 -18q-24 -34 -39.5 -54
t-29 -30.5t-28.5 -14t-38 -3.5h-23.5t-27.5 1q-17 1 -35 2.5t-36 7.5t-34 18.5t-28 35.5q-9 17 -11 43t1 55t10 60t15.5 58t17 48t14.5 31q20 33 42 50.5t47.5 26t55 10t63.5 1.5h62h35q29 0 44 4t25 22q2 4 4.5 11.5t3.5 15.5t1 16t-2 12q-7 11 -19 13.5t-43 2.5h-48h-108
q-22 0 -34.5 1t-17.5 5.5t-4.5 13.5t5.5 26zM385 338h-45h-46q-22 0 -37.5 -1.5t-27.5 -6t-21.5 -14t-20.5 -26.5q-6 -10 -11.5 -26t-9 -33.5t-4.5 -32.5t3 -23q8 -17 32 -21.5t53 -4.5h38h51zM241 859h73q32 0 39.5 -11t-1.5 -46l-15 -57h-62q-40 0 -50.5 9.5t-1.5 46.5z
M423 859h73q32 0 39.5 -11t-1.5 -46l-15 -57h-62q-40 0 -50.5 9.5t-1.5 46.5z" />
    <glyph glyph-name="uni00E3" unicode="&#xe3;" horiz-adv-x="666" 
d="M172 672h248h37q17 0 34.5 -1.5t34.5 -6.5t32.5 -14.5t28.5 -26.5q13 -16 16.5 -33.5t2 -36t-6.5 -38.5t-10 -41l-102 -404q-4 -17 -6 -26.5t-0.5 -15t6.5 -8.5t14 -7q8 -5 7 -9t-10 -4h-2h-84h-6q-45 0 -68 2t-30.5 13.5t-2 35.5t17.5 69l-13 -18q-24 -34 -39.5 -54
t-29 -30.5t-28.5 -14t-38 -3.5h-23.5t-27.5 1q-17 1 -35.5 2.5t-36 7.5t-33.5 18.5t-28 35.5q-9 17 -11 43t1 55t10 60t15.5 58t17 48t14.5 31q20 33 42 50.5t47.5 26t55 10t63.5 1.5h62h35q29 0 44 4t25 22q2 4 4.5 11.5t3.5 15.5t1 16t-2 12q-7 11 -19 13.5t-43 2.5h-48
h-109q-22 0 -34 1t-17.5 5.5t-4.5 13.5t6 26zM378 338h-44h-46q-22 0 -37.5 -1.5t-27.5 -6t-21.5 -14t-20.5 -26.5q-6 -10 -11.5 -26t-9 -33.5t-4.5 -32.5t3 -23q8 -17 32 -21.5t53 -4.5h38h51zM514 826q19 3 26.5 6.5t13 7t13 5.5t25.5 2q7 0 3 -10l-3 -11l-6 -24
q-4 -13 -5.5 -22t-18.5 -20q-13 -8 -30.5 -11t-38.5 -3q-23 0 -47.5 4t-49.5 12l-21 6q-27 9 -52 9h-12t-12 -2q-8 -2 -20 -7t-20 -8q-9 -3 -15.5 -4.5t-22.5 -1.5q-5 -1 -5 2.5t2 7.5l3 12q3 15 5 23q4 14 9 23.5t16 17.5q29 17 72 17t92 -17l22 -7q32 -9 54 -9q6 0 12 0.5
t11 1.5z" />
    <glyph glyph-name="uni00E5" unicode="&#xe5;" horiz-adv-x="666" 
d="M175 672h248h37q17 0 34.5 -1.5t34.5 -6.5t32.5 -14.5t28.5 -26.5q13 -16 16.5 -33.5t2 -36t-6.5 -38.5t-10 -41l-102 -404q-4 -17 -6 -26.5t-0.5 -15t6.5 -8.5t14 -7q8 -5 7 -9t-10 -4h-2h-84h-6q-45 0 -68 2t-30.5 13.5t-2 35.5t18.5 69l-14 -18q-24 -34 -39.5 -54
t-29 -30.5t-28.5 -14t-38 -3.5h-23.5t-27.5 1q-17 1 -35.5 2.5t-36 7.5t-33.5 18.5t-28 35.5q-9 17 -11 43t1 55t10 60t15.5 58t17 48t14.5 31q20 33 42 50.5t47.5 26t55 10t63.5 1.5h62h35q29 0 44 4t25 22q2 4 4.5 11.5t3.5 15.5t1 16t-2 12q-7 11 -19 13.5t-43 2.5h-48
h-109q-22 0 -34 1t-17.5 5.5t-4.5 13.5t6 26zM381 338h-44h-46q-22 0 -37.5 -1.5t-27.5 -6t-21.5 -14t-20.5 -26.5q-6 -10 -11.5 -26t-9 -33.5t-4.5 -32.5t3 -23q8 -17 32 -21.5t53 -4.5h38h51zM317 928q9 6 19.5 11.5t21.5 8.5q12 4 30 4q19 0 37.5 -6t35.5 -20
q23 -20 33.5 -47t7.5 -51q-4 -25 -18 -49t-46 -40q-22 -13 -51 -13q-44 0 -76 28.5t-36 73.5q-2 23 7 50.5t35 49.5zM373 870q-21 -11 -20 -29.5t16 -29.5q8 -5 22 -5q13 0 21.5 9.5t9.5 21.5q1 10 -4.5 18.5t-12.5 13.5q-6 5 -16 5q-9 0 -16 -4z" />
    <glyph glyph-name="uni00E9" unicode="&#xe9;" horiz-adv-x="642" 
d="M183 304q-3 -12 -8 -31t-7.5 -39t0.5 -39t15 -32q8 -8 22 -13.5t32 -8.5t38.5 -4t39.5 -1q24 0 50 1.5t50 7.5t45.5 18t37.5 33q3 4 7 4q5 0 5 -6l-14 -58q-10 -46 -18 -74t-23 -43.5t-42 -20.5t-75 -5h-33h-46q-29 0 -64.5 2t-69.5 10t-63 23t-46 42q-15 25 -20 62
t-2.5 80t11 89t20.5 89.5t26.5 80.5t28.5 62q30 52 66.5 81t75.5 43.5t79.5 18t77.5 3.5q17 0 44.5 -2.5t56.5 -10.5t55.5 -23.5t41.5 -42.5q12 -23 15 -62t0 -80t-10.5 -76t-16.5 -49q-11 -19 -41 -24t-61 -5h-33h-247zM436 417q9 29 10.5 62t-10.5 47q-13 19 -35.5 24.5
t-43.5 5.5q-12 0 -22.5 -1t-16.5 -2q-26 -5 -43.5 -18.5t-29 -32t-18.5 -40.5t-12 -45h221zM530 924l-12 -54q-3 -15 -5 -22.5t-6.5 -12.5t-13 -9l-25.5 -12l-153 -69h-48l12 42l198 137h53z" />
    <glyph glyph-name="uni00E8" unicode="&#xe8;" horiz-adv-x="642" 
d="M189 304q-3 -12 -8 -31t-7.5 -39t0.5 -39t15 -32q8 -8 22 -13.5t32 -8.5t38.5 -4t39.5 -1q25 0 50.5 1.5t49.5 7.5t46 18t38 33q1 4 6 4t5 -6l-13 -58q-10 -46 -18.5 -74t-23.5 -43.5t-42 -20.5t-75 -5h-33h-46q-29 0 -64.5 2t-69.5 10t-63 23t-46 42q-15 25 -20 62
t-2.5 80t11 89t20.5 89.5t26.5 80.5t28.5 62q30 52 66.5 81t76 43.5t80 18t77.5 3.5q17 0 44 -2.5t56 -10.5t55.5 -23.5t41.5 -42.5q12 -23 15 -62t0 -80t-10.5 -76t-16.5 -49q-11 -19 -41 -24t-61 -5h-33h-247zM443 417q4 14 6.5 30.5t3 31.5t-1.5 27.5t-8 19.5
q-14 19 -36.5 24.5t-43.5 5.5q-12 0 -22 -1t-16 -2q-26 -5 -43.5 -18.5t-29.5 -32t-19 -40.5t-12 -45h222zM260 922h56l171 -122l-14 -55h-25l-167 73q-19 8 -29 13.5t-13 11t-1 14t7 22.5z" />
    <glyph glyph-name="uni00EA" unicode="&#xea;" horiz-adv-x="642" 
d="M186 304q-3 -12 -8 -31t-7.5 -39t0.5 -39t15 -32q8 -8 22 -13.5t32 -8.5t38.5 -4t39.5 -1q25 0 50.5 1.5t49.5 7.5t46 18t38 33q1 4 6 4t5 -6l-14 -58q-10 -46 -18 -74t-23 -43.5t-42 -20.5t-75 -5h-33h-46q-29 0 -64.5 2t-69.5 10t-63 23t-46 42q-15 25 -20 62t-2.5 80
t11 89t20.5 89.5t26.5 80.5t28.5 62q30 52 66.5 81t76 43.5t80 18t77.5 3.5q17 0 44 -2.5t56 -10.5t55.5 -23.5t41.5 -42.5q12 -23 15 -62t0 -80t-10.5 -76t-16.5 -49q-11 -19 -41 -24t-61 -5h-33h-247zM439 417q9 29 10.5 62t-10.5 47q-13 19 -35.5 24.5t-43.5 5.5
q-12 0 -22.5 -1t-16.5 -2q-26 -5 -43.5 -18.5t-29 -32t-18.5 -40.5t-12 -45h221zM321 907h121l82 -117l-2 -21q-2 -17 -4.5 -20.5t-16.5 -3.5h-22l-103 76l-127 -76h-18q-9 0 -12.5 1t-2.5 9l4 15z" />
    <glyph glyph-name="uni00EB" unicode="&#xeb;" horiz-adv-x="642" 
d="M186 304q-3 -12 -8 -31t-7.5 -39t0.5 -39t15 -32q8 -8 22 -13.5t32 -8.5t38.5 -4t39.5 -1q25 0 50.5 1.5t49.5 7.5t46 18t38 33q1 4 6 4t5 -6l-14 -58q-10 -46 -18 -74t-23 -43.5t-42 -20.5t-75 -5h-33h-46q-29 0 -64.5 2t-69.5 10t-63 23t-46 42q-15 25 -20 62t-2.5 80
t11 89t20.5 89.5t26.5 80.5t28.5 62q30 52 66.5 81t76 43.5t80 18t77.5 3.5q17 0 44 -2.5t56 -10.5t55.5 -23.5t41.5 -42.5q12 -23 15 -62t0 -80t-10.5 -76t-16.5 -49q-11 -19 -41 -24t-61 -5h-33h-247zM439 417q9 29 10.5 62t-10.5 47q-13 19 -35.5 24.5t-43.5 5.5
q-12 0 -22.5 -1t-16.5 -2q-26 -5 -43.5 -18.5t-29 -32t-18.5 -40.5t-12 -45h221zM223 859h73q32 0 39.5 -11t-1.5 -46l-16 -57h-62q-40 0 -50.5 9.5t-1.5 46.5zM405 859h73q32 0 39.5 -11t-1.5 -46l-15 -57h-63q-39 0 -50 9.5t-1 46.5z" />
    <glyph glyph-name="uni00ED" unicode="&#xed;" horiz-adv-x="340" 
d="M169 69q-4 -18 -5.5 -28t0 -16t6 -9t12.5 -6q5 -2 5.5 -5.5t-6.5 -4.5h-92q-42 0 -63.5 4t-28.5 14.5t-4 30.5t10 53l121 500q8 32 6 42.5t-19 16.5q-5 2 -5.5 6t6.5 5h92q42 0 64 -2t30 -12t4.5 -30.5t-12.5 -57.5zM357 924l-12 -54q-3 -15 -5 -22.5t-6.5 -12.5t-13 -9
l-25.5 -12l-153 -69h-48l12 42l198 137h53z" />
    <glyph glyph-name="uni00EC" unicode="&#xec;" horiz-adv-x="340" 
d="M160 69q-4 -18 -5.5 -28t0 -16t6 -9t12.5 -6q5 -2 5.5 -5.5t-6.5 -4.5h-93q-42 0 -63.5 4t-28.5 14.5t-3.5 30.5t10.5 53l121 500q8 32 6 42.5t-19 16.5q-5 2 -5.5 6t6.5 5h92q42 0 64 -2t30 -12t4.5 -30.5t-12.5 -57.5zM113 922h56l171 -122l-14 -55h-26l-167 73
q-19 8 -29 13.5t-13 11t-1 14t8 22.5z" />
    <glyph glyph-name="uni00EE" unicode="&#xee;" horiz-adv-x="340" 
d="M169 69q-4 -18 -5.5 -28t0 -16t6 -9t12.5 -6q5 -2 5.5 -5.5t-6.5 -4.5h-92q-42 0 -63.5 4t-28.5 14.5t-4 30.5t10 53l121 500q8 32 6 42.5t-19 16.5q-5 2 -5.5 6t6.5 5h92q42 0 64 -2t30 -12t4.5 -30.5t-12.5 -57.5zM166 907h120l82 -117l-2 -21q-2 -17 -4.5 -20.5
t-16.5 -3.5h-22l-102 76l-127 -76h-19q-9 0 -12.5 1t-2.5 9l4 15z" />
    <glyph glyph-name="uni00EF" unicode="&#xef;" horiz-adv-x="340" 
d="M166 69q-4 -18 -5.5 -28t0 -16t6 -9t12.5 -6q5 -2 5.5 -5.5t-6.5 -4.5h-93q-42 0 -63 4t-28 14.5t-4 30.5t10 53l121 500q8 32 6 42.5t-19 16.5q-5 2 -5.5 6t6.5 5h92q42 0 64 -2t30 -12t4.5 -30.5t-12.5 -57.5zM54 859h73q32 0 39.5 -11t-1.5 -46l-15 -57h-63
q-39 0 -50 9.5t-1 46.5zM236 859h73q32 0 39.5 -11t-1.5 -46l-15 -57h-62q-40 0 -51 9.5t-1 46.5z" />
    <glyph glyph-name="uni00F1" unicode="&#xf1;" horiz-adv-x="641" 
d="M641 571q0 -11 -5.5 -38.5t-12.5 -56.5q-9 -34 -19 -74l-79 -333q-4 -18 -5.5 -28t0 -16t6 -9t12.5 -6q5 -2 5.5 -5.5t-6.5 -4.5h-92q-42 0 -63.5 3.5t-28.5 14.5t-4 31t10 53l74 307q9 39 15 68.5t-10 46.5q-6 6 -23 8.5t-35 2.5q-14 0 -25.5 -1t-17.5 -3
q-20 -6 -32.5 -21.5t-21 -35t-13 -39t-8.5 -33.5l-79 -333q-4 -18 -5.5 -28t0 -16t6 -9t12.5 -6q5 -2 5.5 -5.5t-6.5 -4.5h-92q-42 0 -63.5 3.5t-28.5 14.5t-4 31t10 53l75 307l46 193q4 16 6 26t0.5 16.5t-6 10t-13.5 6.5q-5 2 -5.5 6t6.5 5h93h18q34 0 52.5 -2t25.5 -11
t4 -27.5t-12 -51.5q17 33 28 51.5t25 27.5t35.5 11t59.5 2h42q27 0 53 -4t46.5 -15t32.5 -30.5t12 -51.5zM524 826q19 3 26.5 6.5t13 7t13 5.5t25.5 2q7 0 3 -10l-3 -11l-6 -24q-4 -13 -5.5 -22t-18.5 -20q-13 -8 -30.5 -11t-38.5 -3q-23 0 -47.5 4t-49.5 12l-20 6
q-28 9 -53 9h-12t-12 -2q-8 -2 -19.5 -7t-19.5 -8q-10 -3 -16.5 -4.5t-22.5 -1.5q-5 -1 -5 2.5t2 7.5l3 12q3 15 5 23q4 14 9 23.5t16 17.5q29 17 72 17t92 -17l23 -7q30 -9 53 -9q6 0 12 0.5t11 1.5z" />
    <glyph glyph-name="uni00F3" unicode="&#xf3;" horiz-adv-x="633" 
d="M28 404q21 68 42.5 116t53 80.5t78.5 51t117 26.5q5 0 16 0.5t27 0.5q26 0 60 -2t68 -8.5t63.5 -19t46.5 -32.5q20 -24 27.5 -53.5t6 -62.5t-8.5 -68.5t-16 -72.5q-8 -35 -16 -63t-18 -57q-15 -42 -28.5 -79t-35 -67t-55 -52t-87.5 -36q-22 -5 -58.5 -9t-78.5 -4
q-30 0 -60 2.5t-57.5 8.5t-51 16.5t-38.5 26.5q-26 27 -34.5 64.5t-6.5 76.5t10 76.5t14 64.5zM293 547q-23 -10 -42.5 -36t-35 -60t-26.5 -72.5t-19 -73.5t-12 -63t-4 -41q-1 -22 4.5 -39.5t24.5 -31.5q11 -8 30.5 -10.5t40.5 -2.5q18 0 34.5 2t25.5 5q30 11 48.5 29.5
t31 43.5t20.5 56t17 68l9 37q8 30 14.5 57t8 50t-3.5 42t-21 32q-12 11 -32 14.5t-42 3.5q-23 0 -42.5 -3t-28.5 -7zM511 924l-13 -54q-3 -15 -5 -22.5t-6 -12.5t-12.5 -9l-25.5 -12l-153 -69h-49l12 42l199 137h53z" />
    <glyph glyph-name="uni00F2" unicode="&#xf2;" horiz-adv-x="633" 
d="M28 404q21 68 42.5 116t53 80.5t78.5 51t117 26.5q5 0 16 0.5t27 0.5q26 0 60 -2t68 -8.5t63.5 -19t46.5 -32.5q20 -24 27.5 -53.5t6 -62.5t-8.5 -68.5t-16 -72.5q-8 -35 -16 -63t-18 -57q-15 -42 -28.5 -79t-35 -67t-55 -52t-87.5 -36q-22 -5 -58.5 -9t-78.5 -4
q-30 0 -60 2.5t-57.5 8.5t-51 16.5t-38.5 26.5q-26 27 -34.5 64.5t-6.5 76.5t10 76.5t14 64.5zM293 547q-23 -10 -42.5 -36t-35 -60t-26.5 -72.5t-19 -73.5t-12 -63t-4 -41q-1 -22 4.5 -39.5t24.5 -31.5q11 -8 30.5 -10.5t40.5 -2.5q18 0 34.5 2t25.5 5q30 11 48.5 29.5
t31 43.5t20.5 56t17 68l9 37q8 30 14.5 57t8 50t-3.5 42t-21 32q-12 11 -32 14.5t-42 3.5q-23 0 -42.5 -3t-28.5 -7zM286 922h56l171 -122l-15 -55h-25l-167 73q-19 8 -29 13.5t-13 11t-1 14t8 22.5z" />
    <glyph glyph-name="uni00F4" unicode="&#xf4;" horiz-adv-x="633" 
d="M28 404q21 68 42.5 116t53 80.5t78.5 51t117 26.5q5 0 16 0.5t27 0.5q26 0 60 -2t68 -8.5t63.5 -19t46.5 -32.5q20 -24 27.5 -53.5t6 -62.5t-8.5 -68.5t-16 -72.5q-8 -35 -16 -63t-18 -57q-15 -42 -28.5 -79t-35 -67t-55 -52t-87.5 -36q-22 -5 -58.5 -9t-78.5 -4
q-30 0 -60 2.5t-57.5 8.5t-51 16.5t-38.5 26.5q-26 27 -34.5 64.5t-6.5 76.5t10 76.5t14 64.5zM293 547q-23 -10 -42.5 -36t-35 -60t-26.5 -72.5t-19 -73.5t-12 -63t-4 -41q-1 -22 4.5 -39.5t24.5 -31.5q11 -8 30.5 -10.5t40.5 -2.5q18 0 34.5 2t25.5 5q30 11 48.5 29.5
t31 43.5t20.5 56t17 68l9 37q8 30 14.5 57t8 50t-3.5 42t-21 32q-12 11 -32 14.5t-42 3.5q-23 0 -42.5 -3t-28.5 -7zM333 907h120l82 -117l-2 -21q-2 -17 -4.5 -20.5t-16.5 -3.5h-22l-102 76l-128 -76h-18q-9 0 -12.5 1t-2.5 9l4 15z" />
    <glyph glyph-name="uni00F6" unicode="&#xf6;" horiz-adv-x="633" 
d="M28 404q21 68 42.5 116t53 80.5t78.5 51t117 26.5q5 0 16 0.5t27 0.5q26 0 60 -2t68 -8.5t63.5 -19t46.5 -32.5q20 -24 27.5 -53.5t6 -62.5t-8.5 -68.5t-16 -72.5q-8 -35 -16 -63t-18 -57q-15 -42 -28.5 -79t-35 -67t-55 -52t-87.5 -36q-22 -5 -58.5 -9t-78.5 -4
q-30 0 -60 2.5t-57.5 8.5t-51 16.5t-38.5 26.5q-26 27 -34.5 64.5t-6.5 76.5t10 76.5t14 64.5zM293 547q-23 -10 -42.5 -36t-35 -60t-26.5 -72.5t-19 -73.5t-12 -63t-4 -41q-1 -22 4.5 -39.5t24.5 -31.5q11 -8 30.5 -10.5t40.5 -2.5q18 0 34.5 2t25.5 5q30 11 48.5 29.5
t31 43.5t20.5 56t17 68l9 37q8 30 14.5 57t8 50t-3.5 42t-21 32q-12 11 -32 14.5t-42 3.5q-23 0 -42.5 -3t-28.5 -7zM241 859h73q32 0 39.5 -11t-1.5 -46l-15 -57h-62q-40 0 -50.5 9.5t-1.5 46.5zM423 859h73q32 0 39.5 -11t-1.5 -46l-15 -57h-62q-40 0 -50.5 9.5t-1.5 46.5
z" />
    <glyph glyph-name="uni00F5" unicode="&#xf5;" horiz-adv-x="633" 
d="M28 404q21 68 42.5 116t53 80.5t78.5 51t117 26.5q5 0 16 0.5t27 0.5q26 0 60 -2t68 -8.5t63.5 -19t46.5 -32.5q20 -24 27.5 -53.5t6 -62.5t-8.5 -68.5t-16 -72.5q-8 -35 -16 -63t-18 -57q-15 -42 -28.5 -79t-35 -67t-55 -52t-87.5 -36q-22 -5 -58.5 -9t-78.5 -4
q-30 0 -60 2.5t-57.5 8.5t-51 16.5t-38.5 26.5q-26 27 -34.5 64.5t-6.5 76.5t10 76.5t14 64.5zM293 547q-23 -10 -42.5 -36t-35 -60t-26.5 -72.5t-19 -73.5t-12 -63t-4 -41q-1 -22 4.5 -39.5t24.5 -31.5q11 -8 30.5 -10.5t40.5 -2.5q18 0 34.5 2t25.5 5q30 11 48.5 29.5
t31 43.5t20.5 56t17 68l9 37q8 30 14.5 57t8 50t-3.5 42t-21 32q-12 11 -32 14.5t-42 3.5q-23 0 -42.5 -3t-28.5 -7zM523 826q19 3 26.5 6.5t13 7t13 5.5t25.5 2q7 0 3 -10l-3 -11l-6 -24q-4 -13 -5.5 -22t-18.5 -20q-13 -8 -30.5 -11t-38.5 -3q-23 0 -47.5 4t-49.5 12
l-20 6q-28 9 -53 9h-12t-12 -2q-8 -2 -19.5 -7t-19.5 -8q-10 -3 -16.5 -4.5t-22.5 -1.5q-5 -1 -5 2.5t2 7.5l3 12q3 15 5 23q4 14 9 23.5t16 17.5q29 17 72 17t92 -17l23 -7q30 -9 53 -9q6 0 12 0.5t11 1.5z" />
    <glyph glyph-name="uni00FA" unicode="&#xfa;" horiz-adv-x="637" 
d="M-20 102q0 11 5.5 38.5t12.5 56.5q8 34 18 74l80 332q4 18 5.5 28t0 16t-6 9t-13.5 6q-5 2 -5.5 5.5t6.5 4.5h93q42 0 63.5 -3.5t28.5 -14.5t3.5 -30.5t-10.5 -52.5l-74 -308q-4 -19 -8 -36t-6 -31.5t0 -26.5t9 -20q6 -7 28 -9.5t45 -2.5q16 0 29.5 1t19.5 3
q20 6 32.5 22t21 35.5t13 39t7.5 33.5l80 332q4 18 5.5 28t0 16t-6 9t-12.5 6q-6 2 -6.5 5.5t7.5 4.5h92q42 0 63.5 -3.5t28.5 -14.5t4 -30.5t-10 -52.5l-121 -501q-8 -31 -6 -42t19 -17q5 -2 5.5 -6t-6.5 -5h-93h-18q-34 0 -52.5 2t-25.5 11t-4 27.5t12 52.5
q-17 -33 -28 -52t-25.5 -28t-37 -11t-63.5 -2h-37q-10 0 -31 1t-44 6t-44.5 15.5t-32.5 28.5q-8 14 -9.5 25.5t-1.5 25.5zM501 924l-13 -54q-3 -15 -5 -22.5t-6.5 -12.5t-13 -9l-25.5 -12l-152 -69h-49l12 42l199 137h53z" />
    <glyph glyph-name="uni00F9" unicode="&#xf9;" horiz-adv-x="637" 
d="M-20 102q0 11 5.5 38.5t12.5 56.5q8 34 18 74l80 332q4 18 5.5 28t0 16t-6 9t-13.5 6q-5 2 -5.5 5.5t6.5 4.5h93q42 0 63.5 -3.5t28.5 -14.5t3.5 -30.5t-10.5 -52.5l-74 -308q-4 -19 -8 -36t-6 -31.5t0 -26.5t9 -20q6 -7 28 -9.5t45 -2.5q16 0 29.5 1t19.5 3
q20 6 32.5 22t21 35.5t13 39t7.5 33.5l80 332q4 18 5.5 28t0 16t-6 9t-12.5 6q-6 2 -6.5 5.5t7.5 4.5h92q42 0 63.5 -3.5t28.5 -14.5t4 -30.5t-10 -52.5l-121 -501q-8 -31 -6 -42t19 -17q5 -2 5.5 -6t-6.5 -5h-93h-18q-34 0 -52.5 2t-25.5 11t-4 27.5t12 52.5
q-17 -33 -28 -52t-25.5 -28t-37 -11t-63.5 -2h-37q-10 0 -31 1t-44 6t-44.5 15.5t-32.5 28.5q-8 14 -9.5 25.5t-1.5 25.5zM266 922h55l171 -122l-14 -55h-25l-167 73q-19 8 -29 13.5t-13 11t-1 14t7 22.5z" />
    <glyph glyph-name="uni00FB" unicode="&#xfb;" horiz-adv-x="637" 
d="M-20 102q0 11 5.5 38.5t12.5 56.5q8 34 18 74l80 332q4 18 5.5 28t0 16t-6 9t-13.5 6q-5 2 -5.5 5.5t6.5 4.5h93q42 0 63.5 -3.5t28.5 -14.5t3.5 -30.5t-10.5 -52.5l-74 -308q-4 -19 -8 -36t-6 -31.5t0 -26.5t9 -20q6 -7 28 -9.5t45 -2.5q16 0 29.5 1t19.5 3
q20 6 32.5 22t21 35.5t13 39t7.5 33.5l80 332q4 18 5.5 28t0 16t-6 9t-12.5 6q-6 2 -6.5 5.5t7.5 4.5h92q42 0 63.5 -3.5t28.5 -14.5t4 -30.5t-10 -52.5l-121 -501q-8 -31 -6 -42t19 -17q5 -2 5.5 -6t-6.5 -5h-93h-18q-34 0 -52.5 2t-25.5 11t-4 27.5t12 52.5
q-17 -33 -28 -52t-25.5 -28t-37 -11t-63.5 -2h-37q-10 0 -31 1t-44 6t-44.5 15.5t-32.5 28.5q-8 14 -9.5 25.5t-1.5 25.5zM319 907h120l83 -117l-2 -21q-2 -17 -4.5 -20.5t-17.5 -3.5h-21l-103 76l-127 -76h-18q-9 0 -12.5 1t-2.5 9l4 15z" />
    <glyph glyph-name="uni00FC" unicode="&#xfc;" horiz-adv-x="637" 
d="M-20 102q0 11 5.5 38.5t12.5 56.5q8 34 18 74l80 332q4 18 5.5 28t0 16t-6 9t-13.5 6q-5 2 -5.5 5.5t6.5 4.5h93q42 0 63.5 -3.5t28.5 -14.5t3.5 -30.5t-10.5 -52.5l-74 -308q-4 -19 -8 -36t-6 -31.5t0 -26.5t9 -20q6 -7 28 -9.5t45 -2.5q16 0 29.5 1t19.5 3
q20 6 32.5 22t21 35.5t13 39t7.5 33.5l80 332q4 18 5.5 28t0 16t-6 9t-12.5 6q-6 2 -6.5 5.5t7.5 4.5h92q42 0 63.5 -3.5t28.5 -14.5t4 -30.5t-10 -52.5l-121 -501q-8 -31 -6 -42t19 -17q5 -2 5.5 -6t-6.5 -5h-93h-18q-34 0 -52.5 2t-25.5 11t-4 27.5t12 52.5
q-17 -33 -28 -52t-25.5 -28t-37 -11t-63.5 -2h-37q-10 0 -31 1t-44 6t-44.5 15.5t-32.5 28.5q-8 14 -9.5 25.5t-1.5 25.5zM231 859h73q32 0 39.5 -11t-1.5 -46l-15 -57h-63q-39 0 -50 9.5t-1 46.5zM413 859h73q32 0 39.5 -11t-1.5 -46l-15 -57h-62q-40 0 -50.5 9.5
t-1.5 46.5z" />
    <glyph glyph-name="uni00A2" unicode="&#xa2;" horiz-adv-x="583" 
d="M436 832q5 -8 0.5 -26l-11.5 -46h145q-9 -49 -15 -76t-17 -40.5t-30 -16.5t-55 -3h-41h-43q-35 0 -60 -7.5t-45 -40.5q-8 -13 -17.5 -37t-19.5 -54t-18.5 -62.5t-13.5 -62.5t-5.5 -53.5t5.5 -35.5q11 -22 34 -29.5t47 -9.5q9 -1 19.5 -1h21.5q22 0 47 2t48.5 8.5t44 18
t32.5 29.5l13 -4l-11 -51q-6 -32 -10.5 -54t-10.5 -37t-15.5 -24t-24.5 -15q-13 -5 -33.5 -9.5t-43.5 -7.5t-44.5 -4.5t-35.5 -1.5l-19 -81h-86q-11 0 -21 2t-12 9q-2 6 -2.5 11t0.5 13.5t4 22.5t9 36q-18 6 -36.5 13t-35 19t-29.5 30t-21 44q-11 38 -8 99.5t18 129
t40.5 131t58.5 106.5q23 30 44.5 47t41.5 26t38.5 12t35.5 6l22 88h84q21 0 27 -2.5t10 -10.5z" />
    <glyph glyph-name="uni00A3" unicode="&#xa3;" horiz-adv-x="736" 
d="M672 836l-20 -85q-3 -13 -6.5 -20t-7.5 -11.5t-9.5 -6.5t-12.5 -4t-29.5 -4t-54.5 -2h-25q-16 0 -32 -1.5t-29 -6.5q-12 -5 -21.5 -14t-17 -24t-14.5 -37.5t-15 -54.5l-24 -101h221l-22 -88q-3 -12 -6.5 -20t-16 -12.5t-37.5 -6.5t-72 -2h-98l-25 -102
q-7 -28 -16.5 -47.5t-32.5 -46.5h225h26q17 0 29 1t21.5 4t17.5 9.5t17 18.5h17l-10 -45q-10 -45 -17 -70t-19.5 -38t-36 -16t-66.5 -3h-473l31 127q4 2 4.5 1.5t9.5 3.5q20 7 33.5 16t23 24t17.5 39t17 60l15 64h-54l32 130h53l37 156q19 79 44 122.5t61.5 64t89 24.5
t126.5 4h152z" />
    <glyph glyph-name="uni2022" unicode="&#x2022;" horiz-adv-x="174" 
d="M4 215q-13 0 -22 2t-16 10q-7 9 -4 26l25 103h119q12 0 22 -2.5t15 -10.5q4 -5 5.5 -11t-0.5 -16l-25 -101h-119z" />
    <glyph glyph-name="uni00DF" unicode="&#xdf;" 
d="M628 678q-3 -17 -8.5 -38.5t-16.5 -43.5t-27.5 -42t-40.5 -35q41 -17 58.5 -38.5t20.5 -47t-4 -55.5t-14 -63l-21 -92q-13 -54 -21.5 -89t-20.5 -57.5t-32.5 -36.5t-56.5 -27q-5 -2 -21.5 -4.5t-38 -4.5t-46 -3t-45.5 -1q-20 0 -33.5 1t-18.5 4q-20 8 -15 33
q2 8 5.5 25.5t8.5 35.5q5 21 11 45h32q33 0 56.5 6t40.5 33q5 8 11.5 26.5t13 42.5t12.5 50.5t9.5 50.5t4.5 42.5t-3 26.5q-5 10 -10.5 15t-12.5 8t-17 4t-24 2q-16 2 -27.5 5t-17.5 15q-1 6 2 22t7 33q5 20 11 43h27q31 0 53.5 7t37.5 38q3 6 7 18t6 26t1 27.5t-8 21.5
q-9 12 -27.5 16.5t-35.5 4.5q-18 0 -29 -3q-21 -5 -33 -17t-19 -28.5t-10.5 -35t-7.5 -36.5l-132 -533q-4 -18 -5.5 -28t0 -16t6.5 -9.5t14 -8.5q5 -3 4.5 -8t-6.5 -5h-89q-45 0 -68 1.5t-31.5 10.5t-5 28.5t11.5 55.5l136 563q8 32 15.5 59.5t21 50t36 40t59.5 29.5
q20 7 55 11t77 4q28 0 57 -2t54.5 -7t46.5 -13t34 -19q18 -14 26.5 -31t11.5 -34.5t2 -35t-4 -33.5z" />
    <glyph glyph-name="uni00B4" unicode="&#xb4;" horiz-adv-x="246" 
d="M330 924l-13 -54q-3 -15 -5 -22.5t-6 -12.5t-12.5 -9l-25.5 -12l-153 -69h-49l12 42l199 137h53z" />
    <glyph glyph-name="uni00A8" unicode="&#xa8;" horiz-adv-x="305" 
d="M86 859h74q32 0 39.5 -11t-2.5 -46l-15 -57h-62q-40 0 -50.5 9.5t-1.5 46.5zM269 859h73q32 0 39.5 -11t-2.5 -46l-15 -57h-62q-40 0 -50.5 9.5t-1.5 46.5z" />
    <glyph glyph-name="uni00C6" unicode="&#xc6;" horiz-adv-x="1160" 
d="M491 828q-2 2 -1.5 4.5t5.5 3.5h654l-21 -78q-4 -17 -8 -26t-10.5 -13.5t-19 -5t-34.5 -0.5h-245l-40 -180h283q0 -3 -2.5 -16.5t-5.5 -28.5q-3 -18 -7 -40q-4 -20 -8.5 -31t-15.5 -16t-32 -6t-58 -1h-74q-45 0 -69 -2.5t-37 -15t-20 -38.5t-18 -74l-26 -119h217h28
q27 0 51 5.5t38 29.5q3 5 7 5q2 0 3.5 -1.5t0.5 -4.5l-11 -58q-8 -44 -14 -68.5t-18.5 -36t-36.5 -14t-68 -2.5h-313q-42 0 -64 2t-29.5 13t-3.5 36t14 70l22 90h-265q-23 -31 -44 -59l-36 -50t-29 -42q-10 -17 -9 -28t29 -20q5 -2 4 -7t-11 -5h-122q-45 0 -68 2t-27 12
t10.5 31t44.5 59l510 656q12 16 16 27.5t2 19.5t-7 13t-11 8zM341 339h193l81 360z" />
    <glyph glyph-name="uni00D8" unicode="&#xd8;" horiz-adv-x="789" 
d="M687 915q4 -3 12 -8.5t16 -10.5q10 -7 21 -14q17 -11 25.5 -18.5t10 -15.5t-3 -18.5t-15.5 -27.5l-21 -36q24 -34 34 -68.5t11.5 -71t-3 -75.5t-11.5 -82q-2 -17 -5 -31t-7 -31q-19 -72 -41 -140t-55.5 -123t-83 -94.5t-123.5 -54.5q-25 -5 -56 -7.5t-65 -2.5
q-41 0 -82.5 4t-77.5 13l-61 -81l-49 31q-17 13 -26 21t-10 16t5 18.5t18 27.5l21 34q-28 46 -38 92t-7.5 93.5t13.5 98t25 105.5q4 16 7.5 27t8.5 28q19 54 37.5 103t44.5 90t63.5 73t93.5 51q35 12 75 17.5t82 5.5q82 0 159 -17l48 64zM533 706q-20 8 -36.5 11.5
t-33.5 3.5q-13 0 -25.5 -2t-27.5 -6q-39 -10 -64.5 -32.5t-43 -53.5t-29.5 -68t-23 -76q-7 -27 -13.5 -49t-11.5 -42.5t-9.5 -42.5t-8.5 -49q-1 -5 -2 -12.5t-2 -14.5t-2 -15zM264 131q17 -5 35 -8.5t36 -3.5q13 0 26 1.5t27 6.5q42 13 69 41.5t46.5 67.5t33 85t28.5 94
q8 28 12.5 48.5t10.5 49.5q2 9 3.5 20t2.5 22t2 23z" />
    <glyph glyph-name="uni221E" unicode="&#x221e;" horiz-adv-x="655" 
d="M60 672h83h27q30 0 46.5 -2t25.5 -11.5t15 -28.5t15 -53l68 -267l152 250q41 64 40 76q-1 9 -5.5 14.5t-16.5 11.5v10h79h51q17 0 26.5 -0.5t15 -2.5t8.5 -5t6 -9t-1 -16.5t-10.5 -23.5t-14.5 -25.5t-14 -22.5l-403 -658q-9 -14 -13.5 -23.5t-4.5 -17t6 -14t19 -14.5v-8
h-87h-43q-29 0 -40.5 3t-17.5 14q-5 11 5 30t36 61l108 176l-22 84l-102 404q-3 14 -8.5 29.5t-17.5 22.5l-11 6v10zM495 924l-12 -54q-3 -15 -5 -22.5t-6.5 -12.5t-13 -9l-25.5 -12l-152 -69h-49l12 42l199 137h52z" />
    <glyph glyph-name="uni00E6" unicode="&#xe6;" horiz-adv-x="965" 
d="M439 672q31 0 54.5 -7t53.5 -35q26 26 71 37.5t93 11.5q37 0 72 -6t61 -16q40 -15 61 -38.5t32 -62.5q4 -13 5 -34.5t-0.5 -46t-5 -49t-9.5 -42.5q-6 -16 -17 -26t-24.5 -14.5t-28.5 -6t-29 -1.5h-25h-263q-5 -14 -12.5 -36t-11.5 -45.5t-2.5 -46t13.5 -38.5
q7 -10 20 -16.5t28.5 -10t32.5 -4.5t33 -1q15 0 27 0.5t20 1.5q42 1 79 11t68 41q6 7 11 7q4 0 6.5 -4t1.5 -8l-12 -44q-13 -52 -24.5 -81t-30 -42.5t-48 -16.5t-79.5 -3h-110q-9 0 -31 1.5t-48.5 7t-52 17.5t-42.5 33q-12 15 -18 28t-11 27q-22 -41 -37 -64t-32.5 -34
t-44 -13.5t-71.5 -2.5q-23 0 -50 1.5t-53.5 7.5t-48.5 19t-34 36q-14 25 -14 65t8.5 83t23 82.5t28.5 63.5q19 31 42 48.5t49 26.5t56 11t63 2h59h34q18 0 29.5 0.5t18.5 3.5t12 8.5t9 14.5q7 12 10 30.5t-2 26.5q-8 11 -22.5 13.5t-42.5 2.5h-41h-82h-15q-17 0 -37.5 3
t-28.5 17q-2 5 0.5 20.5t7 32.5t9 32.5t5.5 20.5h284zM791 444q4 20 4 28q1 4 1 5q0 20 -7.5 33.5t-20 22t-28.5 12.5t-33 4q-29 0 -50 -6q-19 -5 -34 -11t-26.5 -17t-18.5 -28t-10 -43h223zM316 333h-33q-25 0 -41.5 -0.5t-27.5 -3t-19 -7.5t-17 -14q-10 -11 -18 -27
t-13 -32.5t-6.5 -32t-0.5 -26.5q3 -24 27 -35q8 -3 26 -5t38 -2t37.5 2t23.5 5q12 5 20 11.5t13.5 19.5t10.5 35t12 56l11 56h-43z" />
    <glyph glyph-name="uni00F8" unicode="&#xf8;" horiz-adv-x="667" 
d="M525 726q8 -4 23 -14q7 -5 16 -10q14 -9 20.5 -15t8 -12.5t-2.5 -15t-13 -22.5l-16 -29q18 -27 26.5 -54t9.5 -56t-2.5 -59.5t-9.5 -64.5q-1 -14 -3.5 -24.5t-5.5 -24.5q-20 -78 -42.5 -139.5t-59.5 -104.5t-92.5 -65.5t-141.5 -22.5q-32 0 -65 3t-61 10l-49 -64l-39 24
q-13 10 -20 17t-8 13t3.5 14.5t14.5 21.5l18 27q-23 37 -31 73t-6.5 73t10.5 76.5t20 83.5q4 14 7 22.5t7 20.5q14 44 28.5 83t35 71.5t50.5 57.5t75 40q27 10 58.5 14.5t64.5 4.5q32 0 64 -4t62 -10zM404 562q-33 12 -56 12q-42 0 -70 -17t-46.5 -44t-30.5 -60.5t-22 -67.5
q-6 -22 -10.5 -39t-8.5 -32.5t-7.5 -32.5t-7.5 -39q-1 -5 -1.5 -10.5t-1.5 -10.5q0 -6 -1 -12zM190 108q30 -8 57 -8q11 0 20.5 1t20.5 4q33 10 55 32t37 52.5t26 67t22 74.5q6 22 9.5 38t8.5 39q3 17 5 33q2 9 3 19z" />
    <glyph glyph-name="uni00AB" unicode="&#xab;" horiz-adv-x="329" 
d="M230 649l-105 -239v-181h-45l-71 181l162 239h59zM357 649l-105 -239v-181h-44l-72 181l162 239h59z" />
    <glyph glyph-name="uni00BB" unicode="&#xbb;" horiz-adv-x="338" 
d="M103 229l105 239v181h44l71 -181l-161 -239h-59zM-24 229l104 239v181h45l71 -181l-161 -239h-59z" />
    <glyph glyph-name="uni00C0" unicode="&#xc0;" horiz-adv-x="781" 
d="M359 830q1 3 5 5q2 1 5 1h164h48q24 0 36 -1.5t17 -6.5q6 -7 8.5 -24.5t2.5 -65.5v-673q0 -25 5 -34t17 -18q1 -1 1 -3q2 -2 1 -5q0 -1 -3 -4q-2 0 -3 -1h-89h-50q-19 0 -29 1.5t-16 7.5q-8 8 -9.5 30.5t-1.5 67.5v100h-267q-20 -34 -36 -63q-14 -24 -27 -46t-16 -29
q-12 -22 -9 -32q0 -11 7 -14.5t19 -8.5q1 -1 2 -3q3 -2 2 -6q0 -4 -6 -4q-2 -1 -5 -1h-147h-19q-13 0 -23 1.5t-15 7.5q-7 9 -1.5 20t24.5 42l402 665q14 23 19.5 32t7.5 13q8 14 5.5 21t-20.5 18q-7 4 -6 10zM275 333h193v352zM411 1101h56l171 -122l-14 -55h-26l-167 73
q-19 8 -29 13.5t-13 11t-1 14t8 22.5z" />
    <glyph glyph-name="uni00C3" unicode="&#xc3;" horiz-adv-x="781" 
d="M364 830q1 3 5 5q2 1 5 1h164h48q24 0 36 -1.5t17 -6.5q6 -7 8.5 -24.5t2.5 -65.5v-673q0 -25 5 -34t17 -18q1 -1 1 -3q2 -2 1 -5q0 -1 -3 -4q-2 0 -3 -1h-89h-50q-19 0 -29 1.5t-16 7.5q-8 8 -9.5 30.5t-1.5 67.5v100h-266q-20 -34 -37 -63q-14 -24 -27 -46t-16 -29
q-12 -22 -9 -32q0 -11 7 -14.5t19 -8.5q2 -1 3 -3q3 -3 2 -6q0 -4 -6 -4q-3 -1 -6 -1h-147h-19q-13 0 -23 1.5t-15 7.5q-7 9 -1.5 20t24.5 42l402 665q14 23 20 32t8 13q7 14 4.5 21t-20.5 18q-7 4 -6 10zM280 333h193v352zM613 1042q19 3 26.5 6.5t13 7t13.5 5.5t26 2
q7 0 3 -10l-3 -11q-2 -6 -3 -12.5t-3 -12.5t-2.5 -11.5t-2.5 -10t-6.5 -9t-13.5 -10.5q-12 -8 -30 -11.5t-39 -3.5q-46 0 -97 17l-20 6q-27 9 -52 9h-12t-12 -2q-8 -2 -20 -7t-20 -8q-9 -3 -15.5 -5t-23.5 -2q-5 -1 -5 3t2 8l3 12q4 17 10 35.5t21 28.5q28 16 72 16
q45 0 92 -16l22 -7q32 -9 53 -9q6 0 12 0.5t11 1.5z" />
    <glyph glyph-name="uni00D5" unicode="&#xd5;" horiz-adv-x="789" 
d="M308 831q37 12 86 17t89 5q30 0 62.5 -3.5t64 -12.5t60.5 -25t50 -41q27 -31 37.5 -71t10.5 -85.5t-8 -94.5t-17 -99q-4 -21 -8.5 -37t-10.5 -36q-29 -93 -59 -161.5t-75 -113.5t-110.5 -67t-165.5 -22q-31 0 -64 3t-64 10.5t-58 19.5t-46 31q-36 35 -50.5 77.5
t-15.5 90.5t8 100.5t21 107.5l7 31.5t8 30.5q18 60 36.5 114t45.5 99t66.5 79t99.5 53zM414 706q-39 -9 -64.5 -33t-43.5 -57.5t-30.5 -74t-24.5 -82.5q-4 -15 -7 -26.5l-6 -23l-6 -23t-6 -25.5q-7 -29 -13 -58.5t-6.5 -56.5t7 -51t26.5 -42q16 -16 39.5 -21.5t46.5 -5.5
q26 0 46 5q38 11 63 32.5t41.5 51t28 65.5t23.5 75q5 16 8.5 29.5t6.5 26t6 26t6 30.5q7 31 12.5 61.5t6.5 58t-6 51.5t-25 42q-17 17 -43 23t-49 6t-37 -3zM620 1013q18 3 26 7t13 7t13 5.5t26 2.5q7 0 3 -11l-3 -11l-6 -24q-2 -6 -2.5 -11.5t-2.5 -10.5t-6.5 -9.5
t-13.5 -10.5q-12 -8 -30 -11t-38 -3q-23 0 -47.5 4t-49.5 12l-21 6q-27 9 -52 9h-12t-12 -2q-8 -2 -20 -7t-20 -8q-9 -3 -15.5 -4.5t-22.5 -1.5q-5 -1 -5.5 2.5t1.5 7.5l4 12q3 17 8.5 35t21.5 29q29 17 72 17t92 -17l22 -7q32 -9 54 -9q6 0 12 0.5t11 1.5z" />
    <glyph glyph-name="uni0152" unicode="&#x152;" horiz-adv-x="1140" 
d="M1139 836q-9 -48 -15 -74t-18.5 -38.5t-36 -15t-66.5 -2.5h-204l-38 -180h285l-22 -92q-4 -16 -8.5 -24.5t-13.5 -12.5t-26 -5t-46 -1h-11h-77h-6q-42 0 -65 -2t-36 -13t-20 -35t-18 -68l-31 -128h207q11 0 21 -0.5t20 -0.5q22 0 43 6.5t44 29.5l11 -1l-13 -60
q-9 -39 -12.5 -62.5t-12 -36t-28 -16.5t-60.5 -4h-355h-23t-16 0.5t-14.5 1.5t-18.5 2q-7 -2 -15.5 -3.5t-16.5 -3.5l-18 -4q-34 -9 -89 -9q-33 0 -68.5 4t-69.5 12.5t-63.5 22.5t-49.5 33q-29 31 -42 69t-15 81.5t4 90.5t15 95q2 13 4.5 22t5.5 22q24 99 52.5 176.5t75 131
t117.5 81.5t180 28q36 0 68.5 -3t58.5 -8l29 -6h67h450zM443 710q-49 0 -83 -26.5t-56.5 -65.5t-37 -84.5t-24.5 -84.5l-22 -90q-3 -15 -8 -41.5t-6 -56.5t4.5 -58.5t23.5 -46.5q17 -17 41 -23t47 -6q48 0 81 21t55 53.5t36.5 73t25.5 79.5l30 122q4 17 9 44t6 56.5t-5 57.5
t-24 47q-17 16 -43 22.5t-50 6.5z" />
    <glyph glyph-name="uni0153" unicode="&#x153;" horiz-adv-x="1015" 
d="M19 376q20 75 43.5 131.5t59.5 94.5t89.5 57.5t133.5 19.5q32 0 65.5 -3t65.5 -8t61 -13t51 -19l4 1q48 17 108.5 29t118.5 12q34 0 65 -5t56.5 -18.5t43.5 -37t26 -60.5q4 -18 3 -51.5t-5.5 -68.5t-12.5 -65t-17 -41q-14 -16 -34 -19.5t-49 -3.5h-36h-258
q-3 -12 -8 -29.5t-7.5 -36t-0.5 -36t12 -30.5q8 -9 20.5 -14.5t28 -8.5t32.5 -4t32 -1t27 0.5t20 0.5q24 1 48.5 3t47 8t40 17.5t26.5 30.5q2 3 4 3q7 0 5 -7l-14 -58q-4 -14 -8.5 -34t-13 -39.5t-22.5 -35.5t-35 -23q-35 -10 -77.5 -12t-72.5 -2h-17q-10 0 -35 0.5t-56 5
t-62.5 14t-55.5 26.5q-19 -11 -47 -21t-60.5 -17t-68.5 -11t-71 -4q-51 0 -95.5 9.5t-73.5 31.5q-34 25 -46.5 62.5t-12.5 77t7.5 77.5t13.5 65zM361 559q-39 0 -64.5 -10.5t-43.5 -29.5t-30.5 -46.5t-24.5 -61.5q-4 -11 -10.5 -32.5t-13 -47t-12 -53.5t-7.5 -54t1 -46.5
t13 -31.5q14 -14 40 -19.5t50 -5.5q13 0 23.5 1t17.5 3q35 9 57 30t36.5 50t23.5 63t18 70q2 6 2.5 10.5t2.5 11.5q6 26 12.5 52t8 49.5t-2.5 43.5t-19 33q-13 12 -34.5 16.5t-43.5 4.5zM855 420q4 15 7 30t3.5 29t-3 26.5t-12.5 21.5q-14 15 -38 20t-46 5q-24 0 -35 -3
q-24 -5 -40.5 -18t-27.5 -31t-18 -38.5t-13 -41.5h223z" />
    <glyph glyph-name="uni2013" unicode="&#x2013;" horiz-adv-x="517" 
d="M15 280q-41 0 -48 12.5t3 46.5l24 65h460q41 0 48 -12.5t-4 -46.5l-23 -65h-460z" />
    <glyph glyph-name="uni201C" unicode="&#x201c;" horiz-adv-x="572" 
d="M404 836h136q11 0 17 -1.5t10 -6.5q5 -6 4 -12t-3 -17l-40 -166q-3 -17 -7.5 -24.5t-13.5 -12.5q-7 -3 -22.5 -3.5t-22.5 -0.5h-87h-8q-10 0 -13 3q-5 5 -2 15l8 39h56q12 0 19.5 4t10.5 17l4 20h-59q-12 0 -17 5q-3 3 -3 7.5t2 10.5zM170 836h136q11 0 17 -1.5t10 -6.5
q5 -6 4 -12t-3 -17l-40 -166q-3 -17 -7.5 -24.5t-13.5 -12.5q-7 -3 -22.5 -3.5t-22.5 -0.5h-87h-8q-10 0 -13 3q-5 5 -2 15l8 39h56q12 0 19.5 4t10.5 17l4 20h-59q-12 0 -17 5q-3 3 -3 7.5t2 10.5z" />
    <glyph glyph-name="uni201D" unicode="&#x201d;" horiz-adv-x="570" 
d="M282 592h-137q-11 0 -16.5 1.5t-9.5 6.5q-5 6 -4 12l3 18l40 166q3 16 7.5 23.5t13.5 12.5q6 3 22 3.5t23 0.5h86h8q11 0 14 -3q5 -5 2 -15l-8 -39h-56q-13 0 -20 -3.5t-10 -17.5l-4 -19h59q11 0 16 -6q4 -4 1 -18zM516 592h-137q-11 0 -16.5 1.5t-9.5 6.5q-5 6 -4 12
l3 18l40 166q3 16 7.5 23.5t13.5 12.5q6 3 22 3.5t23 0.5h86h8q11 0 14 -3q5 -5 2 -15l-8 -39h-56q-13 0 -20 -3.5t-10 -17.5l-4 -19h59q11 0 16 -6q4 -4 1 -18z" />
    <glyph glyph-name="uni2018" unicode="&#x2018;" horiz-adv-x="345" 
d="M288 592h-136q-11 0 -17 1.5t-10 6.5q-5 6 -4 12l3 18l40 166q3 16 7.5 23.5t13.5 12.5q6 3 22 3.5t23 0.5h86h8q11 0 14 -3q5 -5 2 -15l-8 -39h-56q-13 0 -20 -3.5t-10 -17.5l-4 -19h59q11 0 16 -6q4 -4 1 -18z" />
    <glyph glyph-name="uni2019" unicode="&#x2019;" horiz-adv-x="336" 
d="M167 836h136q11 0 17 -1.5t10 -6.5q5 -6 4 -12t-3 -17l-40 -166q-3 -17 -7.5 -24.5t-13.5 -12.5q-7 -3 -22.5 -3.5t-22.5 -0.5h-87h-8q-10 0 -13 3q-5 5 -2 15l8 39h56q12 0 19.5 4t10.5 17l4 20h-59q-12 0 -17 5q-3 3 -3 7.5t2 10.5z" />
    <glyph glyph-name="uni00F7" unicode="&#xf7;" horiz-adv-x="726" 
d="M650 946l42 -27q20 -13 30.5 -22t12 -18t-5.5 -21t-21 -32l-643 -891l-42 27q-20 13 -30.5 22t-12 18t5.5 21t21 32z" />
    <glyph glyph-name="uni00FF" unicode="&#xff;" horiz-adv-x="655" 
d="M54 672h83h27q30 0 46.5 -2t25.5 -11.5t15 -28.5t15 -53l68 -267l152 250q41 64 40 76q-1 9 -5.5 14.5t-16.5 11.5v10h79h51q17 0 26.5 -0.5t15 -2.5t8.5 -5t6 -9t-1 -16.5t-10.5 -23.5t-14.5 -25.5t-14 -22.5l-403 -658q-9 -14 -13.5 -23.5t-4.5 -17t6 -14t19 -14.5v-8
h-87h-43q-29 0 -40.5 3t-17.5 14q-5 11 5 30t36 61l108 176l-22 84l-102 404q-4 14 -9 29.5t-17 22.5l-11 6v10zM250 859h73q32 0 39.5 -11t-1.5 -46l-15 -57h-62q-40 0 -50.5 9.5t-1.5 46.5zM432 859h74q32 0 39 -11t-2 -46l-15 -57h-62q-40 0 -50.5 9.5t-1.5 46.5z" />
    <glyph glyph-name="uni0178" unicode="&#x178;" 
d="M365 70q-3 -14 -5.5 -23.5t-1.5 -15.5q1 -7 6 -11.5t13 -6.5t7 -8q-1 -4 -6 -4.5t-19 -0.5h-84q-44 0 -67 4.5t-31.5 15.5t-5 30t11.5 49l38 162q9 35 12 56q2 11 4 19q-2 8 -4 20q-2 10 -5.5 24t-8.5 33l-93 355q-7 30 -12.5 39.5t-22.5 15.5q-8 4 -6.5 8.5t12.5 4.5h90
h26q32 0 49.5 -2t27.5 -12t15 -30.5t13 -57.5l53 -236l138 224q2 2 6.5 11t9.5 18q6 11 14 25q11 23 9.5 34t-16.5 19q-3 3 2.5 5t16.5 2h79q49 0 73 -3t29 -13.5t-6.5 -31.5t-35.5 -58l-224 -346q-12 -19 -20.5 -33.5t-13.5 -24.5q-7 -11 -11 -19q-2 -9 -4 -19
q-2 -8 -4.5 -19.5t-5.5 -25.5zM552 1127l-12 -54q-3 -14 -5 -21.5t-6.5 -12.5t-13 -9.5t-25.5 -12.5l-152 -69h-49l12 43l198 136h53z" />
    <glyph glyph-name="uni2044" unicode="&#x2044;" 
d="M362 70q-3 -14 -5.5 -23.5t-1.5 -15.5q1 -7 6 -11.5t13 -6.5t6 -8q-1 -4 -5.5 -4.5t-18.5 -0.5h-84q-44 0 -67 4.5t-31.5 15.5t-5 30t11.5 49l38 162q9 35 12 56q2 11 4 19q-2 8 -4 20q-2 10 -5.5 24t-8.5 33l-93 355q-4 15 -6.5 24.5t-6 15t-9 9t-14.5 6.5q-8 4 -6 8.5
t13 4.5h90h26q32 0 49.5 -2t27.5 -12t15 -30.5t13 -57.5l53 -236l138 224q2 2 6.5 11t9.5 18q6 11 14 25q11 23 9.5 34t-16.5 19q-3 3 2.5 5t16.5 2h79q49 0 73 -3t29 -13.5t-6.5 -31.5t-35.5 -58l-224 -346q-12 -19 -20.5 -33.5t-13.5 -24.5q-7 -11 -11 -19q-2 -9 -4 -19
q-2 -8 -4.5 -19.5t-5.5 -25.5zM314 1082h74q32 0 39 -11t-2 -46l-15 -57h-62q-40 0 -50.5 10t-1.5 46zM496 1082h74q32 0 39.5 -11t-2.5 -46l-15 -57h-62q-40 0 -50.5 10t-1.5 46z" />
    <glyph glyph-name="uni00B7" unicode="&#xb7;" horiz-adv-x="167" 
d="M-30 0h70l-15 -53q8 -2 16.5 -4t13.5 -4q10 -5 14 -8t9 -15q3 -8 2 -20t-4 -24.5t-7.5 -25t-10.5 -19.5q-14 -19 -36.5 -23t-55.5 -4h-38h-18q-11 0 -13 2t0 12l8 35h48q22 0 30.5 2.5t16.5 14.5q3 5 5.5 14.5t0.5 14.5q-3 11 -9.5 13.5t-23.5 2.5h-33z" />
    <glyph glyph-name="uni00C2" unicode="&#xc2;" horiz-adv-x="781" 
d="M358 830q1 3 5 5q2 1 5 1h164h48q24 0 36 -1.5t17 -6.5q6 -7 8.5 -24.5t2.5 -65.5v-673q0 -25 5 -34t17 -18q1 -1 1 -3q2 -2 1 -5q0 -1 -3 -4q-2 0 -3 -1h-89h-50q-19 0 -29 1.5t-16 7.5q-8 8 -9.5 30.5t-1.5 67.5v100h-267q-20 -34 -36 -63q-14 -24 -27 -46t-16 -29
q-12 -22 -9 -32q0 -11 7 -14.5t19 -8.5q1 -1 2 -3q3 -2 2 -6q0 -4 -6 -4q-2 -1 -5 -1h-147h-19q-13 0 -23 1.5t-15 7.5q-7 9 -1.5 20t24.5 42l402 665q14 23 19.5 32t7.5 13q8 14 5.5 21t-20.5 18q-7 4 -6 10zM274 333h193v352zM458 1099h120l82 -117l-2 -22
q-2 -17 -4.5 -20.5t-16.5 -3.5h-22l-102 76l-127 -76h-19q-9 0 -12.5 1t-2.5 9l4 15z" />
    <glyph glyph-name="uni00CA" unicode="&#xca;" 
d="M140 831q1 5 21 5h517l-24 -98q-2 -9 -6.5 -15t-16.5 -9.5t-33.5 -5.5t-58.5 -2h-205l-44 -181h294l-23 -97q-7 -28 -34 -34t-60 -6h-13h-83q-34 0 -56.5 -2t-38 -13t-25.5 -35t-21 -69l-31 -128h219h18q27 0 49 5t48 30q1 2 3 3q4 4 6 4q4 1 8 -3q1 -2 1 -4l-13 -56
q-9 -38 -15.5 -61.5t-18 -36.5t-31.5 -17.5t-55 -4.5h-335h-36q-28 0 -41 2t-17 10q-5 11 -0.5 35.5t9.5 44.5l161 672q8 37 7 42q-2 7 -8 11t-12 6q-7 2 -6 8zM395 1103h120l82 -117l-2 -22q-2 -17 -4.5 -20.5t-16.5 -3.5h-22l-102 76l-128 -76h-18q-9 0 -12.5 1t-2.5 9
l4 15z" />
    <glyph glyph-name="uni00C1" unicode="&#xc1;" horiz-adv-x="781" 
d="M365 830q1 3 5 5q2 1 5 1h164h48q24 0 36 -1.5t17 -6.5q6 -7 8.5 -24.5t2.5 -65.5v-673q0 -25 5 -34t17 -18q1 -1 2 -3q2 -2 0 -5q0 -1 -3 -4q-2 0 -3 -1h-89h-50q-19 0 -29 1.5t-16 7.5q-8 8 -9.5 30.5t-1.5 67.5v100h-266q-20 -34 -37 -63q-14 -24 -27 -46t-16 -29
q-12 -22 -9 -32q0 -11 7 -14.5t19 -8.5q2 -1 3 -3q3 -3 2 -6q0 -4 -6 -4q-3 -1 -6 -1h-147h-19q-13 0 -23 1.5t-15 7.5q-7 9 -1.5 20t24.5 42l402 665q14 23 20 32t8 13q7 14 4.5 21t-20.5 18q-7 4 -6 10zM281 333h193v352zM617 1111l-12 -54q-3 -15 -5 -22.5t-6.5 -12.5
t-13 -9l-25.5 -12l-152 -69h-49l12 43l199 136h52z" />
    <glyph glyph-name="uni00CB" unicode="&#xcb;" 
d="M140 831q1 5 21 5h517l-24 -98q-2 -9 -6.5 -15t-16.5 -9.5t-33.5 -5.5t-58.5 -2h-205l-44 -181h294l-23 -97q-7 -28 -34 -34t-60 -6h-13h-83q-34 0 -56.5 -2t-38 -13t-25.5 -35t-21 -69l-31 -128h219h18q27 0 49 5t48 30q1 2 3 3q4 4 6 4q4 1 8 -3q1 -2 1 -4l-13 -56
q-9 -38 -15.5 -61.5t-18 -36.5t-31.5 -17.5t-55 -4.5h-335h-36q-28 0 -41 2t-17 10q-5 11 -0.5 35.5t9.5 44.5l161 672q8 37 7 42q-2 7 -8 11t-12 6q-7 2 -6 8zM341 1095h73q32 0 39.5 -11t-1.5 -46l-16 -57h-62q-40 0 -50.5 9.5t-1.5 46.5zM523 1095h73q32 0 39.5 -11
t-1.5 -46l-15 -57h-63q-39 0 -50 9.5t-1 46.5z" />
    <glyph glyph-name="uni00C8" unicode="&#xc8;" 
d="M140 831q1 5 21 5h517l-24 -98q-2 -9 -6.5 -15t-16.5 -9.5t-33.5 -5.5t-58.5 -2h-205l-44 -181h294l-23 -97q-7 -28 -34 -34t-60 -6h-13h-83q-34 0 -56.5 -2t-38 -13t-25.5 -35t-21 -69l-31 -128h219h18q27 0 49 5t48 30q1 2 3 3q4 4 6 4q4 1 8 -3q1 -2 1 -4l-13 -56
q-9 -38 -15.5 -61.5t-18 -36.5t-31.5 -17.5t-55 -4.5h-335h-36q-28 0 -41 2t-17 10q-5 11 -0.5 35.5t9.5 44.5l161 672q8 37 7 42q-2 7 -8 11t-12 6q-7 2 -6 8zM367 1113h56l171 -122l-14 -55h-26l-166 73q-19 9 -29 14t-13 11t-1 14t7 22z" />
    <glyph glyph-name="uni00CD" unicode="&#xcd;" horiz-adv-x="353" 
d="M179 70q-3 -14 -5.5 -23.5t-1.5 -15.5q1 -7 6 -11.5t13 -6.5t6 -8q-1 -4 -5.5 -4.5t-18.5 -0.5h-84q-45 0 -68 1.5t-31.5 11t-5 29.5t12.5 57l159 667q2 8 5.5 20.5t1.5 19.5q-3 12 -20 17q-8 2 -6 8q1 4 5.5 4.5t19.5 0.5h84h7q41 0 62.5 -1.5t29.5 -11t5 -29.5t-12 -56
zM393 1107l-13 -54q-3 -15 -5 -22.5t-6 -12.5t-12.5 -9l-25.5 -12l-153 -69h-49l12 42l199 137h53z" />
    <glyph glyph-name="uni00CE" unicode="&#xce;" horiz-adv-x="353" 
d="M179 70q-3 -14 -5.5 -23.5t-1.5 -15.5q1 -7 6 -11.5t13 -6.5t6 -8q-1 -4 -5.5 -4.5t-18.5 -0.5h-84q-45 0 -68 1.5t-31.5 11t-5 29.5t12.5 57l159 667q2 8 5.5 20.5t1.5 19.5q-3 12 -20 17q-8 2 -6 8q1 4 5.5 4.5t19.5 0.5h84h7q41 0 62.5 -1.5t29.5 -11t5 -29.5t-12 -56
zM208 1082h120l82 -117l-2 -21q-2 -17 -4.5 -20.5t-16.5 -3.5h-22l-103 76l-127 -76h-18q-9 0 -12.5 1t-2.5 9l4 15z" />
    <glyph glyph-name="uni00CF" unicode="&#xcf;" horiz-adv-x="353" 
d="M179 70q-3 -14 -5.5 -23.5t-1.5 -15.5q1 -7 6 -11.5t13 -6.5t6 -8q-1 -4 -5.5 -4.5t-18.5 -0.5h-84q-45 0 -68 1.5t-31.5 11t-5 29.5t12.5 57l159 667q2 8 5.5 20.5t1.5 19.5q-3 12 -20 17q-8 2 -6 8q1 4 5.5 4.5t19.5 0.5h84h7q41 0 62.5 -1.5t29.5 -11t5 -29.5t-12 -56
zM107 1056h73q32 0 39.5 -11t-1.5 -46l-16 -57h-62q-40 0 -50.5 9.5t-0.5 46.5zM289 1056h73q32 0 39.5 -11t-1.5 -46l-15 -57h-63q-39 0 -50 9.5t-1 46.5z" />
    <glyph glyph-name="uni00CC" unicode="&#xcc;" horiz-adv-x="353" 
d="M179 70q-3 -14 -5.5 -23.5t-1.5 -15.5q1 -7 6 -11.5t13 -6.5t6 -8q-1 -4 -5.5 -4.5t-18.5 -0.5h-84q-45 0 -68 1.5t-31.5 11t-5 29.5t12.5 57l159 667q2 8 5.5 20.5t1.5 19.5q-3 12 -20 17q-8 2 -6 8q1 4 5.5 4.5t19.5 0.5h84h7q41 0 62.5 -1.5t29.5 -11t5 -29.5t-12 -56
zM172 1097h56l171 -122l-14 -55h-26l-167 73q-19 8 -29 13.5t-13 11t-1 14t8 22.5z" />
    <glyph glyph-name="uni00D3" unicode="&#xd3;" horiz-adv-x="789" 
d="M311 831q18 6 40.5 10t46 7t46.5 4t42 1q30 0 62.5 -3.5t64 -12.5t60.5 -25t50 -41q28 -31 38.5 -71t10 -85.5t-8.5 -94.5t-17 -99q-4 -21 -8 -37t-11 -36q-28 -93 -58.5 -161.5t-75.5 -113.5t-111 -67t-165 -22q-31 0 -64 3t-64 10.5t-58 19.5t-46 31q-36 35 -50.5 77.5
t-15.5 90.5t8 100.5t21 107.5l7 31.5t8 30.5q18 60 36.5 114t45.5 99t66.5 79t99.5 53zM417 706q-39 -9 -64.5 -33t-43.5 -57.5t-30.5 -74t-24.5 -82.5q-4 -15 -7 -26.5l-6 -23l-6 -23t-6 -25.5q-7 -29 -13 -58.5t-6.5 -56.5t7 -51t26.5 -42q16 -16 39.5 -21.5t46.5 -5.5
q26 0 46 5q38 11 63 32.5t41.5 51t28 65.5t23.5 75q5 16 8.5 29.5t6.5 26t6 26t6 30.5q7 31 12.5 61.5t6.5 58t-6 51.5t-25 42q-17 17 -43 23t-49 6t-37 -3zM565 1119l-13 -54q-3 -15 -5 -22.5t-6 -12.5t-12.5 -9l-25.5 -12l-153 -69h-49l12 43l199 136h53z" />
    <glyph glyph-name="uni00D4" unicode="&#xd4;" horiz-adv-x="789" 
d="M308 831q37 12 86 17t89 5q30 0 62.5 -3.5t64 -12.5t60.5 -25t50 -41q27 -31 37.5 -71t10.5 -85.5t-8 -94.5t-17 -99q-4 -21 -8.5 -37t-10.5 -36q-29 -93 -59 -161.5t-75 -113.5t-110.5 -67t-165.5 -22q-31 0 -64 3t-64 10.5t-58 19.5t-46 31q-36 35 -50.5 77.5
t-15.5 90.5t8 100.5t21 107.5l7 31.5t8 30.5q18 60 36.5 114t45.5 99t66.5 79t99.5 53zM414 706q-39 -9 -64.5 -33t-43.5 -57.5t-30.5 -74t-24.5 -82.5q-4 -15 -7 -26.5l-6 -23l-6 -23t-6 -25.5q-7 -29 -13 -58.5t-6.5 -56.5t7 -51t26.5 -42q16 -16 39.5 -21.5t46.5 -5.5
q26 0 46 5q38 11 63 32.5t41.5 51t28 65.5t23.5 75q5 16 8.5 29.5t6.5 26t6 26t6 30.5q7 31 12.5 61.5t6.5 58t-6 51.5t-25 42q-17 17 -43 23t-49 6t-37 -3zM442 1103h120l82 -117l-2 -22q-2 -17 -4.5 -20.5t-16.5 -3.5h-22l-103 76l-127 -76h-18q-9 0 -12.5 1t-2.5 9l4 15z
" />
    <glyph glyph-name="uni00D2" unicode="&#xd2;" horiz-adv-x="789" 
d="M306 831q37 12 86 17t89 5q30 0 62.5 -3.5t64 -12.5t60.5 -25t50 -41q27 -31 37.5 -71t10.5 -85.5t-8 -94.5t-17 -99q-4 -21 -8.5 -37t-10.5 -36q-29 -93 -59 -161.5t-75 -113.5t-110.5 -67t-165.5 -22q-31 0 -64 3t-64 10.5t-58 19.5t-46 31q-36 35 -50.5 77.5
t-15.5 90.5t8 100.5t21 107.5l7 31.5t8 30.5q18 60 36.5 114t45.5 99t66.5 79t99.5 53zM412 706q-39 -9 -64.5 -33t-43.5 -57.5t-30.5 -74t-24.5 -82.5q-4 -15 -7 -26.5l-6 -23l-6 -23t-6 -25.5q-7 -29 -13 -58.5t-6.5 -56.5t7 -51t26.5 -42q16 -16 39.5 -21.5t46.5 -5.5
q26 0 46 5q38 11 63 32.5t41.5 51t28 65.5t23.5 75q5 16 8.5 29.5t6.5 26t6 26t6 30.5q7 31 12.5 61.5t6.5 58t-6 51.5t-25 42q-17 17 -43 23t-49 6t-37 -3zM404 1117h56l171 -122l-15 -55h-25l-167 73q-19 9 -29 14t-13 11t-1 14t8 22z" />
    <glyph glyph-name="uni00DA" unicode="&#xda;" horiz-adv-x="786" 
d="M652 232q-9 -40 -19.5 -75.5t-29.5 -65t-49 -52t-78 -36.5q-13 -4 -33 -7.5t-44.5 -6t-52.5 -4t-57 -1.5q-33 0 -65.5 2.5t-62 8.5t-53.5 15.5t-39 24.5q-24 23 -34 47t-10.5 49t5.5 51.5t13 56.5l126 527q2 8 5.5 20.5t1.5 19.5q-3 12 -19 17q-8 2 -6 8q1 4 5.5 4.5
t18.5 0.5h84q43 0 66 -1.5t31.5 -10.5t5.5 -29t-11 -57l-107 -451q-4 -19 -9 -38t-6.5 -35.5t1 -30t12.5 -21.5q11 -11 35.5 -15t50.5 -4q22 0 40 2t28 5q20 6 31.5 15t19 25t14 40.5t15.5 61.5l114 474q2 8 5.5 20.5t1.5 19.5q-3 12 -19 17q-8 2 -6 8q1 4 5.5 4.5t18.5 0.5
h85q43 0 66 -1.5t31.5 -10.5t5.5 -29t-12 -57zM632 1123l-12 -54q-3 -14 -5 -21.5t-6.5 -12.5t-13 -9.5t-25.5 -12.5l-153 -69h-49l12 43l199 136h53z" />
    <glyph glyph-name="uni00DB" unicode="&#xdb;" horiz-adv-x="786" 
d="M652 232q-9 -40 -19.5 -75.5t-29.5 -65t-49 -52t-78 -36.5q-13 -4 -33 -7.5t-44.5 -6t-52.5 -4t-57 -1.5q-33 0 -65.5 2.5t-62 8.5t-53.5 15.5t-39 24.5q-24 23 -34 47t-10.5 49t5.5 51.5t13 56.5l126 527q2 8 5.5 20.5t1.5 19.5q-3 12 -19 17q-8 2 -6 8q1 4 5.5 4.5
t18.5 0.5h84q43 0 66 -1.5t31.5 -10.5t5.5 -29t-11 -57l-107 -451q-4 -19 -9 -38t-6.5 -35.5t1 -30t12.5 -21.5q11 -11 35.5 -15t50.5 -4q22 0 40 2t28 5q20 6 31.5 15t19 25t14 40.5t15.5 61.5l114 474q2 8 5.5 20.5t1.5 19.5q-3 12 -19 17q-8 2 -6 8q1 4 5.5 4.5t18.5 0.5
h85q43 0 66 -1.5t31.5 -10.5t5.5 -29t-12 -57zM406 1127h120l82 -117l-2 -21q-2 -18 -4.5 -21.5t-16.5 -3.5h-21l-103 77l-127 -77h-19q-9 0 -12.5 1.5t-2.5 9.5l4 15z" />
    <glyph glyph-name="uni00D9" unicode="&#xd9;" horiz-adv-x="786" 
d="M649 232q-9 -40 -19.5 -75.5t-29.5 -65t-49 -52t-78 -36.5q-13 -4 -33 -7.5t-44.5 -6t-52.5 -4t-57 -1.5q-33 0 -65.5 2.5t-62 8.5t-53.5 15.5t-39 24.5q-24 23 -34 47t-10.5 49t5.5 51.5t13 56.5l126 527q2 8 5.5 20.5t1.5 19.5q-3 12 -19 17q-3 1 -5.5 3t-0.5 5
q1 4 5.5 4.5t18.5 0.5h84q43 0 66 -1.5t31.5 -10.5t5.5 -29t-11 -57l-107 -451q-4 -19 -9 -38t-6.5 -35.5t1 -30t12.5 -21.5q11 -11 35.5 -15t50.5 -4q22 0 40 2t28 5q20 6 31.5 15t19 25t14 40.5t15.5 61.5l114 474q2 8 5.5 20.5t1.5 19.5q-3 12 -19 17q-8 2 -6 8
q1 4 5.5 4.5t18.5 0.5h85q43 0 65.5 -1.5t31 -10.5t5.5 -29t-11 -57zM408 1129h56l171 -122l-14 -55h-26l-167 73q-19 9 -29 14t-13 11t-1 14t8 22z" />
    <glyph glyph-name="uni0131" unicode="&#x131;" horiz-adv-x="337" 
d="M160 69q-4 -18 -5.5 -28t0 -16t6 -9t12.5 -6q5 -2 5.5 -5.5t-6.5 -4.5h-93q-42 0 -63.5 4t-28.5 14.5t-3.5 30.5t10.5 53l121 500q8 32 6 42.5t-19 16.5q-5 2 -5.5 6t6.5 5h92q42 0 64 -2t30 -12t4.5 -30.5t-12.5 -57.5z" />
    <glyph glyph-name="uni02C6" unicode="&#x2c6;" horiz-adv-x="442" 
d="M235 907h120l82 -117l-2 -21q-2 -17 -4.5 -20.5t-16.5 -3.5h-21l-103 76l-127 -76h-19q-9 0 -12.5 1t-2.5 9l4 15z" />
    <glyph glyph-name="uni02DC" unicode="&#x2dc;" horiz-adv-x="362" 
d="M369 826q19 3 26.5 6.5t13 7t13.5 5.5t26 2q7 0 3 -10l-3 -11l-6 -24q-4 -13 -6 -22t-19 -20q-12 -8 -30 -11t-39 -3q-23 0 -47.5 4t-49.5 12l-20 6q-28 9 -53 9h-11t-12 -2q-8 -2 -20 -7t-20 -8q-9 -3 -15.5 -4.5t-23.5 -1.5q-5 -1 -5 2.5t2 7.5l3 12q3 15 5 23
q4 14 9.5 23.5t16.5 17.5q29 17 72 17t92 -17l22 -7q32 -9 53 -9q6 0 12 0.5t11 1.5z" />
    <glyph glyph-name="uni02DA" unicode="&#x2da;" horiz-adv-x="211" 
d="M115 925q8 6 18.5 11.5t22.5 8.5q12 4 29 4q19 0 38 -6t35 -20q23 -20 33.5 -47t7.5 -51q-3 -22 -13 -40.5t-25.5 -32t-35 -21.5t-41.5 -8q-44 0 -76 28.5t-36 73.5q-2 23 7 50.5t36 49.5zM171 867q-22 -12 -21 -30t17 -29q8 -5 21 -5q7 0 11 2q9 4 14.5 12t6.5 17
q1 10 -4.5 18.5t-13.5 13.5q-6 5 -16 5q-8 0 -15 -4z" />
  </font>
</defs>
</svg>
